  0
SECTION
  2
HEADER
  9
$ACADVER
  1
AC1015
  9
$ACADMAINTVER
 70
    20
  9
$DWGCODEPAGE
  3
ANSI_1250
  9
$INSBASE
 10
0.0
 20
0.0
 30
0.0
  9
$EXTMIN
 10
0.0
 20
0.0
 30
0.0
  9
$EXTMAX
 10
334.35177409209
 20
297.0
 30
0.0
  9
$LIMMIN
 10
0.0
 20
0.0
  9
$LIMMAX
 10
334.35177409209
 20
297.0
  9
$ORTHOMODE
 70
     0
  9
$REGENMODE
 70
     1
  9
$FILLMODE
 70
     1
  9
$QTEXTMODE
 70
     0
  9
$MIRRTEXT
 70
     0
  9
$LTSCALE
 40
1.0
  9
$ATTMODE
 70
     2
  9
$TEXTSIZE
 40
5.0
  9
$TRACEWID
 40
1.0
  9
$TEXTSTYLE
  7
Solbet_5
  9
$CLAYER
  8
SOLBET_Ramka_05
  9
$CELTYPE
  6
ByLayer
  9
$CECOLOR
 62
   256
  9
$CELTSCALE
 40
1.0
  9
$DISPSILH
 70
     0
  9
$DIMSCALE
 40
1.0
  9
$DIMASZ
 40
2.5
  9
$DIMEXO
 40
0.0
  9
$DIMDLI
 40
3.75
  9
$DIMRND
 40
0.0
  9
$DIMDLE
 40
0.0
  9
$DIMEXE
 40
1.25
  9
$DIMTP
 40
0.0
  9
$DIMTM
 40
0.0
  9
$DIMTXT
 40
2.5
  9
$DIMCEN
 40
2.5
  9
$DIMTSZ
 40
0.0
  9
$DIMTOL
 70
     0
  9
$DIMLIM
 70
     0
  9
$DIMTIH
 70
     0
  9
$DIMTOH
 70
     0
  9
$DIMSE1
 70
     0
  9
$DIMSE2
 70
     0
  9
$DIMTAD
 70
     1
  9
$DIMZIN
 70
     8
  9
$DIMBLK
  1

  9
$DIMASO
 70
     1
  9
$DIMSHO
 70
     1
  9
$DIMPOST
  1

  9
$DIMAPOST
  1

  9
$DIMALT
 70
     0
  9
$DIMALTD
 70
     3
  9
$DIMALTF
 40
0.03937007874016
  9
$DIMLFAC
 40
1.0
  9
$DIMTOFL
 70
     1
  9
$DIMTVP
 40
0.0
  9
$DIMTIX
 70
     0
  9
$DIMSOXD
 70
     0
  9
$DIMSAH
 70
     0
  9
$DIMBLK1
  1

  9
$DIMBLK2
  1

  9
$DIMSTYLE
  2
Solbet
  9
$DIMCLRD
 70
     0
  9
$DIMCLRE
 70
     0
  9
$DIMCLRT
 70
     0
  9
$DIMTFAC
 40
1.0
  9
$DIMGAP
 40
0.625
  9
$DIMJUST
 70
     0
  9
$DIMSD1
 70
     0
  9
$DIMSD2
 70
     0
  9
$DIMTOLJ
 70
     0
  9
$DIMTZIN
 70
     8
  9
$DIMALTZ
 70
     0
  9
$DIMALTTZ
 70
     0
  9
$DIMUPT
 70
     0
  9
$DIMDEC
 70
     2
  9
$DIMTDEC
 70
     2
  9
$DIMALTU
 70
     2
  9
$DIMALTTD
 70
     3
  9
$DIMTXSTY
  7
Solbet_2_5
  9
$DIMAUNIT
 70
     0
  9
$DIMADEC
 70
     0
  9
$DIMALTRND
 40
0.0
  9
$DIMAZIN
 70
     0
  9
$DIMDSEP
 70
    44
  9
$DIMATFIT
 70
     3
  9
$DIMFRAC
 70
     0
  9
$DIMLDRBLK
  1

  9
$DIMLUNIT
 70
     2
  9
$DIMLWD
 70
    -2
  9
$DIMLWE
 70
    -2
  9
$DIMTMOVE
 70
     0
  9
$LUNITS
 70
     2
  9
$LUPREC
 70
     4
  9
$SKETCHINC
 40
1.0
  9
$FILLETRAD
 40
0.0
  9
$AUNITS
 70
     0
  9
$AUPREC
 70
     0
  9
$MENU
  1
.
  9
$ELEVATION
 40
0.0
  9
$PELEVATION
 40
0.0
  9
$THICKNESS
 40
0.0
  9
$LIMCHECK
 70
     0
  9
$CHAMFERA
 40
0.0
  9
$CHAMFERB
 40
0.0
  9
$CHAMFERC
 40
0.0
  9
$CHAMFERD
 40
0.0
  9
$SKPOLY
 70
     0
  9
$TDCREATE
 40
2454690.075573148
  9
$TDUCREATE
 40
2454690.033906482
  9
$TDUPDATE
 40
2454849.480148218
  9
$TDUUPDATE
 40
2454849.438481551
  9
$TDINDWG
 40
0.5178529861
  9
$TDUSRTIMER
 40
0.5178484606
  9
$USRTIMER
 70
     1
  9
$ANGBASE
 50
0.0
  9
$ANGDIR
 70
     0
  9
$PDMODE
 70
     0
  9
$PDSIZE
 40
0.0
  9
$PLINEWID
 40
0.0
  9
$SPLFRAME
 70
     0
  9
$SPLINETYPE
 70
     6
  9
$SPLINESEGS
 70
     8
  9
$HANDSEED
  5
29F2
  9
$SURFTAB1
 70
     6
  9
$SURFTAB2
 70
     6
  9
$SURFTYPE
 70
     6
  9
$SURFU
 70
     6
  9
$SURFV
 70
     6
  9
$UCSBASE
  2

  9
$UCSNAME
  2

  9
$UCSORG
 10
0.0
 20
0.0
 30
0.0
  9
$UCSXDIR
 10
1.0
 20
0.0
 30
0.0
  9
$UCSYDIR
 10
0.0
 20
1.0
 30
0.0
  9
$UCSORTHOREF
  2

  9
$UCSORTHOVIEW
 70
     0
  9
$UCSORGTOP
 10
0.0
 20
0.0
 30
0.0
  9
$UCSORGBOTTOM
 10
0.0
 20
0.0
 30
0.0
  9
$UCSORGLEFT
 10
0.0
 20
0.0
 30
0.0
  9
$UCSORGRIGHT
 10
0.0
 20
0.0
 30
0.0
  9
$UCSORGFRONT
 10
0.0
 20
0.0
 30
0.0
  9
$UCSORGBACK
 10
0.0
 20
0.0
 30
0.0
  9
$PUCSBASE
  2

  9
$PUCSNAME
  2

  9
$PUCSORG
 10
0.0
 20
0.0
 30
0.0
  9
$PUCSXDIR
 10
1.0
 20
0.0
 30
0.0
  9
$PUCSYDIR
 10
0.0
 20
1.0
 30
0.0
  9
$PUCSORTHOREF
  2

  9
$PUCSORTHOVIEW
 70
     0
  9
$PUCSORGTOP
 10
0.0
 20
0.0
 30
0.0
  9
$PUCSORGBOTTOM
 10
0.0
 20
0.0
 30
0.0
  9
$PUCSORGLEFT
 10
0.0
 20
0.0
 30
0.0
  9
$PUCSORGRIGHT
 10
0.0
 20
0.0
 30
0.0
  9
$PUCSORGFRONT
 10
0.0
 20
0.0
 30
0.0
  9
$PUCSORGBACK
 10
0.0
 20
0.0
 30
0.0
  9
$USERI1
 70
     0
  9
$USERI2
 70
     0
  9
$USERI3
 70
     0
  9
$USERI4
 70
     0
  9
$USERI5
 70
     0
  9
$USERR1
 40
0.0
  9
$USERR2
 40
0.0
  9
$USERR3
 40
0.0
  9
$USERR4
 40
0.0
  9
$USERR5
 40
0.0
  9
$WORLDVIEW
 70
     1
  9
$SHADEDGE
 70
     3
  9
$SHADEDIF
 70
    70
  9
$TILEMODE
 70
     1
  9
$MAXACTVP
 70
    64
  9
$PINSBASE
 10
0.0
 20
0.0
 30
0.0
  9
$PLIMCHECK
 70
     0
  9
$PEXTMIN
 10
0.0
 20
0.0
 30
0.0
  9
$PEXTMAX
 10
0.0
 20
0.0
 30
0.0
  9
$PLIMMIN
 10
0.0
 20
0.0
  9
$PLIMMAX
 10
12.0
 20
9.0
  9
$UNITMODE
 70
     0
  9
$VISRETAIN
 70
     1
  9
$PLINEGEN
 70
     0
  9
$PSLTSCALE
 70
     1
  9
$TREEDEPTH
 70
  3020
  9
$CMLSTYLE
  2
SOLBET_IZOLACJA
  9
$CMLJUST
 70
     0
  9
$CMLSCALE
 40
20.0
  9
$PROXYGRAPHICS
 70
     1
  9
$MEASUREMENT
 70
     1
  9
$CELWEIGHT
370
    -1
  9
$ENDCAPS
280
     0
  9
$JOINSTYLE
280
     0
  9
$LWDISPLAY
290
     1
  9
$INSUNITS
 70
     4
  9
$HYPERLINKBASE
  1

  9
$STYLESHEET
  1

  9
$XEDIT
290
     1
  9
$CEPSNTYPE
380
     0
  9
$PSTYLEMODE
290
     1
  9
$FINGERPRINTGUID
  2
{6B12AB33-8E39-428E-8E85-461C8D99A3CB}
  9
$VERSIONGUID
  2
{D5787B50-6115-49C4-882E-98483C3D2A50}
  9
$EXTNAMES
290
     1
  9
$PSVPSCALE
 40
0.0
  9
$OLESTARTUP
290
     0
  0
ENDSEC
  0
SECTION
  2
CLASSES
  0
CLASS
  1
ACDBDICTIONARYWDFLT
  2
AcDbDictionaryWithDefault
  3
ObjectDBX Classes
 90
        0
280
     0
281
     0
  0
CLASS
  1
ACDBPLACEHOLDER
  2
AcDbPlaceHolder
  3
ObjectDBX Classes
 90
        0
280
     0
281
     0
  0
CLASS
  1
LAYOUT
  2
AcDbLayout
  3
ObjectDBX Classes
 90
        0
280
     0
281
     0
  0
CLASS
  1
DICTIONARYVAR
  2
AcDbDictionaryVar
  3
ObjectDBX Classes
 90
        0
280
     0
281
     0
  0
CLASS
  1
TABLESTYLE
  2
AcDbTableStyle
  3
ObjectDBX Classes
 90
     4095
280
     0
281
     0
  0
CLASS
  1
MATERIAL
  2
AcDbMaterial
  3
ObjectDBX Classes
 90
     1024
280
     0
281
     0
  0
CLASS
  1
VISUALSTYLE
  2
AcDbVisualStyle
  3
ObjectDBX Classes
 90
     4095
280
     0
281
     0
  0
CLASS
  1
SCALE
  2
AcDbScale
  3
ObjectDBX Classes
 90
     1153
280
     0
281
     0
  0
CLASS
  1
MLEADERSTYLE
  2
AcDbMLeaderStyle
  3
ACDB_MLEADERSTYLE_CLASS
 90
     4095
280
     0
281
     0
  0
CLASS
  1
CELLSTYLEMAP
  2
AcDbCellStyleMap
  3
ObjectDBX Classes
 90
     1152
280
     0
281
     0
  0
CLASS
  1
DIMASSOC
  2
AcDbDimAssoc
  3
"AcDbDimAssoc|Product Desc:     AcDim ARX App For Dimension|Company:          Autodesk, Inc.|WEB Address:      www.autodesk.com"
 90
        0
280
     0
281
     0
  0
CLASS
  1
SORTENTSTABLE
  2
AcDbSortentsTable
  3
ObjectDBX Classes
 90
        0
280
     0
281
     0
  0
CLASS
  1
MULTILEADER
  2
AcDbMLeader
  3
ACDB_MLEADER_CLASS
 90
    33793
280
     0
281
     1
  0
CLASS
  1
ACDB_MTEXTOBJECTCONTEXTDATA_CLASS
  2
AcDbMTextObjectContextData
  3
ObjectDBX Classes
 90
    33921
280
     0
281
     0
  0
ENDSEC
  0
SECTION
  2
TABLES
  0
TABLE
  2
VPORT
  5
8
102
{ACAD_XDICTIONARY
360
443
102
}
330
0
100
AcDbSymbolTable
 70
     1
  0
VPORT
  5
EA
330
8
100
AcDbSymbolTableRecord
100
AcDbViewportTableRecord
  2
*Active
 70
     0
 10
0.0
 20
0.0
 11
1.0
 21
1.0
 12
167.1631352630118
 22
149.0458581295345
 13
0.0
 23
0.0
 14
10.0
 24
10.0
 15
10.0
 25
10.0
 16
0.0
 26
0.0
 36
1.0
 17
0.0
 27
0.0
 37
0.0
 40
301.4372796937744
 41
1.739371534195933
 42
50.0
 43
0.0
 44
0.0
 50
0.0
 51
0.0
 71
     0
 72
  1000
 73
     1
 74
     3
 75
     0
 76
     0
 77
     0
 78
     0
281
     0
 65
     1
110
0.0
120
0.0
130
0.0
111
1.0
121
0.0
131
0.0
112
0.0
122
1.0
132
0.0
 79
     0
146
0.0
  0
ENDTAB
  0
TABLE
  2
LTYPE
  5
5
330
0
100
AcDbSymbolTable
 70
     3
  0
LTYPE
  5
14
330
5
100
AcDbSymbolTableRecord
100
AcDbLinetypeTableRecord
  2
ByBlock
 70
     0
  3

 72
    65
 73
     0
 40
0.0
  0
LTYPE
  5
15
330
5
100
AcDbSymbolTableRecord
100
AcDbLinetypeTableRecord
  2
ByLayer
 70
     0
  3

 72
    65
 73
     0
 40
0.0
  0
LTYPE
  5
16
330
5
100
AcDbSymbolTableRecord
100
AcDbLinetypeTableRecord
  2
Continuous
 70
     0
  3
Solid line
 72
    65
 73
     0
 40
0.0
  0
LTYPE
  5
973
330
5
100
AcDbSymbolTableRecord
100
AcDbLinetypeTableRecord
  2
DASHED2
 70
     0
  3
Dashed (.5x) _ _ _ _ _ _ _ _ _ _ _ _ _ _ _ _ _
 72
    65
 73
     2
 40
9.524999999999998
 49
6.349999999999999
 74
     0
 49
-3.174999999999999
 74
     0
  0
LTYPE
  5
982
330
5
100
AcDbSymbolTableRecord
100
AcDbLinetypeTableRecord
  2
BATTING
 70
     0
  3
Batting SSSSSSSSSSSSSSSSSSSSSSSSSSSSSSSSSSSSSSSSSSSSSSS
 72
    65
 73
     4
 40
10.16254
 49
0.00254
 74
     0
 49
-2.54
 74
     4
 75
   134
340
7E7
 46
2.54
 50
0.0
 44
-2.54
 45
0.0
 49
-5.08
 74
     4
 75
   134
340
7E7
 46
2.54
 50
180.0
 44
2.54
 45
0.0
 49
-2.54
 74
     0
  0
ENDTAB
  0
TABLE
  2
LAYER
  5
2
102
{ACAD_XDICTIONARY
360
3E5
102
}
330
0
100
AcDbSymbolTable
 70
    12
  0
LAYER
  5
10
102
{ACAD_XDICTIONARY
360
13C
102
}
330
2
100
AcDbSymbolTableRecord
100
AcDbLayerTableRecord
  2
0
 70
     0
 62
     7
  6
Continuous
370
    -3
390
F
  0
LAYER
  5
2BB
330
2
100
AcDbSymbolTableRecord
100
AcDbLayerTableRecord
  2
DEFPOINTS
 70
     0
 62
     7
  6
Continuous
290
     0
370
    -3
390
F
  0
LAYER
  5
3DD
102
{ACAD_XDICTIONARY
360
403
102
}
330
2
100
AcDbSymbolTableRecord
100
AcDbLayerTableRecord
  2
SOLBET_Bloczki
 70
     0
 62
   140
  6
Continuous
370
    -3
390
F
1001
AcAecLayerStandard
1000

1000

  0
LAYER
  5
3DF
102
{ACAD_XDICTIONARY
360
405
102
}
330
2
100
AcDbSymbolTableRecord
100
AcDbLayerTableRecord
  2
SOLBET_Wymiary_Opisy
 70
     0
 62
     1
  6
Continuous
370
    -3
390
F
1001
AcAecLayerStandard
1000

1000

  0
LAYER
  5
3E0
102
{ACAD_XDICTIONARY
360
407
102
}
330
2
100
AcDbSymbolTableRecord
100
AcDbLayerTableRecord
  2
SOLBET_Beton
 70
     0
 62
     9
  6
Continuous
370
    -3
390
F
1001
AcAecLayerStandard
1000

1000

  0
LAYER
  5
3E1
102
{ACAD_XDICTIONARY
360
409
102
}
330
2
100
AcDbSymbolTableRecord
100
AcDbLayerTableRecord
  2
SOLBET_Izolacja
 70
     0
 62
    40
  6
Continuous
370
    -3
390
F
1001
AcAecLayerStandard
1000

1000

  0
LAYER
  5
3E2
102
{ACAD_XDICTIONARY
360
40B
102
}
330
2
100
AcDbSymbolTableRecord
100
AcDbLayerTableRecord
  2
SOLBET_Zbrojenie_Konstrukcja
 70
     0
 62
     7
  6
Continuous
370
    -3
390
F
1001
AcAecLayerStandard
1000

1000

  0
LAYER
  5
3E3
102
{ACAD_XDICTIONARY
360
40D
102
}
330
2
100
AcDbSymbolTableRecord
100
AcDbLayerTableRecord
  2
SOLBET_Grunt
 70
     0
 62
    42
  6
Continuous
370
    -3
390
F
1001
AcAecLayerStandard
1000

1000

  0
LAYER
  5
3E4
102
{ACAD_XDICTIONARY
360
40F
102
}
330
2
100
AcDbSymbolTableRecord
100
AcDbLayerTableRecord
  2
SOLBET_Tynki_Posadzki
 70
     0
 62
     3
  6
Continuous
370
    -3
390
F
1001
AcAecLayerStandard
1000

1000

  0
LAYER
  5
3E8
102
{ACAD_XDICTIONARY
360
411
102
}
330
2
100
AcDbSymbolTableRecord
100
AcDbLayerTableRecord
  2
SOLBET_Ramka_05
 70
     0
 62
     2
  6
Continuous
370
    -3
390
F
1001
AcAecLayerStandard
1000

1000

  0
LAYER
  5
472
330
2
100
AcDbSymbolTableRecord
100
AcDbLayerTableRecord
  2
SOLBET_Zaprawy
 70
     0
 62
     4
  6
Continuous
370
    -3
390
F
1001
AcAecLayerStandard
1000

1000

  0
LAYER
  5
4E2
330
2
100
AcDbSymbolTableRecord
100
AcDbLayerTableRecord
  2
SOLBET_Emulsje_Folie
 70
     0
 62
     6
  6
Continuous
370
    -3
390
F
1001
AcAecLayerStandard
1000

1000

  0
ENDTAB
  0
TABLE
  2
STYLE
  5
3
330
0
100
AcDbSymbolTable
 70
     5
  0
STYLE
  5
11
330
3
100
AcDbSymbolTableRecord
100
AcDbTextStyleTableRecord
  2
Standard
 70
     0
 40
0.0
 41
1.0
 50
0.0
 71
     0
 42
2.5
  3
txt.shx
  4

  0
STYLE
  5
7D7
330
3
100
AcDbSymbolTableRecord
100
AcDbTextStyleTableRecord
  2
Solbet_5
 70
     0
 40
5.0
 41
1.0
 50
0.0
 71
     0
 42
5.0
  3
isocpeur.ttf
  4

1001
ACAD
1000
ISOCPEUR
1071
       34
  0
STYLE
  5
7D9
330
3
100
AcDbSymbolTableRecord
100
AcDbTextStyleTableRecord
  2
Solbet_2_5
 70
     0
 40
2.5
 41
1.0
 50
0.0
 71
     0
 42
2.5
  3
isocpeur.ttf
  4

1001
ACAD
1000
ISOCPEUR
1071
       34
  0
STYLE
  5
7E7
330
3
100
AcDbSymbolTableRecord
100
AcDbTextStyleTableRecord
  2

 70
     1
 40
0.0
 41
1.0
 50
0.0
 71
     0
 42
2.5
  3
ltypeshp.shx
  4

  0
STYLE
  5
2088
330
3
100
AcDbSymbolTableRecord
100
AcDbTextStyleTableRecord
  2
Solbet_1
 70
     0
 40
1.0
 41
1.0
 50
0.0
 71
     0
 42
2.5
  3
isocpeur.ttf
  4

1001
ACAD
1000
ISOCPEUR
1071
       34
  0
ENDTAB
  0
TABLE
  2
VIEW
  5
6
330
0
100
AcDbSymbolTable
 70
     0
  0
ENDTAB
  0
TABLE
  2
UCS
  5
7
330
0
100
AcDbSymbolTable
 70
     0
  0
ENDTAB
  0
TABLE
  2
APPID
  5
9
330
0
100
AcDbSymbolTable
 70
    13
  0
APPID
  5
12
330
9
100
AcDbSymbolTableRecord
100
AcDbRegAppTableRecord
  2
ACAD
 70
     0
  0
APPID
  5
9E
330
9
100
AcDbSymbolTableRecord
100
AcDbRegAppTableRecord
  2
ACAD_PSEXT
 70
     0
  0
APPID
  5
133
330
9
100
AcDbSymbolTableRecord
100
AcDbRegAppTableRecord
  2
AcadAnnoPO
 70
     0
  0
APPID
  5
134
330
9
100
AcDbSymbolTableRecord
100
AcDbRegAppTableRecord
  2
AcadAnnotative
 70
     0
  0
APPID
  5
135
330
9
100
AcDbSymbolTableRecord
100
AcDbRegAppTableRecord
  2
ACAD_DSTYLE_DIMJAG
 70
     0
  0
APPID
  5
136
330
9
100
AcDbSymbolTableRecord
100
AcDbRegAppTableRecord
  2
ACAD_DSTYLE_DIMTALN
 70
     0
  0
APPID
  5
165
330
9
100
AcDbSymbolTableRecord
100
AcDbRegAppTableRecord
  2
ACAD_MLEADERVER
 70
     0
  0
APPID
  5
2C4
330
9
100
AcDbSymbolTableRecord
100
AcDbRegAppTableRecord
  2
ASO_SCHRAFF
 70
     0
  0
APPID
  5
3DE
330
9
100
AcDbSymbolTableRecord
100
AcDbRegAppTableRecord
  2
AcAecLayerStandard
 70
     0
  0
APPID
  5
7DE
330
9
100
AcDbSymbolTableRecord
100
AcDbRegAppTableRecord
  2
ACAD_EXEMPT_FROM_CAD_STANDARDS
 70
     0
  0
APPID
  5
948
330
9
100
AcDbSymbolTableRecord
100
AcDbRegAppTableRecord
  2
ACAD_DSTYLE_DIMBREAK
 70
     0
  0
APPID
  5
1D0A
330
9
100
AcDbSymbolTableRecord
100
AcDbRegAppTableRecord
  2
AcadAnnotativeDecomposition
 70
     0
  0
APPID
  5
2089
330
9
100
AcDbSymbolTableRecord
100
AcDbRegAppTableRecord
  2
AcDbAttr
 70
     0
  0
ENDTAB
  0
TABLE
  2
DIMSTYLE
  5
A
330
0
100
AcDbSymbolTable
 70
     2
100
AcDbDimStyleTable
 71
     1
340
949
  0
DIMSTYLE
105
949
102
{ACAD_REACTORS
330
1E49
330
2376
102
}
330
A
100
AcDbSymbolTableRecord
100
AcDbDimStyleTableRecord
  2
Solbet
 70
     0
 41
2.5
 42
0.0
 43
3.75
 44
1.25
 73
     0
 74
     0
 77
     1
 78
     8
140
2.5
141
2.5
143
0.03937007874016
147
0.625
171
     3
172
     1
271
     2
272
     2
274
     3
278
    44
283
     0
284
     8
340
7D9
1001
ACAD_DSTYLE_DIMBREAK
1070
   391
1040
3.75
1001
ACAD_DSTYLE_DIMJAG
1070
   388
1040
1.5
1001
ACAD_DSTYLE_DIMTALN
1070
   392
1070
     0
  0
DIMSTYLE
105
954
102
{ACAD_REACTORS
330
1E1B
330
1E1D
330
1E1F
330
1E21
330
1E23
330
1E25
330
1E27
330
1E29
330
1E2D
330
1E33
330
1E35
330
1E37
330
1E39
330
1E3B
330
1E3F
330
1E41
330
1E43
330
1E45
330
1E47
330
1EF0
330
1F05
102
}
330
A
100
AcDbSymbolTableRecord
100
AcDbDimStyleTableRecord
  2
Solbet$7
 70
     0
 41
2.5
 42
0.0
 43
3.75
 44
1.25
 73
     0
 74
     0
 77
     1
 78
     8
140
2.5
141
2.5
143
0.03937007874016
147
0.625
171
     3
172
     1
271
     2
272
     2
274
     3
278
    44
283
     0
284
     8
340
7D9
341
958
1001
ACAD_DSTYLE_DIMBREAK
1070
   391
1040
3.75
1001
ACAD_DSTYLE_DIMJAG
1070
   388
1040
1.5
1001
ACAD_DSTYLE_DIMTALN
1070
   392
1070
     0
  0
ENDTAB
  0
TABLE
  2
BLOCK_RECORD
  5
1
330
0
100
AcDbSymbolTable
 70
     9
  0
BLOCK_RECORD
  5
1F
102
{ACAD_XDICTIONARY
360
4A3
102
}
330
1
100
AcDbSymbolTableRecord
100
AcDbBlockTableRecord
  2
*Model_Space
340
22
  0
BLOCK_RECORD
  5
D2
330
1
100
AcDbSymbolTableRecord
100
AcDbBlockTableRecord
  2
*Paper_Space
340
D3
  0
BLOCK_RECORD
  5
D6
330
1
100
AcDbSymbolTableRecord
100
AcDbBlockTableRecord
  2
*Paper_Space0
340
D7
  0
BLOCK_RECORD
  5
958
330
1
100
AcDbSymbolTableRecord
100
AcDbBlockTableRecord
  2
_DotSmall
340
0
102
{BLKREFS
331
20F9
331
2101
102
}
  0
BLOCK_RECORD
  5
1E4D
330
1
100
AcDbSymbolTableRecord
100
AcDbBlockTableRecord
  2
*D2
340
0
  0
BLOCK_RECORD
  5
1EF2
330
1
100
AcDbSymbolTableRecord
100
AcDbBlockTableRecord
  2
_None
340
0
  0
BLOCK_RECORD
  5
208A
102
{ACAD_XDICTIONARY
360
2096
102
}
330
1
100
AcDbSymbolTableRecord
100
AcDbBlockTableRecord
  2
SOLBET_Bloczek_Ideal_420x240x590_P+W_PRA
340
0
1001
ACAD
1000
DesignCenter Data
1002
{
1070
     1
1070
     4
1002
}
  0
BLOCK_RECORD
  5
2377
330
1
100
AcDbSymbolTableRecord
100
AcDbBlockTableRecord
  2
*D5
340
0
  0
BLOCK_RECORD
  5
2852
102
{ACAD_XDICTIONARY
360
285E
102
}
330
1
100
AcDbSymbolTableRecord
100
AcDbBlockTableRecord
  2
SOLBET_Bloczek_Ideal_420x240x590_P+W_KG400_PRZ
340
0
1001
ACAD
1000
DesignCenter Data
1002
{
1070
     1
1070
     4
1002
}
  0
BLOCK_RECORD
  5
2870
102
{ACAD_XDICTIONARY
360
287C
102
}
330
1
100
AcDbSymbolTableRecord
100
AcDbBlockTableRecord
  2
SOLBET_Bloczek_Ideal_420x240x590_P+W_KG400_GOR
340
0
1001
ACAD
1000
DesignCenter Data
1002
{
1070
     1
1070
     4
1002
}
  0
BLOCK_RECORD
  5
28BD
102
{ACAD_XDICTIONARY
360
28C9
102
}
330
1
100
AcDbSymbolTableRecord
100
AcDbBlockTableRecord
  2
SOLBET_Bloczek_Ideal_420x240x590_P+W_KG400_PRA
340
0
102
{BLKREFS
331
28CD
331
28CE
331
28CF
102
}
1001
ACAD
1000
DesignCenter Data
1002
{
1070
     1
1070
     4
1002
}
  0
ENDTAB
  0
ENDSEC
  0
SECTION
  2
BLOCKS
  0
BLOCK
  5
20
330
1F
100
AcDbEntity
  8
0
100
AcDbBlockBegin
  2
*Model_Space
 70
     0
 10
0.0
 20
0.0
 30
0.0
  3
*Model_Space
  1

  0
ENDBLK
  5
21
330
1F
100
AcDbEntity
  8
0
100
AcDbBlockEnd
  0
BLOCK
  5
D4
330
D2
100
AcDbEntity
 67
     1
  8
0
100
AcDbBlockBegin
  2
*Paper_Space
 70
     0
 10
0.0
 20
0.0
 30
0.0
  3
*Paper_Space
  1

  0
ENDBLK
  5
D5
330
D2
100
AcDbEntity
 67
     1
  8
0
100
AcDbBlockEnd
  0
BLOCK
  5
D8
330
D6
100
AcDbEntity
 67
     1
  8
0
100
AcDbBlockBegin
  2
*Paper_Space0
 70
     0
 10
0.0
 20
0.0
 30
0.0
  3
*Paper_Space0
  1

  0
ENDBLK
  5
D9
330
D6
100
AcDbEntity
 67
     1
  8
0
100
AcDbBlockEnd
  0
BLOCK
  5
95A
330
958
100
AcDbEntity
  8
0
100
AcDbBlockBegin
  2
_DotSmall
 70
     0
 10
0.0
 20
0.0
 30
0.0
  3
_DotSmall
  1

  0
LWPOLYLINE
  5
959
330
958
100
AcDbEntity
  8
0
  6
ByBlock
 62
     0
100
AcDbPolyline
 90
        2
 70
     1
 43
0.5
 10
-0.0625
 20
0.0
 42
1.0
 10
0.0625
 20
0.0
 42
1.0
  0
ENDBLK
  5
95B
330
958
100
AcDbEntity
  8
0
100
AcDbBlockEnd
  0
BLOCK
  5
1E4E
330
1E4D
100
AcDbEntity
  8
0
100
AcDbBlockBegin
  2
*D2
 70
     1
 10
0.0
 20
0.0
 30
0.0
  3
*D2
  1

  0
LINE
  5
24B5
330
1E4D
100
AcDbEntity
  8
SOLBET_Wymiary_Opisy
 62
     0
370
    -2
100
AcDbLine
 10
210.5380767533064
 20
158.8254591761633
 30
0.0
 11
140.2437729331069
 21
158.8254591761633
 31
0.0
  0
LINE
  5
24B6
330
1E4D
100
AcDbEntity
  8
SOLBET_Wymiary_Opisy
 62
     0
370
    -2
100
AcDbLine
 10
210.3380767533064
 20
143.8254591761633
 30
0.0
 11
140.2437729331069
 21
143.8254591761633
 31
0.0
  0
LINE
  5
24B7
330
1E4D
100
AcDbEntity
  8
SOLBET_Wymiary_Opisy
 62
     0
370
    -2
100
AcDbLine
 10
141.4937729331069
 20
156.3254591761633
 30
0.0
 11
141.4937729331069
 21
146.3254591761633
 31
0.0
  0
SOLID
  5
24B8
330
1E4D
100
AcDbEntity
  8
SOLBET_Wymiary_Opisy
 62
     0
100
AcDbTrace
 10
141.0771062664402
 20
156.3254591761633
 30
0.0
 11
141.9104395997735
 21
156.3254591761633
 31
0.0
 12
141.4937729331069
 22
158.8254591761633
 32
0.0
 13
141.4937729331069
 23
158.8254591761633
 33
0.0
  0
SOLID
  5
24B9
330
1E4D
100
AcDbEntity
  8
SOLBET_Wymiary_Opisy
 62
     0
100
AcDbTrace
 10
141.0771062664402
 20
146.3254591761633
 30
0.0
 11
141.9104395997735
 21
146.3254591761633
 31
0.0
 12
141.4937729331069
 22
143.8254591761633
 32
0.0
 13
141.4937729331069
 23
143.8254591761633
 33
0.0
  0
MTEXT
  5
24BA
330
1E4D
100
AcDbEntity
  8
SOLBET_Wymiary_Opisy
 62
     0
100
AcDbMText
 10
139.6178259634099
 20
151.6282081220597
 30
0.0
 40
2.5
 41
0.0
 71
     5
 72
     1
  1
Min. 30cm
  7
Solbet_2_5
 11
0.0000000000000001
 21
1.0
 31
0.0
 73
     1
 44
1.0
1001
ACAD
1000
MTEXTBEGIN
1070
    73
1070
     1
1070
    44
1040
1.0
1070
    74
1070
     0
1000
MTEXTEND
  0
POINT
  5
24BB
330
1E4D
100
AcDbEntity
  8
DEFPOINTS
 62
     0
100
AcDbPoint
 10
210.5380767533064
 20
158.8254591761633
 30
0.0
  0
POINT
  5
24BC
330
1E4D
100
AcDbEntity
  8
DEFPOINTS
 62
     0
100
AcDbPoint
 10
210.3380767533064
 20
143.8254591761633
 30
0.0
  0
POINT
  5
24BD
330
1E4D
100
AcDbEntity
  8
DEFPOINTS
 62
     0
100
AcDbPoint
 10
141.4937729331069
 20
143.8254591761633
 30
0.0
  0
ENDBLK
  5
1E4F
330
1E4D
100
AcDbEntity
  8
0
100
AcDbBlockEnd
  0
BLOCK
  5
1EF3
330
1EF2
100
AcDbEntity
  8
0
100
AcDbBlockBegin
  2
_None
 70
     0
 10
0.0
 20
0.0
 30
0.0
  3
_None
  1

  0
ENDBLK
  5
1EF4
330
1EF2
100
AcDbEntity
  8
0
100
AcDbBlockEnd
  0
BLOCK
  5
2098
330
208A
100
AcDbEntity
  8
0
100
AcDbBlockBegin
  2
SOLBET_Bloczek_Ideal_420x240x590_P+W_PRA
 70
     2
 10
0.0
 20
0.0
 30
0.0
  3
SOLBET_Bloczek_Ideal_420x240x590_P+W_PRA
  1

  0
ATTDEF
  5
208B
330
208A
100
AcDbEntity
  8
SOLBET_Wymiary_Opisy
100
AcDbText
 10
-0.0000000703746536
 20
6.303237281370451
 30
0.0
 40
0.9913121336814832
  1
420x240x590
  7
Solbet_1
100
AcDbAttributeDefinition
  3

  2
WYMIARY
 70
     3
1001
AcDbAttr
1070
     0
1070
     1
  0
ATTDEF
  5
208C
330
208A
100
AcDbEntity
  8
SOLBET_Wymiary_Opisy
100
AcDbText
 10
-0.0000000703746536
 20
4.790717873654354
 30
0.0
 40
0.9913121336814832
  1
400
  7
Solbet_1
100
AcDbAttributeDefinition
  3

  2
KLASA_GĘSTOŚCI
 70
     9
1001
AcDbAttr
1070
     0
1070
     1
  0
ATTDEF
  5
208D
330
208A
100
AcDbEntity
  8
SOLBET_Wymiary_Opisy
100
AcDbText
 10
-0.0000000703746536
 20
3.269569038442127
 30
0.0
 40
0.9913121336814832
  1
Pióra+Wpusty
  7
Solbet_1
100
AcDbAttributeDefinition
  3

  2
PROFILOWANIE
 70
     3
1001
AcDbAttr
1070
     0
1070
     1
  0
ATTDEF
  5
208E
330
208A
100
AcDbEntity
  8
SOLBET_Wymiary_Opisy
100
AcDbText
 10
-0.0000000703746536
 20
0.2448646291013483
 30
0.0
 40
0.9913121336814832
  1
SOLBET
  7
Solbet_1
100
AcDbAttributeDefinition
  3

  2
FIRMA
 70
     3
1001
AcDbAttr
1070
     0
1070
     1
  0
ATTDEF
  5
208F
330
208A
100
AcDbEntity
  8
SOLBET_Wymiary_Opisy
100
AcDbText
 10
-0.0000000703746536
 20
9.333547279718283
 30
0.0
 40
0.9913121336814832
  1
Bloczek
  7
Solbet_1
100
AcDbAttributeDefinition
  3
Nazwa
  2
NAZWA
 70
     3
1001
AcDbAttr
1070
     0
1070
     1
  0
ATTDEF
  5
2090
330
208A
100
AcDbEntity
  8
SOLBET_Wymiary_Opisy
100
AcDbText
 10
-0.0000000703746536
 20
7.794499099484078
 30
0.0
 40
0.9913121336814832
  1
SOLBET IDEAL
  7
Solbet_1
100
AcDbAttributeDefinition
  3

  2
SYSTEM
 70
     3
1001
AcDbAttr
1070
     0
1070
     1
  0
ATTDEF
  5
2091
330
208A
100
AcDbEntity
  8
SOLBET_Wymiary_Opisy
100
AcDbText
 10
-0.0000000703746536
 20
1.74418138862846
 30
0.0
 40
0.9913121336814832
  1
Prawo
  7
Solbet_1
100
AcDbAttributeDefinition
  3

  2
WIDOK
 70
    11
1001
AcDbAttr
1070
     0
1070
     1
  0
LINE
  5
2092
330
208A
100
AcDbEntity
  8
SOLBET_Bloczki
100
AcDbLine
 10
21.00000014074931
 20
12.00000020414847
 30
0.0
 11
21.00000014074931
 21
0.000000204148364
 31
0.0
  0
LINE
  5
2093
330
208A
100
AcDbEntity
  8
SOLBET_Bloczki
100
AcDbLine
 10
21.00000014074931
 20
12.00000020414847
 30
0.0
 11
0.0000001407493072
 21
12.00000020414847
 31
0.0
  0
LINE
  5
2094
330
208A
100
AcDbEntity
  8
SOLBET_Bloczki
100
AcDbLine
 10
0.0000001407493072
 20
12.00000020414847
 30
0.0
 11
0.0000001407493072
 21
0.000000204148364
 31
0.0
  0
LINE
  5
2095
330
208A
100
AcDbEntity
  8
SOLBET_Bloczki
100
AcDbLine
 10
0.0000001407493072
 20
0.000000204148364
 30
0.0
 11
21.00000014074931
 21
0.000000204148364
 31
0.0
  0
ENDBLK
  5
2099
330
208A
100
AcDbEntity
  8
0
100
AcDbBlockEnd
  0
BLOCK
  5
2381
330
2377
100
AcDbEntity
  8
0
100
AcDbBlockBegin
  2
*D5
 70
     1
 10
0.0
 20
0.0
 30
0.0
  3
*D5
  1

  0
LINE
  5
24BE
330
2377
100
AcDbEntity
  8
SOLBET_Wymiary_Opisy
 62
     0
370
    -2
100
AcDbLine
 10
91.32175351007209
 20
188.6558689902942
 30
0.0
 11
91.32175351007209
 21
157.1859051154058
 31
0.0
  0
LINE
  5
24BF
330
2377
100
AcDbEntity
  8
SOLBET_Wymiary_Opisy
 62
     0
370
    -2
100
AcDbLine
 10
113.8217535100721
 20
168.0250947413328
 30
0.0
 11
113.8217535100721
 21
157.1859051154058
 31
0.0
  0
LINE
  5
24C0
330
2377
100
AcDbEntity
  8
SOLBET_Wymiary_Opisy
 62
     0
370
    -2
100
AcDbLine
 10
111.3217535100721
 20
158.4359051154058
 30
0.0
 11
93.82175351007209
 21
158.4359051154058
 31
0.0
  0
LINE
  5
24C1
330
2377
100
AcDbEntity
  8
SOLBET_Wymiary_Opisy
 62
     0
370
    -2
100
AcDbLine
 10
91.32175351007209
 20
158.4359051154058
 30
0.0
 11
46.57175351007208
 21
158.4359051154058
 31
0.0
  0
SOLID
  5
24C2
330
2377
100
AcDbEntity
  8
SOLBET_Wymiary_Opisy
 62
     0
100
AcDbTrace
 10
111.3217535100721
 20
158.8525717820725
 30
0.0
 11
111.3217535100721
 21
158.0192384487391
 31
0.0
 12
113.8217535100721
 22
158.4359051154058
 32
0.0
 13
113.8217535100721
 23
158.4359051154058
 33
0.0
  0
SOLID
  5
24C3
330
2377
100
AcDbEntity
  8
SOLBET_Wymiary_Opisy
 62
     0
100
AcDbTrace
 10
93.82175351007209
 20
158.8525717820725
 30
0.0
 11
93.82175351007209
 21
158.0192384487391
 31
0.0
 12
91.32175351007209
 22
158.4359051154058
 32
0.0
 13
91.32175351007209
 23
158.4359051154058
 33
0.0
  0
MTEXT
  5
24C4
102
{ACAD_XDICTIONARY
360
29F0
102
}
330
2377
100
AcDbEntity
  8
SOLBET_Wymiary_Opisy
 62
     0
100
AcDbMText
 10
67.69675351007208
 20
160.4368520851028
 30
0.0
 40
2.5
 41
0.0
 71
     5
 72
     1
  1
max. 1/3 szeoko\U+015Bci bloczka
  7
Solbet_2_5
 73
     1
 44
1.0
1001
ACAD
1000
MTEXTBEGIN
1070
    73
1070
     1
1070
    44
1040
1.0
1070
    74
1070
     0
1000
MTEXTEND
  0
POINT
  5
24C5
330
2377
100
AcDbEntity
  8
DEFPOINTS
 62
     0
100
AcDbPoint
 10
91.32175351007209
 20
188.6558689902942
 30
0.0
  0
POINT
  5
24C6
330
2377
100
AcDbEntity
  8
DEFPOINTS
 62
     0
100
AcDbPoint
 10
113.8217535100721
 20
168.0250947413328
 30
0.0
  0
POINT
  5
24C7
330
2377
100
AcDbEntity
  8
DEFPOINTS
 62
     0
100
AcDbPoint
 10
113.8217535100721
 20
158.4359051154058
 30
0.0
  0
ENDBLK
  5
2382
330
2377
100
AcDbEntity
  8
0
100
AcDbBlockEnd
  0
BLOCK
  5
2860
330
2852
100
AcDbEntity
  8
0
100
AcDbBlockBegin
  2
SOLBET_Bloczek_Ideal_420x240x590_P+W_KG400_PRZ
 70
     2
 10
0.0
 20
0.0
 30
0.0
  3
SOLBET_Bloczek_Ideal_420x240x590_P+W_KG400_PRZ
  1

  0
ATTDEF
  5
2863
330
2852
100
AcDbEntity
  8
SOLBET_Wymiary_Opisy
100
AcDbText
 10
0.0
 20
6.303237354177662
 30
0.0
 40
0.9913121336814832
  1
420x240x590
  7
Solbet_1
100
AcDbAttributeDefinition
  3

  2
WYMIARY
 70
    11
1001
AcDbAttr
1070
     0
1070
     1
  0
ATTDEF
  5
2864
330
2852
100
AcDbEntity
  8
SOLBET_Wymiary_Opisy
100
AcDbText
 10
0.0
 20
4.790717946461565
 30
0.0
 40
0.9913121336814832
  1
400
  7
Solbet_1
100
AcDbAttributeDefinition
  3

  2
KLASA_GĘSTOŚCI
 70
    11
1001
AcDbAttr
1070
     0
1070
     1
  0
ATTDEF
  5
2865
330
2852
100
AcDbEntity
  8
SOLBET_Wymiary_Opisy
100
AcDbText
 10
0.0
 20
3.269569111249338
 30
0.0
 40
0.9913121336814832
  1
Pióra+Wpusty
  7
Solbet_1
100
AcDbAttributeDefinition
  3

  2
PROFILOWANIE
 70
    11
1001
AcDbAttr
1070
     0
1070
     1
  0
ATTDEF
  5
2866
330
2852
100
AcDbEntity
  8
SOLBET_Wymiary_Opisy
100
AcDbText
 10
0.0
 20
0.2448647019085592
 30
0.0
 40
0.9913121336814832
  1
SOLBET
  7
Solbet_1
100
AcDbAttributeDefinition
  3

  2
FIRMA
 70
    11
1001
AcDbAttr
1070
     0
1070
     1
  0
ATTDEF
  5
2867
330
2852
100
AcDbEntity
  8
SOLBET_Wymiary_Opisy
100
AcDbText
 10
0.0
 20
9.333547352525494
 30
0.0
 40
0.9913121336814832
  1
Bloczek
  7
Solbet_1
100
AcDbAttributeDefinition
  3
Nazwa
  2
NAZWA
 70
    11
1001
AcDbAttr
1070
     0
1070
     1
  0
ATTDEF
  5
2868
330
2852
100
AcDbEntity
  8
SOLBET_Wymiary_Opisy
100
AcDbText
 10
0.0
 20
7.794499172291289
 30
0.0
 40
0.9913121336814832
  1
SOLBET Ideal
  7
Solbet_1
100
AcDbAttributeDefinition
  3

  2
SYSTEM
 70
    11
1001
AcDbAttr
1070
     0
1070
     1
  0
ATTDEF
  5
2869
330
2852
100
AcDbEntity
  8
SOLBET_Wymiary_Opisy
100
AcDbText
 10
0.0
 20
1.744181461435671
 30
0.0
 40
0.9913121336814832
  1
Przód
  7
Solbet_1
100
AcDbAttributeDefinition
  3

  2
WIDOK
 70
    11
1001
AcDbAttr
1070
     0
1070
     1
  0
LINE
  5
286A
330
2852
100
AcDbEntity
  8
SOLBET_Bloczki
100
AcDbLine
 10
-0.0000000727372935
 20
0.0000000585339421
 30
0.0
 11
29.49999992726271
 21
0.0000000585339421
 31
0.0
  0
LINE
  5
286B
330
2852
100
AcDbEntity
  8
SOLBET_Bloczki
100
AcDbLine
 10
29.49999992726271
 20
0.0000000585339421
 30
0.0
 11
29.49999992726271
 21
12.00000005853394
 31
0.0
  0
LINE
  5
286C
330
2852
100
AcDbEntity
  8
SOLBET_Bloczki
100
AcDbLine
 10
29.49999992726271
 20
12.00000005853394
 30
0.0
 11
-0.0000000727372935
 21
12.00000005853394
 31
0.0
  0
LINE
  5
286D
330
2852
100
AcDbEntity
  8
SOLBET_Bloczki
100
AcDbLine
 10
-0.0000000727372935
 20
12.00000005853394
 30
0.0
 11
-0.0000000727372935
 21
0.0000000585339421
 31
0.0
  0
ENDBLK
  5
2861
330
2852
100
AcDbEntity
  8
0
100
AcDbBlockEnd
  0
BLOCK
  5
287E
330
2870
100
AcDbEntity
  8
0
100
AcDbBlockBegin
  2
SOLBET_Bloczek_Ideal_420x240x590_P+W_KG400_GOR
 70
     2
 10
0.0
 20
0.0
 30
0.0
  3
SOLBET_Bloczek_Ideal_420x240x590_P+W_KG400_GOR
  1

  0
ATTDEF
  5
2881
330
2870
100
AcDbEntity
  8
SOLBET_Wymiary_Opisy
100
AcDbText
 10
0.0000000363686468
 20
6.303237354177662
 30
0.0
 40
0.9913121336814832
  1
420x240x590
  7
Solbet_1
100
AcDbAttributeDefinition
  3

  2
WYMIARY
 70
    11
1001
AcDbAttr
1070
     0
1070
     1
  0
ATTDEF
  5
2882
330
2870
100
AcDbEntity
  8
SOLBET_Wymiary_Opisy
100
AcDbText
 10
0.0000000363686468
 20
4.790717946461565
 30
0.0
 40
0.9913121336814832
  1
400
  7
Solbet_1
100
AcDbAttributeDefinition
  3

  2
KLASA_GĘSTOŚCI
 70
    11
1001
AcDbAttr
1070
     0
1070
     1
  0
ATTDEF
  5
2883
330
2870
100
AcDbEntity
  8
SOLBET_Wymiary_Opisy
100
AcDbText
 10
0.0000000363686468
 20
3.269569111249338
 30
0.0
 40
0.9913121336814832
  1
Pióra+Wpusty
  7
Solbet_1
100
AcDbAttributeDefinition
  3

  2
PROFILOWANIE
 70
    11
1001
AcDbAttr
1070
     0
1070
     1
  0
ATTDEF
  5
2884
330
2870
100
AcDbEntity
  8
SOLBET_Wymiary_Opisy
100
AcDbText
 10
0.0000000363686468
 20
0.2448647019085592
 30
0.0
 40
0.9913121336814832
  1
SOLBET
  7
Solbet_1
100
AcDbAttributeDefinition
  3

  2
FIRMA
 70
    11
1001
AcDbAttr
1070
     0
1070
     1
  0
ATTDEF
  5
2885
330
2870
100
AcDbEntity
  8
SOLBET_Wymiary_Opisy
100
AcDbText
 10
0.0000000363686468
 20
9.333547352525494
 30
0.0
 40
0.9913121336814832
  1
Bloczek
  7
Solbet_1
100
AcDbAttributeDefinition
  3
Nazwa
  2
NAZWA
 70
    11
1001
AcDbAttr
1070
     0
1070
     1
  0
ATTDEF
  5
2886
330
2870
100
AcDbEntity
  8
SOLBET_Wymiary_Opisy
100
AcDbText
 10
0.0000000363686468
 20
7.794499172291289
 30
0.0
 40
0.9913121336814832
  1
SOLBET Ideal
  7
Solbet_1
100
AcDbAttributeDefinition
  3

  2
SYSTEM
 70
    11
1001
AcDbAttr
1070
     0
1070
     1
  0
ATTDEF
  5
2887
330
2870
100
AcDbEntity
  8
SOLBET_Wymiary_Opisy
100
AcDbText
 10
0.0000000363686468
 20
1.744181461435671
 30
0.0
 40
0.9913121336814832
  1
Góra
  7
Solbet_1
100
AcDbAttributeDefinition
  3

  2
WIDOK
 70
    11
1001
AcDbAttr
1070
     0
1070
     1
  0
LINE
  5
2888
330
2870
100
AcDbEntity
  8
SOLBET_Bloczki
100
AcDbLine
 10
-0.0000001473426892
 20
0.0000000920231287
 30
0.0
 11
29.49999992726271
 21
0.0000000585339421
 31
0.0
  0
LINE
  5
2889
330
2870
100
AcDbEntity
  8
SOLBET_Bloczki
100
AcDbLine
 10
29.49999992726271
 20
0.0000000585339421
 30
0.0
 11
29.49999985265754
 21
21.00000009202324
 31
0.0
  0
LINE
  5
288A
330
2870
100
AcDbEntity
  8
SOLBET_Bloczki
100
AcDbLine
 10
29.49999985265754
 20
21.00000009202324
 30
0.0
 11
-0.0000001473426892
 21
21.00000009202324
 31
0.0
  0
LINE
  5
288B
330
2870
100
AcDbEntity
  8
SOLBET_Bloczki
100
AcDbLine
 10
-0.0000001473426892
 20
21.00000009202324
 30
0.0
 11
-0.0000000727372935
 21
0.0000000585339421
 31
0.0
  0
ENDBLK
  5
287F
330
2870
100
AcDbEntity
  8
0
100
AcDbBlockEnd
  0
BLOCK
  5
28CB
330
28BD
100
AcDbEntity
  8
0
100
AcDbBlockBegin
  2
SOLBET_Bloczek_Ideal_420x240x590_P+W_KG400_PRA
 70
     2
 10
0.0
 20
0.0
 30
0.0
  3
SOLBET_Bloczek_Ideal_420x240x590_P+W_KG400_PRA
  1

  0
ATTDEF
  5
28BE
330
28BD
100
AcDbEntity
  8
SOLBET_Wymiary_Opisy
100
AcDbText
 10
-0.0000000703746536
 20
6.303237281370451
 30
0.0
 40
0.9913121336814832
  1
420x240x590
  7
Solbet_1
100
AcDbAttributeDefinition
  3

  2
WYMIARY
 70
    11
1001
AcDbAttr
1070
     0
1070
     1
  0
ATTDEF
  5
28BF
330
28BD
100
AcDbEntity
  8
SOLBET_Wymiary_Opisy
100
AcDbText
 10
-0.0000000703746536
 20
4.790717873654354
 30
0.0
 40
0.9913121336814832
  1
400
  7
Solbet_1
100
AcDbAttributeDefinition
  3

  2
KLASA_GĘSTOŚCI
 70
    11
1001
AcDbAttr
1070
     0
1070
     1
  0
ATTDEF
  5
28C0
330
28BD
100
AcDbEntity
  8
SOLBET_Wymiary_Opisy
100
AcDbText
 10
-0.0000000703746536
 20
3.269569038442127
 30
0.0
 40
0.9913121336814832
  1
Pióra+Wpusty
  7
Solbet_1
100
AcDbAttributeDefinition
  3

  2
PROFILOWANIE
 70
    11
1001
AcDbAttr
1070
     0
1070
     1
  0
ATTDEF
  5
28C1
330
28BD
100
AcDbEntity
  8
SOLBET_Wymiary_Opisy
100
AcDbText
 10
-0.0000000703746536
 20
0.2448646291013483
 30
0.0
 40
0.9913121336814832
  1
SOLBET
  7
Solbet_1
100
AcDbAttributeDefinition
  3

  2
FIRMA
 70
    11
1001
AcDbAttr
1070
     0
1070
     1
  0
ATTDEF
  5
28C2
330
28BD
100
AcDbEntity
  8
SOLBET_Wymiary_Opisy
100
AcDbText
 10
-0.0000000703746536
 20
9.333547279718283
 30
0.0
 40
0.9913121336814832
  1
Bloczek
  7
Solbet_1
100
AcDbAttributeDefinition
  3
Nazwa
  2
NAZWA
 70
    11
1001
AcDbAttr
1070
     0
1070
     1
  0
ATTDEF
  5
28C3
330
28BD
100
AcDbEntity
  8
SOLBET_Wymiary_Opisy
100
AcDbText
 10
-0.0000000703746536
 20
7.794499099484078
 30
0.0
 40
0.9913121336814832
  1
SOLBET Ideal
  7
Solbet_1
100
AcDbAttributeDefinition
  3

  2
SYSTEM
 70
    11
1001
AcDbAttr
1070
     0
1070
     1
  0
ATTDEF
  5
28C4
330
28BD
100
AcDbEntity
  8
SOLBET_Wymiary_Opisy
100
AcDbText
 10
-0.0000000703746536
 20
1.74418138862846
 30
0.0
 40
0.9913121336814832
  1
Prawo
  7
Solbet_1
100
AcDbAttributeDefinition
  3

  2
WIDOK
 70
    11
1001
AcDbAttr
1070
     0
1070
     1
  0
LINE
  5
28C5
330
28BD
100
AcDbEntity
  8
SOLBET_Bloczki
100
AcDbLine
 10
21.00000014074931
 20
12.00000020414847
 30
0.0
 11
21.00000014074931
 21
0.000000204148364
 31
0.0
  0
LINE
  5
28C6
330
28BD
100
AcDbEntity
  8
SOLBET_Bloczki
100
AcDbLine
 10
21.00000014074931
 20
12.00000020414847
 30
0.0
 11
0.0000001407493072
 21
12.00000020414847
 31
0.0
  0
LINE
  5
28C7
330
28BD
100
AcDbEntity
  8
SOLBET_Bloczki
100
AcDbLine
 10
0.0000001407493072
 20
12.00000020414847
 30
0.0
 11
0.0000001407493072
 21
0.000000204148364
 31
0.0
  0
LINE
  5
28C8
330
28BD
100
AcDbEntity
  8
SOLBET_Bloczki
100
AcDbLine
 10
0.0000001407493072
 20
0.000000204148364
 30
0.0
 11
21.00000014074931
 21
0.000000204148364
 31
0.0
  0
ENDBLK
  5
28CC
330
28BD
100
AcDbEntity
  8
0
100
AcDbBlockEnd
  0
ENDSEC
  0
SECTION
  2
ENTITIES
  0
LWPOLYLINE
  5
1DBF
330
1F
100
AcDbEntity
  8
SOLBET_Ramka_05
100
AcDbPolyline
 90
        4
 70
     1
 43
0.0
 10
0.0
 20
0.0
 10
334.35177409209
 20
0.0
 10
334.35177409209
 20
297.0
 10
0.0
 20
297.0
  0
LWPOLYLINE
  5
1DC0
330
1F
100
AcDbEntity
  8
SOLBET_Beton
100
AcDbPolyline
 90
        4
 70
     1
 43
0.0
 10
214.2036045923445
 20
99.32545917616323
 10
233.2036045923445
 20
99.32545917616323
 10
233.2036045923445
 20
106.3254591761633
 10
214.2036045923445
 20
106.3254591761633
  0
LWPOLYLINE
  5
1DC1
330
1F
100
AcDbEntity
  8
SOLBET_Beton
100
AcDbPolyline
 90
        4
 70
     1
 43
0.0
 10
214.2036045923445
 20
106.8254591761631
 10
233.2036045923445
 20
106.8254591761631
 10
233.2036045923445
 20
113.8254591761632
 10
214.2036045923445
 20
113.8254591761632
  0
LWPOLYLINE
  5
1DC2
330
1F
100
AcDbEntity
  8
SOLBET_Beton
100
AcDbPolyline
 90
        4
 70
     1
 43
0.0
 10
214.2036045923445
 20
114.3254591761631
 10
233.2036045923445
 20
114.3254591761631
 10
233.2036045923445
 20
121.3254591761631
 10
214.2036045923445
 20
121.3254591761631
  0
LWPOLYLINE
  5
1DC3
330
1F
100
AcDbEntity
  8
SOLBET_Beton
100
AcDbPolyline
 90
        4
 70
     1
 43
0.0
 10
214.2036045923445
 20
121.8254591761632
 10
233.2036045923445
 20
121.8254591761632
 10
233.2036045923445
 20
128.8254591761633
 10
214.2036045923445
 20
128.8254591761633
  0
HATCH
  5
1DC4
330
1F
100
AcDbEntity
  8
SOLBET_Grunt
100
AcDbHatch
 10
0.0
 20
0.0
 30
0.0
210
0.0
220
0.0
230
1.0
  2
AR-CONC
 70
     0
 71
     0
 91
        1
 92
        7
 72
     0
 73
     1
 93
       10
 10
210.8380767533065
 20
131.7254591761633
 10
193.1686831006358
 20
131.7254591761633
 10
198.4764485337787
 20
74.90961382774182
 10
203.5597021533201
 20
74.90961382774182
 10
206.8036045923445
 20
78.40961382774182
 10
208.5036045923445
 20
78.40961382774182
 10
208.5036045923444
 20
98.40961382774191
 10
208.5036045923444
 20
99.14115525896271
 10
210.8380767533065
 20
99.14115525896269
 10
210.8380767533065
 20
99.32545917616323
 97
        0
 75
     0
 76
     1
 52
0.0
 41
0.05
 77
     0
 78
    13
 53
50.0
 43
124.721070823458
 44
31.29937937620707
 45
9.1092334498002
 46
-0.7969542769451543
 79
     2
 49
0.9525000000000002
 49
-10.4775
 53
355.0
 43
124.721070823458
 44
31.29937937620707
 45
-1.762141298783349
 46
9.552832144108998
 79
     2
 49
0.762
 49
-8.381999999999999
 53
100.451
 43
125.4801708234579
 44
31.23296687620707
 45
7.347125083297962
 46
8.755834391014593
 79
     2
 49
0.8095
 49
-8.9045
 53
46.1842
 43
124.721070823458
 44
33.83937937620707
 45
13.5539520446065
 46
-2.102116396636357
 79
     2
 49
1.428749999999999
 49
-15.71625
 53
96.63559999999996
 43
125.850565823458
 44
33.66420437620707
 45
11.87021172331186
 46
12.37127779450246
 79
     2
 49
1.214249999999999
 49
-13.35675
 53
351.184
 43
124.721070823458
 44
33.83937937620707
 45
11.87023029069669
 46
12.37125589302988
 79
     2
 49
1.143
 49
-12.573
 53
21.0
 43
125.9910708234579
 44
33.20437937620707
 45
7.580743991769164
 46
-5.113275925838125
 79
     2
 49
0.9525000000000002
 49
-10.4775
 53
326.0
 43
125.9910708234579
 44
33.20437937620707
 45
3.090101417382353
 46
9.209398306115962
 79
     2
 49
0.762
 49
-8.381999999999999
 53
71.45140000000001
 43
126.622795823458
 44
32.77827437620707
 45
10.67082453850622
 46
4.096142885802872
 79
     2
 49
0.8095
 49
-8.9045
 53
37.5
 43
124.721070823458
 44
31.29937937620707
 45
0.1544301625295909
 46
4.227751943657655
 79
     6
 49
0.0
 49
-8.2804
 49
0.0
 49
-8.509
 49
0.0
 49
-8.41375
 53
7.499999999999999
 43
124.721070823458
 44
31.29937937620707
 45
3.340983125515287
 46
5.009028740905975
 79
     6
 49
0.0
 49
-4.851399999999999
 49
0.0
 49
-8.0899
 49
0.0
 49
-3.20675
 53
327.5
 43
121.8889708234579
 44
31.29937937620707
 45
6.77952975834357
 46
-0.2864371996336729
 79
     6
 49
0.0
 49
-3.175
 49
0.0
 49
-9.906
 49
0.0
 49
-13.1445
 53
317.5
 43
120.618970823458
 44
31.29937937620707
 45
7.406459069300902
 46
1.27132455166665
 79
     6
 49
0.0
 49
-4.1275
 49
0.0
 49
-6.5786
 49
0.0
 49
-9.3345
 47
0.1099285210258311
 98
        1
 10
201.8573361687341
 20
120.715133914904
1001
ACAD
1010
0.0
1020
0.0
1030
0.0
  0
LINE
  5
1DC5
330
1F
100
AcDbEntity
  8
SOLBET_Wymiary_Opisy
100
AcDbLine
 10
188.3020503598154
 20
131.7254591761633
 30
0.0
 11
234.7036045923445
 21
131.7254591761633
 31
0.0
  0
LWPOLYLINE
  5
1DC6
330
1F
100
AcDbEntity
  8
SOLBET_Beton
100
AcDbPolyline
 90
        4
 70
     1
 43
0.0
 10
214.2036045923445
 20
136.8254591761633
 10
233.2036045923445
 20
136.8254591761633
 10
233.2036045923445
 20
143.8254591761633
 10
214.2036045923445
 20
143.8254591761633
  0
LWPOLYLINE
  5
1DC7
330
1F
100
AcDbEntity
  8
SOLBET_Beton
100
AcDbPolyline
 90
        4
 70
     1
 43
0.0
 10
214.2036045923445
 20
144.3254591761631
 10
233.2036045923445
 20
144.3254591761631
 10
233.2036045923445
 20
151.3254591761631
 10
214.2036045923445
 20
151.3254591761631
  0
LWPOLYLINE
  5
1DC8
330
1F
100
AcDbEntity
  8
SOLBET_Beton
100
AcDbPolyline
 90
        4
 70
     1
 43
0.0
 10
214.2036045923445
 20
151.8254591761633
 10
233.2036045923445
 20
151.8254591761633
 10
233.2036045923445
 20
158.8254591761633
 10
214.2036045923445
 20
158.8254591761633
  0
HATCH
  5
1DC9
330
1F
100
AcDbEntity
  8
SOLBET_Grunt
100
AcDbHatch
 10
0.0
 20
0.0
 30
0.0
210
0.0
220
0.0
230
1.0
  2
AR-CONC
 70
     0
 71
     0
 91
        1
 92
        7
 72
     0
 73
     1
 93
        4
 10
210.8380767533065
 20
133.2254591761631
 10
210.8380767533064
 20
143.8254591761633
 10
189.8555415810072
 20
143.8254591761633
 10
190.8457990214498
 20
133.2254591761631
 97
        0
 75
     0
 76
     1
 52
0.0
 41
0.02
 77
     0
 78
    13
 53
50.0
 43
124.721070823458
 44
31.29937937620707
 45
3.64369337992008
 46
-0.3187817107780617
 79
     2
 49
0.381
 49
-4.191
 53
355.0
 43
124.721070823458
 44
31.29937937620707
 45
-0.7048565195133399
 46
3.821132857643599
 79
     2
 49
0.3048
 49
-3.352799999999999
 53
100.451
 43
125.0247108234579
 44
31.27281437620707
 45
2.938850033319184
 46
3.502333756405837
 79
     2
 49
0.3238
 49
-3.5618
 53
46.1842
 43
124.721070823458
 44
32.31537937620707
 45
5.421580817842598
 46
-0.8408465586545428
 79
     2
 49
0.5715
 49
-6.2865
 53
96.63559999999996
 43
125.1728688234579
 44
32.24530937620708
 45
4.748084689324742
 46
4.948511117800984
 79
     2
 49
0.4857
 49
-5.342699999999998
 53
351.184
 43
124.721070823458
 44
32.31537937620707
 45
4.748092116278678
 46
4.948502357211953
 79
     2
 49
0.4572
 49
-5.0292
 53
21.0
 43
125.2290708234579
 44
32.06137937620707
 45
3.032297596707665
 46
-2.04531037033525
 79
     2
 49
0.381
 49
-4.191
 53
326.0
 43
125.2290708234579
 44
32.06137937620707
 45
1.236040566952941
 46
3.683759322446385
 79
     2
 49
0.3048
 49
-3.352799999999999
 53
71.45140000000001
 43
125.481760823458
 44
31.89093737620707
 45
4.268329815402489
 46
1.638457154321149
 79
     2
 49
0.3238
 49
-3.5618
 53
37.5
 43
124.721070823458
 44
31.29937937620707
 45
0.0617720650118363
 46
1.691100777463062
 79
     6
 49
0.0
 49
-3.312159999999999
 49
0.0
 49
-3.4036
 49
0.0
 49
-3.3655
 53
7.499999999999999
 43
124.721070823458
 44
31.29937937620707
 45
1.336393250206114
 46
2.00361149636239
 79
     6
 49
0.0
 49
-1.940559999999999
 49
0.0
 49
-3.235959999999999
 49
0.0
 49
-1.2827
 53
327.5
 43
123.588230823458
 44
31.29937937620707
 45
2.711811903337427
 46
-0.1145748798534692
 79
     6
 49
0.0
 49
-1.27
 49
0.0
 49
-3.9624
 49
0.0
 49
-5.257799999999999
 53
317.5
 43
123.0802308234579
 44
31.29937937620707
 45
2.962583627720361
 46
0.5085298206666603
 79
     6
 49
0.0
 49
-1.650999999999999
 49
0.0
 49
-2.63144
 49
0.0
 49
-3.7338
 47
0.1149901828808244
 98
        1
 10
205.0703314753628
 20
138.4488787620648
1001
ACAD
1010
0.0
1020
0.0
1030
0.0
  0
LINE
  5
1DCA
330
1F
100
AcDbEntity
  8
SOLBET_Wymiary_Opisy
100
AcDbLine
 10
188.1310998053483
 20
133.2254591761631
 30
0.0
 11
234.7036045923445
 21
133.2254591761631
 31
0.0
  0
LINE
  5
1DCC
330
1F
100
AcDbEntity
  8
SOLBET_Izolacja
100
AcDbLine
 10
213.5036045923444
 20
99.32545917616323
 30
0.0
 11
213.5036045923444
 21
131.7254591761633
 31
0.0
  0
LINE
  5
1DCD
330
1F
100
AcDbEntity
  8
SOLBET_Izolacja
100
AcDbLine
 10
211.0036045923444
 20
99.32545917616323
 30
0.0
 11
211.0036045923444
 21
131.7254591761633
 31
0.0
  0
LINE
  5
1DCE
330
1F
100
AcDbEntity
  8
SOLBET_Izolacja
100
AcDbLine
 10
211.0036045923444
 20
99.32545917616323
 30
0.0
 11
213.5036045923444
 21
99.32545917616323
 31
0.0
  0
LINE
  5
1DCF
330
1F
100
AcDbEntity
  8
SOLBET_Izolacja
100
AcDbLine
 10
211.0036045923444
 20
133.2254591761631
 30
0.0
 11
211.0036045923444
 21
158.8254591761633
 31
0.0
  0
LINE
  5
1DD0
330
1F
100
AcDbEntity
  8
SOLBET_Izolacja
100
AcDbLine
 10
213.5036045923444
 20
133.2254591761631
 30
0.0
 11
213.5036045923444
 21
158.8254591761633
 31
0.0
  0
LWPOLYLINE
  5
1DD1
330
1F
100
AcDbEntity
  8
SOLBET_Beton
100
AcDbPolyline
 90
        3
 70
     0
 43
0.0
 10
214.2036045923445
 20
129.3254591761631
 10
233.2036045923445
 20
129.3254591761631
 10
233.2036045923445
 20
131.7254591761633
  0
LWPOLYLINE
  5
1DD2
330
1F
100
AcDbEntity
  8
SOLBET_Beton
100
AcDbPolyline
 90
        4
 70
     0
 43
0.0
 10
233.2036045923445
 20
133.2254591761631
 10
233.2036045923445
 20
136.3254591761631
 10
214.2036045923445
 20
136.3254591761631
 10
214.2036045923445
 20
133.2254591761631
  0
LINE
  5
1DD3
330
1F
100
AcDbEntity
  8
SOLBET_Izolacja
100
AcDbLine
 10
211.0036045923444
 20
158.8254591761633
 30
0.0
 11
213.5036045923444
 21
158.8254591887172
 31
0.0
  0
LINE
  5
1DD4
330
1F
100
AcDbEntity
  8
SOLBET_Emulsje_Folie
100
AcDbLine
 10
233.2715314997722
 20
158.8900343527035
 30
0.0
 11
233.2715314997723
 21
133.2254591761631
 31
0.0
  0
LINE
  5
1DD5
330
1F
100
AcDbEntity
  8
SOLBET_Zbrojenie_Konstrukcja
100
AcDbLine
 10
211.3683806809001
 20
147.8174509809754
 30
0.0
 11
220.2036045923444
 21
147.8174509809754
 31
0.0
  0
LINE
  5
1DD6
330
1F
100
AcDbEntity
  8
SOLBET_Zbrojenie_Konstrukcja
100
AcDbLine
 10
211.6165973478761
 20
150.1125886862988
 30
0.0
 11
211.6165973478761
 21
145.5223132756518
 31
0.0
  0
LINE
  5
1DD7
330
1F
100
AcDbEntity
  8
SOLBET_Wymiary_Opisy
100
AcDbLine
 10
204.8665574787694
 20
201.7254591761631
 30
0.0
 11
233.5037409020141
 21
201.7254591761631
 31
0.0
  0
LINE
  5
1DD8
330
1F
100
AcDbEntity
  8
SOLBET_Emulsje_Folie
100
AcDbLine
 10
233.298674761193
 20
131.7254591761633
 30
0.0
 11
233.298674761193
 21
99.32545917616323
 31
0.0
  0
LINE
  5
1DD9
330
1F
100
AcDbEntity
  8
SOLBET_Wymiary_Opisy
100
AcDbLine
 10
286.7036045923444
 20
172.4426221147319
 30
0.0
 11
286.7036045923444
 21
147.9426221147319
 31
0.0
  0
LINE
  5
1DDA
330
1F
100
AcDbEntity
  8
SOLBET_Izolacja
100
AcDbLine
 10
231.7036045923445
 20
159.2995061204535
 30
0.0
 11
286.7036045923444
 21
159.2995061204535
 31
0.0
  0
LINE
  5
1DDB
330
1F
100
AcDbEntity
  8
SOLBET_Tynki_Posadzki
100
AcDbLine
 10
231.2036045923445
 20
164.6728129540087
 30
0.0
 11
231.2036045923445
 21
201.7254591761631
 31
0.0
  0
LINE
  5
1DDC
330
1F
100
AcDbEntity
  8
SOLBET_Izolacja
100
AcDbLine
 10
231.7036045923445
 20
161.7995061204535
 30
0.0
 11
286.7036045923444
 21
161.7995061204535
 31
0.0
  0
LINE
  5
1DDD
330
1F
100
AcDbEntity
  8
SOLBET_Izolacja
100
AcDbLine
 10
231.7036045923445
 20
159.2995061204535
 30
0.0
 11
231.7036045923445
 21
161.7995061204535
 31
0.0
  0
LINE
  5
1DDE
330
1F
100
AcDbEntity
  8
SOLBET_Tynki_Posadzki
100
AcDbLine
 10
232.0016707835343
 20
165.1728129540087
 30
0.0
 11
286.7036045923444
 21
165.1728129540087
 31
0.0
  0
LINE
  5
1DDF
330
1F
100
AcDbEntity
  8
SOLBET_Zaprawy
100
AcDbLine
 10
209.7036045923445
 20
159.6254591761631
 30
0.0
 11
209.7036045923445
 21
201.7254591761631
 31
0.0
  0
LINE
  5
1DE0
330
1F
100
AcDbEntity
  8
SOLBET_Tynki_Posadzki
100
AcDbLine
 10
208.9536045923445
 20
159.6254591761631
 30
0.0
 11
208.9536045923445
 21
201.7254591761631
 31
0.0
  0
LINE
  5
1DE1
330
1F
100
AcDbEntity
  8
SOLBET_Tynki_Posadzki
100
AcDbLine
 10
209.4202827858113
 20
159.6254591761633
 30
0.0
 11
209.4202827858113
 21
201.7254591761631
 31
0.0
  0
LINE
  5
1DE2
330
1F
100
AcDbEntity
  8
SOLBET_Tynki_Posadzki
100
AcDbLine
 10
209.4202827858113
 20
159.6254591761633
 30
0.0
 11
208.9536045923445
 21
159.6254591761631
 31
0.0
  0
LINE
  5
1DE3
330
1F
100
AcDbEntity
  8
SOLBET_Zaprawy
100
AcDbLine
 10
210.8380767533065
 20
131.7254591761633
 30
0.0
 11
210.8380767533065
 21
99.32545917616323
 31
0.0
  0
LINE
  5
1DE4
330
1F
100
AcDbEntity
  8
SOLBET_Zaprawy
100
AcDbLine
 10
210.8380767533065
 20
158.8254591761633
 30
0.0
 11
210.8380767533065
 21
133.2254591761631
 31
0.0
  0
LINE
  5
1DE5
330
1F
100
AcDbEntity
  8
SOLBET_Grunt
100
AcDbLine
 10
211.0380767533064
 20
143.8254591761633
 30
0.0
 11
177.0492459425895
 21
143.8254591761633
 31
0.0
  0
LINE
  5
1DE6
330
1F
100
AcDbEntity
  8
SOLBET_Wymiary_Opisy
100
AcDbLine
 10
176.8492459425895
 20
144.8674640724359
 30
0.0
 11
176.8492459425895
 21
134.3146319058702
 31
0.0
  0
LINE
  5
1DE7
330
1F
100
AcDbEntity
  8
SOLBET_Grunt
  6
Continuous
100
AcDbLine
 10
185.8451679240809
 20
140.6095940660536
 30
0.0
 11
182.9078326273899
 21
143.8254591761633
 31
0.0
  0
LINE
  5
1DE8
330
1F
100
AcDbEntity
  8
SOLBET_Grunt
  6
Continuous
100
AcDbLine
 10
185.5025879980493
 20
142.827575526132
 30
0.0
 11
184.591132210301
 21
143.8254591761633
 31
0.0
  0
LINE
  5
1DE9
330
1F
100
AcDbEntity
  8
SOLBET_Grunt
  6
Continuous
100
AcDbLine
 10
189.2117670899028
 20
140.6095940660536
 30
0.0
 11
186.2744317932119
 21
143.8254591761633
 31
0.0
  0
LINE
  5
1DEA
102
{ACAD_REACTORS
330
1E4B
102
}
330
1F
100
AcDbEntity
  8
SOLBET_Tynki_Posadzki
100
AcDbLine
 10
210.3380767533064
 20
158.8254591761633
 30
0.0
 11
210.3380767533064
 21
143.8254591761633
 31
0.0
  0
ARC
  5
1DEE
330
1F
100
AcDbEntity
  8
SOLBET_Tynki_Posadzki
100
AcDbCircle
 10
231.2036045923444
 20
165.1728129540087
 30
0.0
 40
1.5000521396288
100
AcDbArc
 50
0.0
 51
90.0
  0
LINE
  5
1DEF
330
1F
100
AcDbEntity
  8
SOLBET_Tynki_Posadzki
100
AcDbLine
 10
232.0016707835343
 20
165.1728129540087
 30
0.0
 11
232.0016707835343
 21
164.6728129540087
 31
0.0
  0
LINE
  5
1DF2
330
1F
100
AcDbEntity
  8
SOLBET_Emulsje_Folie
100
AcDbLine
 10
214.0257241747049
 20
158.8900343527035
 30
0.0
 11
214.0257241747049
 21
133.2254591761631
 31
0.0
  0
LINE
  5
1DF3
330
1F
100
AcDbEntity
  8
SOLBET_Emulsje_Folie
100
AcDbLine
 10
214.0257241747049
 20
131.7254591761633
 30
0.0
 11
214.0257241747049
 21
99.39115525896264
 31
0.0
  0
LINE
  5
1DF4
330
1F
100
AcDbEntity
  8
SOLBET_Emulsje_Folie
100
AcDbLine
 10
214.1356776849167
 20
158.8900343527035
 30
0.0
 11
233.2715314997722
 21
158.8900343527035
 31
0.0
  0
LINE
  5
1DF5
330
1F
100
AcDbEntity
  8
SOLBET_Wymiary_Opisy
100
AcDbLine
 10
189.8555415810071
 20
143.8254591761633
 30
0.0
 11
190.8457990214498
 21
133.2254591761631
 31
0.0
  0
LINE
  5
1DF6
330
1F
100
AcDbEntity
  8
SOLBET_Grunt
  6
Continuous
100
AcDbLine
 10
178.3813272900012
 20
140.6095940660536
 30
0.0
 11
181.3186625866921
 21
143.8254591761633
 31
0.0
  0
LINE
  5
1DF7
330
1F
100
AcDbEntity
  8
SOLBET_Grunt
  6
Continuous
100
AcDbLine
 10
178.7239072160327
 20
142.827575526132
 30
0.0
 11
179.6353630037811
 21
143.8254591761633
 31
0.0
  0
LINE
  5
1DF8
330
1F
100
AcDbEntity
  8
SOLBET_Wymiary_Opisy
100
AcDbLine
 10
193.1686831006358
 20
131.7254591761633
 30
0.0
 11
198.4764485337787
 21
74.90961382774182
 31
0.0
  0
LINE
  5
1DF9
330
1F
100
AcDbEntity
  8
SOLBET_Wymiary_Opisy
100
AcDbLine
 10
203.7597021533201
 20
74.90961382774182
 30
0.0
 11
198.4764485337787
 21
74.90961382774182
 31
0.0
  0
LINE
  5
1DFA
330
1F
100
AcDbEntity
  8
SOLBET_Emulsje_Folie
100
AcDbLine
 10
233.3700630497224
 20
158.8466496819515
 30
0.0
 11
286.7036045923444
 21
158.8466496819515
 31
0.0
  0
LINE
  5
1DFB
330
1F
100
AcDbEntity
  8
SOLBET_Emulsje_Folie
100
AcDbLine
 10
231.8184206420119
 20
164.9228129540087
 30
0.0
 11
231.8184206420119
 21
162.2453454340258
 31
0.0
  0
LINE
  5
1DFC
330
1F
100
AcDbEntity
  8
SOLBET_Emulsje_Folie
100
AcDbLine
 10
232.0684206420118
 20
161.9953454340256
 30
0.0
 11
286.7036045923444
 21
161.9953454340256
 31
0.0
  0
ARC
  5
1DFD
330
1F
100
AcDbEntity
  8
SOLBET_Emulsje_Folie
100
AcDbCircle
 10
232.0684206420118
 20
162.2453454340258
 30
0.0
 40
0.25
100
AcDbArc
 50
180.0
 51
270.0
  0
HATCH
  5
1DFE
330
1F
100
AcDbEntity
  8
SOLBET_Beton
100
AcDbHatch
 10
0.0
 20
0.0
 30
0.0
210
0.0
220
0.0
230
1.0
  2
ANSI31
 70
     0
 71
     1
 91
        1
 92
        7
 72
     0
 73
     1
 93
        4
 10
207.0036045923445
 20
78.40961382774183
 10
203.75970215332
 20
74.9096138277418
 10
243.6475070313688
 20
74.90961382774182
 10
240.4036045923444
 20
78.40961382774182
 97
        1
330
1DFF
 75
     0
 76
     1
 52
90.0
 41
0.5
 77
     0
 78
     1
 53
135.0
 43
124.921070823458
 44
31.29937937620707
 45
-1.122532015133644
 46
-1.122532015133643
 79
     0
 47
0.1037609677745876
 98
        1
 10
232.7810987576115
 20
76.94062636139097
1001
ACAD
1010
0.0
1020
0.0
1030
0.0
  0
LWPOLYLINE
  5
1DFF
102
{ACAD_REACTORS
330
1DFE
102
}
330
1F
100
AcDbEntity
  8
SOLBET_Beton
100
AcDbPolyline
 90
        4
 70
     1
 43
0.0
 10
203.7597021533201
 20
74.90961382774182
 10
243.6475070313688
 20
74.90961382774182
 10
240.4036045923444
 20
78.40961382774182
 10
207.0036045923445
 20
78.40961382774182
1001
ASO_SCHRAFF
1005
7CF
1070
     1
1002
{
1070
     1
1005
7CF
1002
}
1002
{
1070
     2
1005
7D4
1002
}
1002
{
1070
     4
1000
ANSI31
1040
0.1
1040
90.0
1070
     0
1000
T__SCHR
1070
   256
1000
VONLAYER
1040
50.0
1070
     1
1002
}
  0
ARC
  5
1E01
330
1F
100
AcDbEntity
  8
SOLBET_Emulsje_Folie
100
AcDbCircle
 10
213.6198813608749
 20
99.45570746604948
 30
0.0
 40
0.4109444937912224
100
AcDbArc
 50
292.2859814796673
 51
350.9624029180054
  0
HATCH
  5
1E02
330
1F
100
AcDbEntity
  8
SOLBET_Tynki_Posadzki
100
AcDbHatch
 10
0.0
 20
0.0
 30
0.0
210
0.0
220
0.0
230
1.0
  2
AR-CONC
 70
     0
 71
     1
 91
        1
 92
        7
 72
     1
 73
     1
 93
        5
 10
286.7036045923444
 20
162.1728129540089
 42
0.0
 10
286.7036045923445
 20
164.6728129540087
 42
0.0
 10
231.8184206420119
 20
164.6728129540087
 42
0.0
 10
231.8184206420119
 20
162.2453454340258
 42
0.0737237824442319
 10
231.8291738252251
 20
162.1728129540089
 42
0.0
 97
        1
330
1E03
 75
     0
 76
     1
 52
0.0
 41
0.03
 77
     0
 78
    13
 53
50.0
 43
124.921070823458
 44
31.29937937620707
 45
5.46554006988012
 46
-0.4781725661670926
 79
     2
 49
0.5715
 49
-6.2865
 53
355.0
 43
124.921070823458
 44
31.29937937620707
 45
-1.057284779270009
 46
5.731699286465398
 79
     2
 49
0.4572
 49
-5.029199999999999
 53
100.451
 43
125.376530823458
 44
31.25953187620707
 45
4.408275049978777
 46
5.253500634608755
 79
     2
 49
0.4857000000000001
 49
-5.342699999999999
 53
46.1842
 43
124.921070823458
 44
32.82337937620707
 45
8.132371226763897
 46
-1.261269837981814
 79
     2
 49
0.8572499999999999
 49
-9.429749999999998
 53
96.6356
 43
125.598767823458
 44
32.71827437620707
 45
7.122127033987114
 46
7.422766676701476
 79
     2
 49
0.7285500000000001
 49
-8.014049999999999
 53
351.184
 43
124.921070823458
 44
32.82337937620707
 45
7.122138174418017
 46
7.422753535817929
 79
     2
 49
0.6858
 49
-7.5438
 53
21.0
 43
125.6830708234579
 44
32.44237937620707
 45
4.548446395061498
 46
-3.067965555502874
 79
     2
 49
0.5715
 49
-6.2865
 53
326.0
 43
125.6830708234579
 44
32.44237937620707
 45
1.854060850429411
 46
5.525638983669577
 79
     2
 49
0.4572
 49
-5.029199999999999
 53
71.45140000000001
 43
126.0621058234579
 44
32.18671637620707
 45
6.402494723103733
 46
2.457685731481723
 79
     2
 49
0.4857000000000001
 49
-5.342699999999999
 53
37.5
 43
124.921070823458
 44
31.29937937620707
 45
0.0926580975177545
 46
2.536651166194593
 79
     6
 49
0.0
 49
-4.968239999999999
 49
0.0
 49
-5.1054
 49
0.0
 49
-5.04825
 53
7.499999999999999
 43
124.921070823458
 44
31.29937937620707
 45
2.004589875309172
 46
3.005417244543585
 79
     6
 49
0.0
 49
-2.910839999999999
 49
0.0
 49
-4.853939999999999
 49
0.0
 49
-1.92405
 53
327.5
 43
123.221810823458
 44
31.29937937620707
 45
4.067717855006141
 46
-0.1718623197802037
 79
     6
 49
0.0
 49
-1.905
 49
0.0
 49
-5.943599999999999
 49
0.0
 49
-7.886699999999999
 53
317.5
 43
122.459810823458
 44
31.29937937620707
 45
4.443875441580541
 46
0.7627947309999904
 79
     6
 49
0.0
 49
-2.476499999999999
 49
0.0
 49
-3.947159999999999
 49
0.0
 49
-5.600699999999999
 47
0.0387476598051738
 98
        1
 10
249.0093314768885
 20
163.3746666947663
1001
ACAD
1010
0.0
1020
0.0
1030
0.0
  0
LWPOLYLINE
  5
1E03
102
{ACAD_REACTORS
330
1E02
102
}
330
1F
100
AcDbEntity
  8
SOLBET_Tynki_Posadzki
100
AcDbPolyline
 90
        5
 70
     1
 43
0.0
 10
231.8184206420119
 20
162.2453454340258
 42
0.0737237824442277
 10
231.8291738252251
 20
162.1728129540089
 10
286.7036045923444
 20
162.1728129540089
 10
286.7036045923445
 20
164.6728129540087
 10
231.8184206420119
 20
164.6728129540087
1001
ASO_SCHRAFF
1005
0
1070
     1
1002
{
1070
     1
1005
0
1002
}
1002
{
1070
     2
1005
0
1002
}
1002
{
1070
     4
1000
AR-CONC
1040
0.01
1040
0.0
1070
     0
1000
T__SCHR
1070
   256
1000
_bylayer
1040
50.0
1070
     1
1002
}
  0
HATCH
  5
1E04
330
1F
100
AcDbEntity
  8
SOLBET_Beton
100
AcDbHatch
 10
0.0
 20
0.0
 30
0.0
210
0.0
220
0.0
230
1.0
  2
ANSI33
 70
     0
 71
     1
 91
        1
 92
        7
 72
     0
 73
     1
 93
        4
 10
286.7036045923444
 20
151.1254591761631
 10
286.7036045923444
 20
158.6254591761631
 10
233.3475617529216
 20
158.6254591761631
 10
233.3475617529216
 20
151.1254591761631
 97
        1
330
1E05
 75
     0
 76
     1
 52
0.0
 41
0.75
 77
     0
 78
     2
 53
45.0
 43
124.921070823458
 44
31.29937937620707
 45
-3.367596045400931
 46
3.367596045400932
 79
     0
 53
45.0
 43
128.2886683234579
 44
31.29937937620707
 45
-3.367596045400931
 46
3.367596045400932
 79
     2
 49
2.381249999999999
 49
-1.190624999999999
 47
0.0587362888947614
 98
        1
 10
261.0240325720545
 20
154.4524558053454
1001
ACAD
1010
0.0
1020
0.0
1030
0.0
  0
LWPOLYLINE
  5
1E05
102
{ACAD_REACTORS
330
1E04
102
}
330
1F
100
AcDbEntity
  8
SOLBET_Beton
100
AcDbPolyline
 90
        4
 70
     1
 43
0.0
 10
233.3475617529216
 20
158.6254591761631
 10
286.7036045923444
 20
158.6254591761631
 10
286.7036045923444
 20
151.1254591761631
 10
233.3475617529216
 20
151.1254591761631
  0
LINE
  5
1E09
330
1F
100
AcDbEntity
  8
SOLBET_Izolacja
  6
BATTING
 48
0.12
100
AcDbLine
 10
212.2536045923444
 20
99.32545917616323
 30
0.0
 11
212.2536045923444
 21
131.7254591761633
 31
0.0
  0
LINE
  5
1E0A
330
1F
100
AcDbEntity
  8
SOLBET_Izolacja
  6
BATTING
 48
0.12
100
AcDbLine
 10
212.2536045923444
 20
133.2254591761631
 30
0.0
 11
212.2536045923444
 21
158.8254591824403
 31
0.0
  0
LWPOLYLINE
  5
1E0B
330
1F
100
AcDbEntity
  8
SOLBET_Izolacja
100
AcDbPolyline
 90
        4
 70
     1
 43
0.0
 10
230.7036045923445
 20
159.2995061204535
 10
231.7036045923445
 20
159.2995061204535
 10
231.7036045923445
 20
164.6728129540087
 10
230.7036045923445
 20
164.6728129540087
  0
LINE
  5
1E0C
330
1F
100
AcDbEntity
  8
SOLBET_Izolacja
  6
BATTING
 48
0.049
100
AcDbLine
 10
231.2036045923444
 20
159.2995061204535
 30
0.0
 11
231.2036045923445
 21
164.6728129540087
 31
0.0
  0
LINE
  5
1E0D
330
1F
100
AcDbEntity
  8
SOLBET_Izolacja
  6
BATTING
 48
0.12
100
AcDbLine
 10
231.7036045923445
 20
160.5495061204535
 30
0.0
 11
286.7036045923444
 21
160.5495061204535
 31
0.0
  0
LINE
  5
1E0E
330
1F
100
AcDbEntity
  8
SOLBET_Zaprawy
100
AcDbLine
 10
209.4202827858113
 20
159.6254591761633
 30
0.0
 11
209.7036045923445
 21
159.6254591761633
 31
0.0
  0
LINE
  5
1E0F
330
1F
100
AcDbEntity
  8
SOLBET_Zaprawy
100
AcDbLine
 10
209.4202827858113
 20
201.7254591761631
 30
0.0
 11
209.4202827858113
 21
159.6254591761633
 31
0.0
  0
MLINE
  5
1E10
330
1F
100
AcDbEntity
  8
SOLBET_Emulsje_Folie
100
AcDbMline
  2
SOLBET_IZOLACJA
340
7E9
 40
20.0
 70
     0
 71
     1
 72
     2
 73
     2
 10
234.9709458074169
 20
158.9347702365785
 30
0.0
210
0.0
220
0.0
230
1.0
 11
234.9709458074169
 21
158.9347702365785
 31
0.0
 12
-1.0
 22
0.0
 32
0.0
 13
-2.220446049250313E-16
 23
-1.0
 33
0.0
 74
     2
 41
0.0
 41
0.0
 75
     0
 74
     2
 41
-0.32
 41
0.0
 75
     0
 11
207.3078755221461
 21
158.9347702365785
 31
0.0
 12
-1.0
 22
0.0
 32
0.0
 13
-2.220446049250313E-16
 23
-1.0
 33
0.0
 74
     2
 41
0.0
 41
0.0
 75
     0
 74
     2
 41
-0.32
 41
0.0
 75
     0
  0
LINE
  5
1E11
330
1F
100
AcDbEntity
  8
SOLBET_Emulsje_Folie
  6
DASHED2
370
    30
100
AcDbLine
 10
207.3078755221461
 20
159.0947702365785
 30
0.0
 11
234.9709458074169
 21
159.0947702365785
 31
0.0
  0
HATCH
  5
1E14
330
1F
100
AcDbEntity
  8
SOLBET_Grunt
100
AcDbHatch
 10
0.0
 20
0.0
 30
0.0
210
0.0
220
0.0
230
1.0
  2
DOTS
 70
     0
 71
     0
 91
        1
 92
        7
 72
     0
 73
     1
 93
        4
 10
286.7036045923444
 20
151.1254591761631
 10
233.3475617529216
 20
151.1254591761631
 10
233.3475617529216
 20
132.1543487729959
 10
286.7036045923444
 20
132.1543487729959
 97
        0
 75
     0
 76
     1
 52
15.0
 41
2.0
 77
     0
 78
     1
 53
15.0
 43
124.921070823458
 44
31.29937937620707
 45
0.7116567810333926
 46
3.477689732568043
 79
     2
 49
0.0
 49
-3.174999999999999
 47
0.2279549769179412
 98
        1
 10
276.8953964745117
 20
141.4614081068121
1001
ACAD
1010
0.0
1020
0.0
1030
0.0
  0
MTEXT
  5
1E15
102
{ACAD_XDICTIONARY
360
1E16
102
}
330
1F
100
AcDbEntity
  8
SOLBET_Wymiary_Opisy
100
AcDbMText
 10
12.81244090445148
 20
289.8967110907779
 30
0.0
 40
5.0
 41
124.2624847080697
 71
     1
 72
     5
  1
{\fISOCPEUR|b0|i0|c0|p34;\LDETAL 1\P\lPosadowienie na \fISOCPEUR|b1|i0|c238|p34;\U+0142\fISOCPEUR|b0|i0|c238|p34;awie fundamentowej w gruntach przepuszczalnych}
  7
Solbet_5
 73
     1
 44
1.0
1001
AcadAnnotative
1000
AnnotativeData
1002
{
1070
     1
1070
     0
1002
}
1001
ACAD
1000
MTEXTBEGIN
1070
    73
1070
     1
1070
    44
1040
1.0
1070
    74
1070
     0
1000
MTEXTEND
  0
MTEXT
  5
1E1A
102
{ACAD_XDICTIONARY
360
29DE
102
}
330
1F
100
AcDbEntity
  8
SOLBET_Wymiary_Opisy
100
AcDbMText
 10
22.78139776336002
 20
39.74844296130141
 30
0.0
 40
2.5
 41
106.5971338885356
 71
     1
 72
     5
  1
{\LUWAGA:\P}Systemy hydroizolacji stosowa\U+0107 wg zalece\U+0144 producent\U+00F3w.\PStyropian wodoodporny wg zalece\U+0144 producent\U+00F3w.
  7
Solbet_2_5
 73
     1
 44
1.0
1001
ACAD
1000
MTEXTBEGIN
1070
    73
1070
     1
1070
    44
1040
1.0
1070
    74
1070
     0
1000
MTEXTEND
  0
LEADER
  5
1E1B
330
1F
100
AcDbEntity
  8
SOLBET_Wymiary_Opisy
100
AcDbLeader
  3
Solbet$7
 73
     0
 74
     0
 75
     1
 40
3.5
 41
37.25
 76
     3
 10
263.078896611401
 20
255.5110070652699
 30
0.0
 10
287.7804802315427
 20
264.6306117859444
 30
0.0
 10
290.2804802315427
 20
264.6306117859444
 30
0.0
340
1E1C
213
1.177601578005123
223
-0.1753245211093599
233
0.0
1001
ACAD
1000
DSTYLE
1002
{
1070
   147
1040
0.625
1070
    77
1070
     1
1002
}
  0
MTEXT
  5
1E1C
102
{ACAD_XDICTIONARY
360
29E0
102
}
102
{ACAD_REACTORS
330
1E1B
102
}
330
1F
100
AcDbEntity
  8
SOLBET_Wymiary_Opisy
100
AcDbMText
 10
289.7278786535376
 20
268.9309363070537
 30
0.0
 40
2.5
 41
0.0
 71
     1
 72
     1
  1
Warstwa wyko\U+0144czeniowa
  7
Solbet_2_5
 73
     1
 44
1.0
1001
ACAD
1000
MTEXTBEGIN
1070
    73
1070
     1
1070
    44
1040
1.0
1070
    74
1070
     0
1000
MTEXTEND
  0
LEADER
  5
1E1D
330
1F
100
AcDbEntity
  8
SOLBET_Wymiary_Opisy
100
AcDbLeader
  3
Solbet$7
 73
     0
 74
     0
 75
     1
 40
3.25
 41
32.5
 76
     3
 10
263.6371651205081
 20
247.7448882488511
 30
0.0
 10
286.6028786535376
 20
258.3894052553536
 30
0.0
 10
289.1028786535376
 20
258.3894052553536
 30
0.0
340
1E1E
213
0.0
223
-0.2322806831707567
233
0.0
1001
ACAD
1000
DSTYLE
1002
{
1070
   147
1040
0.625
1070
    77
1070
     1
1002
}
  0
MTEXT
  5
1E1E
102
{ACAD_REACTORS
330
1E1D
102
}
330
1F
100
AcDbEntity
  8
SOLBET_Wymiary_Opisy
100
AcDbMText
 10
289.7278786535376
 20
262.4966859385244
 30
0.0
 40
2.5
 41
0.0
 71
     1
 72
     1
  1
Wylewka jastrychowa
  7
Solbet_2_5
 73
     1
 44
1.0
1001
ACAD
1000
MTEXTBEGIN
1070
    73
1070
     1
1070
    44
1040
1.0
1070
    74
1070
     0
1000
MTEXTEND
  0
LEADER
  5
1E1F
330
1F
100
AcDbEntity
  8
SOLBET_Wymiary_Opisy
100
AcDbLeader
  3
Solbet$7
 73
     0
 74
     0
 75
     1
 40
3.25
 41
19.75
 76
     3
 10
265.6757139542074
 20
240.8512285491612
 30
0.0
 10
286.6028786535376
 20
252.1542481765759
 30
0.0
 10
289.1028786535376
 20
252.1542481765759
 30
0.0
340
1E20
213
0.0
223
-0.2322806831707567
233
0.0
1001
ACAD
1000
DSTYLE
1002
{
1070
   147
1040
0.625
1070
    77
1070
     1
1002
}
  0
MTEXT
  5
1E20
102
{ACAD_REACTORS
330
1E1F
102
}
330
1F
100
AcDbEntity
  8
SOLBET_Wymiary_Opisy
100
AcDbMText
 10
289.7278786535376
 20
256.2615288597466
 30
0.0
 40
2.5
 41
0.0
 71
     1
 72
     1
  1
Hydroizolacja
  7
Solbet_2_5
 73
     1
 44
1.0
1001
ACAD
1000
MTEXTBEGIN
1070
    73
1070
     1
1070
    44
1040
1.0
1070
    74
1070
     0
1000
MTEXTEND
  0
LEADER
  5
1E21
330
1F
100
AcDbEntity
  8
SOLBET_Wymiary_Opisy
100
AcDbLeader
  3
Solbet$7
 73
     0
 74
     0
 75
     1
 40
3.25
 41
36.5
 76
     3
 10
270.1611849191158
 20
233.5364890948981
 30
0.0
 10
286.6028786535376
 20
245.682305057639
 30
0.0
 10
289.1028786535376
 20
245.682305057639
 30
0.0
340
1E22
213
0.0
223
-0.2322806831707567
233
0.0
1001
ACAD
1000
DSTYLE
1002
{
1070
   147
1040
0.625
1070
    77
1070
     1
1002
}
  0
MTEXT
  5
1E22
102
{ACAD_XDICTIONARY
360
29E2
102
}
102
{ACAD_REACTORS
330
1E21
102
}
330
1F
100
AcDbEntity
  8
SOLBET_Wymiary_Opisy
100
AcDbMText
 10
289.7278786535376
 20
249.7895857408098
 30
0.0
 40
2.5
 41
0.0
 71
     1
 72
     1
  1
P\U+0142yty izolacyjne twarde
  7
Solbet_2_5
 73
     1
 44
1.0
1001
ACAD
1000
MTEXTBEGIN
1070
    73
1070
     1
1070
    44
1040
1.0
1070
    74
1070
     0
1000
MTEXTEND
  0
LEADER
  5
1E23
330
1F
100
AcDbEntity
  8
SOLBET_Wymiary_Opisy
100
AcDbLeader
  3
Solbet$7
 73
     0
 74
     0
 75
     1
 40
3.25
 41
19.75
 76
     3
 10
273.4069247006309
 20
225.1077497887907
 30
0.0
 10
286.6028786535376
 20
239.3682230923609
 30
0.0
 10
289.1028786535376
 20
239.3682230923609
 30
0.0
340
1E24
213
0.0
223
-0.2322806831707567
233
0.0
1001
ACAD
1000
DSTYLE
1002
{
1070
   147
1040
0.625
1070
    77
1070
     1
1002
}
  0
MTEXT
  5
1E24
102
{ACAD_REACTORS
330
1E23
102
}
330
1F
100
AcDbEntity
  8
SOLBET_Wymiary_Opisy
100
AcDbMText
 10
289.7278786535376
 20
243.4755037755317
 30
0.0
 40
2.5
 41
0.0
 71
     1
 72
     1
  1
Hydroizolacja
  7
Solbet_2_5
 73
     1
 44
1.0
1001
ACAD
1000
MTEXTBEGIN
1070
    73
1070
     1
1070
    44
1040
1.0
1070
    74
1070
     0
1000
MTEXTEND
  0
LEADER
  5
1E25
330
1F
100
AcDbEntity
  8
SOLBET_Wymiary_Opisy
100
AcDbLeader
  3
Solbet$7
 73
     0
 74
     0
 75
     1
 40
3.25
 41
18.75
 76
     3
 10
267.7336803887258
 20
155.2001197337504
 30
0.0
 10
288.3751221878877
 20
136.5681319361897
 30
0.0
 10
290.8751221878877
 20
136.5681319361897
 30
0.0
340
1E26
213
0.0
223
-0.2322806831707567
233
0.0
1001
ACAD
1000
DSTYLE
1002
{
1070
   147
1040
0.625
1070
    77
1070
     1
1002
}
  0
MTEXT
  5
1E26
102
{ACAD_REACTORS
330
1E25
102
}
330
1F
100
AcDbEntity
  8
SOLBET_Wymiary_Opisy
100
AcDbMText
 10
291.5001221878877
 20
140.6754126193605
 30
0.0
 40
2.5
 41
0.0
 71
     1
 72
     1
  1
Chudy beton
  7
Solbet_2_5
 73
     1
 44
1.0
1001
ACAD
1000
MTEXTBEGIN
1070
    73
1070
     1
1070
    44
1040
1.0
1070
    74
1070
     0
1000
MTEXTEND
  0
LEADER
  5
1E27
330
1F
100
AcDbEntity
  8
SOLBET_Wymiary_Opisy
100
AcDbLeader
  3
Solbet$7
 73
     0
 74
     0
 75
     1
 40
3.25
 41
30.25
 76
     3
 10
268.0694492086579
 20
140.9353939389639
 30
0.0
 10
288.3751221878877
 20
130.3329634767519
 30
0.0
 10
290.8751221878877
 20
130.3329634767519
 30
0.0
340
1E28
213
0.0
223
-0.2322806831707567
233
0.0
1001
ACAD
1000
DSTYLE
1002
{
1070
   147
1040
0.625
1070
    77
1070
     1
1002
}
  0
MTEXT
  5
1E28
102
{ACAD_XDICTIONARY
360
29E4
102
}
102
{ACAD_REACTORS
330
1E27
102
}
330
1F
100
AcDbEntity
  8
SOLBET_Wymiary_Opisy
100
AcDbMText
 10
291.5001221878877
 20
134.4402441599227
 30
0.0
 40
2.5
 41
0.0
 71
     1
 72
     1
  1
Zag\U+0119szczony piasek
  7
Solbet_2_5
 73
     1
 44
1.0
1001
ACAD
1000
MTEXTBEGIN
1070
    73
1070
     1
1070
    44
1040
1.0
1070
    74
1070
     0
1000
MTEXTEND
  0
LEADER
  5
1E29
330
1F
100
AcDbEntity
  8
SOLBET_Wymiary_Opisy
100
AcDbLeader
  3
Solbet$7
 73
     0
 75
     1
 40
3.25
 41
39.25
 76
     3
 10
87.55447650767701
 20
201.5483152431212
 30
0.0
 10
75.43545145038547
 20
209.1817647618832
 30
0.0
 10
72.93545145038547
 20
209.1817647618832
 30
0.0
340
1E2A
213
1.177601578005123
223
-0.1753245211093599
233
0.0
1001
ACAD
1000
DSTYLE
1002
{
1070
   147
1040
0.625
1070
    77
1070
     1
1002
}
  0
MTEXT
  5
1E2A
102
{ACAD_XDICTIONARY
360
29E6
102
}
102
{ACAD_REACTORS
330
1E29
102
}
330
1F
100
AcDbEntity
  8
SOLBET_Wymiary_Opisy
100
AcDbMText
 10
71.13284987238035
 20
213.2320892829925
 30
0.0
 40
2.5
 41
0.0
 71
     3
 72
     1
  1
Tynk zewn\U+0119trzny SOLBET
  7
Solbet_2_5
 73
     1
 44
1.0
1001
ACAD
1000
MTEXTBEGIN
1070
    73
1070
     1
1070
    44
1040
1.0
1070
    74
1070
     0
1000
MTEXTEND
  0
LEADER
  5
1E2D
330
1F
100
AcDbEntity
  8
SOLBET_Wymiary_Opisy
100
AcDbLeader
  3
Solbet$7
 73
     0
 75
     1
 40
2.501893939393939
 41
32.0
 76
     3
 10
222.5141359398433
 20
192.2646007327712
 30
0.0
 10
190.7436217366223
 20
210.8425231356778
 30
0.0
 10
188.2436217366223
 20
210.8425231356778
 30
0.0
340
1E2E
213
1.177601578005123
223
-0.1753245211093599
233
0.0
1001
ACAD
1000
DSTYLE
1002
{
1070
   147
1040
0.625
1070
    77
1070
     1
1002
}
  0
MTEXT
  5
1E2E
102
{ACAD_REACTORS
330
1E2D
102
}
330
1F
100
AcDbEntity
  8
SOLBET_Wymiary_Opisy
100
AcDbMText
 10
186.4410201586172
 20
214.1447415961811
 30
0.0
 40
2.5
 41
0.0
 71
     3
 72
     1
  1
Bloczki SOLBET Ideal
  7
Solbet_2_5
 73
     1
 44
1.0
1001
ACAD
1000
MTEXTBEGIN
1070
    73
1070
     1
1070
    44
1040
1.0
1070
    74
1070
     0
1000
MTEXTEND
  0
LWPOLYLINE
  5
1E32
330
1F
100
AcDbEntity
  8
SOLBET_Bloczki
100
AcDbPolyline
 90
        4
 70
     0
 43
0.0
 10
209.7036045923445
 20
201.7254591761631
 10
209.7036045923445
 20
195.6254591761631
 10
230.7036045923445
 20
195.6254591761631
 10
230.7036045923445
 20
201.7254591761631
  0
LEADER
  5
1E33
330
1F
100
AcDbEntity
  8
SOLBET_Wymiary_Opisy
100
AcDbLeader
  3
Solbet$7
 73
     0
 75
     1
 40
3.25
 41
39.75
 76
     3
 10
230.9287172631514
 20
198.0165690723806
 30
0.0
 10
190.7436217366223
 20
217.2965075709963
 30
0.0
 10
188.2436217366223
 20
217.2965075709963
 30
0.0
340
1E34
213
1.177601578005123
223
-0.1753245211093599
233
0.0
1001
ACAD
1000
DSTYLE
1002
{
1070
   147
1040
0.625
1070
    77
1070
     1
1002
}
  0
MTEXT
  5
1E34
102
{ACAD_XDICTIONARY
360
29E8
102
}
102
{ACAD_REACTORS
330
1E33
102
}
330
1F
100
AcDbEntity
  8
SOLBET_Wymiary_Opisy
100
AcDbMText
 10
186.4410201586172
 20
221.3468320921057
 30
0.0
 40
2.5
 41
0.0
 71
     3
 72
     1
  1
Tynk wewn\U+0119trzny SOLBET
  7
Solbet_2_5
 73
     1
 44
1.0
1001
ACAD
1000
MTEXTBEGIN
1070
    73
1070
     1
1070
    44
1040
1.0
1070
    74
1070
     0
1000
MTEXTEND
  0
LEADER
  5
1E35
330
1F
100
AcDbEntity
  8
SOLBET_Wymiary_Opisy
100
AcDbLeader
  3
Solbet$7
 73
     0
 75
     1
 40
3.25
 41
21.5
 76
     3
 10
88.33750738061098
 20
185.9517252534922
 30
0.0
 10
75.43545145038547
 20
193.5315176119893
 30
0.0
 10
72.93545145038547
 20
193.5315176119893
 30
0.0
340
1E36
213
1.177601578005123
223
-0.1753245211093599
233
0.0
1001
ACAD
1000
DSTYLE
1002
{
1070
   147
1040
0.625
1070
    77
1070
     1
1002
}
  0
MTEXT
  5
1E36
102
{ACAD_REACTORS
330
1E35
102
}
330
1F
100
AcDbEntity
  8
SOLBET_Wymiary_Opisy
100
AcDbMText
 10
71.13284987238035
 20
197.5818421330987
 30
0.0
 40
2.5
 41
0.0
 71
     3
 72
     1
  1
Izolacja z folii
  7
Solbet_2_5
 73
     1
 44
1.0
1001
ACAD
1000
MTEXTBEGIN
1070
    73
1070
     1
1070
    44
1040
1.0
1070
    74
1070
     0
1000
MTEXTEND
  0
LEADER
  5
1E37
330
1F
100
AcDbEntity
  8
SOLBET_Wymiary_Opisy
100
AcDbLeader
  3
Solbet$7
 73
     0
 75
     1
 40
3.25
 41
25.25
 76
     3
 10
114.8027785671975
 20
184.978744872996
 30
0.0
 10
75.43545145038547
 20
200.7238569353681
 30
0.0
 10
72.93545145038547
 20
200.7238569353681
 30
0.0
340
1E38
213
1.177601578005123
223
-0.1753245211093599
233
0.0
1001
ACAD
1000
DSTYLE
1002
{
1070
   147
1040
0.625
1070
    77
1070
     1
1002
}
  0
MTEXT
  5
1E38
102
{ACAD_XDICTIONARY
360
29EA
102
}
102
{ACAD_REACTORS
330
1E37
102
}
330
1F
100
AcDbEntity
  8
SOLBET_Wymiary_Opisy
100
AcDbMText
 10
71.13284987238035
 20
204.7741814564774
 30
0.0
 40
2.5
 41
0.0
 71
     3
 72
     1
  1
Emulsja izoluj\U+0105ca
  7
Solbet_2_5
 73
     1
 44
1.0
1001
ACAD
1000
MTEXTBEGIN
1070
    73
1070
     1
1070
    44
1040
1.0
1070
    74
1070
     0
1000
MTEXTEND
  0
LEADER
  5
1E39
330
1F
100
AcDbEntity
  8
SOLBET_Wymiary_Opisy
100
AcDbLeader
  3
Solbet$7
 73
     0
 75
     1
 40
3.25
 41
22.75
 76
     3
 10
94.4941143148817
 20
174.6426750856898
 30
0.0
 10
75.43545145038547
 20
184.3633855510758
 30
0.0
 10
72.93545145038547
 20
184.3633855510758
 30
0.0
340
1E3A
213
1.177601578005123
223
-1.328928243885343
233
0.0
1001
ACAD
1000
DSTYLE
1002
{
1070
   147
1040
0.625
1070
    77
1070
     1
1002
}
  0
MTEXT
  5
1E3A
102
{ACAD_XDICTIONARY
360
29EC
102
}
102
{ACAD_REACTORS
330
1E39
102
}
330
1F
100
AcDbEntity
  8
SOLBET_Wymiary_Opisy
100
AcDbMText
 10
71.13284987238035
 20
189.5673137949611
 30
0.0
 40
2.5
 41
0.0
 71
     3
 72
     1
  1
Tynk coko\U+0142owy
  7
Solbet_2_5
 73
     1
 44
1.0
1001
ACAD
1000
MTEXTBEGIN
1070
    73
1070
     1
1070
    44
1040
1.0
1070
    74
1070
     0
1000
MTEXTEND
  0
LEADER
  5
1E3B
330
1F
100
AcDbEntity
  8
SOLBET_Wymiary_Opisy
100
AcDbLeader
  3
Solbet$7
 73
     0
 75
     1
 40
7.666666666666666
 41
52.75
 76
     3
 10
211.6165973478761
 20
148.7617381851505
 30
0.0
 10
203.7078226918231
 20
153.845263380048
 30
0.0
 10
201.2078226918232
 20
153.845263380048
 30
0.0
340
1E3C
213
1.177601578005123
223
4.34859754619417
233
0.0
1001
ACAD
1000
DSTYLE
1002
{
1070
   147
1040
0.625
1070
    77
1070
     1
1002
}
  0
MTEXT
  5
1E3C
102
{ACAD_XDICTIONARY
360
29EE
102
}
102
{ACAD_REACTORS
330
1E3B
102
}
330
1F
100
AcDbEntity
  8
SOLBET_Wymiary_Opisy
100
AcDbMText
 10
199.405221113818
 20
157.7883325005205
 30
0.0
 40
2.5
 41
0.0
 71
     3
 72
     1
  1
Mocowanie mechaniczne styropianu\P(w cz\U+0119\U+015Bci naziemnej)
  7
Solbet_2_5
 73
     1
 44
1.0
1001
ACAD
1000
MTEXTBEGIN
1070
    73
1070
     1
1070
    44
1040
1.0
1070
    74
1070
     0
1000
MTEXTEND
  0
LEADER
  5
1E3F
330
1F
100
AcDbEntity
  8
SOLBET_Wymiary_Opisy
100
AcDbLeader
  3
Solbet$7
 73
     0
 40
3.25
 41
35.5
 76
     2
 10
212.4536045923444
 20
122.8671486932453
 30
0.0
 10
186.03336401329
 20
117.326481217525
 30
0.0
340
1E40
213
1.177601578005123
223
-0.1753245211093599
233
0.0
1001
ACAD
1000
DSTYLE
1002
{
1070
   147
1040
0.625
1070
    77
1070
     1
1002
}
  0
MTEXT
  5
1E40
102
{ACAD_REACTORS
330
1E3F
102
}
330
1F
100
AcDbEntity
  8
SOLBET_Wymiary_Opisy
100
AcDbMText
 10
184.2307624352849
 20
121.3768057386343
 30
0.0
 40
2.5
 41
0.0
 71
     3
 72
     1
  1
Styropian wodoodporny
  7
Solbet_2_5
 73
     1
 44
1.0
1001
ACAD
1000
MTEXTBEGIN
1070
    73
1070
     1
1070
    44
1040
1.0
1070
    74
1070
     0
1000
MTEXTEND
  0
LEADER
  5
1E41
330
1F
100
AcDbEntity
  8
SOLBET_Wymiary_Opisy
100
AcDbLeader
  3
Solbet$7
 73
     0
 40
3.25
 41
19.75
 76
     2
 10
214.0257241747049
 20
111.300624439424
 30
0.0
 10
186.03336401329
 20
104.3786402056756
 30
0.0
340
1E42
213
1.177601578005123
223
-0.1753245211093599
233
0.0
1001
ACAD
1000
DSTYLE
1002
{
1070
   147
1040
0.625
1070
    77
1070
     1
1002
}
  0
MTEXT
  5
1E42
102
{ACAD_REACTORS
330
1E41
102
}
330
1F
100
AcDbEntity
  8
SOLBET_Wymiary_Opisy
100
AcDbMText
 10
184.2307624352849
 20
108.4289647267849
 30
0.0
 40
2.5
 41
0.0
 71
     3
 72
     1
  1
Hydroizolacja
  7
Solbet_2_5
 73
     1
 44
1.0
1001
ACAD
1000
MTEXTBEGIN
1070
    73
1070
     1
1070
    44
1040
1.0
1070
    74
1070
     0
1000
MTEXTEND
  0
LEADER
  5
1E43
330
1F
100
AcDbEntity
  8
SOLBET_Wymiary_Opisy
100
AcDbLeader
  3
Solbet$7
 73
     0
 74
     0
 75
     1
 40
2.501893939393939
 41
33.5
 76
     3
 10
223.834700076389
 20
110.0709322326353
 30
0.0
 10
245.0451071616494
 20
123.4005701429448
 30
0.0
 10
247.5451071616494
 20
123.4005701429448
 30
0.0
340
1E44
213
1.177601578005123
223
-0.1753245211093599
233
0.0
1001
ACAD
1000
DSTYLE
1002
{
1070
   147
1040
0.625
1070
    77
1070
     1
1002
}
  0
MTEXT
  5
1E44
102
{ACAD_REACTORS
330
1E43
102
}
330
1F
100
AcDbEntity
  8
SOLBET_Wymiary_Opisy
100
AcDbMText
 10
280.4925055836443
 20
126.7027886034481
 30
0.0
 40
2.5
 41
0.0
 71
     3
 72
     1
  1
Bloczki fundamentowe
  7
Solbet_2_5
 73
     1
 44
1.0
1001
ACAD
1000
MTEXTBEGIN
1070
    73
1070
     1
1070
    44
1040
1.0
1070
    74
1070
     0
1000
MTEXTEND
  0
LEADER
  5
1E45
330
1F
100
AcDbEntity
  8
SOLBET_Wymiary_Opisy
100
AcDbLeader
  3
Solbet$7
 73
     0
 74
     0
 75
     1
 40
3.25
 41
19.75
 76
     3
 10
233.298674761193
 20
105.7720922575305
 30
0.0
 10
244.5433052508438
 20
114.5557170419657
 30
0.0
 10
247.0433052508438
 20
114.5557170419657
 30
0.0
340
1E46
213
1.177601578005123
223
-0.1753245211093599
233
0.0
1001
ACAD
1000
DSTYLE
1002
{
1070
   147
1040
0.625
1070
    77
1070
     1
1002
}
  0
MTEXT
  5
1E46
102
{ACAD_REACTORS
330
1E45
102
}
330
1F
100
AcDbEntity
  8
SOLBET_Wymiary_Opisy
100
AcDbMText
 10
266.2407036728386
 20
118.6060415630751
 30
0.0
 40
2.5
 41
0.0
 71
     3
 72
     1
  1
Hydroizolacja
  7
Solbet_2_5
 73
     1
 44
1.0
1001
ACAD
1000
MTEXTBEGIN
1070
    73
1070
     1
1070
    44
1040
1.0
1070
    74
1070
     0
1000
MTEXTEND
  0
LEADER
  5
1E47
330
1F
100
AcDbEntity
  8
SOLBET_Wymiary_Opisy
100
AcDbLeader
  3
Solbet$7
 73
     0
 74
     0
 75
     1
 40
7.416666666666666
 41
27.5
 76
     3
 10
234.5741953085774
 20
98.77555185723577
 30
0.0
 10
243.6411262468202
 20
105.1168140974983
 30
0.0
 10
246.1411262468203
 20
105.1168140974983
 30
0.0
340
1E48
213
0.625
223
0.625
233
0.0
1001
ACAD
1000
DSTYLE
1002
{
1070
   147
1040
0.625
1070
    77
1070
     1
1002
}
  0
MTEXT
  5
1E48
102
{ACAD_XDICTIONARY
360
280B
102
}
102
{ACAD_REACTORS
330
1E47
102
}
330
1F
100
AcDbEntity
  8
SOLBET_Wymiary_Opisy
100
AcDbMText
 10
246.1411262468203
 20
112.533480764165
 30
0.0
 40
2.5
 41
0.0
 71
     1
 72
     1
  1
\pxql;Emulsja izolazyjna\Plub izolacja z folii
  7
Solbet_2_5
 73
     1
 44
1.0
1001
ACAD
1000
MTEXTBEGIN
1070
    73
1070
     1
1070
    44
1040
1.0
1070
    74
1070
     0
1000
MTEXTEND
  0
DIMENSION
  5
1E49
102
{ACAD_XDICTIONARY
360
1E4A
102
}
102
{ACAD_REACTORS
330
1E4B
102
}
330
1F
100
AcDbEntity
  8
SOLBET_Wymiary_Opisy
100
AcDbDimension
  2
*D2
 10
141.4937729331069
 20
143.8254591761633
 30
0.0
 11
141.4937729331068
 21
151.6282081220597
 31
0.0
 70
   160
  1
Min. 30cm
 71
     5
 42
14.99999999999997
  3
Solbet
100
AcDbAlignedDimension
 13
210.5380767533064
 23
158.8254591761633
 33
0.0
 14
210.3380767533064
 24
143.8254591761633
 34
0.0
 50
90.0
100
AcDbRotatedDimension
  0
CIRCLE
  5
1E59
330
1F
100
AcDbEntity
  8
SOLBET_Wymiary_Opisy
100
AcDbCircle
 10
210.5832037847763
 20
159.0947702365785
 30
0.0
 40
5.102418751818163
  0
LINE
  5
1E6E
330
1F
100
AcDbEntity
  8
SOLBET_Tynki_Posadzki
100
AcDbLine
 10
210.3380767533064
 20
158.8254591761633
 30
0.0
 11
210.8380767533065
 21
158.8254591761633
 31
0.0
  0
LINE
  5
1E6F
330
1F
100
AcDbEntity
  8
SOLBET_Zaprawy
100
AcDbLine
 10
210.8380767533065
 20
158.8254591761633
 30
0.0
 11
211.2036045923444
 21
158.8254591761633
 31
0.0
  0
LWPOLYLINE
  5
1E8B
330
1F
100
AcDbEntity
  8
SOLBET_Beton
100
AcDbPolyline
 90
        3
 70
     0
 43
0.0
 10
121.1962821403767
 20
184.6558689902949
 10
113.8217535100721
 20
184.6558689902949
 10
113.8217535100721
 20
168.0250947413328
  0
LINE
  5
1E8C
330
1F
100
AcDbEntity
  8
SOLBET_Izolacja
100
AcDbLine
 10
97.82175351007163
 20
160.6796183869847
 30
0.0
 11
97.82175351007163
 21
184.6558689902949
 31
0.0
  0
LINE
  5
1E8D
330
1F
100
AcDbEntity
  8
SOLBET_Izolacja
100
AcDbLine
 10
110.3217535100716
 20
165.0584803769019
 30
0.0
 11
110.3217535100716
 21
184.6558689902949
 31
0.0
  0
LINE
  5
1E8E
330
1F
100
AcDbEntity
  8
SOLBET_Izolacja
100
AcDbLine
 10
97.82175351007163
 20
184.6558689902949
 30
0.0
 11
110.3217535100716
 21
184.6558690530647
 31
0.0
  0
LINE
  5
1E8F
330
1F
100
AcDbEntity
  8
SOLBET_Zaprawy
100
AcDbLine
 10
91.32175351007209
 20
188.6558689902942
 30
0.0
 11
91.32175351007163
 21
211.1325766892322
 31
0.0
  0
LINE
  5
1E90
330
1F
100
AcDbEntity
  8
SOLBET_Tynki_Posadzki
100
AcDbLine
 10
87.57175351007209
 20
188.6558689902942
 30
0.0
 11
87.57175351007163
 21
210.178385282025
 31
0.0
  0
LINE
  5
1E91
330
1F
100
AcDbEntity
  8
SOLBET_Tynki_Posadzki
100
AcDbLine
 10
89.90514447740634
 20
188.655868990295
 30
0.0
 11
89.90514447740634
 21
210.8430623020275
 31
0.0
  0
LINE
  5
1E92
330
1F
100
AcDbEntity
  8
SOLBET_Tynki_Posadzki
100
AcDbLine
 10
89.90514447740634
 20
188.655868990295
 30
0.0
 11
87.57175351007209
 21
188.6558689902942
 31
0.0
  0
LINE
  5
1E93
330
1F
100
AcDbEntity
  8
SOLBET_Zaprawy
100
AcDbLine
 10
96.9941143148817
 20
184.6558689902949
 30
0.0
 11
96.99411431488261
 21
160.5919108671141
 31
0.0
  0
LINE
  5
1E94
330
1F
100
AcDbEntity
  8
SOLBET_Tynki_Posadzki
100
AcDbLine
 10
94.4941143148817
 20
184.6558689902949
 30
0.0
 11
94.4941143148817
 21
160.4913283388764
 31
0.0
  0
LINE
  5
1E95
330
1F
100
AcDbEntity
  8
SOLBET_Emulsje_Folie
100
AcDbLine
 10
112.932351421874
 20
184.978744872996
 30
0.0
 11
112.932351421874
 21
167.1717774076836
 31
0.0
  0
LINE
  5
1E96
330
1F
100
AcDbEntity
  8
SOLBET_Emulsje_Folie
100
AcDbLine
 10
113.4821189729332
 20
184.978744872996
 30
0.0
 11
121.2112972561335
 21
184.978744872996
 31
0.0
  0
LINE
  5
1E97
330
1F
100
AcDbEntity
  8
SOLBET_Izolacja
  6
BATTING
 48
0.6
100
AcDbLine
 10
104.0717535100716
 20
162.2662293898838
 30
0.0
 11
104.0717535100716
 21
184.65586902168
 31
0.0
  0
LINE
  5
1E98
330
1F
100
AcDbEntity
  8
SOLBET_Zaprawy
100
AcDbLine
 10
89.90514447740634
 20
188.655868990295
 30
0.0
 11
91.32175351007209
 21
188.655868990295
 31
0.0
  0
LINE
  5
1E99
330
1F
100
AcDbEntity
  8
SOLBET_Zaprawy
100
AcDbLine
 10
89.90514447740634
 20
210.8430623020275
 30
0.0
 11
89.90514447740634
 21
188.655868990295
 31
0.0
  0
MLINE
  5
1E9A
102
{ACAD_REACTORS
330
1EB7
102
}
330
1F
100
AcDbEntity
  8
SOLBET_Emulsje_Folie
100
AcDbMline
  2
SOLBET_IZOLACJA
340
7E9
 40
100.0
 70
     0
 71
     1
 72
     2
 73
     2
 10
217.6584595854342
 20
185.2024242923711
 30
0.0
210
0.0
220
0.0
230
1.0
 11
121.2192970755245
 21
185.2024242923711
 31
0.0
 12
-1.0
 22
0.0
 32
0.0
 13
-6.123233995736766E-17
 23
-1.0
 33
0.0
 74
     2
 41
0.0
 41
0.0
 75
     0
 74
     2
 41
-1.6
 41
0.0
 75
     0
 11
79.3431081590802
 21
185.2024242923711
 31
0.0
 12
-1.0
 22
0.0
 32
0.0
 13
-2.220446049250313E-16
 23
-1.0
 33
0.0
 74
     2
 41
0.0
 41
0.0
 75
     0
 74
     2
 41
-1.6
 41
0.0
 75
     0
  0
LWPOLYLINE
  5
1E9C
330
1F
100
AcDbEntity
  8
SOLBET_Bloczki
100
AcDbPolyline
 90
        3
 70
     0
 43
0.0
 10
91.32175351007209
 20
211.1325766892322
 10
91.32175351007209
 20
188.655868990295
 10
121.0934791785175
 20
188.655868990295
  0
LINE
  5
1E9D
330
1F
100
AcDbEntity
  8
SOLBET_Wymiary_Opisy
100
AcDbLine
 10
77.98739856303473
 20
184.6558689902949
 30
0.0
 11
95.4941143148817
 21
184.6558689902949
 31
0.0
  0
ARC
  5
1E9E
330
1F
100
AcDbEntity
  8
SOLBET_Wymiary_Opisy
100
AcDbCircle
 10
95.71010744737691
 20
185.9864768649918
 30
0.0
 40
25.52413049776556
100
AcDbArc
 50
267.2693425792624
 51
108.5933563183919
  0
LINE
  5
1E9F
330
1F
100
AcDbEntity
  8
SOLBET_Tynki_Posadzki
100
AcDbLine
 10
94.4941143148817
 20
184.6558689902949
 30
0.0
 11
96.9941143148817
 21
184.6558689902949
 31
0.0
  0
LINE
  5
1EA0
330
1F
100
AcDbEntity
  8
SOLBET_Zaprawy
100
AcDbLine
 10
96.9941143148817
 20
184.6558689902949
 30
0.0
 11
97.82175351007163
 21
184.6558689902949
 31
0.0
  0
LINE
  5
1EA3
102
{ACAD_REACTORS
330
1EB7
102
}
330
1F
100
AcDbEntity
  8
SOLBET_Emulsje_Folie
100
AcDbLine
 10
84.59871893464196
 20
186.8024242923711
 30
0.0
 11
84.59871893464196
 21
185.2024242923711
 31
0.0
  0
LINE
  5
1EA4
102
{ACAD_REACTORS
330
1EB7
102
}
330
1F
100
AcDbEntity
  8
SOLBET_Emulsje_Folie
100
AcDbLine
 10
93.97991585929799
 20
186.8024242923711
 30
0.0
 11
93.97991585929799
 21
185.2024242923711
 31
0.0
  0
LINE
  5
1EA5
102
{ACAD_REACTORS
330
1EB7
102
}
330
1F
100
AcDbEntity
  8
SOLBET_Emulsje_Folie
100
AcDbLine
 10
103.361112783954
 20
186.8024242923711
 30
0.0
 11
103.361112783954
 21
185.2024242923711
 31
0.0
  0
LINE
  5
1EA6
102
{ACAD_REACTORS
330
1EB7
102
}
330
1F
100
AcDbEntity
  8
SOLBET_Emulsje_Folie
100
AcDbLine
 10
112.74230970861
 20
186.8024242923711
 30
0.0
 11
112.74230970861
 21
185.2024242923711
 31
0.0
  0
HATCH
  5
1EB7
330
1F
100
AcDbEntity
  8
SOLBET_Emulsje_Folie
100
AcDbHatch
 10
0.0
 20
0.0
 30
0.0
210
0.0
220
0.0
230
1.0
  2
SOLID
 70
     1
 71
     1
 91
        3
 92
        7
 72
     0
 73
     1
 93
        4
 10
84.59871893464194
 20
186.8024242923711
 10
79.34310815908022
 20
186.8024242923711
 10
79.3431081590802
 20
185.2024242923711
 10
84.59871893464196
 20
185.2024242923711
 97
        2
330
1E9A
330
1EA3
 92
        7
 72
     0
 73
     1
 93
        4
 10
93.97991585929799
 20
186.802424292371
 10
93.97991585929799
 20
185.2024242923711
 10
103.361112783954
 20
185.2024242923711
 10
103.361112783954
 20
186.8024242923711
 97
        3
330
1E9A
330
1EA4
330
1EA5
 92
        7
 72
     0
 73
     1
 93
        4
 10
121.2192970755245
 20
185.2024242923711
 10
121.2192970755245
 20
186.8024242923711
 10
112.74230970861
 20
186.8024242923711
 10
112.74230970861
 20
185.2024242923711
 97
        2
330
1E9A
330
1EA6
 75
     0
 76
     1
 47
0.0827821803181482
 98
        3
 10
84.12456907955357
 20
185.8822765658401
 10
97.29188798140832
 20
186.0478414388601
 10
115.5936329922238
 20
185.8822765658401
1001
ACAD
1010
0.0
1020
0.0
1030
0.0
  0
CIRCLE
  5
1EC4
330
1F
100
AcDbEntity
  8
SOLBET_Wymiary_Opisy
100
AcDbCircle
 10
284.5371357556148
 20
160.5495061204535
 30
0.0
 40
6.72794034480946
  0
LINE
  5
1EC5
330
1F
100
AcDbEntity
  8
SOLBET_Wymiary_Opisy
100
AcDbLine
 10
275.6974552574161
 20
256.7385661490767
 30
0.0
 11
275.6974552574161
 21
201.7741144423177
 31
0.0
  0
LINE
  5
1EC6
330
1F
100
AcDbEntity
  8
SOLBET_Izolacja
100
AcDbLine
 10
231.8111093178099
 20
227.3720319813007
 30
0.0
 11
275.6974552574161
 21
227.3720319813007
 31
0.0
  0
LINE
  5
1EC7
330
1F
100
AcDbEntity
  8
SOLBET_Izolacja
100
AcDbLine
 10
231.8111093178099
 20
239.8720319813007
 30
0.0
 11
275.6974552574161
 21
239.8720319813007
 31
0.0
  0
LINE
  5
1EC8
330
1F
100
AcDbEntity
  8
SOLBET_Tynki_Posadzki
100
AcDbLine
 10
240.4263021798611
 20
256.7385661490767
 30
0.0
 11
275.6974552574161
 21
256.7385661490767
 31
0.0
  0
LINE
  5
1EC9
330
1F
100
AcDbEntity
  8
SOLBET_Emulsje_Folie
100
AcDbLine
 10
232.3207332055527
 20
225.1077497887907
 30
0.0
 11
275.6974552574161
 21
225.1077497887907
 31
0.0
  0
LINE
  5
1ECA
330
1F
100
AcDbEntity
  8
SOLBET_Emulsje_Folie
100
AcDbLine
 10
232.0113708138511
 20
240.8512285491612
 30
0.0
 11
275.6974552574161
 21
240.8512285491612
 31
0.0
  0
HATCH
  5
1ECB
330
1F
100
AcDbEntity
  8
SOLBET_Tynki_Posadzki
100
AcDbHatch
 10
0.0
 20
0.0
 30
0.0
210
0.0
220
0.0
230
1.0
  2
AR-CONC
 70
     0
 71
     0
 91
        1
 92
        5
 93
        4
 72
     2
 10
264.8651110737678
 20
233.6220319813008
 40
33.63970172404727
 50
142.2031821742316
 51
166.0379938227853
 73
     1
 72
     1
 10
232.2192628662824
 20
241.7385661490777
 11
275.6974552574158
 21
241.7385661490777
 72
     1
 10
275.6974552574161
 20
241.7385661490777
 11
275.6974552574167
 21
254.2385661490766
 72
     1
 10
275.6974552574166
 20
254.2385661490766
 11
238.2833870703893
 21
254.2385661490766
 97
        0
 75
     0
 76
     1
 52
0.0
 41
0.03
 77
     0
 78
    13
 53
50.0
 43
901.7933061941716
 44
156.4900132025631
 45
5.46554006988012
 46
-0.4781725661670926
 79
     2
 49
0.5715
 49
-6.2865
 53
355.0
 43
901.7933061941716
 44
156.4900132025631
 45
-1.057284779270009
 46
5.731699286465398
 79
     2
 49
0.4572
 49
-5.029199999999999
 53
100.451
 43
902.2487661941717
 44
156.4501657025631
 45
4.408275049978777
 46
5.253500634608755
 79
     2
 49
0.4857000000000001
 49
-5.342699999999999
 53
46.1842
 43
901.7933061941716
 44
158.0140132025631
 45
8.132371226763897
 46
-1.261269837981814
 79
     2
 49
0.8572499999999999
 49
-9.429749999999998
 53
96.63559999999998
 43
902.4710031941717
 44
157.9089082025631
 45
7.122127033987114
 46
7.422766676701476
 79
     2
 49
0.7285500000000001
 49
-8.014049999999999
 53
351.184
 43
901.7933061941716
 44
158.0140132025631
 45
7.122138174418017
 46
7.422753535817929
 79
     2
 49
0.6858
 49
-7.5438
 53
21.0
 43
902.5553061941716
 44
157.6330132025631
 45
4.548446395061498
 46
-3.067965555502874
 79
     2
 49
0.5715
 49
-6.2865
 53
326.0
 43
902.5553061941716
 44
157.6330132025631
 45
1.854060850429411
 46
5.525638983669577
 79
     2
 49
0.4572
 49
-5.029199999999999
 53
71.45140000000001
 43
902.9343411941717
 44
157.3773502025631
 45
6.402494723103733
 46
2.457685731481723
 79
     2
 49
0.4857000000000001
 49
-5.342699999999999
 53
37.5
 43
901.7933061941716
 44
156.4900132025631
 45
0.0926580975177545
 46
2.536651166194593
 79
     6
 49
0.0
 49
-4.968239999999999
 49
0.0
 49
-5.1054
 49
0.0
 49
-5.04825
 53
7.499999999999999
 43
901.7933061941716
 44
156.4900132025631
 45
2.004589875309172
 46
3.005417244543585
 79
     6
 49
0.0
 49
-2.910839999999999
 49
0.0
 49
-4.853939999999999
 49
0.0
 49
-1.92405
 53
327.5
 43
900.0940461941716
 44
156.4900132025631
 45
4.067717855006141
 46
-0.1718623197802037
 79
     6
 49
0.0
 49
-1.905
 49
0.0
 49
-5.943599999999999
 49
0.0
 49
-7.886699999999999
 53
317.5
 43
899.3320461941717
 44
156.4900132025631
 45
4.443875441580541
 46
0.7627947309999904
 79
     6
 49
0.0
 49
-2.476499999999999
 49
0.0
 49
-3.947159999999999
 49
0.0
 49
-5.600699999999999
 47
0.0387476598051738
 98
        1
 10
255.1678996179599
 20
247.8361044466915
1001
ACAD
1010
0.0
1020
0.0
1030
0.0
  0
HATCH
  5
1ECD
330
1F
100
AcDbEntity
  8
SOLBET_Beton
100
AcDbHatch
 10
0.0
 20
0.0
 30
0.0
210
0.0
220
0.0
230
1.0
  2
ANSI33
 70
     0
 71
     1
 91
        1
 92
        7
 72
     1
 73
     1
 93
        3
 10
232.6303376762854
 20
224.0017972598487
 42
0.4253361557004717
 10
275.6974552574161
 20
201.7741144423177
 42
0.0
 10
275.6974552574161
 20
224.0017972598487
 42
0.0
 97
        2
330
1ECE
330
1ED9
 75
     0
 76
     1
 52
0.0
 41
3.75
 77
     0
 78
     2
 53
45.0
 43
-533.215213587016
 44
-412.6286017399316
 45
-16.83798022700466
 46
16.83798022700466
 79
     0
 53
45.0
 43
-516.3772260870164
 44
-412.6286017399316
 45
-16.83798022700466
 46
16.83798022700466
 79
     2
 49
11.90625
 49
-5.953124999999999
 47
0.0587362888947614
 98
        1
 10
257.5331744514128
 20
213.4853052641448
1001
ACAD
1010
0.0
1020
0.0
1030
0.0
  0
LWPOLYLINE
  5
1ECE
102
{ACAD_REACTORS
330
1ECD
102
}
330
1F
100
AcDbEntity
  8
SOLBET_Beton
100
AcDbPolyline
 90
        3
 70
     0
 43
0.0
 10
232.6303376762858
 20
224.0017972598487
 10
275.6974552574161
 20
224.0017972598487
 10
275.6974552574161
 20
201.7741144423177
  0
LINE
  5
1ECF
330
1F
100
AcDbEntity
  8
SOLBET_Izolacja
  6
BATTING
 48
0.6
100
AcDbLine
 10
231.2254093497208
 20
233.6220319813007
 30
0.0
 11
275.6974552574161
 21
233.6220319813007
 31
0.0
  0
ARC
  5
1ED9
102
{ACAD_REACTORS
330
1ECD
102
}
330
1F
100
AcDbEntity
  8
SOLBET_Wymiary_Opisy
100
AcDbCircle
 10
264.8651110737678
 20
233.6220319813007
 30
0.0
 40
33.6397017240473
100
AcDbArc
 50
136.5926968744823
 51
288.784567676401
  0
LWPOLYLINE
  5
1EDE
330
1F
100
AcDbEntity
  8
SOLBET_Tynki_Posadzki
100
AcDbPolyline
 90
        4
 70
     0
 43
0.0
 10
232.2192628662824
 20
241.7385661490777
 10
275.6974552574161
 20
241.7385661490777
 10
275.6974552574166
 20
254.2385661490767
 10
238.2833870703898
 20
254.2385661490767
1001
ASO_SCHRAFF
1005
0
1070
     1
1002
{
1070
     1
1005
0
1002
}
1002
{
1070
     2
1005
0
1002
}
1002
{
1070
     4
1000
AR-CONC
1040
0.01
1040
0.0
1070
     0
1000
T__SCHR
1070
   256
1000
_bylayer
1040
50.0
1070
     1
1002
}
  0
LEADER
  5
1EF0
330
1F
100
AcDbEntity
  8
SOLBET_Wymiary_Opisy
100
AcDbLeader
  3
Solbet$7
 73
     0
 75
     1
 40
5.0
 41
4.5
 76
     3
 10
207.7144656309432
 20
163.3143695687009
 30
0.0
 10
205.1328118123302
 20
167.0403151377973
 30
0.0
 10
202.6328118123302
 20
167.0403151377973
 30
0.0
340
1EF1
213
-0.8791749024171622
223
-0.1753245211093599
233
0.0
1001
ACAD
1000
DSTYLE
1002
{
1070
   341
1005
1EF2
1070
   147
1040
0.625
1070
    77
1070
     1
1002
}
  0
MTEXT
  5
1EF1
102
{ACAD_REACTORS
330
1EF0
102
}
330
1F
100
AcDbEntity
  8
SOLBET_Wymiary_Opisy
100
AcDbMText
 10
202.8869867147473
 20
172.8406396589066
 30
0.0
 40
5.0
 41
0.0
 71
     3
 72
     1
  1
A
  7
Solbet_5
 73
     1
 44
1.0
1001
ACAD
1000
MTEXTBEGIN
1070
    73
1070
     1
1070
    44
1040
1.0
1070
    74
1070
     0
1000
MTEXTEND
  0
MTEXT
  5
1EF5
102
{ACAD_XDICTIONARY
360
280D
102
}
330
1F
100
AcDbEntity
  8
SOLBET_Wymiary_Opisy
100
AcDbMText
 10
84.16846680025946
 20
237.2942698618044
 30
0.0
 40
5.0
 41
30.77919768571883
 71
     1
 72
     5
  1
A\P(5 : 1)
  7
Solbet_5
 73
     1
 44
1.0
1001
ACAD
1000
MTEXTBEGIN
1070
    73
1070
     1
1070
    44
1040
1.0
1070
    74
1070
     0
1000
MTEXTEND
1000
ACAD_MTEXT_DEFINED_HEIGHT_BEGIN
1070
    46
1040
23.42535011036716
1000
ACAD_MTEXT_DEFINED_HEIGHT_END
  0
MTEXT
  5
1F04
102
{ACAD_XDICTIONARY
360
280F
102
}
330
1F
100
AcDbEntity
  8
SOLBET_Wymiary_Opisy
100
AcDbMText
 10
238.9664933367587
 20
276.596475073566
 30
0.0
 40
5.0
 41
30.77919768571883
 71
     1
 72
     5
  1
B\P(5 : 1)
  7
Solbet_5
 73
     1
 44
1.0
1001
ACAD
1000
MTEXTBEGIN
1070
    73
1070
     1
1070
    44
1040
1.0
1070
    74
1070
     0
1000
MTEXTEND
1000
ACAD_MTEXT_DEFINED_HEIGHT_BEGIN
1070
    46
1040
23.42535011036716
1000
ACAD_MTEXT_DEFINED_HEIGHT_END
  0
LEADER
  5
1F05
330
1F
100
AcDbEntity
  8
SOLBET_Wymiary_Opisy
100
AcDbLeader
  3
Solbet$7
 73
     0
 74
     0
 75
     1
 40
5.0
 41
4.0
 76
     3
 10
288.1587094257318
 20
166.2195489276314
 30
0.0
 10
291.1298596265483
 20
170.2180356666754
 30
0.0
 10
293.6298596265483
 20
170.2180356666754
 30
0.0
340
1F06
213
0.8103787685154202
223
-0.1753245211093599
233
0.0
1001
ACAD
1000
DSTYLE
1002
{
1070
   341
1005
1EF2
1070
   147
1040
0.625
1070
    77
1070
     1
1002
}
  0
MTEXT
  5
1F06
102
{ACAD_REACTORS
330
1F05
102
}
330
1F
100
AcDbEntity
  8
SOLBET_Wymiary_Opisy
100
AcDbMText
 10
297.4444808580329
 20
176.0183601877847
 30
0.0
 40
5.0
 41
0.0
 71
     3
 72
     1
  1
B
  7
Solbet_5
 73
     1
 44
1.0
1001
ACAD
1000
MTEXTBEGIN
1070
    73
1070
     1
1070
    44
1040
1.0
1070
    74
1070
     0
1000
MTEXTEND
  0
LINE
  5
206A
330
1F
100
AcDbEntity
  8
SOLBET_Beton
100
AcDbLine
 10
214.2036045923445
 20
129.3254591761631
 30
0.0
 11
214.2036045923445
 21
131.7254591761633
 31
0.0
  0
TEXT
  5
20F7
330
1F
100
AcDbEntity
  8
SOLBET_Wymiary_Opisy
100
AcDbText
 10
21.745057105034
 20
221.3569127512992
 30
0.0
 40
2.5
  1
Siatka z klejem SOLBET Gabit T
  7
Solbet_2_5
100
AcDbText
  0
TEXT
  5
20F8
330
1F
100
AcDbEntity
  8
SOLBET_Wymiary_Opisy
100
AcDbText
 10
46.64962596596183
 20
217.0748761499098
 30
0.0
 40
2.5
  1
jeżeli wymagane
  7
Solbet_2_5
100
AcDbText
  0
INSERT
  5
20F9
330
1F
100
AcDbEntity
  8
SOLBET_Wymiary_Opisy
100
AcDbBlockReference
  2
_DotSmall
 10
89.94097454319216
 20
208.1258241233619
 30
0.0
 41
2.499999999999963
 42
2.5
 43
2.5
 50
334.9384085638637
1001
ACAD
1000
DSTYLE
1002
{
1070
   147
1040
0.625
1070
    77
1070
     1
1002
}
  0
LWPOLYLINE
  5
20FA
330
1F
100
AcDbEntity
  8
SOLBET_Wymiary_Opisy
100
AcDbPolyline
 90
        3
 70
     0
 43
0.0
 10
89.9519324644666
 20
208.9642570471148
 10
75.43545145038547
 20
215.6083259669807
 10
21.85363786122025
 20
215.6083259669804
1001
ACAD
1000
DSTYLE
1002
{
1070
   147
1040
0.625
1070
    77
1070
     1
1002
}
  0
INSERT
  5
2101
330
1F
100
AcDbEntity
  8
SOLBET_Wymiary_Opisy
100
AcDbBlockReference
  2
_DotSmall
 10
210.8380767533065
 20
130.9862376384095
 30
0.0
 41
2.499999999999963
 42
2.5
 43
2.5
 50
334.9384085638637
1001
ACAD
1000
DSTYLE
1002
{
1070
   147
1040
0.625
1070
    77
1070
     1
1002
}
  0
LWPOLYLINE
  5
2102
330
1F
100
AcDbEntity
  8
SOLBET_Wymiary_Opisy
100
AcDbPolyline
 90
        3
 70
     0
 43
0.0
 10
211.0415685551309
 20
130.9450831610419
 10
186.8882659903121
 20
122.7747249637154
 10
136.5942966843847
 20
122.7747249637154
1001
ACAD
1000
DSTYLE
1002
{
1070
   147
1040
0.625
1070
    77
1070
     1
1002
}
  0
TEXT
  5
2103
330
1F
100
AcDbEntity
  8
SOLBET_Wymiary_Opisy
100
AcDbText
 10
136.1595413669963
 20
128.294873620214
 30
0.0
 40
2.5
  1
Siatka z klejem SOLBET Gabit T
  7
Solbet_2_5
100
AcDbText
  0
TEXT
  5
2104
330
1F
100
AcDbEntity
  8
SOLBET_Wymiary_Opisy
100
AcDbText
 10
160.5305326069353
 20
124.0128370188246
 30
0.0
 40
2.5
  1
jeżeli wymagane
  7
Solbet_2_5
100
AcDbText
  0
LINE
  5
216A
330
1F
100
AcDbEntity
  8
SOLBET_Zaprawy
100
AcDbLine
 10
213.5036045923444
 20
158.8254591887172
 30
0.0
 11
213.7036045923444
 21
158.8254591887172
 31
0.0
  0
LINE
  5
216B
330
1F
100
AcDbEntity
  8
SOLBET_Zaprawy
100
AcDbLine
 10
213.7036045923444
 20
158.8254591887172
 30
0.0
 11
213.7036045923444
 21
133.2254591761631
 31
0.0
  0
LEADER
  5
216C
330
1F
100
AcDbEntity
  8
SOLBET_Wymiary_Opisy
100
AcDbLeader
  3
Solbet$7
 73
     0
 40
3.25
 41
34.25
 76
     2
 10
213.7036045923444
 20
117.3903781911942
 30
0.0
 10
186.03336401329
 20
110.4683939574457
 30
0.0
340
216D
213
1.177601578005123
223
-0.1753245211093599
233
0.0
1001
ACAD
1000
DSTYLE
1002
{
1070
   147
1040
0.625
1070
    77
1070
     1
1002
}
  0
MTEXT
  5
216D
102
{ACAD_REACTORS
330
216C
102
}
330
1F
100
AcDbEntity
  8
SOLBET_Wymiary_Opisy
100
AcDbMText
 10
184.2307624352849
 20
114.5187184785551
 30
0.0
 40
2.5
 41
0.0
 71
     3
 72
     1
  1
Klej SOLBET Gabit T-1
  7
Solbet_2_5
 73
     1
 44
1.0
1001
ACAD
1000
MTEXTBEGIN
1070
    73
1070
     1
1070
    44
1040
1.0
1070
    74
1070
     0
1000
MTEXTEND
  0
LINE
  5
216E
330
1F
100
AcDbEntity
  8
SOLBET_Zaprawy
100
AcDbLine
 10
213.7036045923444
 20
131.7254591761633
 30
0.0
 11
213.7036045923444
 21
99.32545917616323
 31
0.0
  0
LINE
  5
216F
330
1F
100
AcDbEntity
  8
SOLBET_Zaprawy
100
AcDbLine
 10
110.3217535100716
 20
184.6558689902949
 30
0.0
 11
111.3217535100716
 21
184.6558689902949
 31
0.0
  0
LINE
  5
2170
330
1F
100
AcDbEntity
  8
SOLBET_Zaprawy
100
AcDbLine
 10
111.3217535100716
 20
184.6558689902949
 30
0.0
 11
111.3217535100716
 21
165.7934645864805
 31
0.0
  0
DIMENSION
  5
2376
330
1F
100
AcDbEntity
  8
SOLBET_Wymiary_Opisy
100
AcDbDimension
  2
*D5
 10
113.8217535100721
 20
158.4359051154058
 30
0.0
 11
67.69675351007208
 21
158.4359051154058
 31
0.0
 70
   160
  1
max. 1/3 szeokości bloczka
 71
     5
 42
22.5
  3
Solbet
100
AcDbAlignedDimension
 13
91.32175351007209
 23
188.6558689902942
 33
0.0
 14
113.8217535100721
 24
168.0250947413328
 34
0.0
100
AcDbRotatedDimension
  0
POINT
  5
24B3
330
1F
100
AcDbEntity
  8
SOLBET_Zaprawy
100
AcDbPoint
 10
0.0
 20
0.0
 30
0.0
  0
POINT
  5
24B4
330
1F
100
AcDbEntity
  8
SOLBET_Zaprawy
100
AcDbPoint
 10
0.0
 20
0.0
 30
0.0
  0
HATCH
  5
256F
330
1F
100
AcDbEntity
  8
SOLBET_Beton
100
AcDbHatch
 10
0.0
 20
0.0
 30
0.0
210
0.0
220
0.0
230
1.0
  2
ANSI33
 70
     0
 71
     0
 91
        1
 92
        1
 93
        5
 72
     1
 10
210.9036041675614
 20
98.40961413701782
 11
208.7036041675614
 21
96.20961413701785
 72
     1
 10
208.7036041675614
 20
96.20961413701785
 11
208.7036041675618
 21
78.40961413702072
 72
     1
 10
208.7036041675618
 20
78.40961413702072
 11
238.7036041675614
 21
78.40961413702078
 72
     1
 10
238.7036041675614
 20
78.40961413702078
 11
238.7036041675614
 21
98.40961413701776
 72
     1
 10
238.7036041675614
 20
98.40961413701776
 11
210.9036041675614
 21
98.40961413701782
 97
        0
 75
     0
 76
     1
 52
0.0
 41
0.75
 77
     0
 78
     2
 53
45.0
 43
-1697.2097030075
 44
354.0175596042496
 45
-3.367596045400931
 46
3.367596045400932
 79
     0
 53
45.0
 43
-1693.8421055075
 44
354.0175596042496
 45
-3.367596045400931
 46
3.367596045400932
 79
     2
 49
2.381249999999999
 49
-1.190624999999999
 98
        1
 10
219.0456405089038
 20
87.99272830937812
1001
ACAD
1010
0.0
1020
0.0
1030
0.0
  0
LINE
  5
2571
330
1F
100
AcDbEntity
  8
SOLBET_Beton
100
AcDbLine
 10
238.7036041675614
 20
78.40961413702072
 30
0.0
 11
238.7036041675614
 21
98.4096141370178
 31
0.0
1001
ASO_SCHRAFF
1005
0
1070
     1
1002
{
1070
     1
1005
0
1002
}
1002
{
1070
     2
1005
0
1002
}
1002
{
1070
     4
1000
BRASS
1040
0.2
1040
45.0
1070
     0
1000
T__SCHR
1070
   256
1000
VONLAYER
1040
50.0
1070
     1
1002
}
  0
LINE
  5
2572
330
1F
100
AcDbEntity
  8
SOLBET_Beton
100
AcDbLine
 10
238.7036041675614
 20
98.4096141370178
 30
0.0
 11
210.9036041675614
 21
98.40961413701778
 31
0.0
1001
ASO_SCHRAFF
1005
0
1070
     1
1002
{
1070
     1
1005
0
1002
}
1002
{
1070
     2
1005
0
1002
}
1002
{
1070
     4
1000
BRASS
1040
0.2
1040
45.0
1070
     0
1000
T__SCHR
1070
   256
1000
VONLAYER
1040
50.0
1070
     1
1002
}
  0
LINE
  5
2573
330
1F
100
AcDbEntity
  8
SOLBET_Beton
100
AcDbLine
 10
208.7036041675613
 20
96.20961413701778
 30
0.0
 11
208.7036041675613
 21
78.40961413702072
 31
0.0
1001
ASO_SCHRAFF
1005
0
1070
     1
1002
{
1070
     1
1005
0
1002
}
1002
{
1070
     2
1005
0
1002
}
1002
{
1070
     4
1000
BRASS
1040
0.2
1040
45.0
1070
     0
1000
T__SCHR
1070
   256
1000
VONLAYER
1040
50.0
1070
     1
1002
}
  0
LINE
  5
2574
330
1F
100
AcDbEntity
  8
SOLBET_Emulsje_Folie
100
AcDbLine
 10
210.8562540853938
 20
98.65924890294861
 30
0.0
 11
208.5551117435122
 21
96.35810656106697
 31
0.0
1001
ASO_SCHRAFF
1005
0
1070
     1
1002
{
1070
     1
1005
0
1002
}
1002
{
1070
     2
1005
0
1002
}
1002
{
1070
     4
1000
BRASS
1040
0.2
1040
45.0
1070
     0
1000
T__SCHR
1070
   256
1000
VONLAYER
1040
50.0
1070
     1
1002
}
  0
LINE
  5
2575
330
1F
100
AcDbEntity
  8
SOLBET_Emulsje_Folie
  6
DASHED2
370
    30
100
AcDbLine
 10
210.8277616613447
 20
98.77924890294863
 30
0.0
 11
209.8797957912933
 21
97.83128303289723
 31
0.0
1001
ASO_SCHRAFF
1005
0
1070
     1
1002
{
1070
     1
1005
0
1002
}
1002
{
1070
     2
1005
0
1002
}
1002
{
1070
     4
1000
BRASS
1040
0.2
1040
45.0
1070
     0
1000
T__SCHR
1070
   256
1000
VONLAYER
1040
50.0
1070
     1
1002
}
  0
LINE
  5
2576
330
1F
100
AcDbEntity
  8
SOLBET_Emulsje_Folie
100
AcDbLine
 10
210.7992692372954
 20
98.89924890294862
 30
0.0
 11
208.3451117435122
 21
96.44509140916532
 31
0.0
1001
ASO_SCHRAFF
1005
0
1070
     1
1002
{
1070
     1
1005
0
1002
}
1002
{
1070
     2
1005
0
1002
}
1002
{
1070
     4
1000
BRASS
1040
0.2
1040
45.0
1070
     0
1000
T__SCHR
1070
   256
1000
VONLAYER
1040
50.0
1070
     1
1002
}
  0
LINE
  5
2577
330
1F
100
AcDbEntity
  8
SOLBET_Emulsje_Folie
100
AcDbLine
 10
210.7209213785615
 20
99.07545948544182
 30
0.0
 11
208.1651117435121
 21
96.51964985039247
 31
0.0
1001
ASO_SCHRAFF
1005
0
1070
     1
1002
{
1070
     1
1005
0
1002
}
1002
{
1070
     2
1005
0
1002
}
1002
{
1070
     4
1000
BRASS
1040
0.2
1040
45.0
1070
     0
1000
T__SCHR
1070
   256
1000
VONLAYER
1040
50.0
1070
     1
1002
}
  0
LINE
  5
257A
330
1F
100
AcDbEntity
  8
SOLBET_Emulsje_Folie
100
AcDbLine
 10
213.775723749913
 20
99.07545948544182
 30
0.0
 11
210.7209213785615
 21
99.07545948544182
 31
0.0
  0
LWPOLYLINE
  5
257B
330
1F
100
AcDbEntity
  8
SOLBET_Emulsje_Folie
100
AcDbPolyline
 90
        2
 70
     0
 43
0.0
 10
238.6977070978175
 20
98.65924890294863
 10
210.8562540853938
 20
98.65924890294861
  0
LWPOLYLINE
  5
257C
330
1F
100
AcDbEntity
  8
SOLBET_Emulsje_Folie
100
AcDbPolyline
 90
        2
 70
     0
 43
0.0
 10
210.7992692372954
 20
98.89924890294862
 10
238.6977070978176
 20
98.89924890294862
  0
LINE
  5
257D
330
1F
100
AcDbEntity
  8
SOLBET_Emulsje_Folie
  6
DASHED2
370
    30
100
AcDbLine
 10
210.8277616613447
 20
98.77924890294861
 30
0.0
 11
238.6977070978176
 21
98.77924890294861
 31
0.0
  0
LINE
  5
257E
330
1F
100
AcDbEntity
  8
SOLBET_Emulsje_Folie
100
AcDbLine
 10
208.5551117435122
 20
96.35810656106697
 30
0.0
 11
208.5551117435122
 21
93.65810656106695
 31
0.0
  0
LINE
  5
257F
330
1F
100
AcDbEntity
  8
SOLBET_Emulsje_Folie
100
AcDbLine
 10
208.3451117435122
 20
93.65810656106695
 30
0.0
 11
208.3451117435122
 21
96.44509140916532
 31
0.0
  0
LINE
  5
2580
330
1F
100
AcDbEntity
  8
SOLBET_Emulsje_Folie
100
AcDbLine
 10
208.1651117435121
 20
93.65810656106695
 30
0.0
 11
208.1651117435121
 21
96.51964985039246
 31
0.0
  0
LINE
  5
2581
330
1F
100
AcDbEntity
  8
SOLBET_Emulsje_Folie
  6
DASHED2
370
    30
100
AcDbLine
 10
208.4501117435122
 20
93.65810656106695
 30
0.0
 11
208.4501117435122
 21
94.80621871379568
 31
0.0
  0
LINE
  5
2582
330
1F
100
AcDbEntity
  8
SOLBET_Emulsje_Folie
  6
DASHED2
370
    30
100
AcDbLine
 10
208.4501117435122
 20
95.40452407924679
 30
0.0
 11
208.4501117435122
 21
96.40159898511617
 31
0.0
  0
LINE
  5
2583
330
1F
100
AcDbEntity
  8
SOLBET_Emulsje_Folie
  6
DASHED2
370
    30
100
AcDbLine
 10
208.4501117435122
 20
96.40159898511617
 30
0.0
 11
209.2839663197627
 21
97.2354535613667
 31
0.0
  0
CIRCLE
  5
2584
330
1F
100
AcDbEntity
  8
SOLBET_Wymiary_Opisy
100
AcDbCircle
 10
212.0514867430459
 20
97.97632768684181
 30
0.0
 40
6.72794034480946
  0
LINE
  5
258B
330
1F
100
AcDbEntity
  8
SOLBET_Beton
100
AcDbLine
 10
208.7036041675613
 20
96.20961413701778
 30
0.0
 11
210.9036041675614
 21
98.40961413701778
 31
0.0
  0
LINE
  5
258C
330
1F
100
AcDbEntity
  8
SOLBET_Emulsje_Folie
100
AcDbLine
 10
208.3451117435122
 20
93.65810656106695
 30
0.0
 11
208.5551117435122
 21
93.65810656106695
 31
0.0
  0
LINE
  5
258D
330
1F
100
AcDbEntity
  8
SOLBET_Emulsje_Folie
100
AcDbLine
 10
238.6977070978176
 20
98.89924890294862
 30
0.0
 11
238.6977070978176
 21
98.65924890294861
 31
0.0
  0
LEADER
  5
25DE
330
1F
100
AcDbEntity
  8
SOLBET_Wymiary_Opisy
100
AcDbLeader
  3
Solbet$7
 73
     0
 75
     1
 40
5.0
 41
3.5
 76
     3
 10
206.0064961492825
 20
95.02280944504486
 30
0.0
 10
186.6925654149268
 20
88.26823450367021
 30
0.0
 10
184.1925654149268
 20
88.26823450367021
 30
0.0
340
25DF
213
-0.8791749024171622
223
-0.1753245211093599
233
0.0
1001
ACAD
1000
DSTYLE
1002
{
1070
   341
1005
1EF2
1070
   147
1040
0.625
1070
    77
1070
     1
1002
}
  0
MTEXT
  5
25DF
102
{ACAD_REACTORS
330
25DE
102
}
330
1F
100
AcDbEntity
  8
SOLBET_Wymiary_Opisy
100
AcDbMText
 10
184.4467403173439
 20
94.06855902477957
 30
0.0
 40
5.0
 41
0.0
 71
     3
 72
     1
  1
C
  7
Solbet_5
 73
     1
 44
1.0
1001
ACAD
1000
MTEXTBEGIN
1070
    73
1070
     1
1070
    44
1040
1.0
1070
    74
1070
     0
1000
MTEXTEND
  0
LWPOLYLINE
  5
26C7
330
1F
100
AcDbEntity
  8
SOLBET_Beton
100
AcDbPolyline
 90
        3
 70
     0
 43
0.0
 10
98.4677479664781
 20
115.2606491130721
 10
98.4677479664781
 20
90.13407415769178
 10
120.6635808077415
 20
90.13407415769178
  0
HATCH
  5
26C8
330
1F
100
AcDbEntity
  8
SOLBET_Beton
100
AcDbHatch
 10
0.0
 20
0.0
 30
0.0
210
0.0
220
0.0
230
1.0
  2
ANSI33
 70
     0
 71
     0
 91
        1
 92
        1
 93
        4
 72
     2
 10
87.70716084390073
 20
83.38841516469193
 40
33.6397017240473
 50
240.1580723290472
 51
363.692464015495
 73
     1
 72
     1
 10
121.277029824658
 20
85.5548474155716
 11
81.96774796647799
 21
85.55484741557167
 72
     1
 10
81.9677479664781
 20
85.55484741557165
 11
70.96774796647844
 21
74.55484741557185
 72
     1
 10
70.96774796647856
 20
74.55484741557189
 11
70.96774796647901
 21
54.20928583220344
 97
        0
 75
     0
 76
     1
 52
0.0
 41
3.75
 77
     0
 78
     2
 53
45.0
 43
-9458.598787908831
 44
1363.594574751731
 45
-16.83798022700466
 46
16.83798022700466
 79
     0
 53
45.0
 43
-9441.760800408832
 44
1363.594574751731
 45
-16.83798022700466
 46
16.83798022700466
 79
     2
 49
11.90625
 49
-5.953124999999999
 98
        1
 10
122.6779296731904
 20
33.47041827737323
1001
ACAD
1010
0.0
1020
0.0
1030
0.0
  0
LINE
  5
26C9
330
1F
100
AcDbEntity
  8
SOLBET_Beton
100
AcDbLine
 10
121.277029824658
 20
85.55484741557155
 30
0.0
 11
81.9677479664781
 21
85.55484741557155
 31
0.0
1001
ASO_SCHRAFF
1005
0
1070
     1
1002
{
1070
     1
1005
0
1002
}
1002
{
1070
     2
1005
0
1002
}
1002
{
1070
     4
1000
BRASS
1040
0.2
1040
45.0
1070
     0
1000
T__SCHR
1070
   256
1000
VONLAYER
1040
50.0
1070
     1
1002
}
  0
LINE
  5
26CA
330
1F
100
AcDbEntity
  8
SOLBET_Beton
100
AcDbLine
 10
70.9677479664781
 20
74.55484741557154
 30
0.0
 11
70.9677479664781
 21
54.20928583220382
 31
0.0
1001
ASO_SCHRAFF
1005
0
1070
     1
1002
{
1070
     1
1005
0
1002
}
1002
{
1070
     2
1005
0
1002
}
1002
{
1070
     4
1000
BRASS
1040
0.2
1040
45.0
1070
     0
1000
T__SCHR
1070
   256
1000
VONLAYER
1040
50.0
1070
     1
1002
}
  0
LINE
  5
26CB
330
1F
100
AcDbEntity
  8
SOLBET_Beton
100
AcDbLine
 10
81.9677479664781
 20
85.55484741557155
 30
0.0
 11
70.9677479664781
 21
74.55484741557154
 31
0.0
1001
ASO_SCHRAFF
1005
0
1070
     1
1002
{
1070
     1
1005
0
1002
}
1002
{
1070
     2
1005
0
1002
}
1002
{
1070
     4
1000
BRASS
1040
0.2
1040
45.0
1070
     0
1000
T__SCHR
1070
   256
1000
VONLAYER
1040
50.0
1070
     1
1002
}
  0
LINE
  5
26CC
330
1F
100
AcDbEntity
  8
SOLBET_Emulsje_Folie
100
AcDbLine
 10
81.73099755564022
 20
86.80302124522564
 30
0.0
 11
70.22528584623228
 21
75.29730953581742
 31
0.0
1001
ASO_SCHRAFF
1005
0
1070
     1
1002
{
1070
     1
1005
0
1002
}
1002
{
1070
     2
1005
0
1002
}
1002
{
1070
     4
1000
BRASS
1040
0.2
1040
45.0
1070
     0
1000
T__SCHR
1070
   256
1000
VONLAYER
1040
50.0
1070
     1
1002
}
  0
LINE
  5
26CD
330
1F
100
AcDbEntity
  8
SOLBET_Emulsje_Folie
  6
DASHED2
370
    30
100
AcDbLine
 10
81.58853543539477
 20
87.40302124522576
 30
0.0
 11
76.84870608513779
 21
82.66319189496881
 31
0.0
1001
ASO_SCHRAFF
1005
0
1070
     1
1002
{
1070
     1
1005
0
1002
}
1002
{
1070
     2
1005
0
1002
}
1002
{
1070
     4
1000
BRASS
1040
0.2
1040
45.0
1070
     0
1000
T__SCHR
1070
   256
1000
VONLAYER
1040
50.0
1070
     1
1002
}
  0
LINE
  5
26CE
330
1F
100
AcDbEntity
  8
SOLBET_Emulsje_Folie
100
AcDbLine
 10
81.44607331514839
 20
88.00302124522568
 30
0.0
 11
69.1752858462321
 21
75.73223377630916
 31
0.0
1001
ASO_SCHRAFF
1005
0
1070
     1
1002
{
1070
     1
1005
0
1002
}
1002
{
1070
     2
1005
0
1002
}
1002
{
1070
     4
1000
BRASS
1040
0.2
1040
45.0
1070
     0
1000
T__SCHR
1070
   256
1000
VONLAYER
1040
50.0
1070
     1
1002
}
  0
LINE
  5
26CF
330
1F
100
AcDbEntity
  8
SOLBET_Emulsje_Folie
100
AcDbLine
 10
81.05433402147879
 20
88.88407415769178
 30
0.0
 11
68.27528584623201
 21
76.10502598244494
 31
0.0
1001
ASO_SCHRAFF
1005
0
1070
     1
1002
{
1070
     1
1005
0
1002
}
1002
{
1070
     2
1005
0
1002
}
1002
{
1070
     4
1000
BRASS
1040
0.2
1040
45.0
1070
     0
1000
T__SCHR
1070
   256
1000
VONLAYER
1040
50.0
1070
     1
1002
}
  0
LINE
  5
26D0
330
1F
100
AcDbEntity
  8
SOLBET_Izolacja
  6
Continuous
100
AcDbLine
 10
95.9677479664781
 20
90.13407415769178
 30
0.0
 11
95.9677479664781
 21
115.9981105400425
 31
0.0
  0
LINE
  5
26D1
330
1F
100
AcDbEntity
  8
SOLBET_Emulsje_Folie
100
AcDbLine
 10
97.57834587835009
 20
115.5472279241598
 30
0.0
 11
97.57834587835009
 21
90.13407415769178
 31
0.0
  0
LINE
  5
26D2
330
1F
100
AcDbEntity
  8
SOLBET_Emulsje_Folie
100
AcDbLine
 10
96.32834587823641
 20
88.88407415769178
 30
0.0
 11
81.05433402147879
 21
88.88407415769178
 31
0.0
  0
ARC
  5
26D3
330
1F
100
AcDbEntity
  8
SOLBET_Emulsje_Folie
100
AcDbCircle
 10
96.32834587823641
 20
90.13407415769178
 30
0.0
 40
1.25
100
AcDbArc
 50
270.0
 51
0.0
  0
LINE
  5
26D4
330
1F
100
AcDbEntity
  8
SOLBET_Izolacja
  6
Continuous
100
AcDbLine
 10
90.9677479664781
 20
90.13407415769178
 30
0.0
 11
90.9677479664781
 21
116.8697249314698
 31
0.0
  0
HATCH
  5
26D5
330
1F
100
AcDbEntity
  8
SOLBET_Grunt
100
AcDbHatch
 10
0.0
 20
0.0
 30
0.0
210
0.0
220
0.0
230
1.0
  2
AR-CONC
 70
     0
 71
     0
 91
        1
 92
        1
 93
        5
 72
     2
 10
87.70716084390073
 20
83.38841516469164
 40
33.6397017240473
 50
89.26257450035045
 51
240.1580723290458
 73
     1
 72
     1
 10
70.9677479664781
 20
54.20928583220387
 11
70.9677479664781
 21
92.54556109099949
 72
     1
 10
70.9677479664781
 20
92.54556109099945
 11
83.46774796648038
 21
90.1340741576916
 72
     1
 10
83.46774796648038
 20
90.1340741576916
 11
88.1401087712236
 21
90.13407415769174
 72
     1
 10
88.1401087712236
 20
90.13407415769178
 11
88.1401087712236
 21
117.0253307214888
 97
        0
 75
     0
 76
     1
 52
0.0
 41
0.25
 77
     0
 78
    13
 53
50.0
 43
-9458.598787908831
 44
1363.594574751731
 45
45.546167249001
 46
-3.984771384725771
 79
     2
 49
4.762500000000001
 49
-52.3875
 53
355.0
 43
-9458.598787908831
 44
1363.594574751731
 45
-8.810706493916747
 46
47.76416072054499
 79
     2
 49
3.81
 49
-41.91000000000001
 53
100.4509999999999
 43
-9454.803287908834
 44
1363.262512251731
 45
36.73562541648981
 46
43.77917195507295
 79
     2
 49
4.0475
 49
-44.52249999999999
 53
46.1842
 43
-9458.598787908831
 44
1376.294574751731
 45
67.76976022303248
 46
-10.51058198318179
 79
     2
 49
7.14375
 49
-78.58125000000001
 53
96.63559999999993
 43
-9452.951312908835
 44
1375.418699751731
 45
59.35105861655928
 46
61.8563889725123
 79
     2
 49
6.071249999999988
 49
-66.78374999999988
 53
351.184
 43
-9458.598787908831
 44
1376.294574751731
 45
59.35115145348348
 46
61.85627946514942
 79
     2
 49
5.714999999999999
 49
-62.865
 53
21.0
 43
-9452.248787908834
 44
1373.119574751731
 45
37.90371995884583
 46
-25.56637962919062
 79
     2
 49
4.762500000000001
 49
-52.3875
 53
326.0
 43
-9452.248787908834
 44
1373.119574751731
 45
15.45050708691177
 46
46.0469915305798
 79
     2
 49
3.809999999999998
 49
-41.90999999999998
 53
71.45140000000001
 43
-9449.090162908833
 44
1370.989049751731
 45
53.35412269253112
 46
20.48071442901436
 79
     2
 49
4.0475
 49
-44.5225
 53
37.49999999999999
 43
-9458.598787908831
 44
1363.594574751731
 45
0.7721508126479543
 46
21.13875971828828
 79
     6
 49
0.0
 49
-41.402
 49
0.0
 49
-42.545
 49
0.0
 49
-42.06875
 53
7.499999999999999
 43
-9458.598787908831
 44
1363.594574751731
 45
16.70491562757644
 46
25.04514370452988
 79
     6
 49
0.0
 49
-24.25699999999999
 49
0.0
 49
-40.44949999999999
 49
0.0
 49
-16.03375
 53
327.5
 43
-9472.759287908834
 44
1363.594574751731
 45
33.89764879171784
 46
-1.432185998168366
 79
     6
 49
0.0
 49
-15.875
 49
0.0
 49
-49.53
 49
0.0
 49
-65.7225
 53
317.5
 43
-9479.109287908832
 44
1363.594574751731
 45
37.03229534650451
 46
6.356622758333254
 79
     6
 49
0.0
 49
-20.6375
 49
0.0
 49
-32.893
 49
0.0
 49
-46.6725
 98
        4
 10
29.81544589585542
 20
98.12023303143019
 10
47.28815640071775
 20
185.4099712750014
 10
-1.684386727666378
 20
247.8997814729776
 10
-114.8409637295715
 20
2073.742610828839
1001
ACAD
1010
0.0
1020
0.0
1030
0.0
  0
LINE
  5
26D6
330
1F
100
AcDbEntity
  8
SOLBET_Izolacja
  6
BATTING
 48
0.24
100
AcDbLine
 10
93.4677479664781
 20
116.5312148063343
 30
0.0
 11
93.4677479664781
 21
90.13407415769178
 31
0.0
  0
LWPOLYLINE
  5
26D7
330
1F
100
AcDbEntity
  8
SOLBET_Emulsje_Folie
100
AcDbPolyline
 90
        2
 70
     0
 43
0.0
 10
121.1731136526534
 20
86.80302124522564
 10
81.73099755564022
 20
86.80302124522564
  0
LWPOLYLINE
  5
26D8
330
1F
100
AcDbEntity
  8
SOLBET_Emulsje_Folie
100
AcDbPolyline
 90
        2
 70
     0
 43
0.0
 10
81.44607331514839
 20
88.00302124522568
 10
121.028849618697
 20
88.00302124522568
  0
LINE
  5
26D9
330
1F
100
AcDbEntity
  8
SOLBET_Emulsje_Folie
  6
DASHED2
370
    30
100
AcDbLine
 10
81.58853543539477
 20
87.40302124522566
 30
0.0
 11
121.1064493108876
 21
87.40302124522566
 31
0.0
  0
LINE
  5
26DA
330
1F
100
AcDbEntity
  8
SOLBET_Izolacja
100
AcDbLine
 10
90.9677479664781
 20
90.13407415769178
 30
0.0
 11
95.9677479664781
 21
90.13407415769178
 31
0.0
  0
LINE
  5
26DB
330
1F
100
AcDbEntity
  8
SOLBET_Emulsje_Folie
100
AcDbLine
 10
70.22528584623228
 20
75.29730953581742
 30
0.0
 11
70.22528584623228
 21
61.79730953581742
 31
0.0
  0
LINE
  5
26DC
330
1F
100
AcDbEntity
  8
SOLBET_Emulsje_Folie
100
AcDbLine
 10
70.22528584623228
 20
61.79730953581742
 30
0.0
 11
69.1752858462321
 21
61.79730953581742
 31
0.0
  0
LINE
  5
26DD
330
1F
100
AcDbEntity
  8
SOLBET_Emulsje_Folie
100
AcDbLine
 10
69.1752858462321
 20
61.79730953581742
 30
0.0
 11
69.1752858462321
 21
75.73223377630916
 31
0.0
  0
LINE
  5
26DE
330
1F
100
AcDbEntity
  8
SOLBET_Emulsje_Folie
100
AcDbLine
 10
68.27528584623201
 20
61.79730953581742
 30
0.0
 11
68.27528584623201
 21
76.10502598244488
 31
0.0
  0
LINE
  5
26DF
330
1F
100
AcDbEntity
  8
SOLBET_Emulsje_Folie
  6
DASHED2
370
    30
100
AcDbLine
 10
69.70028584623219
 20
61.79730953581742
 30
0.0
 11
69.70028584623219
 21
67.53787029946102
 31
0.0
  0
LINE
  5
26E0
330
1F
100
AcDbEntity
  8
SOLBET_Emulsje_Folie
  6
DASHED2
370
    30
100
AcDbLine
 10
69.70028584623219
 20
70.5293971267165
 30
0.0
 11
69.70028584623219
 21
75.51477165606343
 31
0.0
  0
LINE
  5
26E1
330
1F
100
AcDbEntity
  8
SOLBET_Emulsje_Folie
  6
DASHED2
370
    30
100
AcDbLine
 10
69.70028584623219
 20
75.51477165606343
 30
0.0
 11
73.8695587274849
 21
79.68404453731608
 31
0.0
  0
CIRCLE
  5
26E2
330
1F
100
AcDbEntity
  8
SOLBET_Wymiary_Opisy
100
AcDbCircle
 10
87.70716084390073
 20
83.38841516469164
 30
0.0
 40
33.6397017240473
  0
LINE
  5
26E4
330
1F
100
AcDbEntity
  8
SOLBET_Zaprawy
100
AcDbLine
 10
90.2708147550004
 20
116.9302876632117
 30
0.0
 11
90.27081475500086
 21
90.13407415769178
 31
0.0
  0
LINE
  5
26E5
330
1F
100
AcDbEntity
  8
SOLBET_Zaprawy
100
AcDbLine
 10
96.73412038188258
 20
115.7943333523084
 30
0.0
 11
96.73412038188258
 21
90.13407415769178
 31
0.0
  0
MTEXT
  5
2793
102
{ACAD_XDICTIONARY
360
2811
102
}
330
1F
100
AcDbEntity
  8
SOLBET_Wymiary_Opisy
100
AcDbMText
 10
73.42943806669587
 20
137.1014464362533
 30
0.0
 40
5.0
 41
30.77919768571883
 71
     1
 72
     5
  1
C\P(5 : 1)
  7
Solbet_5
 73
     1
 44
1.0
1001
ACAD
1000
MTEXTBEGIN
1070
    73
1070
     1
1070
    44
1040
1.0
1070
    74
1070
     0
1000
MTEXTEND
1000
ACAD_MTEXT_DEFINED_HEIGHT_BEGIN
1070
    46
1040
23.42535011036716
1000
ACAD_MTEXT_DEFINED_HEIGHT_END
  0
INSERT
  5
28CD
330
1F
100
AcDbEntity
  8
SOLBET_Bloczki
100
AcDbBlockReference
  2
SOLBET_Bloczek_Ideal_420x240x590_P+W_KG400_PRA
 10
209.7036044515952
 20
183.6254589720146
 30
0.0
  0
INSERT
  5
28CE
330
1F
100
AcDbEntity
  8
SOLBET_Bloczki
100
AcDbBlockReference
  2
SOLBET_Bloczek_Ideal_420x240x590_P+W_KG400_PRA
 10
209.7036044515952
 20
171.6254589720145
 30
0.0
  0
INSERT
  5
28CF
330
1F
100
AcDbEntity
  8
SOLBET_Bloczki
100
AcDbBlockReference
  2
SOLBET_Bloczek_Ideal_420x240x590_P+W_KG400_PRA
 10
209.7036044515952
 20
159.6254589720144
 30
0.0
  0
MTEXT
  5
290C
102
{ACAD_XDICTIONARY
360
290D
102
}
330
1F
100
AcDbEntity
  8
SOLBET_Wymiary_Opisy
100
AcDbMText
 10
301.2542633255816
 20
7.273150535415538
 30
0.0
 40
5.0
 41
0.0
 71
     1
 72
     5
  1
Skala 1:20
  7
Solbet_5
 73
     1
 44
1.0
1001
ACAD
1000
MTEXTBEGIN
1070
    73
1070
     1
1070
    44
1040
1.0
1070
    74
1070
     0
1000
MTEXTEND
1000
ACAD_MTEXT_DEFINED_HEIGHT_BEGIN
1070
    46
1040
5.395147572682731
1000
ACAD_MTEXT_DEFINED_HEIGHT_END
  0
LWPOLYLINE
  5
2915
330
1F
100
AcDbEntity
  8
SOLBET_Ramka_05
100
AcDbPolyline
 90
        4
 70
     1
 43
0.0
 10
298.2355972046678
 20
9.804221198935465
 10
334.35177409209
 20
9.804221198935465
 10
334.35177409209
 20
0.0
 10
298.2355972046678
 20
0.0000000000000018
  0
ENDSEC
  0
SECTION
  2
OBJECTS
  0
DICTIONARY
  5
C
330
0
100
AcDbDictionary
281
     1
  3
ACAD_COLOR
350
6B
  3
ACAD_GROUP
350
D
  3
ACAD_LAYOUT
350
1A
  3
ACAD_MATERIAL
350
6A
  3
ACAD_MLEADERSTYLE
350
12D
  3
ACAD_MLINESTYLE
350
17
  3
ACAD_PLOTSETTINGS
350
19
  3
ACAD_PLOTSTYLENAME
350
E
  3
ACAD_SCALELIST
350
10C
  3
ACAD_TABLESTYLE
350
7E
  3
ACAD_VISUALSTYLE
350
EF
  3
ACDB_RECOMPOSE_DATA
350
15D
  3
AcDbVariableDictionary
350
5E
  3
DWGPROPS
350
29D0
  0
DICTIONARY
  5
443
330
8
100
AcDbDictionary
280
     1
281
     1
  0
DICTIONARY
  5
3E5
330
2
100
AcDbDictionary
280
     1
281
     1
  3
ACAD_LAYERFILTERS
360
1883
  3
ACLYDICTIONARY
360
1882
  0
DICTIONARY
  5
13C
330
10
100
AcDbDictionary
280
     1
281
     1
  3
ADSK_XREC_LAYER_RECONCILED
360
3F4
  0
DICTIONARY
  5
403
330
3DD
100
AcDbDictionary
280
     1
281
     1
  3
ADSK_XREC_LAYER_RECONCILED
360
404
  0
DICTIONARY
  5
405
330
3DF
100
AcDbDictionary
280
     1
281
     1
  3
ADSK_XREC_LAYER_RECONCILED
360
406
  0
DICTIONARY
  5
407
330
3E0
100
AcDbDictionary
280
     1
281
     1
  3
ADSK_XREC_LAYER_RECONCILED
360
408
  0
DICTIONARY
  5
409
330
3E1
100
AcDbDictionary
280
     1
281
     1
  3
ADSK_XREC_LAYER_RECONCILED
360
40A
  0
DICTIONARY
  5
40B
330
3E2
100
AcDbDictionary
280
     1
281
     1
  3
ADSK_XREC_LAYER_RECONCILED
360
40C
  0
DICTIONARY
  5
40D
330
3E3
100
AcDbDictionary
280
     1
281
     1
  3
ADSK_XREC_LAYER_RECONCILED
360
40E
  0
DICTIONARY
  5
40F
330
3E4
100
AcDbDictionary
280
     1
281
     1
  3
ADSK_XREC_LAYER_RECONCILED
360
410
  0
DICTIONARY
  5
411
330
3E8
100
AcDbDictionary
280
     1
281
     1
  3
ADSK_XREC_LAYER_RECONCILED
360
412
  0
DICTIONARY
  5
4A3
330
1F
100
AcDbDictionary
280
     1
281
     1
  3
ACAD_SORTENTS
360
4A4
  0
DICTIONARY
  5
2096
330
208A
100
AcDbDictionary
280
     1
281
     1
  3
ACAD_SORTENTS
360
2097
  0
DICTIONARY
  5
285E
330
2852
100
AcDbDictionary
280
     1
281
     1
  3
ACAD_SORTENTS
360
286E
  0
DICTIONARY
  5
287C
330
2870
100
AcDbDictionary
280
     1
281
     1
  3
ACAD_SORTENTS
360
288C
  0
DICTIONARY
  5
28C9
330
28BD
100
AcDbDictionary
280
     1
281
     1
  3
ACAD_SORTENTS
360
28CA
  0
DICTIONARY
  5
29F0
330
24C4
100
AcDbDictionary
280
     1
281
     1
  3
ACAD_MTEXT_RT
360
29F1
  0
DICTIONARY
  5
1E16
330
1E15
100
AcDbDictionary
280
     1
281
     1
  3
ACAD_MTEXT_RT
360
29DD
  3
AcDbContextDataManager
360
1E17
  0
DICTIONARY
  5
29DE
330
1E1A
100
AcDbDictionary
280
     1
281
     1
  3
ACAD_MTEXT_RT
360
29DF
  0
DICTIONARY
  5
29E0
330
1E1C
100
AcDbDictionary
280
     1
281
     1
  3
ACAD_MTEXT_RT
360
29E1
  0
DICTIONARY
  5
29E2
330
1E22
100
AcDbDictionary
280
     1
281
     1
  3
ACAD_MTEXT_RT
360
29E3
  0
DICTIONARY
  5
29E4
330
1E28
100
AcDbDictionary
280
     1
281
     1
  3
ACAD_MTEXT_RT
360
29E5
  0
DICTIONARY
  5
29E6
330
1E2A
100
AcDbDictionary
280
     1
281
     1
  3
ACAD_MTEXT_RT
360
29E7
  0
DICTIONARY
  5
29E8
330
1E34
100
AcDbDictionary
280
     1
281
     1
  3
ACAD_MTEXT_RT
360
29E9
  0
DICTIONARY
  5
29EA
330
1E38
100
AcDbDictionary
280
     1
281
     1
  3
ACAD_MTEXT_RT
360
29EB
  0
DICTIONARY
  5
29EC
330
1E3A
100
AcDbDictionary
280
     1
281
     1
  3
ACAD_MTEXT_RT
360
29ED
  0
DICTIONARY
  5
29EE
330
1E3C
100
AcDbDictionary
280
     1
281
     1
  3
ACAD_MTEXT_RT
360
29EF
  0
DICTIONARY
  5
280B
330
1E48
100
AcDbDictionary
280
     1
281
     1
  3
ACAD_MTEXT_2008_RT
360
280C
  0
DICTIONARY
  5
1E4A
330
1E49
100
AcDbDictionary
280
     1
281
     1
  3
ACAD_DIMASSOC
360
1E4B
  0
DICTIONARY
  5
280D
330
1EF5
100
AcDbDictionary
280
     1
281
     1
  3
ACAD_MTEXT_2008_RT
360
280E
  0
DICTIONARY
  5
280F
330
1F04
100
AcDbDictionary
280
     1
281
     1
  3
ACAD_MTEXT_2008_RT
360
2810
  0
DICTIONARY
  5
2811
330
2793
100
AcDbDictionary
280
     1
281
     1
  3
ACAD_MTEXT_2008_RT
360
2812
  0
DICTIONARY
  5
290D
330
290C
100
AcDbDictionary
280
     1
281
     1
  3
ACAD_MTEXT_2008_RT
360
290E
  0
DICTIONARY
  5
6B
102
{ACAD_REACTORS
330
C
102
}
330
C
100
AcDbDictionary
281
     1
  0
DICTIONARY
  5
D
102
{ACAD_REACTORS
330
C
102
}
330
C
100
AcDbDictionary
281
     1
  0
DICTIONARY
  5
1A
102
{ACAD_REACTORS
330
C
102
}
330
C
100
AcDbDictionary
281
     1
  3
Arkusz1
350
D3
  3
Arkusz2
350
D7
  3
Model
350
22
  0
DICTIONARY
  5
6A
102
{ACAD_REACTORS
330
C
102
}
330
C
100
AcDbDictionary
281
     1
  3
ByBlock
350
ED
  3
ByLayer
350
EC
  3
Global
350
EE
  0
DICTIONARY
  5
12D
102
{ACAD_REACTORS
330
C
102
}
330
C
100
AcDbDictionary
281
     1
  3
Standard
350
12E
  0
DICTIONARY
  5
17
102
{ACAD_REACTORS
330
C
102
}
330
C
100
AcDbDictionary
281
     1
  3
SOLBET_IZOLACJA
350
7E9
  3
Standard
350
18
  0
DICTIONARY
  5
19
102
{ACAD_REACTORS
330
C
102
}
330
C
100
AcDbDictionary
281
     1
  0
ACDBDICTIONARYWDFLT
  5
E
102
{ACAD_REACTORS
330
C
102
}
330
C
100
AcDbDictionary
281
     1
  3
Normal
350
F
100
AcDbDictionaryWithDefault
340
F
  0
DICTIONARY
  5
10C
102
{ACAD_REACTORS
330
C
102
}
330
C
100
AcDbDictionary
281
     1
  3
A0
350
10D
  3
A1
350
188
  3
A2
350
189
  3
A3
350
18A
  3
A4
350
18B
  3
A5
350
18C
  3
A6
350
18D
  3
A7
350
18E
  3
A8
350
18F
  3
A9
350
190
  3
B0
350
191
  3
B1
350
192
  3
B2
350
193
  3
B3
350
194
  3
B4
350
195
  3
B5
350
196
  3
B6
350
197
  3
B7
350
198
  3
B8
350
199
  3
B9
350
19A
  3
C0
350
19B
  3
C1
350
19C
  3
C2
350
19D
  3
C3
350
19E
  3
C4
350
19F
  3
C5
350
1A0
  3
C6
350
1A1
  3
C7
350
1A2
  3
C8
350
1A3
  3
C9
350
1A4
  3
D0
350
1A5
  3
D1
350
1A6
  3
D2
350
1A7
  0
DICTIONARY
  5
7E
102
{ACAD_REACTORS
330
C
102
}
330
C
100
AcDbDictionary
281
     1
  3
Standard
350
7F
  0
DICTIONARY
  5
EF
102
{ACAD_REACTORS
330
C
102
}
330
C
100
AcDbDictionary
281
     1
  3
2dWireframe
350
F5
  3
3D Hidden
350
F7
  3
3dWireframe
350
F6
  3
Basic
350
F4
  3
Brighten
350
FB
  3
ColorChange
350
FF
  3
Conceptual
350
F8
  3
Dim
350
FA
  3
Facepattern
350
FE
  3
Flat
350
F0
  3
FlatWithEdges
350
F1
  3
Gouraud
350
F2
  3
GouraudWithEdges
350
F3
  3
Linepattern
350
FD
  3
Realistic
350
F9
  3
Thicken
350
FC
  0
XRECORD
  5
15D
102
{ACAD_REACTORS
330
C
102
}
330
C
100
AcDbXrecord
280
     1
 90
        1
330
7F
330
1E48
330
1EF5
330
1F04
330
2793
  0
DICTIONARY
  5
5E
102
{ACAD_REACTORS
330
C
102
}
330
C
100
AcDbDictionary
281
     1
  3
CANNOSCALE
350
146
  3
CMLEADERSTYLE
350
145
  3
CTABLESTYLE
350
84
  3
DIMASSOC
350
5F
  3
HIDETEXT
350
63
  3
INDEXCTL
350
466
  3
LIGHTINGUNITS
350
464
  3
MSLTSCALE
350
463
  3
PSOLHEIGHT
350
29CF
  3
PSOLWIDTH
350
29CE
  3
SORTENTS
350
465
  0
XRECORD
  5
29D0
102
{ACAD_REACTORS
330
C
102
}
330
C
100
AcDbXrecord
280
     1
  1
DWGPROPS COOKIE
  2

  3

  4

  6

  7

  8
Olus
  9

300
=
301
=
302
=
303
=
304
=
305
=
306
=
307
=
308
=
309
=
 40
0.5178526273148149
 41
2454690.075573148
 42
2454849.480148218
  1

 90
        0
  0
DICTIONARY
  5
1883
102
{ACAD_REACTORS
330
3E5
102
}
330
3E5
100
AcDbDictionary
281
     1
  0
DICTIONARY
  5
1882
102
{ACAD_REACTORS
330
3E5
102
}
330
3E5
100
AcDbDictionary
281
     1
1001
ACAD
1000
<All
  0
XRECORD
  5
3F4
102
{ACAD_REACTORS
330
13C
102
}
330
13C
100
AcDbXrecord
280
     1
290
     1
  0
XRECORD
  5
404
102
{ACAD_REACTORS
330
403
102
}
330
403
100
AcDbXrecord
280
     1
290
     1
  0
XRECORD
  5
406
102
{ACAD_REACTORS
330
405
102
}
330
405
100
AcDbXrecord
280
     1
290
     1
  0
XRECORD
  5
408
102
{ACAD_REACTORS
330
407
102
}
330
407
100
AcDbXrecord
280
     1
290
     1
  0
XRECORD
  5
40A
102
{ACAD_REACTORS
330
409
102
}
330
409
100
AcDbXrecord
280
     1
290
     1
  0
XRECORD
  5
40C
102
{ACAD_REACTORS
330
40B
102
}
330
40B
100
AcDbXrecord
280
     1
290
     1
  0
XRECORD
  5
40E
102
{ACAD_REACTORS
330
40D
102
}
330
40D
100
AcDbXrecord
280
     1
290
     1
  0
XRECORD
  5
410
102
{ACAD_REACTORS
330
40F
102
}
330
40F
100
AcDbXrecord
280
     1
290
     1
  0
XRECORD
  5
412
102
{ACAD_REACTORS
330
411
102
}
330
411
100
AcDbXrecord
280
     1
290
     1
  0
SORTENTSTABLE
  5
4A4
102
{ACAD_REACTORS
330
4A3
102
}
330
4A3
100
AcDbSortentsTable
330
1F
331
1E59
  5
1E8C
331
1DDB
  5
1DDB
331
1DE3
  5
1DE3
331
1E1A
  5
1E1A
331
1E22
  5
1E22
331
1E2A
  5
1E2A
331
1EC8
  5
1ECD
331
20F7
  5
1E32
331
1EF0
  5
1F05
331
1E32
  5
1E36
331
1DF3
  5
1DF3
331
1E3A
  5
1E40
331
1DC4
  5
1DC4
331
1DFB
  5
1DFB
331
1E42
  5
1E46
331
1DCC
  5
1DCC
331
1E03
  5
1E03
331
1DD4
  5
1DD4
331
1E0B
  5
1E0B
331
1E91
  5
1E96
331
1E99
  5
1E9F
331
1DDC
  5
1DDC
331
1DE4
  5
1DE4
331
1E1B
  5
1E1B
331
1E23
  5
1E23
331
1EC9
  5
1ECE
331
1ED9
  5
1F04
331
20F8
  5
1E33
331
1EF1
  5
1F06
331
1E33
  5
1E37
331
1DF4
  5
1DF4
331
1E3B
  5
1E41
331
1DC5
  5
1DC5
331
1DFC
  5
1DFC
331
1E43
  5
1E47
331
1DCD
  5
1DCD
331
1E04
  5
1E04
331
1DD5
  5
1DD5
331
1E0C
  5
1E0C
331
1E92
  5
1E97
331
1E9A
  5
1EA1
331
1DDD
  5
1DDD
331
1E14
  5
1E14
331
1DE5
  5
1DE5
331
1E1C
  5
1E1C
331
1E8B
  5
1E8F
331
1E24
  5
1E24
331
1ECA
  5
1ECF
331
20F9
  5
1E2D
331
1E34
  5
1E38
331
1DF5
  5
1DF5
331
1E3C
  5
1E42
331
1DC6
  5
1DC6
331
1DFD
  5
1DFD
331
1E44
  5
1E48
331
1DCE
  5
1DCE
331
1E05
  5
1E05
331
1DD6
  5
1DD6
331
1E0D
  5
1E0D
331
1E93
  5
1E98
331
206A
  5
20F7
331
1EA3
  5
1EC4
331
1DDE
  5
1DDE
331
1E15
  5
1E15
331
1DE6
  5
1DE6
331
1E1D
  5
1E1D
331
1E8C
  5
1E91
331
1DEE
  5
1DEE
331
1E25
  5
1E25
331
1E2D
  5
1E34
331
1ECB
  5
1EDF
331
20FA
  5
1E2E
331
1E35
  5
1E39
331
1DBF
  5
1DBF
331
1DF6
  5
1DF6
331
1DC7
  5
1DC7
331
1DFE
  5
1DFE
331
1E45
  5
1E49
331
1DCF
  5
1DCF
331
1DD7
  5
1DD7
331
1E0E
  5
1E0E
331
1E94
  5
1E99
331
1E9C
  5
1EA2
331
1EA4
  5
1EC5
331
1DDF
  5
1DDF
331
1DE7
  5
1DE7
331
1E1E
  5
1E1E
331
1E8D
  5
1E92
331
1DEF
  5
1DEF
331
1E26
  5
1E26
331
1E2E
  5
1E35
331
1EC4
  5
1EC8
331
1E36
  5
1E3A
331
1DC0
  5
1DC0
331
1DF7
  5
1DF7
331
1DC8
  5
1DC8
331
1DFF
  5
1DFF
331
1E46
  5
1E59
331
1DD0
  5
1DD0
331
1F04
  5
209A
331
1E0F
  5
1E0F
331
1E95
  5
1E9A
331
1E9D
  5
1EA4
331
1EA5
  5
1EC6
331
1DD8
  5
1DD8
331
1DE0
  5
1DE0
331
1E6E
  5
1E8D
331
1DE8
  5
1DE8
331
1E1F
  5
1E1F
331
1E8E
  5
1E93
331
1E27
  5
1E27
331
1EC5
  5
1EC9
331
1ECD
  5
1EF0
331
1EF5
  5
206A
331
1E37
  5
1E3B
331
1DC1
  5
1DC1
331
1DF8
  5
1DF8
331
1E3F
  5
1E43
331
1DC9
  5
1DC9
331
1E47
  5
1E6E
331
1DD1
  5
1DD1
331
1F05
  5
209D
331
1E96
  5
1E9B
331
1E9E
  5
1EA5
331
216C
  5
216D
331
1EA6
  5
1EC7
331
1E10
  5
1E10
331
1DD9
  5
1DD9
331
1DE1
  5
1DE1
331
1E6F
  5
1E8E
331
1DE9
  5
1DE9
331
1E20
  5
1E20
331
1E8F
  5
1E94
331
1E28
  5
1E28
331
1EC6
  5
1ECA
331
1ECE
  5
1EF1
331
1EDE
  5
1EE3
331
1E38
  5
1E3C
331
1DC2
  5
1DC2
331
1DF9
  5
1DF9
331
1E40
  5
1E44
331
1DCA
  5
1DCA
331
1E01
  5
1E01
331
1E48
  5
1E6F
331
1DD2
  5
1DD2
331
1E09
  5
1E09
331
1F06
  5
20A0
331
1E97
  5
1E9D
331
1E9F
  5
1EA6
331
216D
  5
216E
331
1EB7
  5
1EA0
331
1DDA
  5
1DDA
331
1E11
  5
1E11
331
1DE2
  5
1DE2
331
1DEA
  5
1DEA
331
1E21
  5
1E21
331
1E29
  5
1E29
331
1EC7
  5
1ECB
331
1ECF
  5
1EF5
331
1DF2
  5
1DF2
331
1E39
  5
1E3F
331
1DC3
  5
1DC3
331
1DFA
  5
1DFA
331
1E41
  5
1E45
331
1E02
  5
1E02
331
1E49
  5
1E8B
331
1DD3
  5
1DD3
331
1E0A
  5
1E0A
331
1E90
  5
1E95
331
1E98
  5
1E9E
331
1EA0
  5
1EA7
331
216E
  5
216C
  0
SORTENTSTABLE
  5
2097
102
{ACAD_REACTORS
330
2096
102
}
330
2096
100
AcDbSortentsTable
330
208A
  0
SORTENTSTABLE
  5
286E
102
{ACAD_REACTORS
330
285E
102
}
330
285E
100
AcDbSortentsTable
330
2852
  0
SORTENTSTABLE
  5
288C
102
{ACAD_REACTORS
330
287C
102
}
330
287C
100
AcDbSortentsTable
330
2870
  0
SORTENTSTABLE
  5
28CA
102
{ACAD_REACTORS
330
28C9
102
}
330
28C9
100
AcDbSortentsTable
330
28BD
  0
XRECORD
  5
29F1
102
{ACAD_REACTORS
330
29F0
102
}
330
29F0
100
AcDbXrecord
280
     1
 40
45905.0
  1
max. 1/3 szeokości bloczka
  0
XRECORD
  5
29DD
102
{ACAD_REACTORS
330
1E16
102
}
330
1E16
100
AcDbXrecord
280
     1
 40
1185400.0
  1
{\fISOCPEUR|b0|i0|c0|p34;\LDETAL 1\P\lPosadowienie na \fISOCPEUR|b1|i0|c238|p34;ł\fISOCPEUR|b0|i0|c238|p34;awie fundamentowej w gruntach przepuszczalnych}
  0
DICTIONARY
  5
1E17
102
{ACAD_REACTORS
330
1E16
102
}
330
1E16
100
AcDbDictionary
281
     1
  3
ACDB_ANNOTATIONSCALES
350
1E18
  0
XRECORD
  5
29DF
102
{ACAD_REACTORS
330
29DE
102
}
330
29DE
100
AcDbXrecord
280
     1
 40
901167.0
  1
{\LUWAGA:\P}Systemy hydroizolacji stosować wg zaleceń producentów.\PStyropian wodoodporny wg zaleceń producentów.
  0
XRECORD
  5
29E1
102
{ACAD_REACTORS
330
29E0
102
}
330
29E0
100
AcDbXrecord
280
     1
 40
34960.0
  1
Warstwa wykończeniowa
  0
XRECORD
  5
29E3
102
{ACAD_REACTORS
330
29E2
102
}
330
29E2
100
AcDbXrecord
280
     1
 40
42625.0
  1
Płyty izolacyjne twarde
  0
XRECORD
  5
29E5
102
{ACAD_REACTORS
330
29E4
102
}
330
29E4
100
AcDbXrecord
280
     1
 40
28851.0
  1
Zagęszczony piasek
  0
XRECORD
  5
29E7
102
{ACAD_REACTORS
330
29E6
102
}
330
29E6
100
AcDbXrecord
280
     1
 40
33376.0
  1
Tynk zewnętrzny SOLBET
  0
XRECORD
  5
29E9
102
{ACAD_REACTORS
330
29E8
102
}
330
29E8
100
AcDbXrecord
280
     1
 40
33358.0
  1
Tynk wewnętrzny SOLBET
  0
XRECORD
  5
29EB
102
{ACAD_REACTORS
330
29EA
102
}
330
29EA
100
AcDbXrecord
280
     1
 40
22651.0
  1
Emulsja izolująca
  0
XRECORD
  5
29ED
102
{ACAD_REACTORS
330
29EC
102
}
330
29EC
100
AcDbXrecord
280
     1
 40
16059.0
  1
Tynk cokołowy
  0
XRECORD
  5
29EF
102
{ACAD_REACTORS
330
29EE
102
}
330
29EE
100
AcDbXrecord
280
     1
 40
190037.0
  1
Mocowanie mechaniczne styropianu\P(w części naziemnej)
  0
XRECORD
  5
280C
102
{ACAD_REACTORS
330
280B
102
}
330
280B
100
AcDbXrecord
280
     1
 40
79699.0
  1
\pxql;Emulsja izolazyjna\Plub izolacja z folii
  0
DIMASSOC
  5
1E4B
102
{ACAD_REACTORS
330
1E4A
102
}
330
1E4A
100
AcDbDimAssoc
330
1E49
 90
        2
 70
     0
 71
     0
  1
AcDbOsnapPointRef
 72
     1
331
1DEA
 73
     2
 91
        0
 40
1.0
 10
0.0
 20
0.0
 30
2.000000000000000E+50
 75
     0
  0
XRECORD
  5
280E
102
{ACAD_REACTORS
330
280D
102
}
330
280D
100
AcDbXrecord
280
     1
 40
24693.0
  1
\pxqc;A\P(5 : 1)
  0
XRECORD
  5
2810
102
{ACAD_REACTORS
330
280F
102
}
330
280F
100
AcDbXrecord
280
     1
 40
24757.0
  1
\pxqc;B\P(5 : 1)
  0
XRECORD
  5
2812
102
{ACAD_REACTORS
330
2811
102
}
330
2811
100
AcDbXrecord
280
     1
 40
24748.0
  1
\pxqc;C\P(5 : 1)
  0
XRECORD
  5
290E
102
{ACAD_REACTORS
330
290D
102
}
330
290D
100
AcDbXrecord
280
     1
 40
24748.0
  1
\pxqc;C\P(5 : 1)
  0
LAYOUT
  5
D3
102
{ACAD_XDICTIONARY
360
29D4
102
}
102
{ACAD_REACTORS
330
1A
102
}
330
1A
100
AcDbPlotSettings
  1

  2
C:\Documents and Settings\basas\Application Data\Autodesk\AutoCAD 2005\R16.1\enu\plotters\Default Windows System Printer.pc3
  4

  6

 40
0.0
 41
0.0
 42
0.0
 43
0.0
 44
0.0
 45
0.0
 46
0.0
 47
0.0
 48
0.0
 49
0.0
140
0.0
141
0.0
142
1.0
143
1.0
 70
   688
 72
     0
 73
     0
 74
     5
  7

 75
    16
147
1.0
148
0.0
149
0.0
100
AcDbLayout
  1
Arkusz1
 70
     1
 71
     1
 10
0.0
 20
0.0
 11
12.0
 21
9.0
 12
0.0
 22
0.0
 32
0.0
 14
0.0
 24
0.0
 34
0.0
 15
0.0
 25
0.0
 35
0.0
146
0.0
 13
0.0
 23
0.0
 33
0.0
 16
1.0
 26
0.0
 36
0.0
 17
0.0
 27
1.0
 37
0.0
 76
     0
330
D2
  0
LAYOUT
  5
D7
102
{ACAD_XDICTIONARY
360
29D6
102
}
102
{ACAD_REACTORS
330
1A
102
}
330
1A
100
AcDbPlotSettings
  1

  2
C:\Documents and Settings\basas\Application Data\Autodesk\AutoCAD 2005\R16.1\enu\plotters\Default Windows System Printer.pc3
  4

  6

 40
0.0
 41
0.0
 42
0.0
 43
0.0
 44
0.0
 45
0.0
 46
0.0
 47
0.0
 48
0.0
 49
0.0
140
0.0
141
0.0
142
1.0
143
1.0
 70
   688
 72
     0
 73
     0
 74
     5
  7

 75
    16
147
1.0
148
0.0
149
0.0
100
AcDbLayout
  1
Arkusz2
 70
     1
 71
     2
 10
0.0
 20
0.0
 11
12.0
 21
9.0
 12
0.0
 22
0.0
 32
0.0
 14
0.0
 24
0.0
 34
0.0
 15
0.0
 25
0.0
 35
0.0
146
0.0
 13
0.0
 23
0.0
 33
0.0
 16
1.0
 26
0.0
 36
0.0
 17
0.0
 27
1.0
 37
0.0
 76
     0
330
D6
  0
LAYOUT
  5
22
102
{ACAD_XDICTIONARY
360
29D1
102
}
102
{ACAD_REACTORS
330
1A
102
}
330
1A
100
AcDbPlotSettings
  1

  2
none_device
  4
ISO_A4_(210.00_x_297.00_MM)
  6

 40
7.5
 41
20.0
 42
7.5
 43
20.0
 44
210.0
 45
297.0
 46
11.54999923706054
 47
-13.65000009536743
 48
0.0
 49
0.0
140
334.35177409209
141
297.0
142
1.0
143
1.715
 70
 11936
 72
     1
 73
     0
 74
     4
  7

 75
     0
147
0.5832180808057908
148
0.0
149
0.0
100
AcDbLayout
  1
Model
 70
     1
 71
     0
 10
0.0
 20
0.0
 11
12.0
 21
9.0
 12
0.0
 22
0.0
 32
0.0
 14
0.0
 24
0.0
 34
0.0
 15
0.0
 25
0.0
 35
0.0
146
0.0
 13
0.0
 23
0.0
 33
0.0
 16
1.0
 26
0.0
 36
0.0
 17
0.0
 27
1.0
 37
0.0
 76
     0
330
1F
331
EA
1001
ACAD_PSEXT
1000
Brak
1000
Brak
1000
Nie można zastosować.
1000
Arkusz nie zostanie wydrukowany dopóki nie wybrano konfiguracji plotera.
1070
     0
  0
MATERIAL
  5
ED
102
{ACAD_XDICTIONARY
360
29DA
102
}
102
{ACAD_REACTORS
330
6A
102
}
330
6A
100
AcDbMaterial
  1
ByBlock
 73
     2
 78
     2
172
     2
176
     2
270
     2
274
     2
  0
MATERIAL
  5
EC
102
{ACAD_XDICTIONARY
360
29D8
102
}
102
{ACAD_REACTORS
330
6A
102
}
330
6A
100
AcDbMaterial
  1
ByLayer
 73
     2
 78
     2
172
     2
176
     2
270
     2
274
     2
  0
MATERIAL
  5
EE
102
{ACAD_XDICTIONARY
360
173
102
}
102
{ACAD_REACTORS
330
6A
102
}
330
6A
100
AcDbMaterial
  1
Global
 73
     2
 43
0.0007999999797903
 43
0.0
 43
0.0
 43
0.0
 43
0.0
 43
0.0007999999797903
 43
0.0
 43
0.0
 43
0.0
 43
0.0
 43
1.0
 43
0.0
 43
0.0
 43
0.0
 43
0.0
 43
1.0
 78
     2
172
     2
 49
0.0007999999797903
 49
0.0
 49
0.0
 49
0.0
 49
0.0
 49
0.0007999999797903
 49
0.0
 49
0.0
 49
0.0
 49
0.0
 49
1.0
 49
0.0
 49
0.0
 49
0.0
 49
0.0
 49
1.0
176
     2
142
0.0007999999797903
142
0.0
142
0.0
142
0.0
142
0.0
142
0.0007999999797903
142
0.0
142
0.0
142
0.0
142
0.0
142
1.0
142
0.0
142
0.0
142
0.0
142
0.0
142
1.0
270
     2
144
0.0007999999797903
144
0.0
144
0.0
144
0.0
144
0.0
144
0.0007999999797903
144
0.0
144
0.0
144
0.0
144
0.0
144
1.0
144
0.0
144
0.0
144
0.0
144
0.0
144
1.0
274
     2
1001
ACAD
1070
    -1
1070
     3
1070
     0
1000

1071
        0
1070
     0
  0
ACAD_PROXY_OBJECT
  5
12E
102
{ACAD_REACTORS
330
12D
102
}
330
12D
100
AcDbProxyObject
 90
      499
 91
      508
 95
   983063
 70
     0
 93
      618
310
40901902A4063FBFFFFFE0000000000000020400000000000020404254DD185B99185C99000000000000000104090140501A0000000000000410000000000000004102576400000000000003903F
340
14
340
0
340
11
340
0
 94
        0
1001
ACAD_MLEADERVER
1070
     2
1001
ACAD
1000
AcRTDxfName
1000
MLEADERSTYLE
1000
AcRTDxfName
1000
MLEADERSTYLE
1000
AcRTDxfName
1000
MLEADERSTYLE
1000
AcRTDxfName
1000
MLEADERSTYLE
1000
AcRTDxfName
1000
MLEADERSTYLE
  0
MLINESTYLE
  5
7E9
102
{ACAD_REACTORS
330
17
102
}
330
17
100
AcDbMlineStyle
  2
SOLBET_IZOLACJA
 70
   272
  3

 62
   256
 51
90.0
 52
90.0
 71
     2
 49
0.008
 62
   256
  6
BYLAYER
 49
-0.008
 62
   256
  6
BYLAYER
  0
MLINESTYLE
  5
18
102
{ACAD_REACTORS
330
17
102
}
330
17
100
AcDbMlineStyle
  2
STANDARD
 70
     0
  3

 62
   256
 51
90.0
 52
90.0
 71
     2
 49
0.5
 62
   256
  6
BYLAYER
 49
-0.5
 62
   256
  6
BYLAYER
  0
ACDBPLACEHOLDER
  5
F
102
{ACAD_REACTORS
330
E
102
}
330
E
  0
ACAD_PROXY_OBJECT
  5
10D
102
{ACAD_REACTORS
330
10C
102
}
330
10C
100
AcDbProxyObject
 90
      499
 91
      507
 95
   983063
 70
     0
 93
       49
310
904313A31005FF
 94
        0
1001
ACAD
1000
AcRTDxfName
1000
SCALE
1000
AcRTDxfName
1000
SCALE
1000
AcRTDxfName
1000
SCALE
1000
AcRTDxfName
1000
SCALE
1000
AcRTDxfName
1000
SCALE
  0
ACAD_PROXY_OBJECT
  5
188
102
{ACAD_REACTORS
330
10C
102
}
330
10C
100
AcDbProxyObject
 90
      499
 91
      507
 95
   983063
 70
     0
 93
      113
310
904313A3200400000000000000407F
 94
        0
1001
ACAD
1000
AcRTDxfName
1000
SCALE
1000
AcRTDxfName
1000
SCALE
1000
AcRTDxfName
1000
SCALE
1000
AcRTDxfName
1000
SCALE
1000
AcRTDxfName
1000
SCALE
  0
ACAD_PROXY_OBJECT
  5
189
102
{ACAD_REACTORS
330
10C
102
}
330
10C
100
AcDbProxyObject
 90
      499
 91
      507
 95
   983063
 70
     0
 93
      113
310
904313A3400400000000000010407F
 94
        0
1001
ACAD
1000
AcRTDxfName
1000
SCALE
1000
AcRTDxfName
1000
SCALE
1000
AcRTDxfName
1000
SCALE
1000
AcRTDxfName
1000
SCALE
1000
AcRTDxfName
1000
SCALE
  0
ACAD_PROXY_OBJECT
  5
18A
102
{ACAD_REACTORS
330
10C
102
}
330
10C
100
AcDbProxyObject
 90
      499
 91
      507
 95
   983063
 70
     0
 93
      113
310
904313A3500400000000000014407F
 94
        0
1001
ACAD
1000
AcRTDxfName
1000
SCALE
1000
AcRTDxfName
1000
SCALE
1000
AcRTDxfName
1000
SCALE
1000
AcRTDxfName
1000
SCALE
1000
AcRTDxfName
1000
SCALE
  0
ACAD_PROXY_OBJECT
  5
18B
102
{ACAD_REACTORS
330
10C
102
}
330
10C
100
AcDbProxyObject
 90
      499
 91
      507
 95
   983063
 70
     0
 93
      113
310
904313A3800400000000000020407F
 94
        0
1001
ACAD
1000
AcRTDxfName
1000
SCALE
1000
AcRTDxfName
1000
SCALE
1000
AcRTDxfName
1000
SCALE
1000
AcRTDxfName
1000
SCALE
1000
AcRTDxfName
1000
SCALE
  0
ACAD_PROXY_OBJECT
  5
18C
102
{ACAD_REACTORS
330
10C
102
}
330
10C
100
AcDbProxyObject
 90
      499
 91
      507
 95
   983063
 70
     0
 93
      121
310
905313A313000400000000000024407F
 94
        0
1001
ACAD
1000
AcRTDxfName
1000
SCALE
1000
AcRTDxfName
1000
SCALE
1000
AcRTDxfName
1000
SCALE
1000
AcRTDxfName
1000
SCALE
1000
AcRTDxfName
1000
SCALE
  0
ACAD_PROXY_OBJECT
  5
18D
102
{ACAD_REACTORS
330
10C
102
}
330
10C
100
AcDbProxyObject
 90
      499
 91
      507
 95
   983063
 70
     0
 93
      121
310
905313A313600400000000000030407F
 94
        0
1001
ACAD
1000
AcRTDxfName
1000
SCALE
1000
AcRTDxfName
1000
SCALE
1000
AcRTDxfName
1000
SCALE
1000
AcRTDxfName
1000
SCALE
1000
AcRTDxfName
1000
SCALE
  0
ACAD_PROXY_OBJECT
  5
18E
102
{ACAD_REACTORS
330
10C
102
}
330
10C
100
AcDbProxyObject
 90
      499
 91
      507
 95
   983063
 70
     0
 93
      121
310
905313A323000400000000000034407F
 94
        0
1001
ACAD
1000
AcRTDxfName
1000
SCALE
1000
AcRTDxfName
1000
SCALE
1000
AcRTDxfName
1000
SCALE
1000
AcRTDxfName
1000
SCALE
1000
AcRTDxfName
1000
SCALE
  0
ACAD_PROXY_OBJECT
  5
18F
102
{ACAD_REACTORS
330
10C
102
}
330
10C
100
AcDbProxyObject
 90
      499
 91
      507
 95
   983063
 70
     0
 93
      121
310
905313A33300040000000000003E407F
 94
        0
1001
ACAD
1000
AcRTDxfName
1000
SCALE
1000
AcRTDxfName
1000
SCALE
1000
AcRTDxfName
1000
SCALE
1000
AcRTDxfName
1000
SCALE
1000
AcRTDxfName
1000
SCALE
  0
ACAD_PROXY_OBJECT
  5
190
102
{ACAD_REACTORS
330
10C
102
}
330
10C
100
AcDbProxyObject
 90
      499
 91
      507
 95
   983063
 70
     0
 93
      121
310
905313A343000400000000000044407F
 94
        0
1001
ACAD
1000
AcRTDxfName
1000
SCALE
1000
AcRTDxfName
1000
SCALE
1000
AcRTDxfName
1000
SCALE
1000
AcRTDxfName
1000
SCALE
1000
AcRTDxfName
1000
SCALE
  0
ACAD_PROXY_OBJECT
  5
191
102
{ACAD_REACTORS
330
10C
102
}
330
10C
100
AcDbProxyObject
 90
      499
 91
      507
 95
   983063
 70
     0
 93
      121
310
905313A353000400000000000049407F
 94
        0
1001
ACAD
1000
AcRTDxfName
1000
SCALE
1000
AcRTDxfName
1000
SCALE
1000
AcRTDxfName
1000
SCALE
1000
AcRTDxfName
1000
SCALE
1000
AcRTDxfName
1000
SCALE
  0
ACAD_PROXY_OBJECT
  5
192
102
{ACAD_REACTORS
330
10C
102
}
330
10C
100
AcDbProxyObject
 90
      499
 91
      507
 95
   983063
 70
     0
 93
      129
310
906313A31303000400000000000059407F
 94
        0
1001
ACAD
1000
AcRTDxfName
1000
SCALE
1000
AcRTDxfName
1000
SCALE
1000
AcRTDxfName
1000
SCALE
1000
AcRTDxfName
1000
SCALE
1000
AcRTDxfName
1000
SCALE
  0
ACAD_PROXY_OBJECT
  5
193
102
{ACAD_REACTORS
330
10C
102
}
330
10C
100
AcDbProxyObject
 90
      499
 91
      507
 95
   983063
 70
     0
 93
      113
310
904323A3100000000000000001017F
 94
        0
1001
ACAD
1000
AcRTDxfName
1000
SCALE
1000
AcRTDxfName
1000
SCALE
1000
AcRTDxfName
1000
SCALE
1000
AcRTDxfName
1000
SCALE
1000
AcRTDxfName
1000
SCALE
  0
ACAD_PROXY_OBJECT
  5
194
102
{ACAD_REACTORS
330
10C
102
}
330
10C
100
AcDbProxyObject
 90
      499
 91
      507
 95
   983063
 70
     0
 93
      113
310
904343A3100000000000000041017F
 94
        0
1001
ACAD
1000
AcRTDxfName
1000
SCALE
1000
AcRTDxfName
1000
SCALE
1000
AcRTDxfName
1000
SCALE
1000
AcRTDxfName
1000
SCALE
1000
AcRTDxfName
1000
SCALE
  0
ACAD_PROXY_OBJECT
  5
195
102
{ACAD_REACTORS
330
10C
102
}
330
10C
100
AcDbProxyObject
 90
      499
 91
      507
 95
   983063
 70
     0
 93
      113
310
904383A3100000000000000081017F
 94
        0
1001
ACAD
1000
AcRTDxfName
1000
SCALE
1000
AcRTDxfName
1000
SCALE
1000
AcRTDxfName
1000
SCALE
1000
AcRTDxfName
1000
SCALE
1000
AcRTDxfName
1000
SCALE
  0
ACAD_PROXY_OBJECT
  5
196
102
{ACAD_REACTORS
330
10C
102
}
330
10C
100
AcDbProxyObject
 90
      499
 91
      507
 95
   983063
 70
     0
 93
      121
310
90531303A3100000000000000091017F
 94
        0
1001
ACAD
1000
AcRTDxfName
1000
SCALE
1000
AcRTDxfName
1000
SCALE
1000
AcRTDxfName
1000
SCALE
1000
AcRTDxfName
1000
SCALE
1000
AcRTDxfName
1000
SCALE
  0
ACAD_PROXY_OBJECT
  5
197
102
{ACAD_REACTORS
330
10C
102
}
330
10C
100
AcDbProxyObject
 90
      499
 91
      507
 95
   983063
 70
     0
 93
      129
310
9063130303A3100000000000000165017F
 94
        0
1001
ACAD
1000
AcRTDxfName
1000
SCALE
1000
AcRTDxfName
1000
SCALE
1000
AcRTDxfName
1000
SCALE
1000
AcRTDxfName
1000
SCALE
1000
AcRTDxfName
1000
SCALE
  0
ACAD_PROXY_OBJECT
  5
198
102
{ACAD_REACTORS
330
10C
102
}
330
10C
100
AcDbProxyObject
 90
      499
 91
      507
 95
   983063
 70
     0
 93
      265
310
90F312F31323822203D2031272D302200000000000000200FC00000000000028407F
 94
        0
1001
ACAD
1000
AcRTDxfName
1000
SCALE
1000
AcRTDxfName
1000
SCALE
1000
AcRTDxfName
1000
SCALE
1000
AcRTDxfName
1000
SCALE
1000
AcRTDxfName
1000
SCALE
  0
ACAD_PROXY_OBJECT
  5
199
102
{ACAD_REACTORS
330
10C
102
}
330
10C
100
AcDbProxyObject
 90
      499
 91
      507
 95
   983063
 70
     0
 93
      257
310
90E312F363422203D2031272D302200000000000000240FC00000000000028407F
 94
        0
1001
ACAD
1000
AcRTDxfName
1000
SCALE
1000
AcRTDxfName
1000
SCALE
1000
AcRTDxfName
1000
SCALE
1000
AcRTDxfName
1000
SCALE
1000
AcRTDxfName
1000
SCALE
  0
ACAD_PROXY_OBJECT
  5
19A
102
{ACAD_REACTORS
330
10C
102
}
330
10C
100
AcDbProxyObject
 90
      499
 91
      507
 95
   983063
 70
     0
 93
      257
310
90E312F333222203D2031272D302200000000000000280FC00000000000028407F
 94
        0
1001
ACAD
1000
AcRTDxfName
1000
SCALE
1000
AcRTDxfName
1000
SCALE
1000
AcRTDxfName
1000
SCALE
1000
AcRTDxfName
1000
SCALE
1000
AcRTDxfName
1000
SCALE
  0
ACAD_PROXY_OBJECT
  5
19B
102
{ACAD_REACTORS
330
10C
102
}
330
10C
100
AcDbProxyObject
 90
      499
 91
      507
 95
   983063
 70
     0
 93
      257
310
90E312F313622203D2031272D3022000000000000002C0FC00000000000028407F
 94
        0
1001
ACAD
1000
AcRTDxfName
1000
SCALE
1000
AcRTDxfName
1000
SCALE
1000
AcRTDxfName
1000
SCALE
1000
AcRTDxfName
1000
SCALE
1000
AcRTDxfName
1000
SCALE
  0
ACAD_PROXY_OBJECT
  5
19C
102
{ACAD_REACTORS
330
10C
102
}
330
10C
100
AcDbProxyObject
 90
      499
 91
      507
 95
   983063
 70
     0
 93
      257
310
90E332F333222203D2031272D3022000000000000002E0FC00000000000028407F
 94
        0
1001
ACAD
1000
AcRTDxfName
1000
SCALE
1000
AcRTDxfName
1000
SCALE
1000
AcRTDxfName
1000
SCALE
1000
AcRTDxfName
1000
SCALE
1000
AcRTDxfName
1000
SCALE
  0
ACAD_PROXY_OBJECT
  5
19D
102
{ACAD_REACTORS
330
10C
102
}
330
10C
100
AcDbProxyObject
 90
      499
 91
      507
 95
   983063
 70
     0
 93
      249
310
90D312F3822203D2031272D302200000000000000300FC00000000000028407F
 94
        0
1001
ACAD
1000
AcRTDxfName
1000
SCALE
1000
AcRTDxfName
1000
SCALE
1000
AcRTDxfName
1000
SCALE
1000
AcRTDxfName
1000
SCALE
1000
AcRTDxfName
1000
SCALE
  0
ACAD_PROXY_OBJECT
  5
19E
102
{ACAD_REACTORS
330
10C
102
}
330
10C
100
AcDbProxyObject
 90
      499
 91
      507
 95
   983063
 70
     0
 93
      257
310
90E332F313622203D2031272D302200000000000000320FC00000000000028407F
 94
        0
1001
ACAD
1000
AcRTDxfName
1000
SCALE
1000
AcRTDxfName
1000
SCALE
1000
AcRTDxfName
1000
SCALE
1000
AcRTDxfName
1000
SCALE
1000
AcRTDxfName
1000
SCALE
  0
ACAD_PROXY_OBJECT
  5
19F
102
{ACAD_REACTORS
330
10C
102
}
330
10C
100
AcDbProxyObject
 90
      499
 91
      507
 95
   983063
 70
     0
 93
      249
310
90D312F3422203D2031272D302200000000000000340FC00000000000028407F
 94
        0
1001
ACAD
1000
AcRTDxfName
1000
SCALE
1000
AcRTDxfName
1000
SCALE
1000
AcRTDxfName
1000
SCALE
1000
AcRTDxfName
1000
SCALE
1000
AcRTDxfName
1000
SCALE
  0
ACAD_PROXY_OBJECT
  5
1A0
102
{ACAD_REACTORS
330
10C
102
}
330
10C
100
AcDbProxyObject
 90
      499
 91
      507
 95
   983063
 70
     0
 93
      249
310
90D332F3822203D2031272D302200000000000000360FC00000000000028407F
 94
        0
1001
ACAD
1000
AcRTDxfName
1000
SCALE
1000
AcRTDxfName
1000
SCALE
1000
AcRTDxfName
1000
SCALE
1000
AcRTDxfName
1000
SCALE
1000
AcRTDxfName
1000
SCALE
  0
ACAD_PROXY_OBJECT
  5
1A1
102
{ACAD_REACTORS
330
10C
102
}
330
10C
100
AcDbProxyObject
 90
      499
 91
      507
 95
   983063
 70
     0
 93
      249
310
90D312F3222203D2031272D302200000000000000380FC00000000000028407F
 94
        0
1001
ACAD
1000
AcRTDxfName
1000
SCALE
1000
AcRTDxfName
1000
SCALE
1000
AcRTDxfName
1000
SCALE
1000
AcRTDxfName
1000
SCALE
1000
AcRTDxfName
1000
SCALE
  0
ACAD_PROXY_OBJECT
  5
1A2
102
{ACAD_REACTORS
330
10C
102
}
330
10C
100
AcDbProxyObject
 90
      499
 91
      507
 95
   983063
 70
     0
 93
      249
310
90D332F3422203D2031272D3022000000000000003A0FC00000000000028407F
 94
        0
1001
ACAD
1000
AcRTDxfName
1000
SCALE
1000
AcRTDxfName
1000
SCALE
1000
AcRTDxfName
1000
SCALE
1000
AcRTDxfName
1000
SCALE
1000
AcRTDxfName
1000
SCALE
  0
ACAD_PROXY_OBJECT
  5
1A3
102
{ACAD_REACTORS
330
10C
102
}
330
10C
100
AcDbProxyObject
 90
      499
 91
      507
 95
   983063
 70
     0
 93
      169
310
90B3122203D2031272D302200400000000000028407F
 94
        0
1001
ACAD
1000
AcRTDxfName
1000
SCALE
1000
AcRTDxfName
1000
SCALE
1000
AcRTDxfName
1000
SCALE
1000
AcRTDxfName
1000
SCALE
1000
AcRTDxfName
1000
SCALE
  0
ACAD_PROXY_OBJECT
  5
1A4
102
{ACAD_REACTORS
330
10C
102
}
330
10C
100
AcDbProxyObject
 90
      499
 91
      507
 95
   983063
 70
     0
 93
      265
310
90F312D312F3222203D2031272D3022000000000000003E0FC00000000000028407F
 94
        0
1001
ACAD
1000
AcRTDxfName
1000
SCALE
1000
AcRTDxfName
1000
SCALE
1000
AcRTDxfName
1000
SCALE
1000
AcRTDxfName
1000
SCALE
1000
AcRTDxfName
1000
SCALE
  0
ACAD_PROXY_OBJECT
  5
1A5
102
{ACAD_REACTORS
330
10C
102
}
330
10C
100
AcDbProxyObject
 90
      499
 91
      507
 95
   983063
 70
     0
 93
      233
310
90B3322203D2031272D3022000000000000000210000000000000028407F
 94
        0
1001
ACAD
1000
AcRTDxfName
1000
SCALE
1000
AcRTDxfName
1000
SCALE
1000
AcRTDxfName
1000
SCALE
1000
AcRTDxfName
1000
SCALE
1000
AcRTDxfName
1000
SCALE
  0
ACAD_PROXY_OBJECT
  5
1A6
102
{ACAD_REACTORS
330
10C
102
}
330
10C
100
AcDbProxyObject
 90
      499
 91
      507
 95
   983063
 70
     0
 93
      233
310
90B3622203D2031272D3022000000000000000610000000000000028407F
 94
        0
1001
ACAD
1000
AcRTDxfName
1000
SCALE
1000
AcRTDxfName
1000
SCALE
1000
AcRTDxfName
1000
SCALE
1000
AcRTDxfName
1000
SCALE
1000
AcRTDxfName
1000
SCALE
  0
ACAD_PROXY_OBJECT
  5
1A7
102
{ACAD_REACTORS
330
10C
102
}
330
10C
100
AcDbProxyObject
 90
      499
 91
      507
 95
   983063
 70
     0
 93
      257
310
90E31272D3022203D2031272D3022000000000000000A10000000000000028407F
 94
        0
1001
ACAD
1000
AcRTDxfName
1000
SCALE
1000
AcRTDxfName
1000
SCALE
1000
AcRTDxfName
1000
SCALE
1000
AcRTDxfName
1000
SCALE
1000
AcRTDxfName
1000
SCALE
  0
TABLESTYLE
  5
7F
102
{ACAD_XDICTIONARY
360
162
102
}
102
{ACAD_REACTORS
330
7E
102
}
330
7E
100
AcDbTableStyle
  3
Standard
 70
     0
 71
     0
 40
1.5
 41
1.5
280
     0
281
     0
  7
Standard
140
4.5
170
     2
 62
     0
 63
     7
283
     0
274
    -2
284
     1
 64
     0
275
    -2
285
     1
 65
     0
276
    -2
286
     1
 66
     0
277
    -2
287
     1
 67
     0
278
    -2
288
     1
 68
     0
279
    -2
289
     1
 69
     0
  7
Standard
140
6.0
170
     5
 62
     0
 63
     7
283
     0
274
    -2
284
     1
 64
     0
275
    -2
285
     1
 65
     0
276
    -2
286
     1
 66
     0
277
    -2
287
     1
 67
     0
278
    -2
288
     1
 68
     0
279
    -2
289
     1
 69
     0
  7
Standard
140
4.5
170
     5
 62
     0
 63
     7
283
     0
274
    -2
284
     1
 64
     0
275
    -2
285
     1
 65
     0
276
    -2
286
     1
 66
     0
277
    -2
287
     1
 67
     0
278
    -2
288
     1
 68
     0
279
    -2
289
     1
 69
     0
  0
VISUALSTYLE
  5
F5
102
{ACAD_REACTORS
330
EF
102
}
330
EF
100
AcDbVisualStyle
  2
2dWireframe
 70
     4
 71
     0
 72
     2
 73
     1
 90
        0
 40
-0.6
 41
-30.0
 62
     5
 63
     7
 74
     1
 91
        4
 64
     7
 65
   257
 75
     1
175
     1
 42
1.0
 92
        0
 66
   257
 43
1.0
 76
     1
 77
     6
 78
     2
 67
     7
 79
     5
170
     0
171
     0
290
     0
174
     0
 93
        1
 44
0.0
173
     0
291
     0
 45
0.0
1001
ACAD
1000
AcDbSavedByObjectVersion
1070
     0
  0
VISUALSTYLE
  5
F7
102
{ACAD_REACTORS
330
EF
102
}
330
EF
100
AcDbVisualStyle
  2
3D Hidden
 70
     6
 71
     1
 72
     2
 73
     2
 90
        0
 40
-0.6
 41
-30.0
 62
     5
 63
     7
 74
     2
 91
        2
 64
     7
 65
   257
 75
     2
175
     1
 42
40.0
 92
        0
 66
   257
 43
1.0
 76
     1
 77
     6
 78
     2
 67
     7
 79
     3
170
     0
171
     0
290
     0
174
     0
 93
        1
 44
0.0
173
     0
291
     0
 45
0.0
1001
ACAD
1000
AcDbSavedByObjectVersion
1070
     0
  0
VISUALSTYLE
  5
F6
102
{ACAD_REACTORS
330
EF
102
}
330
EF
100
AcDbVisualStyle
  2
3dWireframe
 70
     5
 71
     0
 72
     2
 73
     1
 90
        0
 40
-0.6
 41
-30.0
 62
     5
 63
     7
 74
     1
 91
        4
 64
     7
 65
   257
 75
     1
175
     1
 42
1.0
 92
        0
 66
   257
 43
1.0
 76
     1
 77
     6
 78
     2
 67
     7
 79
     5
170
     0
171
     0
290
     0
174
     0
 93
        1
 44
0.0
173
     0
291
     0
 45
0.0
1001
ACAD
1000
AcDbSavedByObjectVersion
1070
     0
  0
VISUALSTYLE
  5
F4
102
{ACAD_REACTORS
330
EF
102
}
330
EF
100
AcDbVisualStyle
  2
Basic
 70
     7
 71
     1
 72
     0
 73
     1
 90
        0
 40
-0.6
 41
-30.0
 62
     5
 63
     7
 74
     0
 91
        4
 64
     7
 65
   257
 75
     1
175
     1
 42
1.0
 92
        8
 66
     7
 43
1.0
 76
     1
 77
     6
 78
     2
 67
     7
 79
     5
170
     0
171
     0
290
     0
174
     0
 93
        1
 44
0.0
173
     0
291
     1
 45
0.0
1001
ACAD
1000
AcDbSavedByObjectVersion
1070
     0
  0
VISUALSTYLE
  5
FB
102
{ACAD_REACTORS
330
EF
102
}
330
EF
100
AcDbVisualStyle
  2
Brighten
 70
    12
 71
     2
 72
     2
 73
     1
 90
        0
 40
-0.6
 41
-30.0
 62
     5
 63
     7
 74
     1
 91
        4
 64
     7
 65
   257
 75
     1
175
     1
 42
1.0
 92
        8
 66
     7
 43
1.0
 76
     1
 77
     6
 78
     2
 67
     7
 79
     5
170
     0
171
     0
290
     0
174
     0
 93
        1
 44
50.0
173
     0
291
     1
 45
0.0
1001
ACAD
1000
AcDbSavedByObjectVersion
1070
     0
  0
VISUALSTYLE
  5
FF
102
{ACAD_REACTORS
330
EF
102
}
330
EF
100
AcDbVisualStyle
  2
ColorChange
 70
    16
 71
     2
 72
     2
 73
     3
 90
        0
 40
-0.6
 41
-30.0
 62
     5
 63
     8
 74
     1
 91
        4
 64
     7
 65
   257
 75
     1
175
     1
 42
1.0
 92
        8
 66
     8
 43
1.0
 76
     1
 77
     6
 78
     2
 67
     7
 79
     5
170
     0
171
     0
290
     0
174
     0
 93
        1
 44
0.0
173
     0
291
     1
 45
0.0
1001
ACAD
1000
AcDbSavedByObjectVersion
1070
     0
  0
VISUALSTYLE
  5
F8
102
{ACAD_REACTORS
330
EF
102
}
330
EF
100
AcDbVisualStyle
  2
Conceptual
 70
     9
 71
     3
 72
     2
 73
     1
 90
        0
 40
-0.6
 41
-30.0
 62
     5
 63
     7
 74
     2
 91
        2
 64
     7
 65
   257
 75
     1
175
     1
 42
40.0
 92
        8
 66
     7
 43
1.0
 76
     1
 77
     6
 78
     2
 67
     7
 79
     3
170
     0
171
     0
290
     0
174
     0
 93
        1
 44
0.0
173
     0
291
     0
 45
0.0
1001
ACAD
1000
AcDbSavedByObjectVersion
1070
     0
  0
VISUALSTYLE
  5
FA
102
{ACAD_REACTORS
330
EF
102
}
330
EF
100
AcDbVisualStyle
  2
Dim
 70
    11
 71
     2
 72
     2
 73
     1
 90
        0
 40
-0.6
 41
-30.0
 62
     5
 63
     7
 74
     1
 91
        4
 64
     7
 65
   257
 75
     1
175
     1
 42
1.0
 92
        8
 66
     7
 43
1.0
 76
     1
 77
     6
 78
     2
 67
     7
 79
     5
170
     0
171
     0
290
     0
174
     0
 93
        1
 44
-50.0
173
     0
291
     1
 45
0.0
1001
ACAD
1000
AcDbSavedByObjectVersion
1070
     0
  0
VISUALSTYLE
  5
FE
102
{ACAD_REACTORS
330
EF
102
}
330
EF
100
AcDbVisualStyle
  2
Facepattern
 70
    15
 71
     2
 72
     2
 73
     1
 90
        0
 40
-0.6
 41
-30.0
 62
     5
 63
     7
 74
     1
 91
        4
 64
     7
 65
   257
 75
     1
175
     1
 42
1.0
 92
        8
 66
     7
 43
1.0
 76
     1
 77
     6
 78
     2
 67
     7
 79
     5
170
     0
171
     0
290
     0
174
     0
 93
        1
 44
0.0
173
     0
291
     1
 45
0.0
1001
ACAD
1000
AcDbSavedByObjectVersion
1070
     0
  0
VISUALSTYLE
  5
F0
102
{ACAD_REACTORS
330
EF
102
}
330
EF
100
AcDbVisualStyle
  2
Flat
 70
     0
 71
     2
 72
     1
 73
     1
 90
        2
 40
-0.6
 41
30.0
 62
     5
 63
     7
 74
     0
 91
        4
 64
     7
 65
   257
 75
     1
175
     1
 42
1.0
 92
        8
 66
     7
 43
1.0
 76
     1
 77
     6
 78
     2
 67
     7
 79
     5
170
     0
171
     0
290
     0
174
     0
 93
        1
 44
0.0
173
     0
291
     1
 45
0.0
1001
ACAD
1000
AcDbSavedByObjectVersion
1070
     0
  0
VISUALSTYLE
  5
F1
102
{ACAD_REACTORS
330
EF
102
}
330
EF
100
AcDbVisualStyle
  2
FlatWithEdges
 70
     1
 71
     2
 72
     1
 73
     1
 90
        2
 40
-0.6
 41
30.0
 62
     5
 63
     7
 74
     1
 91
        4
 64
     7
 65
   257
 75
     1
175
     1
 42
1.0
 92
        0
 66
   257
 43
1.0
 76
     1
 77
     6
 78
     2
 67
     7
 79
     5
170
     0
171
     0
290
     0
174
     0
 93
        1
 44
0.0
173
     0
291
     1
 45
0.0
1001
ACAD
1000
AcDbSavedByObjectVersion
1070
     0
  0
VISUALSTYLE
  5
F2
102
{ACAD_REACTORS
330
EF
102
}
330
EF
100
AcDbVisualStyle
  2
Gouraud
 70
     2
 71
     2
 72
     2
 73
     1
 90
        2
 40
-0.6
 41
30.0
 62
     5
 63
     7
 74
     0
 91
        4
 64
     7
 65
   257
 75
     1
175
     1
 42
1.0
 92
        0
 66
     7
 43
1.0
 76
     1
 77
     6
 78
     2
 67
     7
 79
     5
170
     0
171
     0
290
     0
174
     0
 93
        1
 44
0.0
173
     0
291
     1
 45
0.0
1001
ACAD
1000
AcDbSavedByObjectVersion
1070
     0
  0
VISUALSTYLE
  5
F3
102
{ACAD_REACTORS
330
EF
102
}
330
EF
100
AcDbVisualStyle
  2
GouraudWithEdges
 70
     3
 71
     2
 72
     2
 73
     1
 90
        2
 40
-0.6
 41
30.0
 62
     5
 63
     7
 74
     1
 91
        4
 64
     7
 65
   257
 75
     1
175
     1
 42
1.0
 92
        0
 66
   257
 43
1.0
 76
     1
 77
     6
 78
     2
 67
     7
 79
     5
170
     0
171
     0
290
     0
174
     0
 93
        1
 44
0.0
173
     0
291
     1
 45
0.0
1001
ACAD
1000
AcDbSavedByObjectVersion
1070
     0
  0
VISUALSTYLE
  5
FD
102
{ACAD_REACTORS
330
EF
102
}
330
EF
100
AcDbVisualStyle
  2
Linepattern
 70
    14
 71
     2
 72
     2
 73
     1
 90
        0
 40
-0.6
 41
-30.0
 62
     5
 63
     7
 74
     1
 91
        4
 64
     7
 65
   257
 75
     7
175
     7
 42
1.0
 92
        8
 66
     7
 43
1.0
 76
     1
 77
     6
 78
     2
 67
     7
 79
     5
170
     0
171
     0
290
     0
174
     0
 93
        1
 44
0.0
173
     0
291
     1
 45
0.0
1001
ACAD
1000
AcDbSavedByObjectVersion
1070
     0
  0
VISUALSTYLE
  5
F9
102
{ACAD_REACTORS
330
EF
102
}
330
EF
100
AcDbVisualStyle
  2
Realistic
 70
     8
 71
     2
 72
     2
 73
     1
 90
        0
 40
-0.6
 41
-30.0
 62
     5
 63
     7
 74
     1
 91
        0
 64
     7
 65
   257
 75
     1
175
     1
 42
1.0
 92
        8
 66
     8
 43
1.0
 76
     1
 77
     6
 78
     2
 67
     7
 79
     5
170
     0
171
     0
290
     0
174
     0
 93
       13
 44
0.0
173
     0
291
     0
 45
0.0
1001
ACAD
1000
AcDbSavedByObjectVersion
1070
     0
  0
VISUALSTYLE
  5
FC
102
{ACAD_REACTORS
330
EF
102
}
330
EF
100
AcDbVisualStyle
  2
Thicken
 70
    13
 71
     2
 72
     2
 73
     1
 90
        0
 40
-0.6
 41
-30.0
 62
     5
 63
     7
 74
     1
 91
        4
 64
     7
 65
   257
 75
     1
175
     1
 42
1.0
 92
       12
 66
     7
 43
1.0
 76
     1
 77
     6
 78
     2
 67
     7
 79
     5
170
     0
171
     0
290
     0
174
     0
 93
        1
 44
0.0
173
     0
291
     1
 45
0.0
1001
ACAD
1000
AcDbSavedByObjectVersion
1070
     0
  0
DICTIONARYVAR
  5
146
102
{ACAD_REACTORS
330
5E
102
}
330
5E
100
DictionaryVariables
280
     0
  1
1:1
  0
DICTIONARYVAR
  5
145
102
{ACAD_REACTORS
330
5E
102
}
330
5E
100
DictionaryVariables
280
     0
  1
STANDARD
  0
DICTIONARYVAR
  5
84
102
{ACAD_REACTORS
330
5E
102
}
330
5E
100
DictionaryVariables
280
     0
  1
STANDARD
  0
DICTIONARYVAR
  5
5F
102
{ACAD_REACTORS
330
5E
102
}
330
5E
100
DictionaryVariables
280
     0
  1
2
  0
DICTIONARYVAR
  5
63
102
{ACAD_REACTORS
330
5E
102
}
330
5E
100
DictionaryVariables
280
     0
  1
1
  0
DICTIONARYVAR
  5
466
102
{ACAD_REACTORS
330
5E
102
}
330
5E
100
DictionaryVariables
280
     0
  1
0
  0
DICTIONARYVAR
  5
464
102
{ACAD_REACTORS
330
5E
102
}
330
5E
100
DictionaryVariables
280
     0
  1
2
  0
DICTIONARYVAR
  5
463
102
{ACAD_REACTORS
330
5E
102
}
330
5E
100
DictionaryVariables
280
     0
  1
1
  0
DICTIONARYVAR
  5
29CF
102
{ACAD_REACTORS
330
5E
102
}
330
5E
100
DictionaryVariables
280
     0
  1
80.000000
  0
DICTIONARYVAR
  5
29CE
102
{ACAD_REACTORS
330
5E
102
}
330
5E
100
DictionaryVariables
280
     0
  1
5.000000
  0
DICTIONARYVAR
  5
465
102
{ACAD_REACTORS
330
5E
102
}
330
5E
100
DictionaryVariables
280
     0
  1
127
  0
DICTIONARY
  5
1E18
102
{ACAD_REACTORS
330
1E17
102
}
330
1E17
100
AcDbDictionary
281
     1
  0
DICTIONARY
  5
29D4
330
D3
100
AcDbDictionary
280
     1
281
     1
  3
ACAD_XREC_ROUNDTRIP
360
29D5
  0
DICTIONARY
  5
29D6
330
D7
100
AcDbDictionary
280
     1
281
     1
  3
ACAD_XREC_ROUNDTRIP
360
29D7
  0
DICTIONARY
  5
29D1
330
22
100
AcDbDictionary
280
     1
281
     1
  3
ACAD_XREC_ROUNDTRIP
360
29D2
  0
DICTIONARY
  5
29DA
330
ED
100
AcDbDictionary
280
     1
281
     1
  3
ACAD_XREC_ROUNDTRIP
360
29DB
  0
DICTIONARY
  5
29D8
330
EC
100
AcDbDictionary
280
     1
281
     1
  3
ACAD_XREC_ROUNDTRIP
360
29D9
  0
DICTIONARY
  5
173
330
EE
100
AcDbDictionary
280
     1
281
     1
  3
ACAD_XREC_ROUNDTRIP
360
29DC
  3
BUMPTILE
360
175
  3
DIFFUSETILE
360
174
  3
OPACITYTILE
360
176
  3
REFLECTIONTILE
360
177
  0
DICTIONARY
  5
162
330
7F
100
AcDbDictionary
280
     1
281
     1
  3
ACAD_ROUNDTRIP_2008_TABLESTYLE_CELLSTYLEMAP
360
280A
  3
ACAD_XREC_ROUNDTRIP
360
29D3
  0
XRECORD
  5
29D5
102
{ACAD_REACTORS
330
29D4
102
}
330
29D4
100
AcDbXrecord
280
     1
102
SHADEPLOT
 70
     0
102
SHADEPLOTRESLEVEL
 70
     2
102
SHADEPLOTCUSTOMDPI
 70
   300
  0
XRECORD
  5
29D7
102
{ACAD_REACTORS
330
29D6
102
}
330
29D6
100
AcDbXrecord
280
     1
102
SHADEPLOT
 70
     0
102
SHADEPLOTRESLEVEL
 70
     2
102
SHADEPLOTCUSTOMDPI
 70
   300
  0
XRECORD
  5
29D2
102
{ACAD_REACTORS
330
29D1
102
}
330
29D1
100
AcDbXrecord
280
     1
102
SHADEPLOT
 70
     0
102
SHADEPLOTRESLEVEL
 70
     2
102
SHADEPLOTCUSTOMDPI
 70
   300
  0
XRECORD
  5
29DB
102
{ACAD_REACTORS
330
29DA
102
}
330
29DA
100
AcDbXrecord
280
     1
102
MATERIAL
148
0.0
149
0.0
149
0.0
 93
        0
 94
       63
282
     0
 72
     1
 77
     1
171
     1
175
     1
179
     1
273
     0
  0
XRECORD
  5
29D9
102
{ACAD_REACTORS
330
29D8
102
}
330
29D8
100
AcDbXrecord
280
     1
102
MATERIAL
148
0.0
149
0.0
149
0.0
 93
        0
 94
       63
282
     0
 72
     1
 77
     1
171
     1
175
     1
179
     1
273
     0
  0
XRECORD
  5
29DC
102
{ACAD_REACTORS
330
173
102
}
330
173
100
AcDbXrecord
280
     1
102
MATERIAL
148
0.0
149
0.0
149
0.0
 93
        0
 94
       63
282
     0
 72
     1
 77
     1
171
     1
175
     1
179
     1
273
     0
  0
XRECORD
  5
175
102
{ACAD_REACTORS
330
173
102
}
330
173
100
AcDbXrecord
280
     1
270
     1
271
     1
  0
XRECORD
  5
174
102
{ACAD_REACTORS
330
173
102
}
330
173
100
AcDbXrecord
280
     1
270
     1
271
     1
  0
XRECORD
  5
176
102
{ACAD_REACTORS
330
173
102
}
330
173
100
AcDbXrecord
280
     1
270
     1
271
     1
  0
XRECORD
  5
177
102
{ACAD_REACTORS
330
173
102
}
330
173
100
AcDbXrecord
280
     1
270
     1
271
     1
  0
ACAD_PROXY_OBJECT
  5
280A
102
{ACAD_REACTORS
330
162
102
}
330
162
100
AcDbProxyObject
 90
      499
 91
      509
 95
   983063
 70
     0
 93
     5304
310
40D054060020000020000003200101A000080002A5058000000C10000000000000006101010000000000003E0FC000000000000F83F0000000000003E0FC000000000000F83F02B5E8DC0F42B1CFC0AD7A3703D0AC73F419019018000000C1003FBFFFFFE0000000000003C8FD029018000000C1003FBFFFFFE00000000000
310
03C8FD049018000000C1003FBFFFFFE0000000000003C8FD089018000000C1003FBFFFFFE0000000000003C8FD109018000000C1003FBFFFFFE0000000000003C8FD209018000000C1003FBFFFFFE0000000000003C8FD01405075F5449544C450041501A8000000C800406800020000A94160000003040000000000000012
310
40404000000000000F83F0000000000003E0FC000000000000F83F0000000000003E0FC0AD7A3703D0AC73F02B5E8DC0F42B1CFD0640640600000030400FEFFFFFF8000000000000F23F40A40600000030400FEFFFFFF8000000000000F23F41240600000030400FEFFFFFF8000000000000F23F42240600000030400FEFFF
310
FFF8000000000000F23F44240600000030400FEFFFFFF8000000000000F23F48240600000030400FEFFFFFF8000000000000F23F409014217D2115051115480105406A0000003200101A000080002A5028000000C10000000000000004901010000000000003E0FC000000000000F83F0000000000003E0FC000000000000F
310
83F02B5E8DC0F42B1CFC0AD7A3703D0AC73F419019018000000C1003FBFFFFFE0000000000003C8FD029018000000C1003FBFFFFFE0000000000003C8FD049018000000C1003FBFFFFFE0000000000003C8FD089018000000C1003FBFFFFFE0000000000003C8FD109018000000C1003FBFFFFFE0000000000003C8FD20901
310
8000000C1003FBFFFFFE0000000000003C8FD03409065F444154410000
340
11
340
14
340
14
340
14
340
14
340
14
340
14
340
11
340
14
340
14
340
14
340
14
340
14
340
14
340
11
340
14
340
14
340
14
340
14
340
14
340
14
 94
        0
1001
ACAD
1000
AcRTDxfName
1000
CELLSTYLEMAP
1000
AcRTDxfName
1000
CELLSTYLEMAP
1000
AcRTDxfName
1000
CELLSTYLEMAP
1000
AcRTDxfName
1000
CELLSTYLEMAP
1000
AcRTDxfName
1000
CELLSTYLEMAP
  0
XRECORD
  5
29D3
102
{ACAD_REACTORS
330
162
102
}
330
162
100
AcDbXrecord
280
     1
102
ACAD_ROUNDTRIP_PRE2007_TABLESTYLE
 90
      512
 91
        0
  1

 92
      512
 93
        0
  2

 94
      512
 95
        0
  3

  0
ENDSEC
  0
EOF
