  0
SECTION
  2
HEADER
  9
$ACADVER
  1
AC1015
  9
$ACADMAINTVER
 70
    20
  9
$DWGCODEPAGE
  3
ANSI_1250
  9
$INSBASE
 10
0.0
 20
0.0
 30
0.0
  9
$EXTMIN
 10
0.2439291443192815
 20
0.9817058309899948
 30
-0.0000000000112498
  9
$EXTMAX
 10
334.6059043515794
 20
297.9907673387799
 30
0.0000000000002956
  9
$LIMMIN
 10
0.2490273663415792
 20
0.9862345102371818
  9
$LIMMAX
 10
334.6008014584315
 20
297.9862345102372
  9
$ORTHOMODE
 70
     1
  9
$REGENMODE
 70
     1
  9
$FILLMODE
 70
     1
  9
$QTEXTMODE
 70
     0
  9
$MIRRTEXT
 70
     0
  9
$LTSCALE
 40
1.0
  9
$ATTMODE
 70
     2
  9
$TEXTSIZE
 40
5.0
  9
$TRACEWID
 40
1.0
  9
$TEXTSTYLE
  7
Solbet_5
  9
$CLAYER
  8
SOLBET_Bloczki
  9
$CELTYPE
  6
ByLayer
  9
$CECOLOR
 62
   256
  9
$CELTSCALE
 40
1.0
  9
$DISPSILH
 70
     0
  9
$DIMSCALE
 40
1.0
  9
$DIMASZ
 40
2.5
  9
$DIMEXO
 40
0.0
  9
$DIMDLI
 40
3.75
  9
$DIMRND
 40
0.0
  9
$DIMDLE
 40
0.0
  9
$DIMEXE
 40
1.25
  9
$DIMTP
 40
0.0
  9
$DIMTM
 40
0.0
  9
$DIMTXT
 40
2.5
  9
$DIMCEN
 40
2.5
  9
$DIMTSZ
 40
0.0
  9
$DIMTOL
 70
     0
  9
$DIMLIM
 70
     0
  9
$DIMTIH
 70
     0
  9
$DIMTOH
 70
     0
  9
$DIMSE1
 70
     0
  9
$DIMSE2
 70
     0
  9
$DIMTAD
 70
     1
  9
$DIMZIN
 70
     8
  9
$DIMBLK
  1

  9
$DIMASO
 70
     1
  9
$DIMSHO
 70
     1
  9
$DIMPOST
  1

  9
$DIMAPOST
  1

  9
$DIMALT
 70
     0
  9
$DIMALTD
 70
     3
  9
$DIMALTF
 40
0.03937007874016
  9
$DIMLFAC
 40
1.0
  9
$DIMTOFL
 70
     1
  9
$DIMTVP
 40
0.0
  9
$DIMTIX
 70
     0
  9
$DIMSOXD
 70
     0
  9
$DIMSAH
 70
     0
  9
$DIMBLK1
  1

  9
$DIMBLK2
  1

  9
$DIMSTYLE
  2
Solbet
  9
$DIMCLRD
 70
     0
  9
$DIMCLRE
 70
     0
  9
$DIMCLRT
 70
     0
  9
$DIMTFAC
 40
1.0
  9
$DIMGAP
 40
0.625
  9
$DIMJUST
 70
     0
  9
$DIMSD1
 70
     0
  9
$DIMSD2
 70
     0
  9
$DIMTOLJ
 70
     0
  9
$DIMTZIN
 70
     8
  9
$DIMALTZ
 70
     0
  9
$DIMALTTZ
 70
     0
  9
$DIMUPT
 70
     0
  9
$DIMDEC
 70
     2
  9
$DIMTDEC
 70
     2
  9
$DIMALTU
 70
     2
  9
$DIMALTTD
 70
     3
  9
$DIMTXSTY
  7
Solbet_2_5
  9
$DIMAUNIT
 70
     0
  9
$DIMADEC
 70
     0
  9
$DIMALTRND
 40
0.0
  9
$DIMAZIN
 70
     0
  9
$DIMDSEP
 70
    44
  9
$DIMATFIT
 70
     3
  9
$DIMFRAC
 70
     0
  9
$DIMLDRBLK
  1

  9
$DIMLUNIT
 70
     2
  9
$DIMLWD
 70
    -2
  9
$DIMLWE
 70
    -2
  9
$DIMTMOVE
 70
     0
  9
$LUNITS
 70
     2
  9
$LUPREC
 70
     4
  9
$SKETCHINC
 40
1.0
  9
$FILLETRAD
 40
0.0
  9
$AUNITS
 70
     0
  9
$AUPREC
 70
     0
  9
$MENU
  1
.
  9
$ELEVATION
 40
0.0
  9
$PELEVATION
 40
0.0
  9
$THICKNESS
 40
0.0
  9
$LIMCHECK
 70
     0
  9
$CHAMFERA
 40
0.0
  9
$CHAMFERB
 40
0.0
  9
$CHAMFERC
 40
0.0
  9
$CHAMFERD
 40
0.0
  9
$SKPOLY
 70
     0
  9
$TDCREATE
 40
2454690.075573148
  9
$TDUCREATE
 40
2454690.033906482
  9
$TDUPDATE
 40
2454848.862851829
  9
$TDUUPDATE
 40
2454848.821185162
  9
$TDINDWG
 40
0.5319256713
  9
$TDUSRTIMER
 40
0.5319211458
  9
$USRTIMER
 70
     1
  9
$ANGBASE
 50
0.0
  9
$ANGDIR
 70
     0
  9
$PDMODE
 70
     0
  9
$PDSIZE
 40
0.0
  9
$PLINEWID
 40
0.0
  9
$SPLFRAME
 70
     0
  9
$SPLINETYPE
 70
     6
  9
$SPLINESEGS
 70
     8
  9
$HANDSEED
  5
2E37
  9
$SURFTAB1
 70
     6
  9
$SURFTAB2
 70
     6
  9
$SURFTYPE
 70
     6
  9
$SURFU
 70
     6
  9
$SURFV
 70
     6
  9
$UCSBASE
  2

  9
$UCSNAME
  2

  9
$UCSORG
 10
0.0
 20
0.0
 30
0.0
  9
$UCSXDIR
 10
1.0
 20
0.0
 30
0.0
  9
$UCSYDIR
 10
0.0
 20
1.0
 30
0.0
  9
$UCSORTHOREF
  2

  9
$UCSORTHOVIEW
 70
     0
  9
$UCSORGTOP
 10
0.0
 20
0.0
 30
0.0
  9
$UCSORGBOTTOM
 10
0.0
 20
0.0
 30
0.0
  9
$UCSORGLEFT
 10
0.0
 20
0.0
 30
0.0
  9
$UCSORGRIGHT
 10
0.0
 20
0.0
 30
0.0
  9
$UCSORGFRONT
 10
0.0
 20
0.0
 30
0.0
  9
$UCSORGBACK
 10
0.0
 20
0.0
 30
0.0
  9
$PUCSBASE
  2

  9
$PUCSNAME
  2

  9
$PUCSORG
 10
0.0
 20
0.0
 30
0.0
  9
$PUCSXDIR
 10
1.0
 20
0.0
 30
0.0
  9
$PUCSYDIR
 10
0.0
 20
1.0
 30
0.0
  9
$PUCSORTHOREF
  2

  9
$PUCSORTHOVIEW
 70
     0
  9
$PUCSORGTOP
 10
0.0
 20
0.0
 30
0.0
  9
$PUCSORGBOTTOM
 10
0.0
 20
0.0
 30
0.0
  9
$PUCSORGLEFT
 10
0.0
 20
0.0
 30
0.0
  9
$PUCSORGRIGHT
 10
0.0
 20
0.0
 30
0.0
  9
$PUCSORGFRONT
 10
0.0
 20
0.0
 30
0.0
  9
$PUCSORGBACK
 10
0.0
 20
0.0
 30
0.0
  9
$USERI1
 70
     0
  9
$USERI2
 70
     0
  9
$USERI3
 70
     0
  9
$USERI4
 70
     0
  9
$USERI5
 70
     0
  9
$USERR1
 40
0.0
  9
$USERR2
 40
0.0
  9
$USERR3
 40
0.0
  9
$USERR4
 40
0.0
  9
$USERR5
 40
0.0
  9
$WORLDVIEW
 70
     1
  9
$SHADEDGE
 70
     3
  9
$SHADEDIF
 70
    70
  9
$TILEMODE
 70
     1
  9
$MAXACTVP
 70
    64
  9
$PINSBASE
 10
0.0
 20
0.0
 30
0.0
  9
$PLIMCHECK
 70
     0
  9
$PEXTMIN
 10
0.0
 20
0.0
 30
0.0
  9
$PEXTMAX
 10
0.0
 20
0.0
 30
0.0
  9
$PLIMMIN
 10
0.0
 20
0.0
  9
$PLIMMAX
 10
12.0
 20
9.0
  9
$UNITMODE
 70
     0
  9
$VISRETAIN
 70
     1
  9
$PLINEGEN
 70
     0
  9
$PSLTSCALE
 70
     1
  9
$TREEDEPTH
 70
  3020
  9
$CMLSTYLE
  2
SOLBET_IZOLACJA
  9
$CMLJUST
 70
     0
  9
$CMLSCALE
 40
20.0
  9
$PROXYGRAPHICS
 70
     1
  9
$MEASUREMENT
 70
     1
  9
$CELWEIGHT
370
    -1
  9
$ENDCAPS
280
     0
  9
$JOINSTYLE
280
     0
  9
$LWDISPLAY
290
     1
  9
$INSUNITS
 70
     4
  9
$HYPERLINKBASE
  1

  9
$STYLESHEET
  1

  9
$XEDIT
290
     1
  9
$CEPSNTYPE
380
     0
  9
$PSTYLEMODE
290
     1
  9
$FINGERPRINTGUID
  2
{6B12AB33-8E39-428E-8E85-461C8D99A3CB}
  9
$VERSIONGUID
  2
{B1F8B8B7-C201-46A3-A16E-46EAD9CEC328}
  9
$EXTNAMES
290
     1
  9
$PSVPSCALE
 40
0.0
  9
$OLESTARTUP
290
     0
  0
ENDSEC
  0
SECTION
  2
CLASSES
  0
CLASS
  1
ACDBDICTIONARYWDFLT
  2
AcDbDictionaryWithDefault
  3
ObjectDBX Classes
 90
        0
280
     0
281
     0
  0
CLASS
  1
ACDBPLACEHOLDER
  2
AcDbPlaceHolder
  3
ObjectDBX Classes
 90
        0
280
     0
281
     0
  0
CLASS
  1
LAYOUT
  2
AcDbLayout
  3
ObjectDBX Classes
 90
        0
280
     0
281
     0
  0
CLASS
  1
DICTIONARYVAR
  2
AcDbDictionaryVar
  3
ObjectDBX Classes
 90
        0
280
     0
281
     0
  0
CLASS
  1
TABLESTYLE
  2
AcDbTableStyle
  3
ObjectDBX Classes
 90
     4095
280
     0
281
     0
  0
CLASS
  1
MATERIAL
  2
AcDbMaterial
  3
ObjectDBX Classes
 90
     1024
280
     0
281
     0
  0
CLASS
  1
VISUALSTYLE
  2
AcDbVisualStyle
  3
ObjectDBX Classes
 90
     4095
280
     0
281
     0
  0
CLASS
  1
SCALE
  2
AcDbScale
  3
ObjectDBX Classes
 90
     1153
280
     0
281
     0
  0
CLASS
  1
MLEADERSTYLE
  2
AcDbMLeaderStyle
  3
ACDB_MLEADERSTYLE_CLASS
 90
     4095
280
     0
281
     0
  0
CLASS
  1
CELLSTYLEMAP
  2
AcDbCellStyleMap
  3
ObjectDBX Classes
 90
     1152
280
     0
281
     0
  0
CLASS
  1
DIMASSOC
  2
AcDbDimAssoc
  3
"AcDbDimAssoc|Product Desc:     AcDim ARX App For Dimension|Company:          Autodesk, Inc.|WEB Address:      www.autodesk.com"
 90
        0
280
     0
281
     0
  0
CLASS
  1
SORTENTSTABLE
  2
AcDbSortentsTable
  3
ObjectDBX Classes
 90
        0
280
     0
281
     0
  0
CLASS
  1
MULTILEADER
  2
AcDbMLeader
  3
ACDB_MLEADER_CLASS
 90
    33793
280
     0
281
     1
  0
CLASS
  1
ACDB_MTEXTOBJECTCONTEXTDATA_CLASS
  2
AcDbMTextObjectContextData
  3
ObjectDBX Classes
 90
    33921
280
     0
281
     0
  0
ENDSEC
  0
SECTION
  2
TABLES
  0
TABLE
  2
VPORT
  5
8
102
{ACAD_XDICTIONARY
360
443
102
}
330
0
100
AcDbSymbolTable
 70
     1
  0
VPORT
  5
EA
330
8
100
AcDbSymbolTableRecord
100
AcDbViewportTableRecord
  2
*Active
 70
     0
 10
0.0
 20
0.0
 11
1.0
 21
1.0
 12
167.4249167479493
 22
149.4862365848849
 13
0.0
 23
0.0
 14
10.0
 24
10.0
 15
10.0
 25
10.0
 16
0.0
 26
0.0
 36
1.0
 17
0.0
 27
0.0
 37
0.0
 40
300.3091621912098
 41
1.74582560296846
 42
50.0
 43
0.0
 44
0.0
 50
0.0
 51
0.0
 71
     0
 72
  1000
 73
     1
 74
     3
 75
     0
 76
     0
 77
     0
 78
     0
281
     0
 65
     1
110
0.0
120
0.0
130
0.0
111
1.0
121
0.0
131
0.0
112
0.0
122
1.0
132
0.0
 79
     0
146
0.0
  0
ENDTAB
  0
TABLE
  2
LTYPE
  5
5
330
0
100
AcDbSymbolTable
 70
     3
  0
LTYPE
  5
14
330
5
100
AcDbSymbolTableRecord
100
AcDbLinetypeTableRecord
  2
ByBlock
 70
     0
  3

 72
    65
 73
     0
 40
0.0
  0
LTYPE
  5
15
330
5
100
AcDbSymbolTableRecord
100
AcDbLinetypeTableRecord
  2
ByLayer
 70
     0
  3

 72
    65
 73
     0
 40
0.0
  0
LTYPE
  5
16
330
5
100
AcDbSymbolTableRecord
100
AcDbLinetypeTableRecord
  2
Continuous
 70
     0
  3
Solid line
 72
    65
 73
     0
 40
0.0
  0
LTYPE
  5
2B9
330
5
100
AcDbSymbolTableRecord
100
AcDbLinetypeTableRecord
  2
VERDECKT
 70
     0
  3
__ __ __ __ __ __ __ __ __ __ __ __ __ __ __ __
 72
    65
 73
     2
 40
0.375
 49
0.25
 74
     0
 49
-0.125
 74
     0
  0
LTYPE
  5
982
330
5
100
AcDbSymbolTableRecord
100
AcDbLinetypeTableRecord
  2
BATTING
 70
     0
  3
Batting SSSSSSSSSSSSSSSSSSSSSSSSSSSSSSSSSSSSSSSSSSSSSSS
 72
    65
 73
     4
 40
10.16254
 49
0.00254
 74
     0
 49
-2.54
 74
     4
 75
   134
340
7E7
 46
2.54
 50
0.0
 44
-2.54
 45
0.0
 49
-5.08
 74
     4
 75
   134
340
7E7
 46
2.54
 50
180.0
 44
2.54
 45
0.0
 49
-2.54
 74
     0
  0
ENDTAB
  0
TABLE
  2
LAYER
  5
2
102
{ACAD_XDICTIONARY
360
3E5
102
}
330
0
100
AcDbSymbolTable
 70
    13
  0
LAYER
  5
10
102
{ACAD_XDICTIONARY
360
13C
102
}
330
2
100
AcDbSymbolTableRecord
100
AcDbLayerTableRecord
  2
0
 70
     0
 62
     7
  6
Continuous
370
    -3
390
F
  0
LAYER
  5
2BB
330
2
100
AcDbSymbolTableRecord
100
AcDbLayerTableRecord
  2
DEFPOINTS
 70
     0
 62
     7
  6
Continuous
290
     0
370
    -3
390
F
  0
LAYER
  5
3DD
102
{ACAD_XDICTIONARY
360
403
102
}
330
2
100
AcDbSymbolTableRecord
100
AcDbLayerTableRecord
  2
SOLBET_Bloczki
 70
     0
 62
   140
  6
Continuous
370
    -3
390
F
1001
AcAecLayerStandard
1000

1000

  0
LAYER
  5
3DF
102
{ACAD_XDICTIONARY
360
405
102
}
330
2
100
AcDbSymbolTableRecord
100
AcDbLayerTableRecord
  2
SOLBET_Wymiary_Opisy
 70
     0
 62
     1
  6
Continuous
370
    -3
390
F
1001
AcAecLayerStandard
1000

1000

  0
LAYER
  5
3E0
102
{ACAD_XDICTIONARY
360
407
102
}
330
2
100
AcDbSymbolTableRecord
100
AcDbLayerTableRecord
  2
SOLBET_Beton
 70
     0
 62
     9
  6
Continuous
370
    -3
390
F
1001
AcAecLayerStandard
1000

1000

  0
LAYER
  5
3E1
102
{ACAD_XDICTIONARY
360
409
102
}
330
2
100
AcDbSymbolTableRecord
100
AcDbLayerTableRecord
  2
SOLBET_Izolacja
 70
     0
 62
    40
  6
Continuous
370
    -3
390
F
1001
AcAecLayerStandard
1000

1000

  0
LAYER
  5
3E2
102
{ACAD_XDICTIONARY
360
40B
102
}
330
2
100
AcDbSymbolTableRecord
100
AcDbLayerTableRecord
  2
SOLBET_Zbrojenie_Konstrukcja
 70
     0
 62
     7
  6
Continuous
370
    -3
390
F
1001
AcAecLayerStandard
1000

1000

  0
LAYER
  5
3E4
102
{ACAD_XDICTIONARY
360
40F
102
}
330
2
100
AcDbSymbolTableRecord
100
AcDbLayerTableRecord
  2
SOLBET_Tynki_Posadzki
 70
     0
 62
     3
  6
Continuous
370
    -3
390
F
1001
AcAecLayerStandard
1000

1000

  0
LAYER
  5
3E8
102
{ACAD_XDICTIONARY
360
411
102
}
330
2
100
AcDbSymbolTableRecord
100
AcDbLayerTableRecord
  2
SOLBET_Ramka_05
 70
     0
 62
     2
  6
Continuous
370
    -3
390
F
1001
AcAecLayerStandard
1000

1000

  0
LAYER
  5
472
330
2
100
AcDbSymbolTableRecord
100
AcDbLayerTableRecord
  2
SOLBET_Zaprawy
 70
     0
 62
     4
  6
Continuous
370
    -3
390
F
1001
AcAecLayerStandard
1000

1000

  0
LAYER
  5
4E2
330
2
100
AcDbSymbolTableRecord
100
AcDbLayerTableRecord
  2
SOLBET_Emulsje_Folie
 70
     0
 62
     6
  6
Continuous
370
    -3
390
F
1001
AcAecLayerStandard
1000

1000

  0
LAYER
  5
2906
330
2
100
AcDbSymbolTableRecord
100
AcDbLayerTableRecord
  2
SOLBET_Stolarka_Okna
 70
     0
 62
     2
  6
Continuous
370
    -3
390
F
1001
AcAecLayerStandard
1000

1000

  0
LAYER
  5
2CD5
102
{ACAD_XDICTIONARY
360
2CD6
102
}
330
2
100
AcDbSymbolTableRecord
100
AcDbLayerTableRecord
  2
SOLBET_Wymiary_Opisy @ 1
 70
     0
 62
     1
  6
Continuous
370
    -3
390
F
1001
AcAecLayerStandard
1000

1000

1001
AcadAnnotativeDecomposition
1000
AnnotativeData
1002
{
1070
     1
1070
     1
1002
}
  0
ENDTAB
  0
TABLE
  2
STYLE
  5
3
330
0
100
AcDbSymbolTable
 70
     5
  0
STYLE
  5
11
330
3
100
AcDbSymbolTableRecord
100
AcDbTextStyleTableRecord
  2
Standard
 70
     0
 40
0.0
 41
1.0
 50
0.0
 71
     0
 42
2.5
  3
txt.shx
  4

  0
STYLE
  5
7D7
330
3
100
AcDbSymbolTableRecord
100
AcDbTextStyleTableRecord
  2
Solbet_5
 70
     0
 40
5.0
 41
1.0
 50
0.0
 71
     0
 42
5.0
  3
isocpeur.ttf
  4

1001
ACAD
1000
ISOCPEUR
1071
       34
  0
STYLE
  5
7D9
330
3
100
AcDbSymbolTableRecord
100
AcDbTextStyleTableRecord
  2
Solbet_2_5
 70
     0
 40
2.5
 41
1.0
 50
0.0
 71
     0
 42
2.5
  3
isocpeur.ttf
  4

1001
ACAD
1000
ISOCPEUR
1071
       34
  0
STYLE
  5
7E7
330
3
100
AcDbSymbolTableRecord
100
AcDbTextStyleTableRecord
  2

 70
     1
 40
0.0
 41
1.0
 50
0.0
 71
     0
 42
2.5
  3
ltypeshp.shx
  4

  0
STYLE
  5
2403
330
3
100
AcDbSymbolTableRecord
100
AcDbTextStyleTableRecord
  2
Solbet_1
 70
     0
 40
1.0
 41
1.0
 50
0.0
 71
     0
 42
2.5
  3
isocpeur.ttf
  4

1001
ACAD
1000
ISOCPEUR
1071
       34
  0
ENDTAB
  0
TABLE
  2
VIEW
  5
6
330
0
100
AcDbSymbolTable
 70
     0
  0
ENDTAB
  0
TABLE
  2
UCS
  5
7
330
0
100
AcDbSymbolTable
 70
     0
  0
ENDTAB
  0
TABLE
  2
APPID
  5
9
330
0
100
AcDbSymbolTable
 70
    13
  0
APPID
  5
12
330
9
100
AcDbSymbolTableRecord
100
AcDbRegAppTableRecord
  2
ACAD
 70
     0
  0
APPID
  5
9E
330
9
100
AcDbSymbolTableRecord
100
AcDbRegAppTableRecord
  2
ACAD_PSEXT
 70
     0
  0
APPID
  5
133
330
9
100
AcDbSymbolTableRecord
100
AcDbRegAppTableRecord
  2
AcadAnnoPO
 70
     0
  0
APPID
  5
134
330
9
100
AcDbSymbolTableRecord
100
AcDbRegAppTableRecord
  2
AcadAnnotative
 70
     0
  0
APPID
  5
135
330
9
100
AcDbSymbolTableRecord
100
AcDbRegAppTableRecord
  2
ACAD_DSTYLE_DIMJAG
 70
     0
  0
APPID
  5
136
330
9
100
AcDbSymbolTableRecord
100
AcDbRegAppTableRecord
  2
ACAD_DSTYLE_DIMTALN
 70
     0
  0
APPID
  5
165
330
9
100
AcDbSymbolTableRecord
100
AcDbRegAppTableRecord
  2
ACAD_MLEADERVER
 70
     0
  0
APPID
  5
2C4
330
9
100
AcDbSymbolTableRecord
100
AcDbRegAppTableRecord
  2
ASO_SCHRAFF
 70
     0
  0
APPID
  5
3DE
330
9
100
AcDbSymbolTableRecord
100
AcDbRegAppTableRecord
  2
AcAecLayerStandard
 70
     0
  0
APPID
  5
7DE
330
9
100
AcDbSymbolTableRecord
100
AcDbRegAppTableRecord
  2
ACAD_EXEMPT_FROM_CAD_STANDARDS
 70
     0
  0
APPID
  5
948
330
9
100
AcDbSymbolTableRecord
100
AcDbRegAppTableRecord
  2
ACAD_DSTYLE_DIMBREAK
 70
     0
  0
APPID
  5
1D0A
330
9
100
AcDbSymbolTableRecord
100
AcDbRegAppTableRecord
  2
AcadAnnotativeDecomposition
 70
     0
  0
APPID
  5
2404
330
9
100
AcDbSymbolTableRecord
100
AcDbRegAppTableRecord
  2
AcDbAttr
 70
     0
  0
ENDTAB
  0
TABLE
  2
DIMSTYLE
  5
A
330
0
100
AcDbSymbolTable
 70
     2
100
AcDbDimStyleTable
 71
     1
340
949
  0
DIMSTYLE
105
949
102
{ACAD_REACTORS
330
2936
102
}
330
A
100
AcDbSymbolTableRecord
100
AcDbDimStyleTableRecord
  2
Solbet
 70
     0
 41
2.5
 42
0.0
 43
3.75
 44
1.25
 73
     0
 74
     0
 77
     1
 78
     8
140
2.5
141
2.5
143
0.03937007874016
147
0.625
171
     3
172
     1
271
     2
272
     2
274
     3
278
    44
283
     0
284
     8
340
7D9
1001
ACAD_DSTYLE_DIMBREAK
1070
   391
1040
3.75
1001
ACAD_DSTYLE_DIMJAG
1070
   388
1040
1.5
1001
ACAD_DSTYLE_DIMTALN
1070
   392
1070
     0
  0
DIMSTYLE
105
954
330
A
100
AcDbSymbolTableRecord
100
AcDbDimStyleTableRecord
  2
Solbet$7
 70
     0
 41
2.5
 42
0.0
 43
3.75
 44
1.25
 73
     0
 74
     0
 77
     1
 78
     8
140
2.5
141
2.5
143
0.03937007874016
147
0.625
171
     3
172
     1
271
     2
272
     2
274
     3
278
    44
283
     0
284
     8
340
7D9
341
958
1001
ACAD_DSTYLE_DIMBREAK
1070
   391
1040
3.75
1001
ACAD_DSTYLE_DIMJAG
1070
   388
1040
1.5
1001
ACAD_DSTYLE_DIMTALN
1070
   392
1070
     0
  0
ENDTAB
  0
TABLE
  2
BLOCK_RECORD
  5
1
330
0
100
AcDbSymbolTable
 70
    20
  0
BLOCK_RECORD
  5
1F
102
{ACAD_XDICTIONARY
360
4A3
102
}
330
1
100
AcDbSymbolTableRecord
100
AcDbBlockTableRecord
  2
*Model_Space
340
22
  0
BLOCK_RECORD
  5
D2
330
1
100
AcDbSymbolTableRecord
100
AcDbBlockTableRecord
  2
*Paper_Space
340
D3
  0
BLOCK_RECORD
  5
D6
330
1
100
AcDbSymbolTableRecord
100
AcDbBlockTableRecord
  2
*Paper_Space0
340
D7
  0
BLOCK_RECORD
  5
1C2
330
1
100
AcDbSymbolTableRecord
100
AcDbBlockTableRecord
  2
ASOWDBLK
340
0
102
{BLKREFS
331
290F
331
2910
331
2911
331
2912
331
2913
331
2914
331
2915
331
2916
331
2917
331
2918
331
2919
331
291A
331
291B
331
291C
331
291D
331
291E
331
291F
331
2920
331
2921
331
2922
331
2923
331
2924
331
2925
102
}
  0
BLOCK_RECORD
  5
958
330
1
100
AcDbSymbolTableRecord
100
AcDbBlockTableRecord
  2
_DotSmall
340
0
102
{BLKREFS
331
2978
331
297C
331
297E
331
2982
331
29FD
331
2A03
331
2A2E
331
2A32
102
}
  0
BLOCK_RECORD
  5
1EF2
330
1
100
AcDbSymbolTableRecord
100
AcDbBlockTableRecord
  2
_None
340
0
  0
BLOCK_RECORD
  5
2064
330
1
100
AcDbSymbolTableRecord
100
AcDbBlockTableRecord
  2
*X4
340
0
102
{BLKREFS
331
28B8
102
}
  0
BLOCK_RECORD
  5
2480
102
{ACAD_XDICTIONARY
360
248A
102
}
330
1
100
AcDbSymbolTableRecord
100
AcDbBlockTableRecord
  2
SOLBET_Nadproze_140_12_1400x240x120_PRA
340
0
1001
ACAD
1000
DesignCenter Data
1002
{
1070
     1
1070
     4
1002
}
  0
BLOCK_RECORD
  5
2506
330
1
100
AcDbSymbolTableRecord
100
AcDbBlockTableRecord
  2
*X6
340
0
102
{BLKREFS
331
274E
102
}
  0
BLOCK_RECORD
  5
25AF
330
1
100
AcDbSymbolTableRecord
100
AcDbBlockTableRecord
  2
*U7
340
0
102
{BLKREFS
331
26FC
331
26FF
331
295C
331
295D
331
29DC
331
29DD
102
}
  0
BLOCK_RECORD
  5
25CB
330
1
100
AcDbSymbolTableRecord
100
AcDbBlockTableRecord
  2
*U8
340
0
102
{BLKREFS
331
2787
102
}
  0
BLOCK_RECORD
  5
25D0
330
1
100
AcDbSymbolTableRecord
100
AcDbBlockTableRecord
  2
*U9
340
0
102
{BLKREFS
331
27AA
102
}
  0
BLOCK_RECORD
  5
25D5
330
1
100
AcDbSymbolTableRecord
100
AcDbBlockTableRecord
  2
*U10
340
0
102
{BLKREFS
331
27AB
102
}
  0
BLOCK_RECORD
  5
25DA
330
1
100
AcDbSymbolTableRecord
100
AcDbBlockTableRecord
  2
*U11
340
0
102
{BLKREFS
331
27AC
102
}
  0
BLOCK_RECORD
  5
27E2
102
{ACAD_XDICTIONARY
360
27EE
102
}
330
1
100
AcDbSymbolTableRecord
100
AcDbBlockTableRecord
  2
SOLBET_Bloczek_Ideal_420x240x590_P+W_PRA
340
0
1001
ACAD
1000
DesignCenter Data
1002
{
1070
     1
1070
     4
1002
}
  0
BLOCK_RECORD
  5
285D
102
{ACAD_XDICTIONARY
360
2867
102
}
330
1
100
AcDbSymbolTableRecord
100
AcDbBlockTableRecord
  2
SOLBET_Nadproze_230_18_2300x240x180_PRA
340
0
1001
ACAD
1000
DesignCenter Data
1002
{
1070
     1
1070
     4
1002
}
  0
BLOCK_RECORD
  5
286C
102
{ACAD_XDICTIONARY
360
2876
102
}
330
1
100
AcDbSymbolTableRecord
100
AcDbBlockTableRecord
  2
SOLBET_Plytka_60x240x590_brak_PRA
340
0
102
{BLKREFS
331
287A
102
}
1001
ACAD
1000
DesignCenter Data
1002
{
1070
     1
1070
     4
1002
}
  0
BLOCK_RECORD
  5
2937
330
1
100
AcDbSymbolTableRecord
100
AcDbBlockTableRecord
  2
*D15
340
0
  0
BLOCK_RECORD
  5
2D1A
102
{ACAD_XDICTIONARY
360
2D2B
102
}
330
1
100
AcDbSymbolTableRecord
100
AcDbBlockTableRecord
  2
SOLBET_Nadproze_120x240x1400_zz_PRA
340
0
102
{BLKREFS
331
2D2F
331
2D30
331
2D31
102
}
1001
ACAD
1000
DesignCenter Data
1002
{
1070
     1
1070
     4
1002
}
  0
BLOCK_RECORD
  5
2D32
102
{ACAD_XDICTIONARY
360
2D43
102
}
330
1
100
AcDbSymbolTableRecord
100
AcDbBlockTableRecord
  2
SOLBET_Nadproze_180x240x2300_zz_PRA
340
0
102
{BLKREFS
331
2D47
102
}
1001
ACAD
1000
DesignCenter Data
1002
{
1070
     1
1070
     4
1002
}
  0
BLOCK_RECORD
  5
2D48
102
{ACAD_XDICTIONARY
360
2D54
102
}
330
1
100
AcDbSymbolTableRecord
100
AcDbBlockTableRecord
  2
SOLBET_Bloczek_Ideal_420x240x590_P+W_KG400_PRA
340
0
102
{BLKREFS
331
2D58
331
2D59
331
2D90
331
2D91
331
2D92
102
}
1001
ACAD
1000
DesignCenter Data
1002
{
1070
     1
1070
     4
1002
}
  0
ENDTAB
  0
ENDSEC
  0
SECTION
  2
BLOCKS
  0
BLOCK
  5
20
330
1F
100
AcDbEntity
  8
0
100
AcDbBlockBegin
  2
*Model_Space
 70
     0
 10
0.0
 20
0.0
 30
0.0
  3
*Model_Space
  1

  0
ENDBLK
  5
21
330
1F
100
AcDbEntity
  8
0
100
AcDbBlockEnd
  0
BLOCK
  5
D4
330
D2
100
AcDbEntity
 67
     1
  8
0
100
AcDbBlockBegin
  2
*Paper_Space
 70
     0
 10
0.0
 20
0.0
 30
0.0
  3
*Paper_Space
  1

  0
ENDBLK
  5
D5
330
D2
100
AcDbEntity
 67
     1
  8
0
100
AcDbBlockEnd
  0
BLOCK
  5
D8
330
D6
100
AcDbEntity
 67
     1
  8
0
100
AcDbBlockBegin
  2
*Paper_Space0
 70
     0
 10
0.0
 20
0.0
 30
0.0
  3
*Paper_Space0
  1

  0
ENDBLK
  5
D9
330
D6
100
AcDbEntity
 67
     1
  8
0
100
AcDbBlockEnd
  0
BLOCK
  5
1C3
330
1C2
100
AcDbEntity
  8
0
100
AcDbBlockBegin
  2
ASOWDBLK
 70
     0
 10
0.0
 20
0.0
 30
0.0
  3
ASOWDBLK
  1
ASOWDBLK
  0
ARC
  5
1C4
330
1C2
100
AcDbEntity
  8
0
  6
Continuous
 62
     0
100
AcDbCircle
 10
0.0
 20
0.25
 30
0.0
 40
0.25
100
AcDbArc
 50
270.0000011238745
 51
36.86989141244799
  0
ARC
  5
1C5
330
1C2
100
AcDbEntity
  8
0
  6
Continuous
 62
     0
100
AcDbCircle
 10
0.25
 20
0.75
 30
0.0
 40
0.25
100
AcDbArc
 50
323.1300909874582
 51
216.8699112602908
  0
LINE
  5
1C6
330
1C2
100
AcDbEntity
  8
0
  6
Continuous
 62
     0
100
AcDbLine
 10
0.05
 20
0.6
 30
0.0
 11
0.2
 21
0.4
 31
0.0
  0
ARC
  5
1C7
330
1C2
100
AcDbEntity
  8
0
  6
Continuous
 62
     0
100
AcDbCircle
 10
0.5
 20
0.25
 30
0.0
 40
0.25
100
AcDbArc
 50
143.1301284353948
 51
270.0000011238745
  0
LINE
  5
1C8
330
1C2
100
AcDbEntity
  8
0
  6
Continuous
 62
     0
100
AcDbLine
 10
0.45
 20
0.6
 30
0.0
 11
0.3
 21
0.4
 31
0.0
  0
ENDBLK
  5
1C9
330
1C2
100
AcDbEntity
  8
0
100
AcDbBlockEnd
  0
BLOCK
  5
95A
330
958
100
AcDbEntity
  8
0
100
AcDbBlockBegin
  2
_DotSmall
 70
     0
 10
0.0
 20
0.0
 30
0.0
  3
_DotSmall
  1

  0
LWPOLYLINE
  5
959
330
958
100
AcDbEntity
  8
0
  6
ByBlock
 62
     0
100
AcDbPolyline
 90
        2
 70
     1
 43
0.5
 10
-0.0625
 20
0.0
 42
1.0
 10
0.0625
 20
0.0
 42
1.0
  0
ENDBLK
  5
95B
330
958
100
AcDbEntity
  8
0
100
AcDbBlockEnd
  0
BLOCK
  5
1EF3
330
1EF2
100
AcDbEntity
  8
0
100
AcDbBlockBegin
  2
_None
 70
     0
 10
0.0
 20
0.0
 30
0.0
  3
_None
  1

  0
ENDBLK
  5
1EF4
330
1EF2
100
AcDbEntity
  8
0
100
AcDbBlockEnd
  0
BLOCK
  5
2065
330
2064
100
AcDbEntity
  8
0
100
AcDbBlockBegin
  2
*X4
 70
     1
 10
0.0
 20
0.0
 30
0.0
  3
*X4
  1
ASOWDBLK
  0
LINE
  5
2066
330
2064
100
AcDbEntity
  8
0
 62
     0
100
AcDbLine
 10
11.99304811965889
 20
9.120426821088543
 30
0.0
 11
12.03304811965889
 21
9.16042682108854
 31
0.0
  0
LINE
  5
2067
330
2064
100
AcDbEntity
  8
0
 62
     0
100
AcDbLine
 10
11.94885394583473
 20
9.120426821088543
 30
0.0
 11
11.98885394583473
 21
9.16042682108854
 31
0.0
  0
LINE
  5
2068
330
2064
100
AcDbEntity
  8
0
 62
     0
100
AcDbLine
 10
11.90465977201057
 20
9.120426821088543
 30
0.0
 11
11.94465977201057
 21
9.16042682108854
 31
0.0
  0
LINE
  5
2069
330
2064
100
AcDbEntity
  8
0
 62
     0
100
AcDbLine
 10
11.86046559818641
 20
9.120426821088543
 30
0.0
 11
11.90046559818641
 21
9.16042682108854
 31
0.0
  0
LINE
  5
206A
330
2064
100
AcDbEntity
  8
0
 62
     0
100
AcDbLine
 10
11.81627142436225
 20
9.120426821088543
 30
0.0
 11
11.85627142436225
 21
9.16042682108854
 31
0.0
  0
LINE
  5
206B
330
2064
100
AcDbEntity
  8
0
 62
     0
100
AcDbLine
 10
11.77207725053809
 20
9.120426821088543
 30
0.0
 11
11.81207725053809
 21
9.16042682108854
 31
0.0
  0
LINE
  5
206C
330
2064
100
AcDbEntity
  8
0
 62
     0
100
AcDbLine
 10
11.72788307671393
 20
9.120426821088543
 30
0.0
 11
11.76788307671393
 21
9.16042682108854
 31
0.0
  0
LINE
  5
206D
330
2064
100
AcDbEntity
  8
0
 62
     0
100
AcDbLine
 10
11.68368890288977
 20
9.120426821088543
 30
0.0
 11
11.72368890288977
 21
9.16042682108854
 31
0.0
  0
LINE
  5
206E
330
2064
100
AcDbEntity
  8
0
 62
     0
100
AcDbLine
 10
11.63949472906562
 20
9.120426821088543
 30
0.0
 11
11.67949472906562
 21
9.16042682108854
 31
0.0
  0
LINE
  5
206F
330
2064
100
AcDbEntity
  8
0
 62
     0
100
AcDbLine
 10
11.59530055524146
 20
9.120426821088543
 30
0.0
 11
11.63530055524145
 21
9.16042682108854
 31
0.0
  0
LINE
  5
2070
330
2064
100
AcDbEntity
  8
0
 62
     0
100
AcDbLine
 10
11.5511063814173
 20
9.120426821088543
 30
0.0
 11
11.59110638141729
 21
9.16042682108854
 31
0.0
  0
LINE
  5
2071
330
2064
100
AcDbEntity
  8
0
 62
     0
100
AcDbLine
 10
11.50691220759314
 20
9.120426821088543
 30
0.0
 11
11.54691220759314
 21
9.16042682108854
 31
0.0
  0
LINE
  5
2072
330
2064
100
AcDbEntity
  8
0
 62
     0
100
AcDbLine
 10
11.46271803376898
 20
9.120426821088543
 30
0.0
 11
11.50271803376898
 21
9.16042682108854
 31
0.0
  0
LINE
  5
2073
330
2064
100
AcDbEntity
  8
0
 62
     0
100
AcDbLine
 10
11.41852385994482
 20
9.120426821088543
 30
0.0
 11
11.45852385994482
 21
9.16042682108854
 31
0.0
  0
LINE
  5
2074
330
2064
100
AcDbEntity
  8
0
 62
     0
100
AcDbLine
 10
11.39401831761913
 20
9.140115452587011
 30
0.0
 11
11.41432968612066
 21
9.16042682108854
 31
0.0
  0
LINE
  5
2075
330
2064
100
AcDbEntity
  8
0
 62
     0
100
AcDbLine
 10
12.03724229348305
 20
9.120426821088543
 30
0.0
 11
12.07724229348305
 21
9.16042682108854
 31
0.0
  0
LINE
  5
2076
330
2064
100
AcDbEntity
  8
0
 62
     0
100
AcDbLine
 10
12.08143646730721
 20
9.120426821088543
 30
0.0
 11
12.12143646730721
 21
9.16042682108854
 31
0.0
  0
LINE
  5
2077
330
2064
100
AcDbEntity
  8
0
 62
     0
100
AcDbLine
 10
12.12563064113137
 20
9.120426821088543
 30
0.0
 11
12.16563064113137
 21
9.16042682108854
 31
0.0
  0
LINE
  5
2078
330
2064
100
AcDbEntity
  8
0
 62
     0
100
AcDbLine
 10
12.16982481495553
 20
9.120426821088543
 30
0.0
 11
12.20982481495552
 21
9.16042682108854
 31
0.0
  0
LINE
  5
2079
330
2064
100
AcDbEntity
  8
0
 62
     0
100
AcDbLine
 10
12.21401898877969
 20
9.120426821088543
 30
0.0
 11
12.25401898877968
 21
9.16042682108854
 31
0.0
  0
LINE
  5
207A
330
2064
100
AcDbEntity
  8
0
 62
     0
100
AcDbLine
 10
12.25821316260385
 20
9.120426821088543
 30
0.0
 11
12.29821316260384
 21
9.16042682108854
 31
0.0
  0
LINE
  5
207B
330
2064
100
AcDbEntity
  8
0
 62
     0
100
AcDbLine
 10
12.302407336428
 20
9.120426821088543
 30
0.0
 11
12.342407336428
 21
9.16042682108854
 31
0.0
  0
LINE
  5
207C
330
2064
100
AcDbEntity
  8
0
 62
     0
100
AcDbLine
 10
12.34660151025216
 20
9.120426821088543
 30
0.0
 11
12.38660151025216
 21
9.16042682108854
 31
0.0
  0
LINE
  5
207D
330
2064
100
AcDbEntity
  8
0
 62
     0
100
AcDbLine
 10
12.39079568407632
 20
9.120426821088543
 30
0.0
 11
12.43079568407632
 21
9.16042682108854
 31
0.0
  0
LINE
  5
207E
330
2064
100
AcDbEntity
  8
0
 62
     0
100
AcDbLine
 10
12.43498985790048
 20
9.120426821088543
 30
0.0
 11
12.47498985790048
 21
9.16042682108854
 31
0.0
  0
LINE
  5
207F
330
2064
100
AcDbEntity
  8
0
 62
     0
100
AcDbLine
 10
12.47918403172464
 20
9.120426821088543
 30
0.0
 11
12.51918403172464
 21
9.16042682108854
 31
0.0
  0
LINE
  5
2080
330
2064
100
AcDbEntity
  8
0
 62
     0
100
AcDbLine
 10
12.5233782055488
 20
9.120426821088543
 30
0.0
 11
12.5633782055488
 21
9.16042682108854
 31
0.0
  0
LINE
  5
2081
330
2064
100
AcDbEntity
  8
0
 62
     0
100
AcDbLine
 10
12.56757237937296
 20
9.120426821088543
 30
0.0
 11
12.60757237937296
 21
9.16042682108854
 31
0.0
  0
LINE
  5
2082
330
2064
100
AcDbEntity
  8
0
 62
     0
100
AcDbLine
 10
12.61176655319712
 20
9.120426821088543
 30
0.0
 11
12.65176655319712
 21
9.16042682108854
 31
0.0
  0
LINE
  5
2083
330
2064
100
AcDbEntity
  8
0
 62
     0
100
AcDbLine
 10
12.65596072702128
 20
9.120426821088543
 30
0.0
 11
12.68399674713724
 21
9.1484628412045
 31
0.0
  0
LINE
  5
2084
330
2064
100
AcDbEntity
  8
0
 62
     0
100
AcDbLine
 10
12.04858244068372
 20
9.120426821088543
 30
0.0
 11
12.00858244068372
 21
9.16042682108854
 31
0.0
  0
LINE
  5
2085
330
2064
100
AcDbEntity
  8
0
 62
     0
100
AcDbLine
 10
12.00438826685956
 20
9.120426821088543
 30
0.0
 11
11.96438826685956
 21
9.16042682108854
 31
0.0
  0
LINE
  5
2086
330
2064
100
AcDbEntity
  8
0
 62
     0
100
AcDbLine
 10
11.9601940930354
 20
9.120426821088543
 30
0.0
 11
11.9201940930354
 21
9.16042682108854
 31
0.0
  0
LINE
  5
2087
330
2064
100
AcDbEntity
  8
0
 62
     0
100
AcDbLine
 10
11.91599991921124
 20
9.120426821088543
 30
0.0
 11
11.87599991921124
 21
9.16042682108854
 31
0.0
  0
LINE
  5
2088
330
2064
100
AcDbEntity
  8
0
 62
     0
100
AcDbLine
 10
11.87180574538708
 20
9.120426821088543
 30
0.0
 11
11.83180574538708
 21
9.16042682108854
 31
0.0
  0
LINE
  5
2089
330
2064
100
AcDbEntity
  8
0
 62
     0
100
AcDbLine
 10
11.82761157156292
 20
9.120426821088543
 30
0.0
 11
11.78761157156293
 21
9.16042682108854
 31
0.0
  0
LINE
  5
208A
330
2064
100
AcDbEntity
  8
0
 62
     0
100
AcDbLine
 10
11.78341739773876
 20
9.120426821088543
 30
0.0
 11
11.74341739773877
 21
9.16042682108854
 31
0.0
  0
LINE
  5
208B
330
2064
100
AcDbEntity
  8
0
 62
     0
100
AcDbLine
 10
11.7392232239146
 20
9.120426821088543
 30
0.0
 11
11.69922322391461
 21
9.16042682108854
 31
0.0
  0
LINE
  5
208C
330
2064
100
AcDbEntity
  8
0
 62
     0
100
AcDbLine
 10
11.69502905009045
 20
9.120426821088543
 30
0.0
 11
11.65502905009045
 21
9.16042682108854
 31
0.0
  0
LINE
  5
208D
330
2064
100
AcDbEntity
  8
0
 62
     0
100
AcDbLine
 10
11.65083487626629
 20
9.120426821088543
 30
0.0
 11
11.61083487626629
 21
9.16042682108854
 31
0.0
  0
LINE
  5
208E
330
2064
100
AcDbEntity
  8
0
 62
     0
100
AcDbLine
 10
11.60664070244213
 20
9.120426821088543
 30
0.0
 11
11.56664070244213
 21
9.16042682108854
 31
0.0
  0
LINE
  5
208F
330
2064
100
AcDbEntity
  8
0
 62
     0
100
AcDbLine
 10
11.56244652861797
 20
9.120426821088543
 30
0.0
 11
11.52244652861797
 21
9.16042682108854
 31
0.0
  0
LINE
  5
2090
330
2064
100
AcDbEntity
  8
0
 62
     0
100
AcDbLine
 10
11.51825235479381
 20
9.120426821088543
 30
0.0
 11
11.47825235479381
 21
9.16042682108854
 31
0.0
  0
LINE
  5
2091
330
2064
100
AcDbEntity
  8
0
 62
     0
100
AcDbLine
 10
11.47405818096965
 20
9.120426821088543
 30
0.0
 11
11.43405818096965
 21
9.16042682108854
 31
0.0
  0
LINE
  5
2092
330
2064
100
AcDbEntity
  8
0
 62
     0
100
AcDbLine
 10
11.42986400714549
 20
9.120426821088543
 30
0.0
 11
11.39401831761913
 21
9.156272510614906
 31
0.0
  0
LINE
  5
2093
330
2064
100
AcDbEntity
  8
0
 62
     0
100
AcDbLine
 10
12.09277661450788
 20
9.120426821088543
 30
0.0
 11
12.05277661450788
 21
9.16042682108854
 31
0.0
  0
LINE
  5
2094
330
2064
100
AcDbEntity
  8
0
 62
     0
100
AcDbLine
 10
12.13697078833203
 20
9.120426821088543
 30
0.0
 11
12.09697078833204
 21
9.16042682108854
 31
0.0
  0
LINE
  5
2095
330
2064
100
AcDbEntity
  8
0
 62
     0
100
AcDbLine
 10
12.1811649621562
 20
9.120426821088543
 30
0.0
 11
12.1411649621562
 21
9.16042682108854
 31
0.0
  0
LINE
  5
2096
330
2064
100
AcDbEntity
  8
0
 62
     0
100
AcDbLine
 10
12.22535913598036
 20
9.120426821088543
 30
0.0
 11
12.18535913598036
 21
9.16042682108854
 31
0.0
  0
LINE
  5
2097
330
2064
100
AcDbEntity
  8
0
 62
     0
100
AcDbLine
 10
12.26955330980451
 20
9.120426821088543
 30
0.0
 11
12.22955330980451
 21
9.16042682108854
 31
0.0
  0
LINE
  5
2098
330
2064
100
AcDbEntity
  8
0
 62
     0
100
AcDbLine
 10
12.31374748362867
 20
9.120426821088543
 30
0.0
 11
12.27374748362868
 21
9.16042682108854
 31
0.0
  0
LINE
  5
2099
330
2064
100
AcDbEntity
  8
0
 62
     0
100
AcDbLine
 10
12.35794165745283
 20
9.120426821088543
 30
0.0
 11
12.31794165745283
 21
9.16042682108854
 31
0.0
  0
LINE
  5
209A
330
2064
100
AcDbEntity
  8
0
 62
     0
100
AcDbLine
 10
12.40213583127699
 20
9.120426821088543
 30
0.0
 11
12.36213583127699
 21
9.16042682108854
 31
0.0
  0
LINE
  5
209B
330
2064
100
AcDbEntity
  8
0
 62
     0
100
AcDbLine
 10
12.44633000510115
 20
9.120426821088543
 30
0.0
 11
12.40633000510115
 21
9.16042682108854
 31
0.0
  0
LINE
  5
209C
330
2064
100
AcDbEntity
  8
0
 62
     0
100
AcDbLine
 10
12.49052417892531
 20
9.120426821088543
 30
0.0
 11
12.45052417892531
 21
9.16042682108854
 31
0.0
  0
LINE
  5
209D
330
2064
100
AcDbEntity
  8
0
 62
     0
100
AcDbLine
 10
12.53471835274947
 20
9.120426821088543
 30
0.0
 11
12.49471835274947
 21
9.16042682108854
 31
0.0
  0
LINE
  5
209E
330
2064
100
AcDbEntity
  8
0
 62
     0
100
AcDbLine
 10
12.57891252657363
 20
9.120426821088543
 30
0.0
 11
12.53891252657363
 21
9.16042682108854
 31
0.0
  0
LINE
  5
209F
330
2064
100
AcDbEntity
  8
0
 62
     0
100
AcDbLine
 10
12.62310670039779
 20
9.120426821088543
 30
0.0
 11
12.58310670039779
 21
9.16042682108854
 31
0.0
  0
LINE
  5
20A0
330
2064
100
AcDbEntity
  8
0
 62
     0
100
AcDbLine
 10
12.66730087422195
 20
9.120426821088543
 30
0.0
 11
12.62730087422195
 21
9.16042682108854
 31
0.0
  0
LINE
  5
20A1
330
2064
100
AcDbEntity
  8
0
 62
     0
100
AcDbLine
 10
12.68399674713724
 20
9.147925121997415
 30
0.0
 11
12.67149504804611
 21
9.16042682108854
 31
0.0
  0
ENDBLK
  5
20A2
330
2064
100
AcDbEntity
  8
0
100
AcDbBlockEnd
  0
BLOCK
  5
248C
330
2480
100
AcDbEntity
  8
0
100
AcDbBlockBegin
  2
SOLBET_Nadproze_140_12_1400x240x120_PRA
 70
     2
 10
0.0
 20
0.0
 30
0.0
  3
SOLBET_Nadproze_140_12_1400x240x120_PRA
  1

  0
ATTDEF
  5
2842
330
2480
100
AcDbEntity
  8
SOLBET_Wymiary_Opisy
100
AcDbText
 10
-0.0000002754209163
 20
4.914367003308234
 30
0.0
 40
0.9913121336814832
  1
1400x240x120
  7
Solbet_1
100
AcDbAttributeDefinition
  3

  2
WYMIARY
 70
     3
1001
AcDbAttr
1070
     0
1070
     1
  0
ATTDEF
  5
2843
330
2480
100
AcDbEntity
  8
SOLBET_Wymiary_Opisy
100
AcDbText
 10
0.0000001377104581
 20
3.269569171638422
 30
0.0
 40
0.9913121336814832
  1
20
  7
Solbet_1
100
AcDbAttributeDefinition
  3

  2
DŁUGOŚĆ_PODPARCIA_1
 70
    11
1001
AcDbAttr
1070
     0
1070
     1
  0
ATTDEF
  5
2844
330
2480
100
AcDbEntity
  8
SOLBET_Wymiary_Opisy
100
AcDbText
 10
0.0000001377104581
 20
0.2448647622976432
 30
0.0
 40
0.9913121336814832
  1
SOLBET
  7
Solbet_1
100
AcDbAttributeDefinition
  3

  2
FIRMA
 70
     3
1001
AcDbAttr
1070
     0
1070
     1
  0
ATTDEF
  5
2845
330
2480
100
AcDbEntity
  8
SOLBET_Wymiary_Opisy
100
AcDbText
 10
-0.0000002754209163
 20
6.505718915794942
 30
0.0
 40
0.9913121336814832
  1
Nadproże 140/12
  7
Solbet_1
100
AcDbAttributeDefinition
  3
Nazwa
  2
NAZWA
 70
     3
1001
AcDbAttr
1070
     0
1070
     1
  0
ATTDEF
  5
2846
330
2480
100
AcDbEntity
  8
SOLBET_Wymiary_Opisy
100
AcDbText
 10
0.0000001377104581
 20
1.744181521824755
 30
0.0
 40
0.9913121336814832
  1
Prawo
  7
Solbet_1
100
AcDbAttributeDefinition
  3

  2
WIDOK
 70
    11
1001
AcDbAttr
1070
     0
1070
     1
  0
LINE
  5
2847
330
2480
100
AcDbEntity
  8
SOLBET_Bloczki
100
AcDbLine
 10
5.999999594097516
 20
11.99999987551155
 30
0.0
 11
5.999999594097516
 21
-0.0000001244884515
 31
0.0
  0
LINE
  5
2848
330
2480
100
AcDbEntity
  8
SOLBET_Bloczki
100
AcDbLine
 10
5.999999594097516
 20
-0.0000001244884515
 30
0.0
 11
-0.0000004059024832
 21
-0.0000001244884515
 31
0.0
  0
LINE
  5
2849
330
2480
100
AcDbEntity
  8
SOLBET_Bloczki
100
AcDbLine
 10
-0.0000004059024832
 20
-0.0000001244884515
 30
0.0
 11
-0.0000004059024832
 21
11.99999987551155
 31
0.0
  0
LINE
  5
284A
330
2480
100
AcDbEntity
  8
SOLBET_Bloczki
100
AcDbLine
 10
-0.0000004059024832
 20
11.99999987551155
 30
0.0
 11
5.999999594097516
 21
11.99999987551155
 31
0.0
  0
ENDBLK
  5
248D
330
2480
100
AcDbEntity
  8
0
100
AcDbBlockEnd
  0
BLOCK
  5
2507
330
2506
100
AcDbEntity
  8
0
100
AcDbBlockBegin
  2
*X6
 70
     1
 10
0.0
 20
0.0
 30
0.0
  3
*X6
  1
ASOWDBLK
  0
LINE
  5
2508
330
2506
100
AcDbEntity
  8
0
 62
     0
100
AcDbLine
 10
12.3679971441842
 20
9.463695206850969
 30
0.0
 11
12.37947492774574
 21
9.477373896645453
 31
0.0
  0
LINE
  5
2509
330
2506
100
AcDbEntity
  8
0
 62
     0
100
AcDbLine
 10
12.54731218983439
 20
9.448007173105322
 30
0.0
 11
12.55936445751601
 21
9.462370506413803
 31
0.0
  0
LINE
  5
250A
330
2506
100
AcDbEntity
  8
0
 62
     0
100
AcDbLine
 10
12.36799714853588
 20
9.463695209658894
 30
0.0
 11
12.38294006900726
 21
9.462387873517679
 31
0.0
  0
LINE
  5
250B
330
2506
100
AcDbEntity
  8
0
 62
     0
100
AcDbLine
 10
12.54731219419239
 20
9.448007175964315
 30
0.0
 11
12.56225511466377
 21
9.4466998398231
 31
0.0
  0
LINE
  5
250C
330
2506
100
AcDbEntity
  8
0
 62
     0
100
AcDbLine
 10
12.38294734493005
 20
9.4623781245925
 30
0.0
 11
12.38018119759329
 21
9.477373896645453
 31
0.0
  0
LINE
  5
250D
330
2506
100
AcDbEntity
  8
0
 62
     0
100
AcDbLine
 10
12.56226237690854
 20
9.446689950037018
 30
0.0
 11
12.55937173644585
 21
9.462360621258849
 31
0.0
  0
LINE
  5
250E
330
2506
100
AcDbEntity
  8
0
 62
     0
100
AcDbLine
 10
11.75616891039773
 20
9.427373896645452
 30
0.0
 11
11.76738393501053
 21
9.439062362340582
 31
0.0
  0
LINE
  5
250F
330
2506
100
AcDbEntity
  8
0
 62
     0
100
AcDbLine
 10
11.7687499570032
 20
9.427373896645452
 30
0.0
 11
11.76739122001888
 21
9.43905355256455
 31
0.0
  0
LINE
  5
2510
330
2506
100
AcDbEntity
  8
0
 62
     0
100
AcDbLine
 10
12.14321939628071
 20
9.427373896645452
 30
0.0
 11
12.16009382309612
 21
9.433851382211726
 31
0.0
  0
LINE
  5
2511
330
2506
100
AcDbEntity
  8
0
 62
     0
100
AcDbLine
 10
11.78330683110781
 20
9.447153917176395
 30
0.0
 11
11.80081146410463
 21
9.453873316230369
 31
0.0
  0
LINE
  5
2512
330
2506
100
AcDbEntity
  8
0
 62
     0
100
AcDbLine
 10
11.78330683628649
 20
9.447153915051121
 30
0.0
 11
11.79574239987482
 21
9.438766021499059
 31
0.0
  0
LINE
  5
2513
330
2506
100
AcDbEntity
  8
0
 62
     0
100
AcDbLine
 10
12.15793081287172
 20
9.427373896645452
 30
0.0
 11
12.16010106960009
 21
9.433841872497813
 31
0.0
  0
LINE
  5
2514
330
2506
100
AcDbEntity
  8
0
 62
     0
100
AcDbLine
 10
11.79574964859947
 20
9.438756799333843
 30
0.0
 11
11.8008187296486
 21
9.453864087513544
 31
0.0
  0
LINE
  5
2515
330
2506
100
AcDbEntity
  8
0
 62
     0
100
AcDbLine
 10
12.20471516834098
 20
9.445898146433325
 30
0.0
 11
12.20471516834098
 21
9.445898146433325
 31
0.0
  0
LINE
  5
2516
330
2506
100
AcDbEntity
  8
0
 62
     0
100
AcDbLine
 10
12.07635598518457
 20
9.428295498211584
 30
0.0
 11
12.07635598518457
 21
9.428295498211584
 31
0.0
  0
LINE
  5
2517
330
2506
100
AcDbEntity
  8
0
 62
     0
100
AcDbLine
 10
11.82327259770628
 20
9.476770236297685
 30
0.0
 11
11.82327259770628
 21
9.476770236297685
 31
0.0
  0
LINE
  5
2518
330
2506
100
AcDbEntity
  8
0
 62
     0
100
AcDbLine
 10
11.69491341454987
 20
9.459167588075944
 30
0.0
 11
11.69491341454987
 21
9.459167588075944
 31
0.0
  0
LINE
  5
2519
330
2506
100
AcDbEntity
  8
0
 62
     0
100
AcDbLine
 10
11.56506669388041
 20
9.44042351217481
 30
0.0
 11
11.56506669388041
 21
9.44042351217481
 31
0.0
  0
LINE
  5
251A
330
2506
100
AcDbEntity
  8
0
 62
     0
100
AcDbLine
 10
12.33099179897913
 20
9.461902795903919
 30
0.0
 11
12.33099179897913
 21
9.461902795903919
 31
0.0
  0
LINE
  5
251B
330
2506
100
AcDbEntity
  8
0
 62
     0
100
AcDbLine
 10
12.27744372398571
 20
9.441526547948372
 30
0.0
 11
12.27744372398571
 21
9.441526547948372
 31
0.0
  0
LINE
  5
251C
330
2506
100
AcDbEntity
  8
0
 62
     0
100
AcDbLine
 10
12.34002868085993
 20
9.449766013832263
 30
0.0
 11
12.34002868085993
 21
9.449766013832263
 31
0.0
  0
LINE
  5
251D
330
2506
100
AcDbEntity
  8
0
 62
     0
100
AcDbLine
 10
12.43471166512113
 20
9.462231265189277
 30
0.0
 11
12.43471166512113
 21
9.462231265189277
 31
0.0
  0
LINE
  5
251E
330
2506
100
AcDbEntity
  8
0
 62
     0
100
AcDbLine
 10
11.55501244355407
 20
9.436361153104019
 30
0.0
 11
11.55501244355407
 21
9.436361153104019
 31
0.0
  0
LINE
  5
251F
330
2506
100
AcDbEntity
  8
0
 62
     0
100
AcDbLine
 10
11.71290003772785
 20
9.457147449215062
 30
0.0
 11
11.71290003772785
 21
9.457147449215062
 31
0.0
  0
LINE
  5
2520
330
2506
100
AcDbEntity
  8
0
 62
     0
100
AcDbLine
 10
11.77548499460207
 20
9.465386915098953
 30
0.0
 11
11.77548499460207
 21
9.465386915098953
 31
0.0
  0
LINE
  5
2521
330
2506
100
AcDbEntity
  8
0
 62
     0
100
AcDbLine
 10
12.00720232847171
 20
9.461538266747048
 30
0.0
 11
12.00720232847171
 21
9.461538266747048
 31
0.0
  0
LINE
  5
2522
330
2506
100
AcDbEntity
  8
0
 62
     0
100
AcDbLine
 10
12.14065793751482
 20
9.455899548813453
 30
0.0
 11
12.14065793751482
 21
9.455899548813453
 31
0.0
  0
LINE
  5
2523
330
2506
100
AcDbEntity
  8
0
 62
     0
100
AcDbLine
 10
12.27411354655792
 20
9.450260830879859
 30
0.0
 11
12.27411354655792
 21
9.450260830879859
 31
0.0
  0
LINE
  5
2524
330
2506
100
AcDbEntity
  8
0
 62
     0
100
AcDbLine
 10
12.40756915560102
 20
9.444622112946266
 30
0.0
 11
12.40756915560102
 21
9.444622112946266
 31
0.0
  0
LINE
  5
2525
330
2506
100
AcDbEntity
  8
0
 62
     0
100
AcDbLine
 10
12.54102476464413
 20
9.438983395012668
 30
0.0
 11
12.54102476464413
 21
9.438983395012668
 31
0.0
  0
LINE
  5
2526
330
2506
100
AcDbEntity
  8
0
 62
     0
100
AcDbLine
 10
12.67448037368723
 20
9.433344677079073
 30
0.0
 11
12.67448037368723
 21
9.433344677079073
 31
0.0
  0
LINE
  5
2527
330
2506
100
AcDbEntity
  8
0
 62
     0
100
AcDbLine
 10
11.87374671942861
 20
9.467176984680643
 30
0.0
 11
11.87374671942861
 21
9.467176984680643
 31
0.0
  0
LINE
  5
2528
330
2506
100
AcDbEntity
  8
0
 62
     0
100
AcDbLine
 10
11.74029111038551
 20
9.472815702614237
 30
0.0
 11
11.74029111038551
 21
9.472815702614237
 31
0.0
  0
LINE
  5
2529
330
2506
100
AcDbEntity
  8
0
 62
     0
100
AcDbLine
 10
12.47470767275208
 20
9.433432165767177
 30
0.0
 11
12.47470767275208
 21
9.433432165767177
 31
0.0
  0
LINE
  5
252A
330
2506
100
AcDbEntity
  8
0
 62
     0
100
AcDbLine
 10
12.62050421508768
 20
9.458458411350253
 30
0.0
 11
12.62050421508768
 21
9.458458411350253
 31
0.0
  0
LINE
  5
252B
330
2506
100
AcDbEntity
  8
0
 62
     0
100
AcDbLine
 10
11.75604679277084
 20
9.457466884084235
 30
0.0
 11
11.75604679277084
 21
9.457466884084235
 31
0.0
  0
LINE
  5
252C
330
2506
100
AcDbEntity
  8
0
 62
     0
100
AcDbLine
 10
11.61025025043524
 20
9.432440638501157
 30
0.0
 11
11.61025025043524
 21
9.432440638501157
 31
0.0
  0
ENDBLK
  5
252D
330
2506
100
AcDbEntity
  8
0
100
AcDbBlockEnd
  0
BLOCK
  5
25B0
330
25AF
100
AcDbEntity
  8
0
100
AcDbBlockBegin
  2
*U7
 70
     1
 10
0.0
 20
0.0
 30
0.0
  3
*U7
  1
*ANON
  0
SOLID
  5
25B1
330
25AF
100
AcDbEntity
  8
0
 62
     0
100
AcDbTrace
 10
8.138963202893219
 20
4.153110275044026
 30
0.0
 11
8.139143255728106
 21
4.152782880701087
 31
0.0
 12
8.138963202893224
 22
4.152372156093623
 32
0.0
 13
8.138963202893224
 23
4.152372156093623
 33
0.0
  0
SOLID
  5
25B2
330
25AF
100
AcDbEntity
  8
0
 62
     0
100
AcDbTrace
 10
8.138963202893224
 20
4.152372156093623
 30
0.0
 11
8.138028867975624
 21
4.151884078297518
 31
0.0
 12
8.136896703462809
 22
4.151631537884072
 32
0.0
 13
8.136896703462809
 23
4.151631537884072
 33
0.0
  0
SOLID
  5
25B3
330
25AF
100
AcDbEntity
  8
0
 62
     0
100
AcDbTrace
 10
8.138963202893224
 20
4.152372156093623
 30
0.0
 11
8.136896703462809
 21
4.151631537884072
 31
0.0
 12
8.135333985407216
 22
4.151529040414927
 32
0.0
 13
8.135333985407216
 23
4.151529040414927
 33
0.0
  0
SOLID
  5
25B4
330
25AF
100
AcDbEntity
  8
0
 62
     0
100
AcDbTrace
 10
8.138963202893224
 20
4.152372156093623
 30
0.0
 11
8.135333985407216
 21
4.151529040414927
 31
0.0
 12
8.133771267351626
 22
4.151631537884071
 32
0.0
 13
8.133771267351626
 23
4.151631537884071
 33
0.0
  0
SOLID
  5
25B5
330
25AF
100
AcDbEntity
  8
0
 62
     0
100
AcDbTrace
 10
8.138963202893224
 20
4.152372156093623
 30
0.0
 11
8.133771267351626
 21
4.151631537884071
 31
0.0
 12
8.132639102838806
 22
4.15188407829752
 32
0.0
 13
8.132639102838806
 23
4.15188407829752
 33
0.0
  0
SOLID
  5
25B6
330
25AF
100
AcDbEntity
  8
0
 62
     0
100
AcDbTrace
 10
8.138963202893224
 20
4.152372156093623
 30
0.0
 11
8.132639102838806
 21
4.15188407829752
 31
0.0
 12
8.131704767921211
 22
4.152372156093618
 32
0.0
 13
8.131704767921211
 23
4.152372156093618
 33
0.0
  0
SOLID
  5
25B7
330
25AF
100
AcDbEntity
  8
0
 62
     0
100
AcDbTrace
 10
8.138963202893224
 20
4.152372156093623
 30
0.0
 11
8.131704767921211
 21
4.152372156093618
 31
0.0
 12
8.131522845929975
 22
4.152741215568822
 32
0.0
 13
8.131522845929975
 23
4.152741215568822
 33
0.0
  0
SOLID
  5
25B8
330
25AF
100
AcDbEntity
  8
0
 62
     0
100
AcDbTrace
 10
8.138963202893224
 20
4.152372156093623
 30
0.0
 11
8.131522845929975
 21
4.152741215568822
 31
0.0
 12
8.13170476792121
 22
4.153110275044022
 32
0.0
 13
8.13170476792121
 23
4.153110275044022
 33
0.0
  0
SOLID
  5
25B9
330
25AF
100
AcDbEntity
  8
0
 62
     0
100
AcDbTrace
 10
8.138963202893224
 20
4.152372156093623
 30
0.0
 11
8.13170476792121
 21
4.153110275044022
 31
0.0
 12
8.132639102838815
 22
4.153598352840128
 32
0.0
 13
8.132639102838815
 23
4.153598352840128
 33
0.0
  0
SOLID
  5
25BA
330
25AF
100
AcDbEntity
  8
0
 62
     0
100
AcDbTrace
 10
8.138963202893224
 20
4.152372156093623
 30
0.0
 11
8.132639102838815
 21
4.153598352840128
 31
0.0
 12
8.133771267351617
 22
4.153850893253571
 32
0.0
 13
8.133771267351617
 23
4.153850893253571
 33
0.0
  0
SOLID
  5
25BB
330
25AF
100
AcDbEntity
  8
0
 62
     0
100
AcDbTrace
 10
8.138963202893224
 20
4.152372156093623
 30
0.0
 11
8.133771267351617
 21
4.153850893253571
 31
0.0
 12
8.135333985407216
 22
4.153953390722717
 32
0.0
 13
8.135333985407216
 23
4.153953390722717
 33
0.0
  0
SOLID
  5
25BC
330
25AF
100
AcDbEntity
  8
0
 62
     0
100
AcDbTrace
 10
8.138963202893224
 20
4.152372156093623
 30
0.0
 11
8.135333985407216
 21
4.153953390722717
 31
0.0
 12
8.136896703462786
 22
4.153850893253575
 32
0.0
 13
8.136896703462786
 23
4.153850893253575
 33
0.0
  0
SOLID
  5
25BD
330
25AF
100
AcDbEntity
  8
0
 62
     0
100
AcDbTrace
 10
8.138963202893224
 20
4.152372156093623
 30
0.0
 11
8.136896703462786
 21
4.153850893253575
 31
0.0
 12
8.138028867975622
 22
4.153598352840125
 32
0.0
 13
8.138028867975622
 23
4.153598352840125
 33
0.0
  0
SOLID
  5
25BE
330
25AF
100
AcDbEntity
  8
0
 62
     0
100
AcDbTrace
 10
8.138963202893224
 20
4.152372156093623
 30
0.0
 11
8.138028867975622
 21
4.153598352840125
 31
0.0
 12
8.138963202829472
 22
4.153110275044026
 32
0.0
 13
8.138963202829472
 23
4.153110275044026
 33
0.0
  0
ENDBLK
  5
25BF
330
25AF
100
AcDbEntity
  8
0
100
AcDbBlockEnd
  0
BLOCK
  5
25CC
330
25CB
100
AcDbEntity
  8
0
100
AcDbBlockBegin
  2
*U8
 70
     1
 10
0.0
 20
0.0
 30
0.0
  3
*U8
  1
*ANON
  0
SOLID
  5
25CD
330
25CB
100
AcDbEntity
  8
0
 62
     0
100
AcDbTrace
 10
7.91857274013904
 20
2.701391938321373
 30
0.0
 11
7.972731263906927
 21
2.701391938321373
 31
0.0
 12
7.972731263906926
 22
2.711391938321373
 32
0.0
 13
7.972731263906926
 23
2.711391938321373
 33
0.0
  0
SOLID
  5
25CE
330
25CB
100
AcDbEntity
  8
0
 62
     0
100
AcDbTrace
 10
7.91857274013904
 20
2.701391938321373
 30
0.0
 11
7.972731263906926
 21
2.711391938321373
 31
0.0
 12
7.91857274013904
 22
2.711391938321373
 32
0.0
 13
7.91857274013904
 23
2.711391938321373
 33
0.0
  0
ENDBLK
  5
25CF
330
25CB
100
AcDbEntity
  8
0
100
AcDbBlockEnd
  0
BLOCK
  5
25D1
330
25D0
100
AcDbEntity
  8
0
100
AcDbBlockBegin
  2
*U9
 70
     1
 10
0.0
 20
0.0
 30
0.0
  3
*U9
  1
*ANON
  0
SOLID
  5
25D2
330
25D0
100
AcDbEntity
  8
0
 62
     0
100
AcDbTrace
 10
9.736510007084646
 20
8.634786545824299
 30
0.0
 11
9.790668530852533
 21
8.634786545824299
 31
0.0
 12
9.790668530852531
 22
8.624786545824299
 32
0.0
 13
9.790668530852531
 23
8.624786545824299
 33
0.0
  0
SOLID
  5
25D3
330
25D0
100
AcDbEntity
  8
0
 62
     0
100
AcDbTrace
 10
9.736510007060132
 20
8.634786545824299
 30
0.0
 11
9.790668530852531
 21
8.624786545824299
 31
0.0
 12
9.736510007084646
 22
8.624786545824299
 32
0.0
 13
9.736510007084646
 23
8.624786545824299
 33
0.0
  0
ENDBLK
  5
25D4
330
25D0
100
AcDbEntity
  8
0
100
AcDbBlockEnd
  0
BLOCK
  5
25D6
330
25D5
100
AcDbEntity
  8
0
100
AcDbBlockBegin
  2
*U10
 70
     1
 10
0.0
 20
0.0
 30
0.0
  3
*U10
  1
*ANON
  0
SOLID
  5
25D7
330
25D5
100
AcDbEntity
  8
0
 62
     0
100
AcDbTrace
 10
9.736510007084646
 20
7.1547865458243
 30
0.0
 11
9.790668530852533
 21
7.1547865458243
 31
0.0
 12
9.790668530852531
 22
7.1647865458243
 32
0.0
 13
9.790668530852531
 23
7.1647865458243
 33
0.0
  0
SOLID
  5
25D8
330
25D5
100
AcDbEntity
  8
0
 62
     0
100
AcDbTrace
 10
9.736510007084646
 20
7.1547865458243
 30
0.0
 11
9.790668530852531
 21
7.1647865458243
 31
0.0
 12
9.736510007084646
 22
7.1647865458243
 32
0.0
 13
9.736510007084646
 23
7.1647865458243
 33
0.0
  0
ENDBLK
  5
25D9
330
25D5
100
AcDbEntity
  8
0
100
AcDbBlockEnd
  0
BLOCK
  5
25DB
330
25DA
100
AcDbEntity
  8
0
100
AcDbBlockBegin
  2
*U11
 70
     1
 10
0.0
 20
0.0
 30
0.0
  3
*U11
  1
*ANON
  0
ARC
  5
25DC
330
25DA
100
AcDbEntity
  8
0
  6
ByBlock
 62
     0
100
AcDbCircle
 10
10.08363097998239
 20
7.208119879157635
 30
0.0
 40
0.0273333333333337
100
AcDbArc
 50
209.1964044096773
 51
270.0
  0
ARC
  5
25DD
330
25DA
100
AcDbEntity
  8
0
  6
ByBlock
 62
     0
100
AcDbCircle
 10
10.08363097998239
 20
7.208119879157635
 30
0.0
 40
0.0553333333333336
100
AcDbArc
 50
193.9434348608043
 51
254.5483065688689
  0
ARC
  5
25DE
330
25DA
100
AcDbEntity
  8
0
  6
ByBlock
 62
     0
100
AcDbCircle
 10
10.08363097998239
 20
7.208119879157635
 30
0.0
 40
0.0833333333333337
100
AcDbArc
 50
189.2068962213378
 51
219.7918194995297
  0
ARC
  5
25DF
330
25DA
100
AcDbEntity
  8
0
  6
ByBlock
 62
     0
100
AcDbCircle
 10
10.08363097998239
 20
7.208119879157635
 30
0.0
 40
0.1113333333333336
100
AcDbArc
 50
186.8782793511642
 51
208.6228467300185
  0
ARC
  5
25E0
330
25DA
100
AcDbEntity
  8
0
  6
ByBlock
 62
     0
100
AcDbCircle
 10
10.08363097998239
 20
7.208119879157635
 30
0.0
 40
0.1393333333333336
100
AcDbArc
 50
185.4912524022713
 51
202.5056862398089
  0
ARC
  5
25E1
330
25DA
100
AcDbEntity
  8
0
  6
ByBlock
 62
     0
100
AcDbCircle
 10
10.08363097998239
 20
7.208119879157635
 30
0.0
 40
0.1673333333333336
100
AcDbArc
 50
184.5702456483734
 51
198.5858418267903
  0
ARC
  5
25E2
330
25DA
100
AcDbEntity
  8
0
  6
ByBlock
 62
     0
100
AcDbCircle
 10
10.08363097998239
 20
7.208119879157635
 30
0.0
 40
0.1953333333333336
100
AcDbArc
 50
183.9140181923179
 51
195.8450985955665
  0
ARC
  5
25E3
330
25DA
100
AcDbEntity
  8
0
  6
ByBlock
 62
     0
100
AcDbCircle
 10
10.08363097998239
 20
7.208119879157635
 30
0.0
 40
0.2233333333333336
100
AcDbArc
 50
183.4226788343224
 51
193.8160784752668
  0
ARC
  5
25E4
330
25DA
100
AcDbEntity
  8
0
  6
ByBlock
 62
     0
100
AcDbCircle
 10
10.08363097998239
 20
7.208119879157635
 30
0.0
 40
0.2513333333333336
100
AcDbArc
 50
183.0409914386516
 51
192.2514024131567
  0
ARC
  5
25E5
330
25DA
100
AcDbEntity
  8
0
  6
ByBlock
 62
     0
100
AcDbCircle
 10
10.08363097998239
 20
7.208119879157635
 30
0.0
 40
0.2793333333333336
100
AcDbArc
 50
182.7359216738389
 51
191.0071088739846
  0
ENDBLK
  5
25E6
330
25DA
100
AcDbEntity
  8
0
100
AcDbBlockEnd
  0
BLOCK
  5
27F0
330
27E2
100
AcDbEntity
  8
0
100
AcDbBlockBegin
  2
SOLBET_Bloczek_Ideal_420x240x590_P+W_PRA
 70
     2
 10
0.0
 20
0.0
 30
0.0
  3
SOLBET_Bloczek_Ideal_420x240x590_P+W_PRA
  1

  0
ATTDEF
  5
27E3
330
27E2
100
AcDbEntity
  8
SOLBET_Wymiary_Opisy
100
AcDbText
 10
-0.0000000703746536
 20
6.303237281370451
 30
0.0
 40
0.9913121336814832
  1
420x240x590
  7
Solbet_1
100
AcDbAttributeDefinition
  3

  2
WYMIARY
 70
     3
1001
AcDbAttr
1070
     0
1070
     1
  0
ATTDEF
  5
27E4
330
27E2
100
AcDbEntity
  8
SOLBET_Wymiary_Opisy
100
AcDbText
 10
-0.0000000703746536
 20
4.790717873654354
 30
0.0
 40
0.9913121336814832
  1
400
  7
Solbet_1
100
AcDbAttributeDefinition
  3

  2
KLASA_GĘSTOŚCI
 70
     9
1001
AcDbAttr
1070
     0
1070
     1
  0
ATTDEF
  5
27E5
330
27E2
100
AcDbEntity
  8
SOLBET_Wymiary_Opisy
100
AcDbText
 10
-0.0000000703746536
 20
3.269569038442127
 30
0.0
 40
0.9913121336814832
  1
Pióra+Wpusty
  7
Solbet_1
100
AcDbAttributeDefinition
  3

  2
PROFILOWANIE
 70
     3
1001
AcDbAttr
1070
     0
1070
     1
  0
ATTDEF
  5
27E6
330
27E2
100
AcDbEntity
  8
SOLBET_Wymiary_Opisy
100
AcDbText
 10
-0.0000000703746536
 20
0.2448646291013483
 30
0.0
 40
0.9913121336814832
  1
SOLBET
  7
Solbet_1
100
AcDbAttributeDefinition
  3

  2
FIRMA
 70
     3
1001
AcDbAttr
1070
     0
1070
     1
  0
ATTDEF
  5
27E7
330
27E2
100
AcDbEntity
  8
SOLBET_Wymiary_Opisy
100
AcDbText
 10
-0.0000000703746536
 20
9.333547279718283
 30
0.0
 40
0.9913121336814832
  1
Bloczek
  7
Solbet_1
100
AcDbAttributeDefinition
  3
Nazwa
  2
NAZWA
 70
     3
1001
AcDbAttr
1070
     0
1070
     1
  0
ATTDEF
  5
27E8
330
27E2
100
AcDbEntity
  8
SOLBET_Wymiary_Opisy
100
AcDbText
 10
-0.0000000703746536
 20
7.794499099484078
 30
0.0
 40
0.9913121336814832
  1
SOLBET IDEAL
  7
Solbet_1
100
AcDbAttributeDefinition
  3

  2
SYSTEM
 70
     3
1001
AcDbAttr
1070
     0
1070
     1
  0
ATTDEF
  5
27E9
330
27E2
100
AcDbEntity
  8
SOLBET_Wymiary_Opisy
100
AcDbText
 10
-0.0000000703746536
 20
1.74418138862846
 30
0.0
 40
0.9913121336814832
  1
Prawo
  7
Solbet_1
100
AcDbAttributeDefinition
  3

  2
WIDOK
 70
    11
1001
AcDbAttr
1070
     0
1070
     1
  0
LINE
  5
27EA
330
27E2
100
AcDbEntity
  8
SOLBET_Bloczki
100
AcDbLine
 10
21.00000014074931
 20
12.00000020414847
 30
0.0
 11
21.00000014074931
 21
0.000000204148364
 31
0.0
  0
LINE
  5
27EB
330
27E2
100
AcDbEntity
  8
SOLBET_Bloczki
100
AcDbLine
 10
21.00000014074931
 20
12.00000020414847
 30
0.0
 11
0.0000001407493072
 21
12.00000020414847
 31
0.0
  0
LINE
  5
27EC
330
27E2
100
AcDbEntity
  8
SOLBET_Bloczki
100
AcDbLine
 10
0.0000001407493072
 20
12.00000020414847
 30
0.0
 11
0.0000001407493072
 21
0.000000204148364
 31
0.0
  0
LINE
  5
27ED
330
27E2
100
AcDbEntity
  8
SOLBET_Bloczki
100
AcDbLine
 10
0.0000001407493072
 20
0.000000204148364
 30
0.0
 11
21.00000014074931
 21
0.000000204148364
 31
0.0
  0
ENDBLK
  5
27F1
330
27E2
100
AcDbEntity
  8
0
100
AcDbBlockEnd
  0
BLOCK
  5
2869
330
285D
100
AcDbEntity
  8
0
100
AcDbBlockBegin
  2
SOLBET_Nadproze_230_18_2300x240x180_PRA
 70
     2
 10
0.0
 20
0.0
 30
0.0
  3
SOLBET_Nadproze_230_18_2300x240x180_PRA
  1

  0
ATTDEF
  5
285E
330
285D
100
AcDbEntity
  8
SOLBET_Wymiary_Opisy
100
AcDbText
 10
-0.0000002754209163
 20
4.914367003308234
 30
0.0
 40
0.9913121336814832
  1
2300x240x180
  7
Solbet_1
100
AcDbAttributeDefinition
  3

  2
WYMIARY
 70
     3
1001
AcDbAttr
1070
     0
1070
     1
  0
ATTDEF
  5
285F
330
285D
100
AcDbEntity
  8
SOLBET_Wymiary_Opisy
100
AcDbText
 10
0.0000001377104581
 20
3.269569171638422
 30
0.0
 40
0.9913121336814832
  1
25
  7
Solbet_1
100
AcDbAttributeDefinition
  3

  2
DŁUGOŚĆ_PODPARCIA_2
 70
    11
1001
AcDbAttr
1070
     0
1070
     1
  0
ATTDEF
  5
2860
330
285D
100
AcDbEntity
  8
SOLBET_Wymiary_Opisy
100
AcDbText
 10
0.0000001377104581
 20
0.2448647622976432
 30
0.0
 40
0.9913121336814832
  1
SOLBET
  7
Solbet_1
100
AcDbAttributeDefinition
  3

  2
FIRMA
 70
     3
1001
AcDbAttr
1070
     0
1070
     1
  0
ATTDEF
  5
2861
330
285D
100
AcDbEntity
  8
SOLBET_Wymiary_Opisy
100
AcDbText
 10
-0.0000002754209163
 20
6.505718915794942
 30
0.0
 40
0.9913121336814832
  1
Nadproże 230/18
  7
Solbet_1
100
AcDbAttributeDefinition
  3
Nazwa
  2
NAZWA
 70
     3
1001
AcDbAttr
1070
     0
1070
     1
  0
ATTDEF
  5
2862
330
285D
100
AcDbEntity
  8
SOLBET_Wymiary_Opisy
100
AcDbText
 10
0.0000001377104581
 20
1.744181521824755
 30
0.0
 40
0.9913121336814832
  1
Prawo
  7
Solbet_1
100
AcDbAttributeDefinition
  3

  2
WIDOK
 70
    11
1001
AcDbAttr
1070
     0
1070
     1
  0
LINE
  5
2863
330
285D
100
AcDbEntity
  8
SOLBET_Bloczki
100
AcDbLine
 10
9.000000404333832
 20
11.999999831987
 30
0.0
 11
9.000000404333832
 21
-0.0000001680130026
 31
0.0
  0
LINE
  5
2864
330
285D
100
AcDbEntity
  8
SOLBET_Bloczki
100
AcDbLine
 10
9.000000404333832
 20
-0.0000001680130026
 30
0.0
 11
0.0000004043338322
 21
-0.0000001680130026
 31
0.0
  0
LINE
  5
2865
330
285D
100
AcDbEntity
  8
SOLBET_Bloczki
100
AcDbLine
 10
0.0000004043338322
 20
-0.0000001680130026
 30
0.0
 11
0.0000004043338322
 21
11.999999831987
 31
0.0
  0
LINE
  5
2866
330
285D
100
AcDbEntity
  8
SOLBET_Bloczki
100
AcDbLine
 10
0.0000004043338322
 20
11.999999831987
 30
0.0
 11
9.000000404333832
 21
11.999999831987
 31
0.0
  0
ENDBLK
  5
286A
330
285D
100
AcDbEntity
  8
0
100
AcDbBlockEnd
  0
BLOCK
  5
2878
330
286C
100
AcDbEntity
  8
0
100
AcDbBlockBegin
  2
SOLBET_Plytka_60x240x590_brak_PRA
 70
     2
 10
0.0
 20
0.0
 30
0.0
  3
SOLBET_Plytka_60x240x590_brak_PRA
  1

  0
ATTDEF
  5
286D
330
286C
100
AcDbEntity
  8
SOLBET_Wymiary_Opisy
100
AcDbText
 10
0.0000000428741699
 20
4.865619229844077
 30
0.0
 40
1.006810973315101
  1
60x240x590
  7
Solbet_1
100
AcDbAttributeDefinition
  3

  2
WYMIARY
 70
     3
1001
AcDbAttr
1070
     0
1070
     1
  0
ATTDEF
  5
286E
330
286C
100
AcDbEntity
  8
SOLBET_Wymiary_Opisy
100
AcDbText
 10
0.0000000428741699
 20
3.329452077944857
 30
0.0
 40
1.006810973315101
  1
600
  7
Solbet_1
100
AcDbAttributeDefinition
  3

  2
KLASA_GĘSTOŚCI
 70
     3
1001
AcDbAttr
1070
     0
1070
     1
  0
ATTDEF
  5
286F
330
286C
100
AcDbEntity
  8
SOLBET_Wymiary_Opisy
100
AcDbText
 10
0.0000000428741699
 20
0.2486930628063702
 30
0.0
 40
1.006810973315101
  1
SOLBET
  7
Solbet_1
100
AcDbAttributeDefinition
  3

  2
FIRMA
 70
     3
1001
AcDbAttr
1070
     0
1070
     1
  0
ATTDEF
  5
2870
330
286C
100
AcDbEntity
  8
SOLBET_Wymiary_Opisy
100
AcDbText
 10
0.0000000428741699
 20
6.498884010242274
 30
0.0
 40
1.006810973315101
  1
Płytka
  7
Solbet_1
100
AcDbAttributeDefinition
  3
Nazwa
  2
NAZWA
 70
     3
1001
AcDbAttr
1070
     0
1070
     1
  0
ATTDEF
  5
2871
330
286C
100
AcDbEntity
  8
SOLBET_Wymiary_Opisy
100
AcDbText
 10
0.0000000428741699
 20
1.771451147448315
 30
0.0
 40
1.006810973315101
  1
Prawo
  7
Solbet_1
100
AcDbAttributeDefinition
  3

  2
WIDOK
 70
    11
1001
AcDbAttr
1070
     0
1070
     1
  0
LINE
  5
2872
330
286C
100
AcDbEntity
  8
SOLBET_Bloczki
100
AcDbLine
 10
2.99999991809318
 20
12.00000009173755
 30
0.0
 11
2.999999918093408
 21
0.0000000917375473
 31
0.0
  0
LINE
  5
2873
330
286C
100
AcDbEntity
  8
SOLBET_Bloczki
100
AcDbLine
 10
2.999999918093408
 20
0.0000000917375473
 30
0.0
 11
-0.0000000819065917
 21
0.0000000917375473
 31
0.0
  0
LINE
  5
2874
330
286C
100
AcDbEntity
  8
SOLBET_Bloczki
100
AcDbLine
 10
-0.0000000819065917
 20
0.0000000917375473
 30
0.0
 11
-0.0000000819065917
 21
12.00000009173755
 31
0.0
  0
LINE
  5
2875
330
286C
100
AcDbEntity
  8
SOLBET_Bloczki
100
AcDbLine
 10
-0.0000000819065917
 20
12.00000009173755
 30
0.0
 11
2.99999991809318
 21
12.00000009173755
 31
0.0
  0
ENDBLK
  5
2879
330
286C
100
AcDbEntity
  8
0
100
AcDbBlockEnd
  0
BLOCK
  5
2938
330
2937
100
AcDbEntity
  8
0
100
AcDbBlockBegin
  2
*D15
 70
     1
 10
0.0
 20
0.0
 30
0.0
  3
*D15
  1

  0
LINE
  5
2A66
330
2937
100
AcDbEntity
  8
SOLBET_Wymiary_Opisy
 62
     0
370
    -2
100
AcDbLine
 10
118.5328158735874
 20
32.02703441412307
 30
0.0
 11
120.1186897200109
 21
32.02703441412307
 31
0.0
  0
LINE
  5
2A67
330
2937
100
AcDbEntity
  8
SOLBET_Wymiary_Opisy
 62
     0
370
    -2
100
AcDbLine
 10
118.5328158735874
 20
38.77703441412285
 30
0.0
 11
120.1186897200109
 21
38.77703441412285
 31
0.0
  0
LINE
  5
2A68
330
2937
100
AcDbEntity
  8
SOLBET_Wymiary_Opisy
 62
     0
370
    -2
100
AcDbLine
 10
118.8686897200109
 20
34.52703441412307
 30
0.0
 11
118.8686897200109
 21
36.27703441412285
 31
0.0
  0
LINE
  5
2A69
330
2937
100
AcDbEntity
  8
SOLBET_Wymiary_Opisy
 62
     0
370
    -2
100
AcDbLine
 10
118.8686897200109
 20
38.77703441412285
 30
0.0
 11
118.8686897200109
 21
56.52703441412285
 31
0.0
  0
SOLID
  5
2A6A
330
2937
100
AcDbEntity
  8
SOLBET_Wymiary_Opisy
 62
     0
100
AcDbTrace
 10
118.4520230533442
 20
34.52703441412307
 30
0.0
 11
119.2853563866776
 21
34.52703441412307
 31
0.0
 12
118.8686897200109
 22
32.02703441412307
 32
0.0
 13
118.8686897200109
 23
32.02703441412307
 33
0.0
  0
SOLID
  5
2A6B
330
2937
100
AcDbEntity
  8
SOLBET_Wymiary_Opisy
 62
     0
100
AcDbTrace
 10
118.4520230533442
 20
36.27703441412285
 30
0.0
 11
119.2853563866776
 21
36.27703441412285
 31
0.0
 12
118.8686897200109
 22
38.77703441412285
 32
0.0
 13
118.8686897200109
 23
38.77703441412285
 33
0.0
  0
MTEXT
  5
2A6C
330
2937
100
AcDbEntity
  8
SOLBET_Wymiary_Opisy
 62
     0
100
AcDbMText
 10
116.9927427503139
 20
48.90203441412287
 30
0.0
 40
2.5
 41
0.0
 71
     5
 72
     1
  1
max 12cm
  7
Solbet_2_5
 11
0.0000000000000001
 21
1.0
 31
0.0
 73
     1
 44
1.0
1001
ACAD
1000
MTEXTBEGIN
1070
    73
1070
     1
1070
    44
1040
1.0
1070
    74
1070
     0
1000
MTEXTEND
  0
POINT
  5
2A6D
330
2937
100
AcDbEntity
  8
DEFPOINTS
 62
     0
100
AcDbPoint
 10
118.5328158735874
 20
32.02703441412307
 30
0.0
  0
POINT
  5
2A6E
330
2937
100
AcDbEntity
  8
DEFPOINTS
 62
     0
100
AcDbPoint
 10
118.5328158735874
 20
38.77703441412285
 30
0.0
  0
POINT
  5
2A6F
330
2937
100
AcDbEntity
  8
DEFPOINTS
 62
     0
100
AcDbPoint
 10
118.8686897200109
 20
38.77703441412285
 30
0.0
  0
ENDBLK
  5
2939
330
2937
100
AcDbEntity
  8
0
100
AcDbBlockEnd
  0
BLOCK
  5
2D2D
330
2D1A
100
AcDbEntity
  8
0
100
AcDbBlockBegin
  2
SOLBET_Nadproze_120x240x1400_zz_PRA
 70
     2
 10
0.0
 20
0.0
 30
0.0
  3
SOLBET_Nadproze_120x240x1400_zz_PRA
  1

  0
ATTDEF
  5
2D1B
330
2D1A
100
AcDbEntity
  8
SOLBET_Wymiary_Opisy
100
AcDbText
 10
-0.0000002754209163
 20
4.914367003308234
 30
0.0
 40
0.9913121336814832
  1
120x240x1400
  7
Solbet_1
100
AcDbAttributeDefinition
  3

  2
WYMIARY
 70
    11
1001
AcDbAttr
1070
     0
1070
     1
  0
ATTDEF
  5
2D1C
330
2D1A
100
AcDbEntity
  8
SOLBET_Wymiary_Opisy
100
AcDbText
 10
0.0000001377104581
 20
3.269569171638422
 30
0.0
 40
0.9913121336814832
  1
20
  7
Solbet_1
100
AcDbAttributeDefinition
  3

  2
DŁUGOŚĆ_PODPARCIA_1
 70
    11
1001
AcDbAttr
1070
     0
1070
     1
  0
ATTDEF
  5
2D1D
330
2D1A
100
AcDbEntity
  8
SOLBET_Wymiary_Opisy
100
AcDbText
 10
0.0000001377104581
 20
0.2448647622976432
 30
0.0
 40
0.9913121336814832
  1
SOLBET
  7
Solbet_1
100
AcDbAttributeDefinition
  3

  2
FIRMA
 70
    11
1001
AcDbAttr
1070
     0
1070
     1
  0
ATTDEF
  5
2D1E
330
2D1A
100
AcDbEntity
  8
SOLBET_Wymiary_Opisy
100
AcDbText
 10
-0.0000002754209163
 20
6.505718915794942
 30
0.0
 40
0.9913121336814832
  1
Nadproże 140/12
  7
Solbet_1
100
AcDbAttributeDefinition
  3
Nazwa
  2
NAZWA
 70
    11
1001
AcDbAttr
1070
     0
1070
     1
  0
ATTDEF
  5
2D1F
330
2D1A
100
AcDbEntity
  8
SOLBET_Wymiary_Opisy
100
AcDbText
 10
0.0000001377104581
 20
1.744181521824755
 30
0.0
 40
0.9913121336814832
  1
Prawo
  7
Solbet_1
100
AcDbAttributeDefinition
  3

  2
WIDOK
 70
    11
1001
AcDbAttr
1070
     0
1070
     1
  0
LINE
  5
2D20
330
2D1A
100
AcDbEntity
  8
SOLBET_Bloczki
100
AcDbLine
 10
5.999999594097516
 20
11.99999987551155
 30
0.0
 11
5.999999594097516
 21
-0.0000001244884515
 31
0.0
  0
LINE
  5
2D21
330
2D1A
100
AcDbEntity
  8
SOLBET_Bloczki
100
AcDbLine
 10
5.999999594097516
 20
-0.0000001244884515
 30
0.0
 11
-0.0000004059024832
 21
-0.0000001244884515
 31
0.0
  0
LINE
  5
2D22
330
2D1A
100
AcDbEntity
  8
SOLBET_Bloczki
100
AcDbLine
 10
-0.0000004059024832
 20
-0.0000001244884515
 30
0.0
 11
-0.0000004059024832
 21
11.99999987551155
 31
0.0
  0
LINE
  5
2D23
330
2D1A
100
AcDbEntity
  8
SOLBET_Bloczki
100
AcDbLine
 10
-0.0000004059024832
 20
11.99999987551155
 30
0.0
 11
5.999999594097516
 21
11.99999987551155
 31
0.0
  0
LWPOLYLINE
  5
2D24
330
2D1A
100
AcDbEntity
  8
SOLBET_Zbrojenie_Konstrukcja
  6
Continuous
100
AcDbPolyline
 90
        4
 70
     0
 43
0.0
 10
5.249998918748815
 20
10.74999987551166
 10
5.249998918748815
 20
0.7499998755115485
 10
0.7499989187488155
 20
0.7499998755115485
 10
0.7499989187488155
 20
10.74999987551166
  0
LWPOLYLINE
  5
2D25
330
2D1A
100
AcDbEntity
  8
SOLBET_Zbrojenie_Konstrukcja
  6
Continuous
100
AcDbPolyline
 90
        2
 70
     1
 43
0.3
 10
5.104412450089967
 20
10.42241386794614
 42
-1.0
 10
4.804412450089785
 20
10.42241386794614
 42
-1.0
  0
LWPOLYLINE
  5
2D26
330
2D1A
100
AcDbEntity
  8
SOLBET_Zbrojenie_Konstrukcja
  6
Continuous
100
AcDbPolyline
 90
        2
 70
     1
 43
0.3
 10
0.8955853874078911
 20
10.42241386794614
 42
1.0
 10
1.195585387407845
 20
10.42241386794614
 42
1.0
  0
LWPOLYLINE
  5
2D27
330
2D1A
100
AcDbEntity
  8
SOLBET_Zbrojenie_Konstrukcja
  6
Continuous
100
AcDbPolyline
 90
        2
 70
     1
 43
0.3
 10
5.104412450089967
 20
2.418619077883477
 42
-1.0
 10
4.804412450089785
 20
2.418619077883477
 42
-1.0
  0
LWPOLYLINE
  5
2D28
330
2D1A
100
AcDbEntity
  8
SOLBET_Zbrojenie_Konstrukcja
  6
Continuous
100
AcDbPolyline
 90
        2
 70
     1
 43
0.3
 10
0.8955853874078911
 20
2.418619077883477
 42
1.0
 10
1.195585387407845
 20
2.418619077883477
 42
1.0
  0
LWPOLYLINE
  5
2D29
330
2D1A
100
AcDbEntity
  8
SOLBET_Zbrojenie_Konstrukcja
  6
Continuous
100
AcDbPolyline
 90
        2
 70
     1
 43
0.3
 10
4.185083775025077
 20
1.061575122894964
 42
-1.0
 10
3.885083775025123
 20
1.061575122894964
 42
-1.0
  0
LWPOLYLINE
  5
2D2A
330
2D1A
100
AcDbEntity
  8
SOLBET_Zbrojenie_Konstrukcja
  6
Continuous
100
AcDbPolyline
 90
        2
 70
     1
 43
0.3
 10
1.814914062472325
 20
1.061575122894964
 42
1.0
 10
2.114914062472507
 20
1.061575122894964
 42
1.0
  0
ENDBLK
  5
2D2E
330
2D1A
100
AcDbEntity
  8
0
100
AcDbBlockEnd
  0
BLOCK
  5
2D45
330
2D32
100
AcDbEntity
  8
0
100
AcDbBlockBegin
  2
SOLBET_Nadproze_180x240x2300_zz_PRA
 70
     2
 10
0.0
 20
0.0
 30
0.0
  3
SOLBET_Nadproze_180x240x2300_zz_PRA
  1

  0
ATTDEF
  5
2D33
330
2D32
100
AcDbEntity
  8
SOLBET_Wymiary_Opisy
100
AcDbText
 10
-0.0000002754209163
 20
4.914367003308234
 30
0.0
 40
0.9913121336814832
  1
180x240x2300
  7
Solbet_1
100
AcDbAttributeDefinition
  3

  2
WYMIARY
 70
    11
1001
AcDbAttr
1070
     0
1070
     1
  0
ATTDEF
  5
2D34
330
2D32
100
AcDbEntity
  8
SOLBET_Wymiary_Opisy
100
AcDbText
 10
0.0000001377104581
 20
3.269569171638422
 30
0.0
 40
0.9913121336814832
  1
25
  7
Solbet_1
100
AcDbAttributeDefinition
  3

  2
DŁUGOŚĆ_PODPARCIA_2
 70
    11
1001
AcDbAttr
1070
     0
1070
     1
  0
ATTDEF
  5
2D35
330
2D32
100
AcDbEntity
  8
SOLBET_Wymiary_Opisy
100
AcDbText
 10
0.0000001377104581
 20
0.2448647622976432
 30
0.0
 40
0.9913121336814832
  1
SOLBET
  7
Solbet_1
100
AcDbAttributeDefinition
  3

  2
FIRMA
 70
    11
1001
AcDbAttr
1070
     0
1070
     1
  0
ATTDEF
  5
2D36
330
2D32
100
AcDbEntity
  8
SOLBET_Wymiary_Opisy
100
AcDbText
 10
-0.0000002754209163
 20
6.505718915794942
 30
0.0
 40
0.9913121336814832
  1
Nadproże 230/18
  7
Solbet_1
100
AcDbAttributeDefinition
  3
Nazwa
  2
NAZWA
 70
    11
1001
AcDbAttr
1070
     0
1070
     1
  0
ATTDEF
  5
2D37
330
2D32
100
AcDbEntity
  8
SOLBET_Wymiary_Opisy
100
AcDbText
 10
0.0000001377104581
 20
1.744181521824755
 30
0.0
 40
0.9913121336814832
  1
Prawo
  7
Solbet_1
100
AcDbAttributeDefinition
  3

  2
WIDOK
 70
    11
1001
AcDbAttr
1070
     0
1070
     1
  0
LINE
  5
2D38
330
2D32
100
AcDbEntity
  8
SOLBET_Bloczki
100
AcDbLine
 10
9.000000404333832
 20
11.999999831987
 30
0.0
 11
9.000000404333832
 21
-0.0000001680130026
 31
0.0
  0
LINE
  5
2D39
330
2D32
100
AcDbEntity
  8
SOLBET_Bloczki
100
AcDbLine
 10
9.000000404333832
 20
-0.0000001680130026
 30
0.0
 11
0.0000004043338322
 21
-0.0000001680130026
 31
0.0
  0
LINE
  5
2D3A
330
2D32
100
AcDbEntity
  8
SOLBET_Bloczki
100
AcDbLine
 10
0.0000004043338322
 20
-0.0000001680130026
 30
0.0
 11
0.0000004043338322
 21
11.999999831987
 31
0.0
  0
LINE
  5
2D3B
330
2D32
100
AcDbEntity
  8
SOLBET_Bloczki
100
AcDbLine
 10
0.0000004043338322
 20
11.999999831987
 30
0.0
 11
9.000000404333832
 21
11.999999831987
 31
0.0
  0
LWPOLYLINE
  5
2D3C
330
2D32
100
AcDbEntity
  8
SOLBET_Zbrojenie_Konstrukcja
  6
Continuous
100
AcDbPolyline
 90
        4
 70
     0
 43
0.0
 10
8.24999972898513
 20
10.74999983198711
 10
8.24999972898513
 20
0.7499998319869974
 10
0.7499997289851308
 20
0.7499998319869974
 10
0.7499997289851308
 20
10.74999983198711
  0
LWPOLYLINE
  5
2D3D
330
2D32
100
AcDbEntity
  8
SOLBET_Zbrojenie_Konstrukcja
  6
Continuous
100
AcDbPolyline
 90
        2
 70
     1
 43
0.3
 10
8.104413260326282
 20
10.42241382442159
 42
-1.0
 10
7.8044132603261
 20
10.42241382442159
 42
-1.0
  0
LWPOLYLINE
  5
2D3E
330
2D32
100
AcDbEntity
  8
SOLBET_Zbrojenie_Konstrukcja
  6
Continuous
100
AcDbPolyline
 90
        2
 70
     1
 43
0.3
 10
0.8955861976439791
 20
10.42241382442159
 42
1.0
 10
1.195586197644161
 20
10.42241382442159
 42
1.0
  0
LWPOLYLINE
  5
2D3F
330
2D32
100
AcDbEntity
  8
SOLBET_Zbrojenie_Konstrukcja
  6
Continuous
100
AcDbPolyline
 90
        2
 70
     1
 43
0.3
 10
8.104413260326282
 20
2.418619034358926
 42
-1.0
 10
7.8044132603261
 20
2.418619034358926
 42
-1.0
  0
LWPOLYLINE
  5
2D40
330
2D32
100
AcDbEntity
  8
SOLBET_Zbrojenie_Konstrukcja
  6
Continuous
100
AcDbPolyline
 90
        2
 70
     1
 43
0.3
 10
0.8955861976439791
 20
2.418619034358926
 42
1.0
 10
1.195586197644161
 20
2.418619034358926
 42
1.0
  0
LWPOLYLINE
  5
2D41
330
2D32
100
AcDbEntity
  8
SOLBET_Zbrojenie_Konstrukcja
  6
Continuous
100
AcDbPolyline
 90
        2
 70
     1
 43
0.3
 10
6.026518470155451
 20
1.061575079370413
 42
-1.0
 10
5.726518470155497
 20
1.061575079370413
 42
-1.0
  0
LWPOLYLINE
  5
2D42
330
2D32
100
AcDbEntity
  8
SOLBET_Zbrojenie_Konstrukcja
  6
Continuous
100
AcDbPolyline
 90
        2
 70
     1
 43
0.3
 10
2.973480987814809
 20
1.061575079370413
 42
1.0
 10
3.273480987814764
 20
1.061575079370413
 42
1.0
  0
ENDBLK
  5
2D46
330
2D32
100
AcDbEntity
  8
0
100
AcDbBlockEnd
  0
BLOCK
  5
2D56
330
2D48
100
AcDbEntity
  8
0
100
AcDbBlockBegin
  2
SOLBET_Bloczek_Ideal_420x240x590_P+W_KG400_PRA
 70
     2
 10
0.0
 20
0.0
 30
0.0
  3
SOLBET_Bloczek_Ideal_420x240x590_P+W_KG400_PRA
  1

  0
ATTDEF
  5
2D49
330
2D48
100
AcDbEntity
  8
SOLBET_Wymiary_Opisy
100
AcDbText
 10
-0.0000000703746536
 20
6.303237281370451
 30
0.0
 40
0.9913121336814832
  1
420x240x590
  7
Solbet_1
100
AcDbAttributeDefinition
  3

  2
WYMIARY
 70
    11
1001
AcDbAttr
1070
     0
1070
     1
  0
ATTDEF
  5
2D4A
330
2D48
100
AcDbEntity
  8
SOLBET_Wymiary_Opisy
100
AcDbText
 10
-0.0000000703746536
 20
4.790717873654354
 30
0.0
 40
0.9913121336814832
  1
400
  7
Solbet_1
100
AcDbAttributeDefinition
  3

  2
KLASA_GĘSTOŚCI
 70
    11
1001
AcDbAttr
1070
     0
1070
     1
  0
ATTDEF
  5
2D4B
330
2D48
100
AcDbEntity
  8
SOLBET_Wymiary_Opisy
100
AcDbText
 10
-0.0000000703746536
 20
3.269569038442127
 30
0.0
 40
0.9913121336814832
  1
Pióra+Wpusty
  7
Solbet_1
100
AcDbAttributeDefinition
  3

  2
PROFILOWANIE
 70
    11
1001
AcDbAttr
1070
     0
1070
     1
  0
ATTDEF
  5
2D4C
330
2D48
100
AcDbEntity
  8
SOLBET_Wymiary_Opisy
100
AcDbText
 10
-0.0000000703746536
 20
0.2448646291013483
 30
0.0
 40
0.9913121336814832
  1
SOLBET
  7
Solbet_1
100
AcDbAttributeDefinition
  3

  2
FIRMA
 70
    11
1001
AcDbAttr
1070
     0
1070
     1
  0
ATTDEF
  5
2D4D
330
2D48
100
AcDbEntity
  8
SOLBET_Wymiary_Opisy
100
AcDbText
 10
-0.0000000703746536
 20
9.333547279718283
 30
0.0
 40
0.9913121336814832
  1
Bloczek
  7
Solbet_1
100
AcDbAttributeDefinition
  3
Nazwa
  2
NAZWA
 70
    11
1001
AcDbAttr
1070
     0
1070
     1
  0
ATTDEF
  5
2D4E
330
2D48
100
AcDbEntity
  8
SOLBET_Wymiary_Opisy
100
AcDbText
 10
-0.0000000703746536
 20
7.794499099484078
 30
0.0
 40
0.9913121336814832
  1
SOLBET Ideal
  7
Solbet_1
100
AcDbAttributeDefinition
  3

  2
SYSTEM
 70
    11
1001
AcDbAttr
1070
     0
1070
     1
  0
ATTDEF
  5
2D4F
330
2D48
100
AcDbEntity
  8
SOLBET_Wymiary_Opisy
100
AcDbText
 10
-0.0000000703746536
 20
1.74418138862846
 30
0.0
 40
0.9913121336814832
  1
Prawo
  7
Solbet_1
100
AcDbAttributeDefinition
  3

  2
WIDOK
 70
    11
1001
AcDbAttr
1070
     0
1070
     1
  0
LINE
  5
2D50
330
2D48
100
AcDbEntity
  8
SOLBET_Bloczki
100
AcDbLine
 10
21.00000014074931
 20
12.00000020414847
 30
0.0
 11
21.00000014074931
 21
0.000000204148364
 31
0.0
  0
LINE
  5
2D51
330
2D48
100
AcDbEntity
  8
SOLBET_Bloczki
100
AcDbLine
 10
21.00000014074931
 20
12.00000020414847
 30
0.0
 11
0.0000001407493072
 21
12.00000020414847
 31
0.0
  0
LINE
  5
2D52
330
2D48
100
AcDbEntity
  8
SOLBET_Bloczki
100
AcDbLine
 10
0.0000001407493072
 20
12.00000020414847
 30
0.0
 11
0.0000001407493072
 21
0.000000204148364
 31
0.0
  0
LINE
  5
2D53
330
2D48
100
AcDbEntity
  8
SOLBET_Bloczki
100
AcDbLine
 10
0.0000001407493072
 20
0.000000204148364
 30
0.0
 11
21.00000014074931
 21
0.000000204148364
 31
0.0
  0
ENDBLK
  5
2D57
330
2D48
100
AcDbEntity
  8
0
100
AcDbBlockEnd
  0
ENDSEC
  0
SECTION
  2
ENTITIES
  0
LWPOLYLINE
  5
1DBF
330
1F
100
AcDbEntity
  8
SOLBET_Ramka_05
100
AcDbPolyline
 90
        4
 70
     1
 43
0.0
 10
0.2490273663415792
 20
0.9862345102371818
 10
334.6008014584315
 20
0.9862345102371818
 10
334.6008014584315
 20
297.9862345102372
 10
0.2490273663415792
 20
297.9862345102372
  0
LINE
  5
26F1
330
1F
100
AcDbEntity
  8
SOLBET_Wymiary_Opisy
 62
     1
100
AcDbLine
 10
67.93640706218548
 20
147.0995521413876
 30
0.0
 11
152.0725119613414
 21
147.0995521413876
 31
0.0
  0
INSERT
  5
26FC
330
1F
100
AcDbEntity
  8
SOLBET_Zbrojenie_Konstrukcja
100
AcDbBlockReference
  2
*U7
 10
-320.6133534120559
 20
-113.1294751050768
 30
0.0
 41
50.0
 42
50.0
 43
50.0
1001
ASO_SCHRAFF
1005
0
1070
     0
1005
0
  0
INSERT
  5
26FF
330
1F
100
AcDbEntity
  8
SOLBET_Zbrojenie_Konstrukcja
100
AcDbBlockReference
  2
*U7
 10
482.7605343829211
 20
-113.1294751050768
 30
0.0
 41
-50.0
 42
50.0
 43
50.0
1001
ASO_SCHRAFF
1005
0
1070
     0
1005
0
  0
LINE
  5
2702
330
1F
100
AcDbEntity
  8
SOLBET_Wymiary_Opisy
 62
     1
100
AcDbLine
 10
152.0725119613414
 20
241.1533069210928
 30
0.0
 11
152.0725119613414
 21
62.68146037141355
 31
0.0
  0
LWPOLYLINE
  5
2703
330
1F
100
AcDbEntity
  8
SOLBET_Zbrojenie_Konstrukcja
  6
Continuous
100
AcDbPolyline
 90
        2
 70
     1
 43
0.3
 10
77.6139907386223
 20
210.3624082708718
 42
1.0
 10
77.91399073862248
 20
210.3624082708718
 42
1.0
  0
LWPOLYLINE
  5
2704
330
1F
100
AcDbEntity
  8
SOLBET_Zbrojenie_Konstrukcja
  6
Continuous
100
AcDbPolyline
 90
        2
 70
     1
 43
0.3
 10
86.00863470184391
 20
210.3407885957907
 42
1.0
 10
86.30863470184385
 20
210.3407885957907
 42
1.0
  0
LWPOLYLINE
  5
2705
330
1F
100
AcDbEntity
  8
SOLBET_Zbrojenie_Konstrukcja
  6
Continuous
100
AcDbPolyline
 90
        2
 70
     1
 43
0.3
 10
86.00863470184391
 20
200.5038767207298
 42
1.0
 10
86.30863470184385
 20
200.5038767207298
 42
1.0
  0
LWPOLYLINE
  5
2706
330
1F
100
AcDbEntity
  8
SOLBET_Zbrojenie_Konstrukcja
  6
Continuous
100
AcDbPolyline
 90
        2
 70
     1
 43
0.3
 10
77.6139907386223
 20
200.5038767207298
 42
1.0
 10
77.91399073862248
 20
200.5038767207298
 42
1.0
  0
LINE
  5
2707
330
1F
100
AcDbEntity
  8
SOLBET_Zbrojenie_Konstrukcja
  6
Continuous
100
AcDbLine
 10
80.05891080989499
 20
209.2734417580368
 30
0.0
 11
78.64469724752234
 21
210.6876553204098
 31
0.0
  0
LINE
  5
2708
330
1F
100
AcDbEntity
  8
SOLBET_Zbrojenie_Konstrukcja
  6
Continuous
100
AcDbLine
 10
78.85891080989495
 20
208.0734417580371
 30
0.0
 11
77.44469724752253
 21
209.4876553204101
 31
0.0
  0
LWPOLYLINE
  5
2709
330
1F
100
AcDbEntity
  8
SOLBET_Zbrojenie_Konstrukcja
  6
Continuous
100
AcDbPolyline
 90
        5
 70
     0
 43
0.0
 10
86.45032854162399
 20
200.1876553204098
 10
86.45032854162399
 20
210.6876553204098
 10
77.44469724752253
 20
210.6876553204098
 10
77.44469724752253
 20
200.1876553204098
 10
86.45032854162399
 20
200.1876553204098
  0
LINE
  5
270F
330
1F
100
AcDbEntity
  8
SOLBET_Wymiary_Opisy
 62
     1
100
AcDbLine
 10
67.46970149265371
 20
241.1533069210928
 30
0.0
 11
152.0725119613414
 21
241.1533069210928
 31
0.0
  0
LWPOLYLINE
  5
2712
330
1F
100
AcDbEntity
  8
SOLBET_Stolarka_Okna
100
AcDbPolyline
 90
        4
 70
     1
 43
0.0
 10
82.15452101187656
 20
109.9614712590651
 10
83.5163267515611
 20
109.6124228832331
 10
83.5163267515611
 20
108.7600670946323
 10
82.15452101187656
 20
108.7600670946323
  0
LWPOLYLINE
  5
2713
330
1F
100
AcDbEntity
  8
SOLBET_Stolarka_Okna
100
AcDbPolyline
 90
       15
 70
     1
 43
0.0
 10
79.07359048543844
 20
101.9376553204097
 10
82.57359048543277
 20
101.9376553204097
 10
82.57359048543277
 20
105.0639760180996
 10
81.48946215442379
 20
105.0639760180996
 10
81.48946215442379
 20
105.9360434390187
 10
80.41574075995141
 20
105.9360434390187
 10
80.41574075995141
 20
106.886921736067
 10
80.07007283569668
 20
106.886921736067
 10
79.07359048543844
 20
106.6682875907701
 10
79.07359048543844
 20
105.0977252729057
 10
78.61043386635834
 20
104.83566010562
 10
78.61043386635834
 20
103.4299639682014
 10
78.87081493191181
 20
103.4299639682014
 10
78.87081493191181
 20
103.9505310974267
 10
79.07359048543844
 20
103.9505310974267
  0
LINE
  5
2714
330
1F
100
AcDbEntity
  8
SOLBET_Wymiary_Opisy
 62
     1
100
AcDbLine
 10
67.93640706218548
 20
144.657676526822
 30
0.0
 11
152.0725119613414
 21
144.657676526822
 31
0.0
  0
LINE
  5
2716
330
1F
100
AcDbEntity
  8
SOLBET_Stolarka_Okna
100
AcDbLine
 10
79.07359048543844
 20
174.9376553204097
 30
0.0
 11
82.57359048543277
 21
174.9376553204097
 31
0.0
  0
LINE
  5
2717
330
1F
100
AcDbEntity
  8
SOLBET_Stolarka_Okna
100
AcDbLine
 10
82.57359048543277
 20
174.9376553204097
 30
0.0
 11
82.57359048543277
 21
171.8113346227198
 31
0.0
  0
LINE
  5
2718
330
1F
100
AcDbEntity
  8
SOLBET_Stolarka_Okna
100
AcDbLine
 10
82.57359048543277
 20
171.8113346227198
 30
0.0
 11
81.48946215442379
 21
171.8113346227198
 31
0.0
  0
LINE
  5
2719
330
1F
100
AcDbEntity
  8
SOLBET_Stolarka_Okna
100
AcDbLine
 10
81.48946215442379
 20
171.8113346227198
 30
0.0
 11
81.48946215442379
 21
170.9392672018007
 31
0.0
  0
LINE
  5
271A
330
1F
100
AcDbEntity
  8
SOLBET_Stolarka_Okna
100
AcDbLine
 10
81.48946215442379
 20
170.9392672018007
 30
0.0
 11
80.41574075995141
 21
170.9392672018007
 31
0.0
  0
LINE
  5
271B
330
1F
100
AcDbEntity
  8
SOLBET_Stolarka_Okna
100
AcDbLine
 10
80.41574075995141
 20
170.9392672018007
 30
0.0
 11
80.41574075995141
 21
169.9883889047528
 31
0.0
  0
LINE
  5
271C
330
1F
100
AcDbEntity
  8
SOLBET_Stolarka_Okna
100
AcDbLine
 10
80.41574075995141
 20
169.9883889047528
 30
0.0
 11
80.07007283569668
 21
169.9883889047528
 31
0.0
  0
LINE
  5
271D
330
1F
100
AcDbEntity
  8
SOLBET_Stolarka_Okna
100
AcDbLine
 10
80.07007283569668
 20
169.9883889047528
 30
0.0
 11
79.07359048543276
 21
170.2070230500497
 31
0.0
  0
LINE
  5
271E
330
1F
100
AcDbEntity
  8
SOLBET_Stolarka_Okna
100
AcDbLine
 10
79.07359048543276
 20
170.2070230500497
 30
0.0
 11
79.07359048543844
 21
174.9376553204097
 31
0.0
  0
LWPOLYLINE
  5
271F
330
1F
100
AcDbEntity
  8
SOLBET_Stolarka_Okna
100
AcDbPolyline
 90
       15
 70
     1
 43
0.0
 10
80.41574075995141
 20
107.702841098786
 10
80.41574075995141
 20
106.9980995459552
 10
79.07359048543844
 20
106.9980995459552
 10
79.07359048543844
 20
109.8018715801395
 10
80.3338782343269
 20
110.2389499475165
 10
80.3338782343269
 20
108.6681352751433
 10
81.97626681622478
 20
108.6681352751433
 10
83.5163267515611
 20
108.6681352751433
 10
83.5163267515611
 20
104.771526244508
 10
82.82153601693698
 20
104.771526244508
 10
82.82153601693698
 20
106.9980995459552
 10
81.65674116754781
 20
106.9980995459552
 10
81.65674116754781
 20
106.2627183697482
 10
80.79847210299453
 20
106.2627183697482
 10
80.79847210299453
 20
107.702841098786
  0
LWPOLYLINE
  5
2720
330
1F
100
AcDbEntity
  8
SOLBET_Stolarka_Okna
100
AcDbPolyline
 90
        4
 70
     1
 43
0.0
 10
82.15452101187656
 20
166.9138393817543
 10
83.5163267515611
 20
167.2628877575863
 10
83.5163267515611
 20
168.1152435461875
 10
82.15452101187656
 20
168.1152435461875
  0
LWPOLYLINE
  5
2721
330
1F
100
AcDbEntity
  8
SOLBET_Stolarka_Okna
100
AcDbPolyline
 90
       15
 70
     1
 43
0.0
 10
80.41574075995141
 20
169.1724695420334
 10
80.41574075995141
 20
169.8772110948642
 10
79.07359048543844
 20
169.8772110948642
 10
79.07359048543844
 20
167.0734390606799
 10
80.3338782343269
 20
166.6363606933029
 10
80.3338782343269
 20
168.2071753656762
 10
81.97626681622478
 20
168.2071753656762
 10
83.5163267515611
 20
168.2071753656762
 10
83.5163267515611
 20
172.1037843963114
 10
82.82153601693698
 20
172.1037843963114
 10
82.82153601693698
 20
169.8772110948642
 10
81.65674116754781
 20
169.8772110948642
 10
81.65674116754781
 20
170.6125922710712
 10
80.79847210299453
 20
170.6125922710712
 10
80.79847210299453
 20
169.1724695420334
  0
LINE
  5
2725
330
1F
100
AcDbEntity
  8
SOLBET_Stolarka_Okna
100
AcDbLine
 10
78.96957516522502
 20
103.8508864588749
 30
0.0
 11
78.96957516522502
 21
101.5259023417392
 31
0.0
  0
LINE
  5
2726
330
1F
100
AcDbEntity
  8
SOLBET_Stolarka_Okna
100
AcDbLine
 10
78.96957516522502
 20
101.5259023417392
 30
0.0
 11
70.77320479342711
 21
101.5259023417392
 31
0.0
  0
LINE
  5
2727
330
1F
100
AcDbEntity
  8
SOLBET_Stolarka_Okna
100
AcDbLine
 10
70.77320479342711
 20
101.5259023417392
 30
0.0
 11
70.773204793427
 21
102.0164471615552
 31
0.0
  0
LINE
  5
2728
330
1F
100
AcDbEntity
  8
SOLBET_Stolarka_Okna
100
AcDbLine
 10
78.92971009097641
 20
103.8542101278109
 30
0.0
 11
78.92971009097641
 21
103.1133513725386
 31
0.0
  0
LINE
  5
2729
330
1F
100
AcDbEntity
  8
SOLBET_Stolarka_Okna
100
AcDbLine
 10
78.92971009097641
 20
103.1133513725386
 30
0.0
 11
66.29243072828512
 21
101.4138631183626
 31
0.0
  0
LINE
  5
272B
330
1F
100
AcDbEntity
  8
SOLBET_Stolarka_Okna
100
AcDbLine
 10
65.46547237777963
 20
99.85653034764522
 30
0.0
 11
65.77255426463216
 21
99.85653034764522
 31
0.0
  0
LINE
  5
272C
330
1F
100
AcDbEntity
  8
SOLBET_Stolarka_Okna
100
AcDbLine
 10
65.77255426463216
 20
99.85653034764522
 30
0.0
 11
65.77255426463216
 21
100.388603702188
 31
0.0
  0
ARC
  5
272D
330
1F
100
AcDbEntity
  8
SOLBET_Stolarka_Okna
100
AcDbCircle
 10
66.46547237777963
 20
100.4289486106304
 30
0.0
 40
1.0
100
AcDbArc
 50
99.9647143110222
 51
180.0
  0
LINE
  5
272E
330
1F
100
AcDbEntity
  8
SOLBET_Stolarka_Okna
100
AcDbLine
 10
71.51020249673877
 20
102.1155601829727
 30
0.0
 11
71.51020249673866
 21
101.5259023417392
 31
0.0
  0
CIRCLE
  5
272F
330
1F
100
AcDbEntity
  8
SOLBET_Izolacja
100
AcDbCircle
 10
82.1815617071768
 20
101.6900987812839
 30
0.0
 40
0.25244346087405
  0
ARC
  5
2730
330
1F
100
AcDbEntity
  8
SOLBET_Izolacja
100
AcDbCircle
 10
82.89233565460426
 20
101.684680193745
 30
0.0
 40
0.4069335296814501
100
AcDbArc
 50
141.5623929960758
 51
217.3757720391556
  0
CIRCLE
  5
2734
330
1F
100
AcDbEntity
  8
SOLBET_Izolacja
100
AcDbCircle
 10
82.1815617071768
 20
175.1852118595359
 30
0.0
 40
0.25244346087405
  0
ARC
  5
2735
330
1F
100
AcDbEntity
  8
SOLBET_Izolacja
100
AcDbCircle
 10
82.89233565460426
 20
175.1906304470745
 30
0.0
 40
0.4069335296814501
100
AcDbArc
 50
142.6242279608444
 51
218.4376070039241
  0
LINE
  5
2736
330
1F
100
AcDbEntity
  8
SOLBET_Stolarka_Okna
100
AcDbLine
 10
80.53181652210879
 20
167.9460894164423
 30
0.0
 11
80.53181652210879
 21
147.0995521413876
 31
0.0
  0
LINE
  5
2737
330
1F
100
AcDbEntity
  8
SOLBET_Stolarka_Okna
100
AcDbLine
 10
81.98989252926095
 20
167.9460894164423
 30
0.0
 11
81.98989252926095
 21
147.0995521413876
 31
0.0
  0
LINE
  5
2738
330
1F
100
AcDbEntity
  8
SOLBET_Stolarka_Okna
100
AcDbLine
 10
80.53181652210879
 20
144.657676526822
 30
0.0
 11
80.53181652210879
 21
108.8742365247458
 31
0.0
  0
LINE
  5
2739
330
1F
100
AcDbEntity
  8
SOLBET_Stolarka_Okna
100
AcDbLine
 10
81.98989252926095
 20
144.657676526822
 30
0.0
 11
81.98989252926095
 21
108.8742365247458
 31
0.0
  0
LWPOLYLINE
  5
273B
330
1F
100
AcDbEntity
  8
SOLBET_Stolarka_Okna
100
AcDbPolyline
 90
        4
 70
     1
 43
0.0
 10
82.61107611195894
 20
101.4376553204097
 10
96.57359048543277
 20
101.4376553204097
 10
96.57359048543277
 20
103.4376553204097
 10
82.61107611195894
 20
103.4376553204097
1001
ASO_SCHRAFF
1005
0
1070
     1
1002
{
1070
     1
1005
0
1002
}
1002
{
1070
     2
1005
0
1002
}
1002
{
1070
     4
1000
SOFIHOLZ
1040
0.5
1040
0.0
1070
     0
1000
T__SCHR
1070
   256
1000
VONLAYER
1040
50.0
1070
     1
1002
}
  0
LINE
  5
273C
330
1F
100
AcDbEntity
  8
SOLBET_Wymiary_Opisy
 62
     1
100
AcDbLine
 10
67.46970149265371
 20
62.68146037141355
 30
0.0
 11
152.0725119613414
 21
62.68146037141355
 31
0.0
  0
ARC
  5
273E
330
1F
100
AcDbEntity
  8
SOLBET_Tynki_Posadzki
100
AcDbCircle
 10
92.07359048543844
 20
217.3109621539652
 30
0.0
 40
1.5000521396288
100
AcDbArc
 50
0.0
 51
90.0
  0
LINE
  5
2740
330
1F
100
AcDbEntity
  8
SOLBET_Izolacja
  6
Continuous
100
AcDbLine
 10
92.57359048543845
 20
216.8109621539648
 30
0.0
 11
91.57359048543275
 21
216.8109621539648
 31
0.0
  0
LINE
  5
2743
330
1F
100
AcDbEntity
  8
SOLBET_Tynki_Posadzki
100
AcDbLine
 10
92.87165667662156
 20
217.3109621539652
 30
0.0
 11
152.0725119613414
 21
217.3109621539652
 31
0.0
  0
LINE
  5
2746
330
1F
100
AcDbEntity
  8
SOLBET_Izolacja
  6
Continuous
100
AcDbLine
 10
92.57359048543845
 20
211.4376553204098
 30
0.0
 11
92.57359048543845
 21
216.8109621539648
 31
0.0
  0
LINE
  5
2747
330
1F
100
AcDbEntity
  8
SOLBET_Izolacja
  6
Continuous
100
AcDbLine
 10
92.57359048543845
 20
213.9376553204102
 30
0.0
 11
152.0725119613414
 21
213.9376553204098
 31
0.0
  0
LINE
  5
2748
330
1F
100
AcDbEntity
  8
SOLBET_Tynki_Posadzki
100
AcDbLine
 10
92.07359048543844
 20
216.8109621539648
 30
0.0
 11
92.07359048543844
 21
241.1533069210928
 31
0.0
  0
LINE
  5
274A
330
1F
100
AcDbEntity
  8
SOLBET_Emulsje_Folie
100
AcDbLine
 10
92.68840653509959
 20
217.0609621539652
 30
0.0
 11
92.68840653509959
 21
214.3834946339824
 31
0.0
  0
LINE
  5
274B
330
1F
100
AcDbEntity
  8
SOLBET_Emulsje_Folie
100
AcDbLine
 10
92.9384065350996
 20
214.1334946339821
 30
0.0
 11
152.0725119613414
 21
214.1334946339817
 31
0.0
  0
ARC
  5
274C
330
1F
100
AcDbEntity
  8
SOLBET_Emulsje_Folie
100
AcDbCircle
 10
92.9384065350996
 20
214.3834946339824
 30
0.0
 40
0.25
100
AcDbArc
 50
180.0
 51
270.0
  0
LWPOLYLINE
  5
274D
330
1F
100
AcDbEntity
  8
SOLBET_Tynki_Posadzki
100
AcDbPolyline
 90
        5
 70
     1
 43
0.0
 10
92.68840653509959
 20
214.3834946339824
 42
0.0737237824442244
 10
92.69915971831778
 20
214.3109621539652
 10
152.0725119613414
 20
214.3109621539652
 10
152.0725119613414
 20
216.8109621539648
 10
92.68840653509959
 20
216.8109621539648
1001
ASO_SCHRAFF
1005
0
1070
     1
1002
{
1070
     1
1005
0
1002
}
1002
{
1070
     2
1005
0
1002
}
1002
{
1070
     4
1000
AR-CONC
1040
0.01
1040
0.0
1070
     0
1000
T__SCHR
1070
   256
1000
_bylayer
1040
50.0
1070
     1
1002
}
  0
INSERT
  5
274E
330
1F
100
AcDbEntity
  8
SOLBET_Tynki_Posadzki
100
AcDbBlockReference
  2
*X6
 10
-482.1273253955225
 20
-257.0577326783073
 30
0.0
 41
50.0
 42
50.0
 43
50.0
1001
ASO_SCHRAFF
1005
0
1070
     0
1005
0
1001
ACAD
1000
HATCH
1002
{
1070
    16
1000
AR-CONC
1040
0.025
1040
0.0
1002
}
  0
LWPOLYLINE
  5
2750
330
1F
100
AcDbEntity
  8
SOLBET_Izolacja
100
AcDbPolyline
 90
        6
 70
     1
 43
0.0
 10
76.57359048543276
 20
211.4376553498323
 10
76.57359048543276
 20
199.4376553351217
 10
87.57359048543277
 20
199.4376553351217
 10
87.57359048543277
 20
201.4376553351214
 10
152.0725119613414
 20
201.4376553351214
 10
152.0725119735009
 20
211.4376553351213
  0
LINE
  5
2751
330
1F
100
AcDbEntity
  8
SOLBET_Zaprawy
100
AcDbLine
 10
70.29026867890024
 20
62.68146037141355
 30
0.0
 11
70.29026867890024
 21
101.9515008839111
 31
0.0
  0
LINE
  5
2752
330
1F
100
AcDbEntity
  8
SOLBET_Tynki_Posadzki
100
AcDbLine
 10
69.82359048543276
 20
62.68146037141355
 30
0.0
 11
69.82359048543276
 21
144.657676526822
 31
0.0
  0
LINE
  5
2753
330
1F
100
AcDbEntity
  8
SOLBET_Tynki_Posadzki
100
AcDbLine
 10
92.07359048543844
 20
174.9376553204097
 30
0.0
 11
82.57359048543277
 21
174.9376553204097
 31
0.0
  0
LINE
  5
2755
330
1F
100
AcDbEntity
  8
SOLBET_Zaprawy
100
AcDbLine
 10
70.29026867890024
 20
175.1455784735038
 30
0.0
 11
70.29026867890024
 21
241.1533069210932
 31
0.0
  0
LINE
  5
2756
330
1F
100
AcDbEntity
  8
SOLBET_Tynki_Posadzki
100
AcDbLine
 10
69.82359048543276
 20
147.0995521413876
 30
0.0
 11
69.82359048543276
 21
241.1533069210932
 31
0.0
  0
LINE
  5
2757
330
1F
100
AcDbEntity
  8
SOLBET_Tynki_Posadzki
100
AcDbLine
 10
92.07359048543844
 20
198.9376553204097
 30
0.0
 11
92.07359048543844
 21
147.0995521413876
 31
0.0
  0
LINE
  5
2758
330
1F
100
AcDbEntity
  8
SOLBET_Tynki_Posadzki
100
AcDbLine
 10
92.07359048543844
 20
144.657676526822
 30
0.0
 11
92.07359048543844
 21
103.4376553204097
 31
0.0
  0
LINE
  5
2759
330
1F
100
AcDbEntity
  8
SOLBET_Tynki_Posadzki
100
AcDbLine
 10
92.07359048543844
 20
101.4376553204097
 30
0.0
 11
92.07359048543844
 21
62.68146037141355
 31
0.0
  0
LINE
  5
275A
330
1F
100
AcDbEntity
  8
SOLBET_Tynki_Posadzki
100
AcDbLine
 10
92.07359048543844
 20
198.9376553204097
 30
0.0
 11
152.0725119613414
 21
198.9376553204097
 31
0.0
  0
LINE
  5
275B
330
1F
100
AcDbEntity
  8
SOLBET_Tynki_Posadzki
100
AcDbLine
 10
92.07359048543844
 20
198.9376553204097
 30
0.0
 11
91.57558365296109
 21
199.4376553204097
 31
0.0
  0
LWPOLYLINE
  5
275C
330
1F
100
AcDbEntity
  8
SOLBET_Zbrojenie_Konstrukcja
100
AcDbPolyline
 90
        3
 70
     0
 43
0.05
 10
91.79517711162452
 20
176.6455784735038
 10
91.79517711162452
 20
175.1455784735038
 10
90.29517711163043
 20
175.1455784735038
  0
LWPOLYLINE
  5
275D
330
1F
100
AcDbEntity
  8
SOLBET_Zbrojenie_Konstrukcja
100
AcDbPolyline
 90
        3
 70
     0
 43
0.05
 10
70.06983495139412
 20
176.6455784735038
 10
70.06983495139412
 20
175.1455784735038
 10
71.5698349513998
 20
175.1455784735038
  0
LINE
  5
2768
330
1F
100
AcDbEntity
  8
SOLBET_Stolarka_Okna
100
AcDbLine
 10
79.07359048543844
 20
167.0734390606799
 30
0.0
 11
79.07359048543844
 21
147.0995521413876
 31
0.0
  0
LINE
  5
2769
330
1F
100
AcDbEntity
  8
SOLBET_Stolarka_Okna
100
AcDbLine
 10
83.5163267515611
 20
167.2628877575863
 30
0.0
 11
83.5163267515611
 21
147.0995521413876
 31
0.0
  0
LINE
  5
276A
330
1F
100
AcDbEntity
  8
SOLBET_Stolarka_Okna
100
AcDbLine
 10
83.5163267515611
 20
144.657676526822
 30
0.0
 11
83.5163267515611
 21
109.6124228832331
 31
0.0
  0
LINE
  5
276B
330
1F
100
AcDbEntity
  8
SOLBET_Stolarka_Okna
100
AcDbLine
 10
79.07359048543844
 20
144.657676526822
 30
0.0
 11
79.07359048543844
 21
109.8018715801395
 31
0.0
  0
LINE
  5
2770
330
1F
100
AcDbEntity
  8
SOLBET_Bloczki
100
AcDbLine
 10
86.52072396564927
 20
38.02703441412285
 30
0.0
 11
114.9737779639038
 21
38.02703441412285
 31
0.0
  0
LINE
  5
2771
330
1F
100
AcDbEntity
  8
SOLBET_Bloczki
100
AcDbLine
 10
86.52072396564927
 20
17.02703441412285
 30
0.0
 11
114.9737779639038
 21
17.02703441412285
 31
0.0
  0
LINE
  5
2772
330
1F
100
AcDbEntity
  8
SOLBET_Wymiary_Opisy
 62
     1
100
AcDbLine
 10
86.52072396564927
 20
7.506634462180016
 30
0.0
 11
86.52072396564927
 21
44.76336891816441
 31
0.0
  0
LINE
  5
2773
330
1F
100
AcDbEntity
  8
SOLBET_Bloczki
100
AcDbLine
 10
114.9737779639038
 20
17.02703441412285
 30
0.0
 11
114.9737779639038
 21
32.25562891476599
 31
0.0
  0
LINE
  5
2774
330
1F
100
AcDbEntity
  8
SOLBET_Zaprawy
100
AcDbLine
 10
86.52072396564927
 20
38.31035622065591
 30
0.0
 11
115.1370448184216
 21
38.31035622065591
 31
0.0
  0
LINE
  5
2775
330
1F
100
AcDbEntity
  8
SOLBET_Tynki_Posadzki
100
AcDbLine
 10
86.52072396564927
 20
38.77703441412285
 30
0.0
 11
115.4737779639038
 21
38.77703441412285
 31
0.0
  0
LINE
  5
2776
330
1F
100
AcDbEntity
  8
SOLBET_Tynki_Posadzki
  6
VERDECKT
100
AcDbLine
 10
135.2036612745041
 20
16.52703441412285
 30
0.0
 11
115.4737779639038
 21
16.52703441412285
 31
0.0
  0
LINE
  5
2777
330
1F
100
AcDbEntity
  8
SOLBET_Tynki_Posadzki
100
AcDbLine
 10
115.4737779639038
 20
16.52703441412285
 30
0.0
 11
115.4737779639038
 21
32.25562891476599
 31
0.0
  0
LINE
  5
2778
330
1F
100
AcDbEntity
  8
SOLBET_Stolarka_Okna
100
AcDbLine
 10
115.4737779639038
 20
32.02703441412285
 30
0.0
 11
115.4737779639038
 21
28.52703441412285
 31
0.0
  0
LINE
  5
2779
330
1F
100
AcDbEntity
  8
SOLBET_Stolarka_Okna
100
AcDbLine
 10
115.4737779639038
 20
28.52703441412285
 30
0.0
 11
118.6000986615968
 21
28.52703441412285
 31
0.0
  0
LINE
  5
277A
330
1F
100
AcDbEntity
  8
SOLBET_Stolarka_Okna
100
AcDbLine
 10
118.6000986615968
 20
28.52703441412285
 30
0.0
 11
118.6000986615968
 21
29.61116274512841
 31
0.0
  0
LINE
  5
277B
330
1F
100
AcDbEntity
  8
SOLBET_Stolarka_Okna
100
AcDbLine
 10
118.6000986615968
 20
29.61116274512841
 30
0.0
 11
119.4721660825091
 21
29.61116274512841
 31
0.0
  0
LINE
  5
277C
330
1F
100
AcDbEntity
  8
SOLBET_Stolarka_Okna
100
AcDbLine
 10
119.4721660825091
 20
29.61116274512841
 30
0.0
 11
119.4721660825091
 21
30.68488413960566
 31
0.0
  0
LINE
  5
277D
330
1F
100
AcDbEntity
  8
SOLBET_Stolarka_Okna
100
AcDbLine
 10
119.4721660825091
 20
30.68488413960566
 30
0.0
 11
120.4230443795636
 21
30.68488413960566
 31
0.0
  0
LINE
  5
277E
330
1F
100
AcDbEntity
  8
SOLBET_Stolarka_Okna
100
AcDbLine
 10
120.4230443795636
 20
30.68488413960566
 30
0.0
 11
120.4230443795636
 21
31.03055206386395
 31
0.0
  0
LINE
  5
277F
330
1F
100
AcDbEntity
  8
SOLBET_Stolarka_Okna
100
AcDbLine
 10
120.4230443795636
 20
31.03055206386395
 30
0.0
 11
120.204410234264
 21
32.0270344141232
 31
0.0
  0
LINE
  5
2780
102
{ACAD_REACTORS
330
294F
102
}
330
1F
100
AcDbEntity
  8
SOLBET_Stolarka_Okna
100
AcDbLine
 10
120.204410234264
 20
32.0270344141232
 30
0.0
 11
115.4737779639038
 21
32.02703441412285
 31
0.0
  0
LWPOLYLINE
  5
2781
330
1F
100
AcDbEntity
  8
SOLBET_Stolarka_Okna
100
AcDbPolyline
 90
        4
 70
     1
 43
0.0
 10
123.4975939025594
 20
28.94610388767885
 10
123.1485455267263
 20
27.58429814799544
 10
122.2961897381249
 20
27.58429814799544
 10
122.2961897381249
 20
28.94610388767885
  0
LWPOLYLINE
  5
2782
330
1F
100
AcDbEntity
  8
SOLBET_Stolarka_Okna
100
AcDbPolyline
 90
       15
 70
     1
 43
0.0
 10
121.2389637422823
 20
30.68488413960566
 10
120.5342221894493
 20
30.68488413960603
 10
120.5342221894493
 20
32.02703441412285
 10
123.3379942236368
 20
32.02703441412285
 10
123.7750725910141
 20
30.76674666523084
 10
122.2042579186398
 20
30.76674666523084
 10
122.2042579186398
 20
29.1243580833341
 10
122.2042579186398
 20
27.58429814799544
 10
118.3076488880049
 20
27.58429814799544
 10
118.3076488880049
 20
28.27908888262044
 10
120.5342221894493
 20
28.27908888262044
 10
120.5342221894493
 20
29.44388373200579
 10
119.7988410132429
 20
29.44388373200579
 10
119.7988410132429
 20
30.30215279656093
 10
121.2389637422823
 20
30.30215279656093
  0
CIRCLE
  5
2786
330
1F
100
AcDbEntity
  8
SOLBET_Izolacja
100
AcDbCircle
 10
115.2262214247794
 20
28.91906319238314
 30
0.0
 40
0.25244346087405
  0
INSERT
  5
2787
330
1F
100
AcDbEntity
  8
SOLBET_Izolacja
100
AcDbBlockReference
  2
*U8
 10
-20.09581895216661
 20
427.8117200659626
 30
0.0
 41
50.0
 42
50.0
 43
50.0
 50
270.0
1001
ASO_SCHRAFF
1005
0
1070
     0
1005
0
  0
ARC
  5
2788
330
1F
100
AcDbEntity
  8
SOLBET_Izolacja
100
AcDbCircle
 10
115.2208028372392
 20
28.20828924495453
 30
0.0
 40
0.4069335296814501
100
AcDbArc
 50
51.56239299620143
 51
127.3757720391581
  0
LINE
  5
2789
330
1F
100
AcDbEntity
  8
SOLBET_Wymiary_Opisy
 62
     1
100
AcDbLine
 10
135.2036612745041
 20
7.506634462180016
 30
0.0
 11
135.2036612745041
 21
44.76336891816441
 31
0.0
  0
LINE
  5
278A
330
1F
100
AcDbEntity
  8
SOLBET_Stolarka_Okna
100
AcDbLine
 10
135.2036612745041
 20
30.56880837745101
 30
0.0
 11
122.4103591682405
 21
30.56880837745101
 31
0.0
  0
LINE
  5
278B
330
1F
100
AcDbEntity
  8
SOLBET_Stolarka_Okna
100
AcDbLine
 10
135.2036612745041
 20
29.11073237029174
 30
0.0
 11
122.4103591682405
 21
29.11073237029174
 31
0.0
  0
LWPOLYLINE
  5
278C
330
1F
100
AcDbEntity
  8
SOLBET_Zbrojenie_Konstrukcja
100
AcDbPolyline
 90
        3
 70
     0
 43
0.05
 10
115.1953645900955
 20
18.23495756721729
 10
115.1953645900955
 20
16.73495756721729
 10
113.6953645900955
 20
16.73495756721729
  0
LWPOLYLINE
  5
278D
330
1F
100
AcDbEntity
  8
SOLBET_Zbrojenie_Konstrukcja
100
AcDbPolyline
 90
        3
 70
     0
 43
0.05
 10
115.1953645900955
 20
36.81911126102838
 10
115.1953645900955
 20
38.31911126102875
 10
113.6953645900955
 20
38.31911126102875
  0
LINE
  5
278E
330
1F
100
AcDbEntity
  8
SOLBET_Stolarka_Okna
100
AcDbLine
 10
123.3379942236368
 20
32.02703441412285
 30
0.0
 11
135.2036612745041
 21
32.02703441412285
 31
0.0
  0
LINE
  5
278F
330
1F
100
AcDbEntity
  8
SOLBET_Stolarka_Okna
100
AcDbLine
 10
123.1485455267263
 20
27.58429814799544
 30
0.0
 11
135.2036612745041
 21
27.58429814799544
 31
0.0
  0
LINE
  5
2790
330
1F
100
AcDbEntity
  8
SOLBET_Stolarka_Okna
100
AcDbLine
 10
135.2036612745041
 20
11.52703441412285
 30
0.0
 11
110.4737779639038
 21
11.52703441412285
 31
0.0
  0
LINE
  5
2791
330
1F
100
AcDbEntity
  8
SOLBET_Stolarka_Okna
100
AcDbLine
 10
110.4737779639038
 20
28.52703441412285
 30
0.0
 11
110.4737779639038
 21
16.52703441412285
 31
0.0
  0
LINE
  5
2792
330
1F
100
AcDbEntity
  8
SOLBET_Stolarka_Okna
100
AcDbLine
 10
110.4737779639038
 20
28.52703441412285
 30
0.0
 11
114.9737779639038
 21
28.53166767579512
 31
0.0
  0
LINE
  5
2793
330
1F
100
AcDbEntity
  8
SOLBET_Stolarka_Okna
100
AcDbLine
 10
110.4737779639038
 20
16.52703441412285
 30
0.0
 11
110.4737779639038
 21
11.52703441412285
 31
0.0
  0
LINE
  5
2794
330
1F
100
AcDbEntity
  8
SOLBET_Tynki_Posadzki
100
AcDbLine
 10
115.4737779639038
 20
16.52703441412285
 30
0.0
 11
86.52072396564927
 21
16.52703441412285
 31
0.0
  0
LINE
  5
2798
330
1F
100
AcDbEntity
  8
SOLBET_Stolarka_Okna
100
AcDbLine
 10
113.3068112218129
 20
32.02703441412285
 30
0.0
 11
113.3068112218129
 21
41.24969577795252
 31
0.0
  0
LINE
  5
2799
330
1F
100
AcDbEntity
  8
SOLBET_Stolarka_Okna
100
AcDbLine
 10
113.3068112218129
 20
41.24969577795252
 30
0.0
 11
135.2036612745041
 21
41.24969577795252
 31
0.0
  0
LINE
  5
279B
330
1F
100
AcDbEntity
  8
SOLBET_Stolarka_Okna
100
AcDbLine
 10
115.4737779639038
 20
32.02703441412285
 30
0.0
 11
113.3068112218129
 21
32.02703441412285
 31
0.0
  0
LINE
  5
279C
102
{ACAD_REACTORS
330
294F
102
}
330
1F
100
AcDbEntity
  8
SOLBET_Tynki_Posadzki
  6
VERDECKT
100
AcDbLine
 10
115.4737779639038
 20
38.77703441412285
 30
0.0
 11
135.2036612745041
 21
38.77703441412285
 31
0.0
  0
LWPOLYLINE
  5
27A8
330
1F
100
AcDbEntity
  8
SOLBET_Stolarka_Okna
100
AcDbPolyline
 90
        4
 70
     1
 43
0.0
 10
76.57359048543276
 20
175.4376553204097
 10
91.57359048543275
 20
175.4376553204097
 10
91.57359048543275
 20
187.4376553204097
 10
76.57359048543276
 20
187.4376553204097
  0
INSERT
  5
27AA
330
1F
100
AcDbEntity
  8
SOLBET_Izolacja
100
AcDbBlockReference
  2
*U9
 10
-407.6079585136833
 20
-256.3016719708054
 30
0.0
 41
50.0
 42
50.0
 43
50.0
1001
ASO_SCHRAFF
1005
0
1070
     0
1005
0
  0
INSERT
  5
27AB
330
1F
100
AcDbEntity
  8
SOLBET_Izolacja
100
AcDbBlockReference
  2
*U10
 10
-407.6079585136833
 20
-256.3016719708054
 30
0.0
 41
50.0
 42
50.0
 43
50.0
1001
ASO_SCHRAFF
1005
0
1070
     0
1005
0
  0
INSERT
  5
27AC
330
1F
100
AcDbEntity
  8
SOLBET_Stolarka_Okna
100
AcDbBlockReference
  2
*U11
 10
-407.6079585136833
 20
-256.3016719708054
 30
0.0
 41
50.0
 42
50.0
 43
50.0
1001
ASO_SCHRAFF
1005
0
1070
     0
1005
0
  0
CIRCLE
  5
27AE
330
1F
100
AcDbEntity
  8
SOLBET_Stolarka_Okna
100
AcDbCircle
 10
83.25938953246918
 20
180.3126395571178
 30
0.0
 40
4.943224170657949
  0
LINE
  5
27AF
330
1F
100
AcDbEntity
  8
SOLBET_Stolarka_Okna
100
AcDbLine
 10
78.07359048543276
 20
180.4376553204097
 30
0.0
 11
78.07359048543276
 21
175.4376553204097
 31
0.0
  0
LINE
  5
27B0
330
1F
100
AcDbEntity
  8
SOLBET_Stolarka_Okna
100
AcDbLine
 10
83.07359048543276
 20
185.4376553204097
 30
0.0
 11
84.07359048543275
 21
185.4376553204097
 31
0.0
  0
LINE
  5
27B1
330
1F
100
AcDbEntity
  8
SOLBET_Stolarka_Okna
100
AcDbLine
 10
89.07359048543275
 20
180.4376553204097
 30
0.0
 11
89.07359048543275
 21
175.4376553204097
 31
0.0
  0
LWPOLYLINE
  5
27B2
330
1F
100
AcDbEntity
  8
SOLBET_Stolarka_Okna
100
AcDbPolyline
 90
        2
 70
     0
 43
0.0
 10
77.07359048543276
 20
175.9376553204097
 10
78.07359048543276
 20
175.9376553204097
  0
LWPOLYLINE
  5
27B3
330
1F
100
AcDbEntity
  8
SOLBET_Stolarka_Okna
100
AcDbPolyline
 90
        5
 70
     0
 43
0.0
 10
89.07359048543275
 20
175.9376553204097
 10
91.07359048543276
 20
175.9376553204097
 10
91.07359048543276
 20
186.9376553204097
 10
77.07359048543276
 20
186.9376553204097
 10
77.07359048543276
 20
175.9376553204097
  0
ARC
  5
27B4
330
1F
100
AcDbEntity
  8
SOLBET_Stolarka_Okna
100
AcDbCircle
 10
83.07359048543276
 20
180.4376553204097
 30
0.0
 40
5.0
100
AcDbArc
 50
90.0
 51
180.0
  0
ARC
  5
27B5
330
1F
100
AcDbEntity
  8
SOLBET_Stolarka_Okna
100
AcDbCircle
 10
84.07359048543275
 20
180.4376553204097
 30
0.0
 40
5.0
100
AcDbArc
 50
0.0
 51
90.0
  0
LINE
  5
27B6
330
1F
100
AcDbEntity
  8
SOLBET_Stolarka_Okna
100
AcDbLine
 10
78.3161653618049
 20
180.3126395571178
 30
0.0
 11
78.3161653618049
 21
174.9376553204097
 31
0.0
  0
LINE
  5
27CC
330
1F
100
AcDbEntity
  8
SOLBET_Stolarka_Okna
100
AcDbLine
 10
115.4737779639038
 20
33.02369859078516
 30
0.0
 11
113.9257703661876
 21
33.02369859078516
 31
0.0
  0
LINE
  5
27CD
330
1F
100
AcDbEntity
  8
SOLBET_Stolarka_Okna
100
AcDbLine
 10
113.9257703661876
 20
33.02369859078516
 30
0.0
 11
113.9257703661876
 21
32.25562891476599
 31
0.0
  0
LINE
  5
27CE
330
1F
100
AcDbEntity
  8
SOLBET_Stolarka_Okna
100
AcDbLine
 10
113.9257703661876
 20
32.25562891476599
 30
0.0
 11
115.4737779639038
 21
32.25562891476599
 31
0.0
  0
LINE
  5
27CF
330
1F
100
AcDbEntity
  8
SOLBET_Tynki_Posadzki
100
AcDbLine
 10
115.4737779639038
 20
33.02369859078516
 30
0.0
 11
115.4737779639038
 21
38.77703441412285
 31
0.0
  0
LINE
  5
27D0
330
1F
100
AcDbEntity
  8
SOLBET_Bloczki
100
AcDbLine
 10
114.9737779639038
 20
33.02369859078516
 30
0.0
 11
114.9737779639038
 21
38.02703441412285
 31
0.0
  0
MTEXT
  5
27DD
102
{ACAD_XDICTIONARY
360
27DE
102
}
330
1F
100
AcDbEntity
  8
SOLBET_Wymiary_Opisy @ 1
100
AcDbMText
 10
16.93374848100734
 20
290.8829456010151
 30
0.0
 40
5.0
 41
124.2624847080697
 71
     1
 72
     5
  1
{\LDETAL 13\P}Spos\U+00F3b zamocowania stolarki w \U+015Bcianie\Pjednowarstwowej z wbudowan\U+0105 nad oknem skrzynk\U+0105 na rolet\U+0119 typu RKS
  7
Solbet_5
 73
     1
 44
1.0
1001
AcadAnnotative
1000
AnnotativeData
1002
{
1070
     1
1070
     0
1002
}
1001
ACAD
1000
MTEXTBEGIN
1070
    73
1070
     1
1070
    44
1040
1.0
1070
    74
1070
     0
1000
MTEXTEND
  0
LWPOLYLINE
  5
281C
330
1F
100
AcDbEntity
  8
SOLBET_Bloczki
100
AcDbPolyline
 90
        4
 70
     1
 43
0.0
 10
91.57359090768068
 20
101.4376553204097
 10
70.57359048543276
 20
101.4376553204097
 10
70.57359090768068
 20
94.43765552455813
 10
91.57359090768068
 20
94.43765552455813
  0
LINE
  5
2827
330
1F
100
AcDbEntity
  8
SOLBET_Bloczki
100
AcDbLine
 10
70.57359062618207
 20
235.4376555245585
 30
0.0
 11
91.57359062618207
 21
235.4376555245585
 31
0.0
  0
LWPOLYLINE
  5
2841
330
1F
100
AcDbEntity
  8
SOLBET_Bloczki
100
AcDbPolyline
 90
        4
 70
     1
 43
0.0
 10
70.57359062618207
 20
235.4376555245585
 10
91.57359048543844
 20
235.4376555245585
 10
91.57359048543844
 20
241.1533069210928
 10
70.57359062618207
 20
241.1533069210928
  0
INSERT
  5
287A
330
1F
100
AcDbEntity
  8
SOLBET_Bloczki
100
AcDbBlockReference
  2
SOLBET_Plytka_60x240x590_brak_PRA
 10
70.57359048543276
 20
199.4376551959214
 30
0.0
  0
LINE
  5
289B
330
1F
100
AcDbEntity
  8
SOLBET_Izolacja
100
AcDbLine
 10
76.57359048543276
 20
211.4376553204097
 30
0.0
 11
76.57359088976659
 21
199.4376553351217
 31
0.0
  0
LINE
  5
289C
330
1F
100
AcDbEntity
  8
SOLBET_Izolacja
100
AcDbLine
 10
76.57359088976659
 20
199.4376553351217
 30
0.0
 11
73.57359048543845
 21
199.4376553351217
 31
0.0
  0
LINE
  5
289D
330
1F
100
AcDbEntity
  8
SOLBET_Izolacja
100
AcDbLine
 10
73.57359048543845
 20
199.4376553351217
 30
0.0
 11
73.57359040352594
 21
211.437655287659
 31
0.0
  0
LINE
  5
289E
330
1F
100
AcDbEntity
  8
SOLBET_Izolacja
100
AcDbLine
 10
73.57359040352594
 20
211.437655287659
 30
0.0
 11
76.57359048543288
 21
211.4376532634501
 31
0.0
  0
LINE
  5
289F
330
1F
100
AcDbEntity
  8
SOLBET_Izolacja
  6
BATTING
 48
0.14
100
AcDbLine
 10
75.07359044447935
 20
211.4376542755545
 30
0.0
 11
75.07359044447935
 21
199.4376551959214
 31
0.0
  0
LINE
  5
28A0
330
1F
100
AcDbEntity
  8
SOLBET_Izolacja
  6
BATTING
 48
0.05
100
AcDbLine
 10
92.0735904854356
 20
216.8109621539648
 30
0.0
 11
92.0735904854356
 21
211.4376553204097
 31
0.0
  0
LINE
  5
28A1
330
1F
100
AcDbEntity
  8
SOLBET_Izolacja
100
AcDbLine
 10
92.57359048543845
 20
213.9376553204102
 30
0.0
 11
92.57359048543845
 21
211.4376553204097
 31
0.0
  0
LINE
  5
28A2
330
1F
100
AcDbEntity
  8
SOLBET_Izolacja
  6
BATTING
 48
0.12
100
AcDbLine
 10
92.57359048543845
 20
212.6876553204099
 30
0.0
 11
152.0725119613414
 21
212.6876553204099
 31
0.0
  0
LINE
  5
28A3
330
1F
100
AcDbEntity
  8
SOLBET_Zbrojenie_Konstrukcja
100
AcDbLine
 10
149.0735904854327
 20
207.9376553204098
 30
0.0
 11
152.072511961338
 21
202.3146775530875
 31
0.0
  0
LINE
  5
28A4
330
1F
100
AcDbEntity
  8
SOLBET_Zbrojenie_Konstrukcja
100
AcDbLine
 10
145.6069238187659
 20
201.4376553204097
 30
0.0
 11
149.0735904854327
 21
207.9376553204098
 31
0.0
  0
LINE
  5
28A6
330
1F
100
AcDbEntity
  8
SOLBET_Zbrojenie_Konstrukcja
100
AcDbLine
 10
121.6069238187659
 20
201.4376553204097
 30
0.0
 11
125.0735904854327
 21
207.9376553204098
 31
0.0
  0
LINE
  5
28A7
330
1F
100
AcDbEntity
  8
SOLBET_Zbrojenie_Konstrukcja
100
AcDbLine
 10
129.6069238187659
 20
201.4376553204097
 30
0.0
 11
133.0735904854325
 21
207.9376553204098
 31
0.0
  0
LINE
  5
28A8
330
1F
100
AcDbEntity
  8
SOLBET_Zbrojenie_Konstrukcja
100
AcDbLine
 10
137.6069238187659
 20
201.4376553204097
 30
0.0
 11
141.0735904854326
 21
207.9376553204098
 31
0.0
  0
LINE
  5
28A9
330
1F
100
AcDbEntity
  8
SOLBET_Zbrojenie_Konstrukcja
100
AcDbLine
 10
113.6069238187659
 20
201.4376553204097
 30
0.0
 11
117.0735904854327
 21
207.9376553204098
 31
0.0
  0
LINE
  5
28AA
330
1F
100
AcDbEntity
  8
SOLBET_Zbrojenie_Konstrukcja
100
AcDbLine
 10
105.6069238187659
 20
201.4376553204097
 30
0.0
 11
109.0735904854327
 21
207.9376553204098
 31
0.0
  0
LINE
  5
28AB
330
1F
100
AcDbEntity
  8
SOLBET_Zbrojenie_Konstrukcja
100
AcDbLine
 10
97.60692381876594
 20
201.4376553204097
 30
0.0
 11
101.0735904854327
 21
207.9376553204098
 31
0.0
  0
LINE
  5
28AC
330
1F
100
AcDbEntity
  8
SOLBET_Zbrojenie_Konstrukcja
100
AcDbLine
 10
89.60692381876606
 20
201.4376553204097
 30
0.0
 11
93.07359048543276
 21
207.9376553204098
 31
0.0
  0
LINE
  5
28AD
330
1F
100
AcDbEntity
  8
SOLBET_Zbrojenie_Konstrukcja
100
AcDbLine
 10
93.07359048543276
 20
207.9376553204098
 30
0.0
 11
96.54025715209934
 21
201.4376553204097
 31
0.0
  0
LINE
  5
28AE
330
1F
100
AcDbEntity
  8
SOLBET_Zbrojenie_Konstrukcja
100
AcDbLine
 10
101.0735904854327
 20
207.9376553204098
 30
0.0
 11
104.5402571520993
 21
201.4376553204097
 31
0.0
  0
LINE
  5
28AF
330
1F
100
AcDbEntity
  8
SOLBET_Zbrojenie_Konstrukcja
100
AcDbLine
 10
109.0735904854327
 20
207.9376553204098
 30
0.0
 11
112.5402571520995
 21
201.4376553204097
 31
0.0
  0
LINE
  5
28B0
330
1F
100
AcDbEntity
  8
SOLBET_Zbrojenie_Konstrukcja
100
AcDbLine
 10
117.0735904854327
 20
207.9376553204098
 30
0.0
 11
120.5402571520995
 21
201.4376553204097
 31
0.0
  0
LINE
  5
28B1
330
1F
100
AcDbEntity
  8
SOLBET_Zbrojenie_Konstrukcja
  6
Continuous
100
AcDbLine
 10
152.072511961338
 20
207.93765532041
 30
0.0
 11
87.57359048543277
 21
207.9376553204097
 31
0.0
  0
LINE
  5
28B2
330
1F
100
AcDbEntity
  8
SOLBET_Zbrojenie_Konstrukcja
100
AcDbLine
 10
141.0735904854326
 20
207.9376553204098
 30
0.0
 11
144.5402571520994
 21
201.4376553204097
 31
0.0
  0
LINE
  5
28B3
330
1F
100
AcDbEntity
  8
SOLBET_Zbrojenie_Konstrukcja
100
AcDbLine
 10
133.0735904854325
 20
207.9376553204098
 30
0.0
 11
136.5402571520994
 21
201.4376553204097
 31
0.0
  0
LINE
  5
28B4
330
1F
100
AcDbEntity
  8
SOLBET_Zbrojenie_Konstrukcja
100
AcDbLine
 10
125.0735904854327
 20
207.9376553204098
 30
0.0
 11
128.5402571520994
 21
201.4376553204097
 31
0.0
  0
INSERT
  5
28B8
330
1F
100
AcDbEntity
  8
SOLBET_Beton
100
AcDbBlockReference
  2
*X4
 10
-482.1273253955239
 20
-256.5836857340173
 30
0.0
 41
50.0
 42
50.0
 43
50.0
1001
ASO_SCHRAFF
1005
0
1070
     0
1005
0
1001
ACAD
1000
HATCH
1002
{
1070
    16
1000
NET
1040
0.25
1040
0.7853981633974483
1002
}
  0
LINE
  5
28B9
330
1F
100
AcDbEntity
  8
SOLBET_Beton
100
AcDbLine
 10
90.30926269869793
 20
201.4376553204097
 30
0.0
 11
90.30926269869793
 21
209.9376553204101
 31
0.0
  0
LINE
  5
28BA
330
1F
100
AcDbEntity
  8
SOLBET_Beton
100
AcDbLine
 10
90.30926269869793
 20
209.9376553204101
 30
0.0
 11
152.074505128864
 21
209.9376553204097
 31
0.0
  0
LINE
  5
28BB
330
1F
100
AcDbEntity
  8
SOLBET_Beton
100
AcDbLine
 10
152.074505128864
 20
209.9376553204097
 30
0.0
 11
152.072511961338
 21
201.4376553204097
 31
0.0
  0
LINE
  5
28BC
330
1F
100
AcDbEntity
  8
SOLBET_Beton
100
AcDbLine
 10
152.072511961338
 20
201.4376553204097
 30
0.0
 11
87.57359048543277
 21
201.4376553204097
 31
0.0
  0
LINE
  5
28BD
330
1F
100
AcDbEntity
  8
SOLBET_Beton
100
AcDbLine
 10
87.57359048543277
 20
201.4376553204097
 30
0.0
 11
87.57359048543277
 21
199.4376553351217
 31
0.0
  0
LINE
  5
28BE
330
1F
100
AcDbEntity
  8
SOLBET_Beton
100
AcDbLine
 10
87.57359048543277
 20
199.4376553351217
 30
0.0
 11
152.0725119613414
 21
199.4376553351217
 31
0.0
  0
LINE
  5
28BF
330
1F
100
AcDbEntity
  8
SOLBET_Beton
100
AcDbLine
 10
152.0725119613414
 20
199.4376553351217
 30
0.0
 11
152.0725119613414
 21
201.4376553204097
 31
0.0
  0
LINE
  5
28C1
330
1F
100
AcDbEntity
  8
SOLBET_Beton
100
AcDbLine
 10
102.3092626986979
 20
209.93765532041
 30
0.0
 11
102.3092626986979
 21
201.4376553351214
 31
0.0
  0
LINE
  5
28C2
330
1F
100
AcDbEntity
  8
SOLBET_Beton
100
AcDbLine
 10
114.3092626987036
 20
209.93765532041
 30
0.0
 11
114.3092626987036
 21
201.4376553351214
 31
0.0
  0
LINE
  5
28C3
330
1F
100
AcDbEntity
  8
SOLBET_Beton
100
AcDbLine
 10
126.3092626987036
 20
209.9376553204099
 30
0.0
 11
126.3092626987036
 21
201.4376553204097
 31
0.0
  0
LINE
  5
28C5
330
1F
100
AcDbEntity
  8
SOLBET_Beton
100
AcDbLine
 10
138.3092626987036
 20
209.9376553204098
 30
0.0
 11
138.3092626987036
 21
201.4376553351214
 31
0.0
  0
LINE
  5
28C7
330
1F
100
AcDbEntity
  8
SOLBET_Beton
100
AcDbLine
 10
150.3092626987036
 20
209.9376553204097
 30
0.0
 11
150.3092626987038
 21
201.4376553351214
 31
0.0
  0
LINE
  5
28C9
330
1F
100
AcDbEntity
  8
SOLBET_Beton
100
AcDbLine
 10
152.074505128864
 20
204.9376553204098
 30
0.0
 11
90.30926269869793
 21
204.9376553204098
 31
0.0
  0
INSERT
  5
290F
330
1F
100
AcDbEntity
  8
SOLBET_Izolacja
  6
Continuous
100
AcDbBlockReference
  2
ASOWDBLK
 10
71.51020249674093
 20
101.5259023417393
 30
0.0
 41
0.6486411016078364
 42
0.6673913043478592
 43
0.6486411016077501
  0
INSERT
  5
2910
330
1F
100
AcDbEntity
  8
SOLBET_Izolacja
  6
Continuous
100
AcDbBlockReference
  2
ASOWDBLK
 10
71.83452304754485
 20
101.5259023417393
 30
0.0
 41
0.6486411016078364
 42
0.7108695652173936
 43
0.6486411016077501
  0
INSERT
  5
2911
330
1F
100
AcDbEntity
  8
SOLBET_Izolacja
  6
Continuous
100
AcDbBlockReference
  2
ASOWDBLK
 10
72.15884359834877
 20
101.5259023417393
 30
0.0
 41
0.6486411016078364
 42
0.7543478260869563
 43
0.6486411016077501
  0
INSERT
  5
2912
330
1F
100
AcDbEntity
  8
SOLBET_Izolacja
  6
Continuous
100
AcDbBlockReference
  2
ASOWDBLK
 10
72.48316414915257
 20
101.5259023417393
 30
0.0
 41
0.6486411016078364
 42
0.7978260869564906
 43
0.6486411016077501
  0
INSERT
  5
2913
330
1F
100
AcDbEntity
  8
SOLBET_Izolacja
  6
Continuous
100
AcDbBlockReference
  2
ASOWDBLK
 10
72.80748469995637
 20
101.5259023417393
 30
0.0
 41
0.6486411016078364
 42
0.8413043478261101
 43
0.6486411016077501
  0
INSERT
  5
2914
330
1F
100
AcDbEntity
  8
SOLBET_Izolacja
  6
Continuous
100
AcDbBlockReference
  2
ASOWDBLK
 10
73.13180525076018
 20
101.5259023417393
 30
0.0
 41
0.6486411016078364
 42
0.8847826086956445
 43
0.6486411016077501
  0
INSERT
  5
2915
330
1F
100
AcDbEntity
  8
SOLBET_Izolacja
  6
Continuous
100
AcDbBlockReference
  2
ASOWDBLK
 10
73.4561258015641
 20
101.5259023417393
 30
0.0
 41
0.6486411016078364
 42
0.9282608695652072
 43
0.6486411016077501
  0
INSERT
  5
2916
330
1F
100
AcDbEntity
  8
SOLBET_Izolacja
  6
Continuous
100
AcDbBlockReference
  2
ASOWDBLK
 10
73.78044635236801
 20
101.5259023417393
 30
0.0
 41
0.6486411016078364
 42
0.9717391304347984
 43
0.6486411016077501
  0
INSERT
  5
2917
330
1F
100
AcDbEntity
  8
SOLBET_Izolacja
  6
Continuous
100
AcDbBlockReference
  2
ASOWDBLK
 10
74.10476690317182
 20
101.5259023417393
 30
0.0
 41
0.6486411016078364
 42
1.015217391304361
 43
0.6486411016077501
  0
INSERT
  5
2918
330
1F
100
AcDbEntity
  8
SOLBET_Izolacja
  6
Continuous
100
AcDbBlockReference
  2
ASOWDBLK
 10
74.42908745397563
 20
101.5259023417393
 30
0.0
 41
0.6486411016078364
 42
1.058695652173895
 43
0.6486411016077501
  0
INSERT
  5
2919
330
1F
100
AcDbEntity
  8
SOLBET_Izolacja
  6
Continuous
100
AcDbBlockReference
  2
ASOWDBLK
 10
74.75340800477943
 20
101.5259023417393
 30
0.0
 41
0.6486411016078364
 42
1.102173913043486
 43
0.6486411016077501
  0
INSERT
  5
291A
330
1F
100
AcDbEntity
  8
SOLBET_Izolacja
  6
Continuous
100
AcDbBlockReference
  2
ASOWDBLK
 10
75.07772855558335
 20
101.5259023417393
 30
0.0
 41
0.6486411016078364
 42
1.145652173913049
 43
0.6486411016077501
  0
INSERT
  5
291B
330
1F
100
AcDbEntity
  8
SOLBET_Izolacja
  6
Continuous
100
AcDbBlockReference
  2
ASOWDBLK
 10
75.40204910638715
 20
101.5259023417393
 30
0.0
 41
0.6486411016078364
 42
1.189130434782612
 43
0.6486411016077501
  0
INSERT
  5
291C
330
1F
100
AcDbEntity
  8
SOLBET_Izolacja
  6
Continuous
100
AcDbBlockReference
  2
ASOWDBLK
 10
75.72636965719107
 20
101.5259023417393
 30
0.0
 41
0.6486411016078364
 42
1.232608695652203
 43
0.6486411016077501
  0
INSERT
  5
291D
330
1F
100
AcDbEntity
  8
SOLBET_Izolacja
  6
Continuous
100
AcDbBlockReference
  2
ASOWDBLK
 10
76.05069020799487
 20
101.5259023417393
 30
0.0
 41
0.6486411016078364
 42
1.276086956521737
 43
0.6486411016077501
  0
INSERT
  5
291E
330
1F
100
AcDbEntity
  8
SOLBET_Izolacja
  6
Continuous
100
AcDbBlockReference
  2
ASOWDBLK
 10
76.37501075879868
 20
101.5259023417393
 30
0.0
 41
0.6486411016078364
 42
1.3195652173913
 43
0.6486411016077501
  0
INSERT
  5
291F
330
1F
100
AcDbEntity
  8
SOLBET_Izolacja
  6
Continuous
100
AcDbBlockReference
  2
ASOWDBLK
 10
76.69933130960249
 20
101.5259023417393
 30
0.0
 41
0.6486411016078364
 42
1.363043478260863
 43
0.6486411016077501
  0
INSERT
  5
2920
330
1F
100
AcDbEntity
  8
SOLBET_Izolacja
  6
Continuous
100
AcDbBlockReference
  2
ASOWDBLK
 10
77.02365186040641
 20
101.5259023417393
 30
0.0
 41
0.6486411016078364
 42
1.406521739130454
 43
0.6486411016077501
  0
INSERT
  5
2921
330
1F
100
AcDbEntity
  8
SOLBET_Izolacja
  6
Continuous
100
AcDbBlockReference
  2
ASOWDBLK
 10
77.34797241121032
 20
101.5259023417393
 30
0.0
 41
0.6486411016078364
 42
1.449999999999988
 43
0.6486411016077501
  0
INSERT
  5
2922
330
1F
100
AcDbEntity
  8
SOLBET_Izolacja
  6
Continuous
100
AcDbBlockReference
  2
ASOWDBLK
 10
77.67229296201413
 20
101.5259023417393
 30
0.0
 41
0.6486411016078364
 42
1.493478260869551
 43
0.6486411016077501
  0
INSERT
  5
2923
330
1F
100
AcDbEntity
  8
SOLBET_Izolacja
  6
Continuous
100
AcDbBlockReference
  2
ASOWDBLK
 10
77.99661351281793
 20
101.5259023417393
 30
0.0
 41
0.6486411016078364
 42
1.536956521739142
 43
0.6486411016077501
  0
INSERT
  5
2924
330
1F
100
AcDbEntity
  8
SOLBET_Izolacja
  6
Continuous
100
AcDbBlockReference
  2
ASOWDBLK
 10
78.32093406362173
 20
101.5259023417393
 30
0.0
 41
0.6486411016078364
 42
1.580434782608705
 43
0.6486411016077501
  0
INSERT
  5
2925
330
1F
100
AcDbEntity
  8
SOLBET_Izolacja
  6
Continuous
100
AcDbBlockReference
  2
ASOWDBLK
 10
78.64525461442565
 20
101.5259023417393
 30
0.0
 41
0.6486411016078364
 42
1.623913043478239
 43
0.6486411016077501
  0
DIMENSION
  5
2936
102
{ACAD_XDICTIONARY
360
2944
102
}
102
{ACAD_REACTORS
330
294F
102
}
330
1F
100
AcDbEntity
  8
SOLBET_Wymiary_Opisy
100
AcDbDimension
  2
*D15
 10
118.8686897200109
 20
38.77703441412285
 30
0.0
 11
116.9927427503139
 21
48.90203441412287
 31
0.0
 70
    32
  1
max 12cm
 71
     5
 42
6.749999999999779
  3
Solbet
100
AcDbAlignedDimension
 13
118.5328158735874
 23
32.02703441412307
 33
0.0
 14
118.5328158735874
 24
38.77703441412285
 34
0.0
 50
90.0
100
AcDbRotatedDimension
  0
LEADER
  5
295A
330
1F
100
AcDbEntity
  8
SOLBET_Wymiary_Opisy
100
AcDbLeader
  3
Solbet$7
 73
     0
 74
     0
 75
     1
 40
3.25
 41
27.75
 76
     3
 10
84.54466402893103
 20
205.9342474196069
 30
0.0
 10
98.00118519665671
 20
232.1494362038341
 30
0.0
 10
100.5011851966567
 20
232.1494362038341
 30
0.0
340
295B
213
1.177601578005123
223
-0.1753245211093599
233
0.0
1001
ACAD
1000
DSTYLE
1002
{
1070
   147
1040
0.625
1070
    77
1070
     1
1002
}
  0
MTEXT
  5
295B
102
{ACAD_XDICTIONARY
360
2E23
102
}
102
{ACAD_REACTORS
330
295A
102
}
330
1F
100
AcDbEntity
  8
SOLBET_Wymiary_Opisy
100
AcDbMText
 10
99.94858361865158
 20
236.1997607249435
 30
0.0
 40
2.5
 41
0.0
 71
     1
 72
     1
  1
Wieniec \U+017Celbetowy
  7
Solbet_2_5
 73
     1
 44
1.0
1001
ACAD
1000
MTEXTBEGIN
1070
    73
1070
     1
1070
    44
1040
1.0
1070
    74
1070
     0
1000
MTEXTEND
  0
INSERT
  5
295C
330
1F
100
AcDbEntity
  8
SOLBET_Zbrojenie_Konstrukcja
100
AcDbBlockReference
  2
*U7
 10
-318.687091693972
 20
3.844726321546716
 30
0.0
 41
50.0
 42
50.0
 43
50.0
1001
ASO_SCHRAFF
1005
0
1070
     0
1005
0
  0
INSERT
  5
295D
330
1F
100
AcDbEntity
  8
SOLBET_Zbrojenie_Konstrukcja
100
AcDbBlockReference
  2
*U7
 10
484.6867961010048
 20
3.844726321546716
 30
0.0
 41
-50.0
 42
50.0
 43
50.0
1001
ASO_SCHRAFF
1005
0
1070
     0
1005
0
  0
MTEXT
  5
295F
330
1F
100
AcDbEntity
  8
SOLBET_Wymiary_Opisy
100
AcDbMText
 10
51.35044253877413
 20
240.7927823019919
 30
0.0
 40
2.5
 41
0.0
 71
     3
 72
     1
  1
Zbrojenie MURFOR
  7
Solbet_2_5
 73
     1
 44
1.0
1001
ACAD
1000
MTEXTBEGIN
1070
    73
1070
     1
1070
    44
1040
1.0
1070
    74
1070
     0
1000
MTEXTEND
  0
LEADER
  5
2960
330
1F
100
AcDbEntity
  8
SOLBET_Wymiary_Opisy
100
AcDbLeader
  3
Solbet$7
 73
     0
 75
     1
 40
3.25
 41
31.0
 76
     3
 10
75.07359044447935
 20
209.1249460553077
 30
0.0
 10
55.79445115930707
 20
216.2227469694657
 30
0.0
 10
53.29445115930707
 20
216.2227469694657
 30
0.0
340
2961
213
1.177601578005123
223
-0.1753245211093599
233
0.0
1001
ACAD
1000
DSTYLE
1002
{
1070
   147
1040
0.625
1070
    77
1070
     1
1002
}
  0
MTEXT
  5
2961
102
{ACAD_REACTORS
330
2960
102
}
330
1F
100
AcDbEntity
  8
SOLBET_Wymiary_Opisy
100
AcDbMText
 10
20.49184958130195
 20
220.273071490575
 30
0.0
 40
2.5
 41
0.0
 71
     1
 72
     1
  1
Warstwa docieplenia
  7
Solbet_2_5
 73
     1
 44
1.0
1001
ACAD
1000
MTEXTBEGIN
1070
    73
1070
     1
1070
    44
1040
1.0
1070
    74
1070
     0
1000
MTEXTEND
  0
LEADER
  5
2962
330
1F
100
AcDbEntity
  8
SOLBET_Wymiary_Opisy
100
AcDbLeader
  3
Solbet$7
 73
     0
 40
3.25
 41
23.25
 76
     2
 10
71.80648743109895
 20
203.1972536145773
 30
0.0
 10
55.23043226092386
 20
206.1473791863578
 30
0.0
340
2963
213
1.177601578005123
223
-0.1753245211093599
233
0.0
1001
ACAD
1000
DSTYLE
1002
{
1070
   147
1040
0.625
1070
    77
1070
     1
1002
}
  0
MTEXT
  5
2963
102
{ACAD_XDICTIONARY
360
2E25
102
}
102
{ACAD_REACTORS
330
2962
102
}
330
1F
100
AcDbEntity
  8
SOLBET_Wymiary_Opisy
100
AcDbMText
 10
30.17783068291874
 20
210.1977037074672
 30
0.0
 40
2.5
 41
0.0
 71
     1
 72
     1
  1
P\U+0142ytka SOLBET
  7
Solbet_2_5
 73
     1
 44
1.0
1001
ACAD
1000
MTEXTBEGIN
1070
    73
1070
     1
1070
    44
1040
1.0
1070
    74
1070
     0
1000
MTEXTEND
  0
MTEXT
  5
2965
102
{ACAD_XDICTIONARY
360
2E27
102
}
330
1F
100
AcDbEntity
  8
SOLBET_Wymiary_Opisy
100
AcDbMText
 10
27.18849213536441
 20
191.3186179301936
 30
0.0
 40
2.5
 41
0.0
 71
     1
 72
     1
  1
Nadpro\U+017Ca SOLBET
  7
Solbet_2_5
 73
     1
 44
1.0
1001
ACAD
1000
MTEXTBEGIN
1070
    73
1070
     1
1070
    44
1040
1.0
1070
    74
1070
     0
1000
MTEXTEND
  0
MTEXT
  5
2967
102
{ACAD_XDICTIONARY
360
2E29
102
}
330
1F
100
AcDbEntity
  8
SOLBET_Wymiary_Opisy
100
AcDbMText
 10
17.463021141426
 20
164.3979722290329
 30
0.0
 40
2.5
 41
0.0
 71
     1
 72
     1
  1
Profil tynkarski naro\U+017Cny
  7
Solbet_2_5
 73
     1
 44
1.0
1001
ACAD
1000
MTEXTBEGIN
1070
    73
1070
     1
1070
    44
1040
1.0
1070
    74
1070
     0
1000
MTEXTEND
  0
INSERT
  5
2978
330
1F
100
AcDbEntity
  8
SOLBET_Wymiary_Opisy
100
AcDbBlockReference
  2
_DotSmall
 10
74.17997643985836
 20
178.794977177425
 30
0.0
 41
2.500000000000038
 42
2.5
 43
2.5
 50
324.2899578825237
1001
ACAD
1000
DSTYLE
1002
{
1070
   147
1040
0.625
1070
    77
1070
     1
1002
}
  0
LINE
  5
297A
330
1F
100
AcDbEntity
  8
SOLBET_Wymiary_Opisy
100
AcDbLine
 10
74.17997643985836
 20
178.794977177425
 30
0.0
 11
55.65304411677925
 21
187.2682934090843
 31
0.0
1001
ACAD
1000
DSTYLE
1002
{
1070
   147
1040
0.625
1070
    77
1070
     1
1002
}
  0
LINE
  5
297B
330
1F
100
AcDbEntity
  8
SOLBET_Wymiary_Opisy
100
AcDbLine
 10
55.65304411677925
 20
187.2682934090843
 30
0.0
 11
26.0424484895907
 21
187.2682934090843
 31
0.0
1001
ACAD
1000
DSTYLE
1002
{
1070
   147
1040
0.625
1070
    77
1070
     1
1002
}
  0
INSERT
  5
297C
330
1F
100
AcDbEntity
  8
SOLBET_Wymiary_Opisy
100
AcDbBlockReference
  2
_DotSmall
 10
79.52170508675521
 20
193.6218416233001
 30
0.0
 41
2.500000000000038
 42
2.5
 43
2.5
 50
324.2899578825237
1001
ACAD
1000
DSTYLE
1002
{
1070
   147
1040
0.625
1070
    77
1070
     1
1002
}
  0
LINE
  5
297D
330
1F
100
AcDbEntity
  8
SOLBET_Wymiary_Opisy
100
AcDbLine
 10
79.52170508675521
 20
193.6218416233001
 30
0.0
 11
55.65304411677925
 21
187.2682934090843
 31
0.0
1001
ACAD
1000
DSTYLE
1002
{
1070
   147
1040
0.625
1070
    77
1070
     1
1002
}
  0
INSERT
  5
297E
330
1F
100
AcDbEntity
  8
SOLBET_Wymiary_Opisy
100
AcDbBlockReference
  2
_DotSmall
 10
70.68608791843371
 20
175.1455784735038
 30
0.0
 41
2.499999999999992
 42
2.5
 43
2.5
 50
80.73835564379269
1001
ACAD
1000
DSTYLE
1002
{
1070
   147
1040
0.625
1070
    77
1070
     1
1002
}
  0
LINE
  5
2980
330
1F
100
AcDbEntity
  8
SOLBET_Wymiary_Opisy
100
AcDbLine
 10
70.68608791843371
 20
175.1455784735038
 30
0.0
 11
55.65304411677925
 21
159.9893832127321
 31
0.0
1001
ACAD
1000
DSTYLE
1002
{
1070
   147
1040
0.625
1070
    77
1070
     1
1002
}
  0
LINE
  5
2981
330
1F
100
AcDbEntity
  8
SOLBET_Wymiary_Opisy
100
AcDbLine
 10
55.65304411677925
 20
159.9893832127321
 30
0.0
 11
16.4952022021514
 21
159.9893832127321
 31
0.0
1001
ACAD
1000
DSTYLE
1002
{
1070
   147
1040
0.625
1070
    77
1070
     1
1002
}
  0
INSERT
  5
2982
330
1F
100
AcDbEntity
  8
SOLBET_Wymiary_Opisy
100
AcDbBlockReference
  2
_DotSmall
 10
91.79517711162452
 20
175.1455784735038
 30
0.0
 41
2.499999999999992
 42
2.5
 43
2.5
 50
80.73835564379269
1001
ACAD
1000
DSTYLE
1002
{
1070
   147
1040
0.625
1070
    77
1070
     1
1002
}
  0
LINE
  5
2983
330
1F
100
AcDbEntity
  8
SOLBET_Wymiary_Opisy
100
AcDbLine
 10
91.79517711162452
 20
175.1455784735038
 30
0.0
 11
55.65304411677925
 21
159.9893832127321
 31
0.0
1001
ACAD
1000
DSTYLE
1002
{
1070
   147
1040
0.625
1070
    77
1070
     1
1002
}
  0
LEADER
  5
2984
330
1F
100
AcDbEntity
  8
SOLBET_Wymiary_Opisy
100
AcDbLeader
  3
Solbet$7
 73
     0
 74
     0
 75
     1
 40
3.25
 41
37.25
 76
     3
 10
89.41959320064052
 20
183.982403238405
 30
0.0
 10
98.84823976810139
 20
164.8643184903327
 30
0.0
 10
101.3482397681014
 20
164.8643184903327
 30
0.0
340
2985
213
1.177601578005123
223
-0.1753245211093599
233
0.0
1001
ACAD
1000
DSTYLE
1002
{
1070
   147
1040
0.625
1070
    77
1070
     1
1002
}
  0
MTEXT
  5
2985
102
{ACAD_XDICTIONARY
360
2E2B
102
}
102
{ACAD_REACTORS
330
2984
102
}
330
1F
100
AcDbEntity
  8
SOLBET_Wymiary_Opisy
100
AcDbMText
 10
100.7956381900962
 20
168.914643011442
 30
0.0
 40
2.5
 41
0.0
 71
     1
 72
     1
  1
Skrzynka RKS na rolet\U+0119
  7
Solbet_2_5
 73
     1
 44
1.0
1001
ACAD
1000
MTEXTBEGIN
1070
    73
1070
     1
1070
    44
1040
1.0
1070
    74
1070
     0
1000
MTEXTEND
  0
LEADER
  5
29A6
330
1F
100
AcDbEntity
  8
SOLBET_Wymiary_Opisy
100
AcDbLeader
  3
Solbet$7
 73
     0
 74
     0
 75
     1
 40
3.5
 41
37.25
 76
     3
 10
254.2252291600158
 20
237.0445152036211
 30
0.0
 10
278.9268127801575
 20
246.1641199242956
 30
0.0
 10
281.4268127801575
 20
246.1641199242956
 30
0.0
213
1.177601578005123
223
-0.1753245211093599
233
0.0
1001
ACAD
1000
DSTYLE
1002
{
1070
   147
1040
0.625
1070
    77
1070
     1
1002
}
  0
MTEXT
  5
29A7
102
{ACAD_XDICTIONARY
360
2E2D
102
}
102
{ACAD_REACTORS
330
29A6
102
}
330
1F
100
AcDbEntity
  8
SOLBET_Wymiary_Opisy
100
AcDbMText
 10
280.8742112021524
 20
250.464444445405
 30
0.0
 40
2.5
 41
0.0
 71
     1
 72
     1
  1
Warstwa wyko\U+0144czeniowa
  7
Solbet_2_5
 73
     1
 44
1.0
1001
ACAD
1000
MTEXTBEGIN
1070
    73
1070
     1
1070
    44
1040
1.0
1070
    74
1070
     0
1000
MTEXTEND
  0
LEADER
  5
29A8
330
1F
100
AcDbEntity
  8
SOLBET_Wymiary_Opisy
100
AcDbLeader
  3
Solbet$7
 73
     0
 74
     0
 75
     1
 40
3.25
 41
32.5
 76
     3
 10
254.783497669123
 20
229.2783963872023
 30
0.0
 10
278.9850079102998
 20
239.9229133937049
 30
0.0
 10
281.4850079102998
 20
239.9229133937049
 30
0.0
213
0.0
223
-0.2322806831707567
233
0.0
1001
ACAD
1000
DSTYLE
1002
{
1070
   147
1040
0.625
1070
    77
1070
     1
1002
}
  0
MTEXT
  5
29A9
102
{ACAD_REACTORS
330
29A8
102
}
330
1F
100
AcDbEntity
  8
SOLBET_Wymiary_Opisy
100
AcDbMText
 10
280.8742112021524
 20
244.0301940768756
 30
0.0
 40
2.5
 41
0.0
 71
     1
 72
     1
  1
Wylewka jastrychowa
  7
Solbet_2_5
 73
     1
 44
1.0
1001
ACAD
1000
MTEXTBEGIN
1070
    73
1070
     1
1070
    44
1040
1.0
1070
    74
1070
     0
1000
MTEXTEND
  0
LEADER
  5
29AA
330
1F
100
AcDbEntity
  8
SOLBET_Wymiary_Opisy
100
AcDbLeader
  3
Solbet$7
 73
     0
 74
     0
 75
     1
 40
3.25
 41
19.75
 76
     3
 10
256.8220465028222
 20
222.3847366875124
 30
0.0
 10
278.9184638994184
 20
233.6877563149271
 30
0.0
 10
281.4184638994184
 20
233.6877563149271
 30
0.0
213
0.0
223
-0.2322806831707567
233
0.0
1001
ACAD
1000
DSTYLE
1002
{
1070
   147
1040
0.625
1070
    77
1070
     1
1002
}
  0
MTEXT
  5
29AB
102
{ACAD_REACTORS
330
29AA
102
}
330
1F
100
AcDbEntity
  8
SOLBET_Wymiary_Opisy
100
AcDbMText
 10
280.8742112021524
 20
237.7950369980979
 30
0.0
 40
2.5
 41
0.0
 71
     1
 72
     1
  1
Hydroizolacja
  7
Solbet_2_5
 73
     1
 44
1.0
1001
ACAD
1000
MTEXTBEGIN
1070
    73
1070
     1
1070
    44
1040
1.0
1070
    74
1070
     0
1000
MTEXTEND
  0
LEADER
  5
29AC
330
1F
100
AcDbEntity
  8
SOLBET_Wymiary_Opisy
100
AcDbLeader
  3
Solbet$7
 73
     0
 74
     0
 75
     1
 40
3.25
 41
36.5
 76
     3
 10
261.3075174677307
 20
211.6080183259514
 30
0.0
 10
278.9850079102998
 20
223.7538342886923
 30
0.0
 10
281.4850079102998
 20
223.7538342886923
 30
0.0
213
0.0
223
-0.2322806831707567
233
0.0
1001
ACAD
1000
DSTYLE
1002
{
1070
   147
1040
0.625
1070
    77
1070
     1
1002
}
  0
MTEXT
  5
29AD
102
{ACAD_XDICTIONARY
360
2E2F
102
}
102
{ACAD_REACTORS
330
29AC
102
}
330
1F
100
AcDbEntity
  8
SOLBET_Wymiary_Opisy
100
AcDbMText
 10
280.8742112021524
 20
228.073093879161
 30
0.0
 40
2.5
 41
0.0
 71
     1
 72
     1
  1
P\U+0142yty izolacyjne twarde
  7
Solbet_2_5
 73
     1
 44
1.0
1001
ACAD
1000
MTEXTBEGIN
1070
    73
1070
     1
1070
    44
1040
1.0
1070
    74
1070
     0
1000
MTEXTEND
  0
LINE
  5
29AE
330
1F
100
AcDbEntity
  8
SOLBET_Wymiary_Opisy
100
AcDbLine
 10
266.8437878060309
 20
238.272074287428
 30
0.0
 11
266.8437878060309
 21
183.3076225806691
 31
0.0
  0
LINE
  5
29AF
330
1F
100
AcDbEntity
  8
SOLBET_Izolacja
100
AcDbLine
 10
222.9574418664248
 20
208.905540119652
 30
0.0
 11
266.8437878060309
 21
208.905540119652
 31
0.0
  0
LINE
  5
29B0
330
1F
100
AcDbEntity
  8
SOLBET_Izolacja
100
AcDbLine
 10
222.9574418664248
 20
221.4055401196519
 30
0.0
 11
266.8437878060309
 21
221.405540119652
 31
0.0
  0
LINE
  5
29B1
330
1F
100
AcDbEntity
  8
SOLBET_Tynki_Posadzki
100
AcDbLine
 10
231.5726347284759
 20
238.272074287428
 30
0.0
 11
266.8437878060309
 21
238.272074287428
 31
0.0
  0
LINE
  5
29B2
330
1F
100
AcDbEntity
  8
SOLBET_Emulsje_Folie
100
AcDbLine
 10
223.1577033624659
 20
222.3847366875124
 30
0.0
 11
266.8437878060309
 21
222.3847366875124
 31
0.0
  0
HATCH
  5
29B3
330
1F
100
AcDbEntity
  8
SOLBET_Tynki_Posadzki
100
AcDbHatch
 10
0.0
 20
0.0
 30
0.0
210
0.0
220
0.0
230
1.0
  2
AR-CONC
 70
     0
 71
     0
 91
        1
 92
        5
 93
        4
 72
     2
 10
256.0114436223827
 20
215.1555401196521
 40
33.63970172404727
 50
142.2031821742316
 51
166.0379938227853
 73
     1
 72
     1
 10
223.3655954148972
 20
223.272074287429
 11
266.8437878060306
 21
223.272074287429
 72
     1
 10
266.8437878060309
 20
223.272074287429
 11
266.8437878060315
 21
235.7720742874278
 72
     1
 10
266.8437878060314
 20
235.7720742874278
 11
229.4297196190041
 21
235.7720742874278
 97
        0
 75
     0
 76
     1
 52
0.0
 41
0.03
 77
     0
 78
    13
 53
50.0
 43
892.9396387427866
 44
138.0235213409144
 45
5.46554006988012
 46
-0.4781725661670926
 79
     2
 49
0.5715
 49
-6.2865
 53
355.0
 43
892.9396387427866
 44
138.0235213409144
 45
-1.057284779270009
 46
5.731699286465398
 79
     2
 49
0.4572
 49
-5.029199999999999
 53
100.451
 43
893.3950987427865
 44
137.9836738409144
 45
4.408275049978777
 46
5.253500634608755
 79
     2
 49
0.4857000000000001
 49
-5.342699999999999
 53
46.1842
 43
892.9396387427866
 44
139.5475213409144
 45
8.132371226763897
 46
-1.261269837981814
 79
     2
 49
0.8572499999999999
 49
-9.429749999999998
 53
96.6356
 43
893.6173357427863
 44
139.4424163409144
 45
7.122127033987114
 46
7.422766676701476
 79
     2
 49
0.7285500000000001
 49
-8.014049999999999
 53
351.184
 43
892.9396387427866
 44
139.5475213409144
 45
7.122138174418017
 46
7.422753535817929
 79
     2
 49
0.6858
 49
-7.5438
 53
21.0
 43
893.7016387427865
 44
139.1665213409144
 45
4.548446395061498
 46
-3.067965555502874
 79
     2
 49
0.5715
 49
-6.2865
 53
326.0
 43
893.7016387427865
 44
139.1665213409144
 45
1.854060850429411
 46
5.525638983669577
 79
     2
 49
0.4572
 49
-5.029199999999999
 53
71.45140000000001
 43
894.0806737427864
 44
138.9108583409144
 45
6.402494723103733
 46
2.457685731481723
 79
     2
 49
0.4857000000000001
 49
-5.342699999999999
 53
37.5
 43
892.9396387427866
 44
138.0235213409144
 45
0.0926580975177545
 46
2.536651166194593
 79
     6
 49
0.0
 49
-4.968239999999999
 49
0.0
 49
-5.1054
 49
0.0
 49
-5.04825
 53
7.499999999999999
 43
892.9396387427866
 44
138.0235213409144
 45
2.004589875309172
 46
3.005417244543585
 79
     6
 49
0.0
 49
-2.910839999999999
 49
0.0
 49
-4.853939999999999
 49
0.0
 49
-1.92405
 53
327.5
 43
891.2403787427864
 44
138.0235213409144
 45
4.067717855006141
 46
-0.1718623197802037
 79
     6
 49
0.0
 49
-1.905
 49
0.0
 49
-5.943599999999999
 49
0.0
 49
-7.886699999999999
 53
317.5
 43
890.4783787427865
 44
138.0235213409144
 45
4.443875441580541
 46
0.7627947309999904
 79
     6
 49
0.0
 49
-2.476499999999999
 49
0.0
 49
-3.947159999999999
 49
0.0
 49
-5.600699999999999
 47
0.0387476598051738
 98
        1
 10
246.3142321665747
 20
229.3696125850428
1001
ACAD
1010
0.0
1020
0.0
1030
0.0
  0
LWPOLYLINE
  5
29B4
330
1F
100
AcDbEntity
  8
SOLBET_Tynki_Posadzki
100
AcDbPolyline
 90
        4
 70
     0
 43
0.0
 10
223.3655954148972
 20
223.272074287429
 10
266.8437878060309
 20
223.272074287429
 10
266.8437878060314
 20
235.772074287428
 10
229.4297196190047
 20
235.772074287428
1001
ASO_SCHRAFF
1005
0
1070
     1
1002
{
1070
     1
1005
0
1002
}
1002
{
1070
     2
1005
0
1002
}
1002
{
1070
     4
1000
AR-CONC
1040
0.01
1040
0.0
1070
     0
1000
T__SCHR
1070
   256
1000
_bylayer
1040
50.0
1070
     1
1002
}
  0
LWPOLYLINE
  5
29B5
330
1F
100
AcDbEntity
  8
SOLBET_Beton
100
AcDbPolyline
 90
        3
 70
     0
 43
0.0
 10
223.7766702249006
 20
205.5353053981999
 10
266.8437878060309
 20
205.5353053981999
 10
266.8437878060309
 20
183.3076225806689
  0
LINE
  5
29B6
330
1F
100
AcDbEntity
  8
SOLBET_Izolacja
  6
BATTING
 48
0.6
100
AcDbLine
 10
222.3717418983357
 20
215.155540119652
 30
0.0
 11
266.8437878060309
 21
215.155540119652
 31
0.0
  0
ARC
  5
29B7
330
1F
100
AcDbEntity
  8
SOLBET_Wymiary_Opisy
100
AcDbCircle
 10
256.0114436223827
 20
215.155540119652
 30
0.0
 40
33.6397017240473
100
AcDbArc
 50
136.5926968744823
 51
288.7845676764008
  0
MTEXT
  5
29B8
102
{ACAD_XDICTIONARY
360
2CD8
102
}
330
1F
100
AcDbEntity
  8
SOLBET_Wymiary_Opisy
100
AcDbMText
 10
232.2404422561632
 20
266.9383886175221
 30
0.0
 40
5.0
 41
30.77919768571883
 71
     1
 72
     5
  1
\pxqc;B\P(5 : 1)
  7
Solbet_5
 73
     1
 44
1.0
1001
ACAD
1000
MTEXTBEGIN
1070
    73
1070
     1
1070
    44
1040
1.0
1070
    74
1070
     0
1000
MTEXTEND
1000
ACAD_MTEXT_DEFINED_HEIGHT_BEGIN
1070
    46
1040
23.42535011036716
1000
ACAD_MTEXT_DEFINED_HEIGHT_END
  0
LINE
  5
29B9
330
1F
100
AcDbEntity
  8
SOLBET_Beton
100
AcDbLine
 10
259.6415593651219
 20
205.5353053981999
 30
0.0
 11
259.6415593651219
 21
181.7122778419197
 31
0.0
  0
LINE
  5
29BA
330
1F
100
AcDbEntity
  8
SOLBET_Zbrojenie_Konstrukcja
100
AcDbLine
 10
266.8437878060309
 20
198.1166348830779
 30
0.0
 11
227.0061813339303
 21
198.1166348830779
 31
0.0
  0
LINE
  5
29BB
330
1F
100
AcDbEntity
  8
SOLBET_Zbrojenie_Konstrukcja
100
AcDbLine
 10
253.2664700932804
 20
198.1166348830779
 30
0.0
 11
262.553644576999
 21
182.1581290279877
 31
0.0
  0
LINE
  5
29BC
330
1F
100
AcDbEntity
  8
SOLBET_Zbrojenie_Konstrukcja
100
AcDbLine
 10
253.2664700932804
 20
198.1166348830779
 30
0.0
 11
244.8976515020377
 21
183.4047423849709
 31
0.0
  0
CIRCLE
  5
29BD
330
1F
100
AcDbEntity
  8
SOLBET_Wymiary_Opisy
100
AcDbCircle
 10
149.0585210277957
 20
212.3236445511333
 30
0.0
 40
6.72794034480946
  0
LEADER
  5
29BE
330
1F
100
AcDbEntity
  8
SOLBET_Wymiary_Opisy
100
AcDbLeader
  3
Solbet$7
 73
     0
 74
     0
 75
     1
 40
5.0
 41
4.0
 76
     3
 10
152.6800946979126
 20
217.9936873583113
 30
0.0
 10
155.6512448987291
 20
221.9921740973552
 30
0.0
 10
158.1512448987291
 20
221.9921740973552
 30
0.0
213
0.8103787685154202
223
-0.1753245211093599
233
0.0
1001
ACAD
1000
DSTYLE
1002
{
1070
   341
1005
1EF2
1070
   147
1040
0.625
1070
    77
1070
     1
1002
}
  0
MTEXT
  5
29BF
102
{ACAD_REACTORS
330
29BE
102
}
330
1F
100
AcDbEntity
  8
SOLBET_Wymiary_Opisy
100
AcDbMText
 10
161.9658661302137
 20
227.7924986184646
 30
0.0
 40
5.0
 41
0.0
 71
     3
 72
     1
  1
B
  7
Solbet_5
 73
     1
 44
1.0
1001
ACAD
1000
MTEXTBEGIN
1070
    73
1070
     1
1070
    44
1040
1.0
1070
    74
1070
     0
1000
MTEXTEND
  0
LEADER
  5
29CA
330
1F
100
AcDbEntity
  8
SOLBET_Wymiary_Opisy
100
AcDbLeader
  3
Solbet$7
 73
     0
 74
     0
 75
     1
 40
3.25
 41
20.25
 76
     3
 10
128.1865722825503
 20
198.8961780724889
 30
0.0
 10
163.6614262271027
 20
163.4424816060969
 30
0.0
 10
166.1614262271027
 20
163.4424816060969
 30
0.0
340
29CB
213
1.177601578005123
223
-0.1753245211093599
233
0.0
1001
ACAD
1000
DSTYLE
1002
{
1070
   147
1040
0.625
1070
    77
1070
     1
1002
}
  0
MTEXT
  5
29CB
102
{ACAD_REACTORS
330
29CA
102
}
330
1F
100
AcDbEntity
  8
SOLBET_Wymiary_Opisy
100
AcDbMText
 10
185.8588246490976
 20
167.4928061272063
 30
0.0
 40
2.5
 41
0.0
 71
     3
 72
     1
  1
Tynk SOLBET
  7
Solbet_2_5
 73
     1
 44
1.0
1001
ACAD
1000
MTEXTBEGIN
1070
    73
1070
     1
1070
    44
1040
1.0
1070
    74
1070
     0
1000
MTEXTEND
  0
LEADER
  5
29CC
330
1F
100
AcDbEntity
  8
SOLBET_Wymiary_Opisy
100
AcDbLeader
  3
Solbet$7
 73
     0
 74
     0
 75
     1
 40
3.25
 41
19.5
 76
     3
 10
138.8607656885822
 20
207.8961780724886
 30
0.0
 10
164.0372605870916
 20
178.8065432702854
 30
0.0
 10
166.5372605870916
 20
178.8065432702854
 30
0.0
340
29CD
213
0.6250000000000285
223
-0.1753245211093031
233
0.0
1001
ACAD
1000
DSTYLE
1002
{
1070
   147
1040
0.625
1070
    77
1070
     1
1002
}
  0
MTEXT
  5
29CD
102
{ACAD_REACTORS
330
29CC
102
}
330
1F
100
AcDbEntity
  8
SOLBET_Wymiary_Opisy
100
AcDbMText
 10
186.0372605870916
 20
182.8568677913947
 30
0.0
 40
2.5
 41
0.0
 71
     3
 72
     1
  1
Strop Teriva
  7
Solbet_2_5
 73
     1
 44
1.0
1001
ACAD
1000
MTEXTBEGIN
1070
    73
1070
     1
1070
    44
1040
1.0
1070
    74
1070
     0
1000
MTEXTEND
  0
CIRCLE
  5
29D8
330
1F
100
AcDbEntity
  8
SOLBET_Wymiary_Opisy
100
AcDbCircle
 10
81.28142087231344
 20
87.73470497705089
 30
0.0
 40
12.75985848300672
  0
LINE
  5
29D9
330
1F
100
AcDbEntity
  8
SOLBET_Wymiary_Opisy
100
AcDbLine
 10
68.6894729226616
 20
89.79791493719025
 30
0.0
 11
60.06991050572719
 21
98.45773713706488
 31
0.0
1001
ACAD
1000
DSTYLE
1002
{
1070
   341
1005
0
1070
   147
1040
0.625
1070
    77
1070
     1
1002
}
  0
LINE
  5
29DA
330
1F
100
AcDbEntity
  8
SOLBET_Wymiary_Opisy
100
AcDbLine
 10
52.9449105057272
 20
98.45773713706488
 30
0.0
 11
60.06991050572719
 21
98.45773713706488
 31
0.0
1001
ACAD
1000
DSTYLE
1002
{
1070
   341
1005
0
1070
   147
1040
0.625
1070
    77
1070
     1
1002
}
  0
MTEXT
  5
29DB
330
1F
100
AcDbEntity
  8
SOLBET_Wymiary_Opisy
100
AcDbMText
 10
58.79162832810539
 20
104.8953425676651
 30
0.0
 40
5.0
 41
0.0
 71
     3
 72
     1
  1
A
  7
Solbet_5
 73
     1
 44
1.0
1001
ACAD
1000
MTEXTBEGIN
1070
    73
1070
     1
1070
    44
1040
1.0
1070
    74
1070
     0
1000
MTEXTEND
  0
INSERT
  5
29DC
330
1F
100
AcDbEntity
  8
SOLBET_Zbrojenie_Konstrukcja
100
AcDbBlockReference
  2
*U7
 10
-939.4937451531959
 20
-506.344552320272
 30
0.0
 41
150.0
 42
150.0
 43
150.0
1001
ASO_SCHRAFF
1005
0
1070
     0
1005
0
  0
INSERT
  5
29DD
330
1F
100
AcDbEntity
  8
SOLBET_Zbrojenie_Konstrukcja
100
AcDbBlockReference
  2
*U7
 10
1470.627918231735
 20
-506.344552320272
 30
0.0
 41
-150.0
 42
150.0
 43
150.0
1001
ASO_SCHRAFF
1005
0
1070
     0
1005
0
  0
LINE
  5
29DE
330
1F
100
AcDbEntity
  8
SOLBET_Zaprawy
100
AcDbLine
 10
233.2257645271937
 20
76.83373216017049
 30
0.0
 11
233.2257645271945
 21
115.7221395694893
 31
0.0
  0
LINE
  5
29DF
330
1F
100
AcDbEntity
  8
SOLBET_Tynki_Posadzki
100
AcDbLine
 10
231.8257299467912
 20
79.43189769597484
 30
0.0
 11
231.8257299467912
 21
113.1239740336822
 31
0.0
  0
LINE
  5
29E0
330
1F
100
AcDbEntity
  8
SOLBET_Tynki_Posadzki
100
AcDbLine
 10
298.5757299468085
 20
116.7006578168883
 30
0.0
 11
298.5757299468085
 21
75.8552139127703
 31
0.0
  0
ARC
  5
29E8
330
1F
100
AcDbEntity
  8
SOLBET_Wymiary_Opisy
100
AcDbCircle
 10
266.1992211074337
 20
96.27793586482926
 30
0.0
 40
38.27957544902017
100
AcDbArc
 50
32.24324815096004
 51
153.8910767693325
  0
LINE
  5
29EA
330
1F
100
AcDbEntity
  8
SOLBET_Bloczki
100
AcDbLine
 10
234.0757311707319
 20
117.0963721856453
 30
0.0
 11
234.0757312135354
 21
116.3867875073509
 31
0.0
  0
LINE
  5
29EB
330
1F
100
AcDbEntity
  8
SOLBET_Bloczki
100
AcDbLine
 10
234.0757312135354
 20
116.3867875073509
 30
0.0
 11
297.0757312135354
 21
116.3867875073509
 31
0.0
  0
LINE
  5
29EC
330
1F
100
AcDbEntity
  8
SOLBET_Bloczki
100
AcDbLine
 10
297.0757312135354
 20
116.3867875073509
 30
0.0
 11
297.0757312135354
 21
118.9046240941087
 31
0.0
  0
LINE
  5
29F4
330
1F
100
AcDbEntity
  8
SOLBET_Bloczki
100
AcDbLine
 10
297.0757303690395
 20
80.38678750735016
 30
0.0
 11
297.0757303690405
 21
73.65124648314645
 31
0.0
  0
LINE
  5
29F5
330
1F
100
AcDbEntity
  8
SOLBET_Bloczki
100
AcDbLine
 10
297.0757303690395
 20
80.38678750735016
 30
0.0
 11
234.0757303690395
 21
80.38678750735016
 31
0.0
  0
LINE
  5
29F6
330
1F
100
AcDbEntity
  8
SOLBET_Bloczki
100
AcDbLine
 10
234.0757303690395
 20
80.38678750735016
 30
0.0
 11
234.0757303690395
 21
75.45950078104948
 31
0.0
  0
ARC
  5
29F8
330
1F
100
AcDbEntity
  8
SOLBET_Wymiary_Opisy
100
AcDbCircle
 10
266.1992211074337
 20
96.27793586482926
 30
0.0
 40
38.27957544902017
100
AcDbArc
 50
206.1089232306687
 51
327.7567518490399
  0
LINE
  5
29FC
330
1F
100
AcDbEntity
  8
SOLBET_Wymiary_Opisy
100
AcDbLine
 10
55.65304411677925
 20
236.7424577808825
 30
0.0
 11
25.27804411677926
 21
236.7424577808825
 31
0.0
1001
ACAD
1000
DSTYLE
1002
{
1070
   147
1040
0.625
1070
    77
1070
     1
1002
}
  0
INSERT
  5
29FD
330
1F
100
AcDbEntity
  8
SOLBET_Wymiary_Opisy
100
AcDbBlockReference
  2
_DotSmall
 10
82.70594931197114
 20
211.7711790012184
 30
0.0
 41
2.499999999999984
 42
2.5
 43
2.5
 50
311.4559218958326
1001
ACAD
1000
DSTYLE
1002
{
1070
   147
1040
0.625
1070
    77
1070
     1
1002
}
  0
LINE
  5
29FE
330
1F
100
AcDbEntity
  8
SOLBET_Wymiary_Opisy
100
AcDbLine
 10
82.70594931197114
 20
211.7711790012184
 30
0.0
 11
55.65304411677925
 21
236.7424577808825
 31
0.0
1001
ACAD
1000
DSTYLE
1002
{
1070
   147
1040
0.625
1070
    77
1070
     1
1002
}
  0
LINE
  5
2A01
330
1F
100
AcDbEntity
  8
SOLBET_Wymiary_Opisy
100
AcDbLine
 10
305.1576483095339
 20
136.2862496078939
 30
0.0
 11
277.5308533699963
 21
136.2862496078939
 31
0.0
1001
ACAD
1000
DSTYLE
1002
{
1070
   147
1040
0.625
1070
    77
1070
     1
1002
}
  0
MTEXT
  5
2A02
330
1F
100
AcDbEntity
  8
SOLBET_Wymiary_Opisy
100
AcDbMText
 10
305.1576483095339
 20
140.3365741290033
 30
0.0
 40
2.5
 41
0.0
 71
     3
 72
     1
  1
Zbrojenie MURFOR
  7
Solbet_2_5
 73
     1
 44
1.0
1001
ACAD
1000
MTEXTBEGIN
1070
    73
1070
     1
1070
    44
1040
1.0
1070
    74
1070
     0
1000
MTEXTEND
  0
INSERT
  5
2A03
330
1F
100
AcDbEntity
  8
SOLBET_Wymiary_Opisy
100
AcDbBlockReference
  2
_DotSmall
 10
265.5757299467898
 20
116.866502179716
 30
0.0
 41
2.499999999999988
 42
2.5
 43
2.5
 50
311.4559218958325
1001
ACAD
1000
DSTYLE
1002
{
1070
   147
1040
0.625
1070
    77
1070
     1
1002
}
  0
LINE
  5
2A04
330
1F
100
AcDbEntity
  8
SOLBET_Wymiary_Opisy
100
AcDbLine
 10
265.5757299467898
 20
116.866502179716
 30
0.0
 11
277.5308533699963
 21
136.2862496078939
 31
0.0
1001
ACAD
1000
DSTYLE
1002
{
1070
   147
1040
0.625
1070
    77
1070
     1
1002
}
  0
LEADER
  5
2A17
330
1F
100
AcDbEntity
  8
SOLBET_Wymiary_Opisy
100
AcDbLeader
  3
Solbet$7
 73
     0
 75
     1
 40
3.25
 41
39.25
 76
     3
 10
231.8257299467912
 20
104.3152567226778
 30
0.0
 10
223.7816288358772
 20
111.4130576368358
 30
0.0
 10
221.2816288358772
 20
111.4130576368358
 30
0.0
340
2A18
213
1.177601578005123
223
-0.1753245211093599
233
0.0
1001
ACAD
1000
DSTYLE
1002
{
1070
   147
1040
0.625
1070
    77
1070
     1
1002
}
  0
MTEXT
  5
2A18
102
{ACAD_XDICTIONARY
360
2E31
102
}
102
{ACAD_REACTORS
330
2A17
102
}
330
1F
100
AcDbEntity
  8
SOLBET_Wymiary_Opisy
100
AcDbMText
 10
180.2290272578721
 20
115.4633821579451
 30
0.0
 40
2.5
 41
0.0
 71
     1
 72
     1
  1
Tynk zewn\U+0119trzny SOLBET 
  7
Solbet_2_5
 73
     1
 44
1.0
1001
ACAD
1000
MTEXTBEGIN
1070
    73
1070
     1
1070
    44
1040
1.0
1070
    74
1070
     0
1000
MTEXTEND
  0
LEADER
  5
2A19
330
1F
100
AcDbEntity
  8
SOLBET_Wymiary_Opisy
100
AcDbLeader
  3
Solbet$7
 40
7.416666666666666
 41
49.25
 76
     2
 10
233.2257645271941
 20
95.22684131269716
 30
0.0
 10
224.2916823933965
 20
98.12127047586178
 30
0.0
213
1.177601578005123
223
-0.1753245211093599
233
0.0
1001
ACAD
1000
DSTYLE
1002
{
1070
   147
1040
0.625
1070
    77
1070
     1
1002
}
  0
LEADER
  5
2A1B
330
1F
100
AcDbEntity
  8
SOLBET_Wymiary_Opisy
100
AcDbLeader
  3
Solbet$7
 73
     0
 75
     1
 40
2.501893939393939
 41
32.0
 76
     3
 10
236.5374734454283
 20
82.9058385588612
 30
0.0
 10
224.7073138662545
 20
90.75174553362518
 30
0.0
 10
222.2073138662545
 20
90.75174553362518
 30
0.0
340
2A1C
213
1.177601578005123
223
-0.1753245211093599
233
0.0
1001
ACAD
1000
DSTYLE
1002
{
1070
   147
1040
0.625
1070
    77
1070
     1
1002
}
  0
MTEXT
  5
2A1C
102
{ACAD_REACTORS
330
2A1B
102
}
330
1F
100
AcDbEntity
  8
SOLBET_Wymiary_Opisy
100
AcDbMText
 10
188.4047122882493
 20
94.05396399412849
 30
0.0
 40
2.5
 41
0.0
 71
     1
 72
     1
  1
Bloczki SOLBET Ideal
  7
Solbet_2_5
 73
     1
 44
1.0
1001
ACAD
1000
MTEXTBEGIN
1070
    73
1070
     1
1070
    44
1040
1.0
1070
    74
1070
     0
1000
MTEXTEND
  0
LEADER
  5
2A1D
330
1F
100
AcDbEntity
  8
SOLBET_Wymiary_Opisy
100
AcDbLeader
  3
Solbet$7
 73
     0
 40
3.25
 41
39.75
 76
     2
 10
298.5757299468085
 20
91.54033558748391
 30
0.0
 10
223.9187631510244
 20
76.21437843376111
 30
0.0
340
2A1E
213
0.4922707006608107
223
-1.244781486015881
233
0.0
1001
ACAD
1000
DSTYLE
1002
{
1070
   147
1040
0.625
1070
    77
1070
     1
1002
}
  0
MTEXT
  5
2A1E
102
{ACAD_XDICTIONARY
360
2E33
102
}
102
{ACAD_REACTORS
330
2A1D
102
}
330
1F
100
AcDbEntity
  8
SOLBET_Wymiary_Opisy
100
AcDbMText
 10
222.8014924503636
 20
81.33415991977699
 30
0.0
 40
2.5
 41
0.0
 71
     3
 72
     1
  1
Tynk wewn\U+0119trzny SOLBET 
  7
Solbet_2_5
 73
     1
 44
1.0
1001
ACAD
1000
MTEXTBEGIN
1070
    73
1070
     1
1070
    44
1040
1.0
1070
    74
1070
     0
1000
MTEXTEND
  0
MTEXT
  5
2A26
102
{ACAD_XDICTIONARY
360
2CDA
102
}
330
1F
100
AcDbEntity
  8
SOLBET_Wymiary_Opisy
100
AcDbMText
 10
228.1639209207881
 20
157.8348183427358
 30
0.0
 40
5.0
 41
30.77919768571883
 71
     1
 72
     5
  1
\pxqc;A\P(3 : 1)
  7
Solbet_5
 73
     1
 44
1.0
1001
ACAD
1000
MTEXTBEGIN
1070
    73
1070
     1
1070
    44
1040
1.0
1070
    74
1070
     0
1000
MTEXTEND
1000
ACAD_MTEXT_DEFINED_HEIGHT_BEGIN
1070
    46
1040
23.42535011036716
1000
ACAD_MTEXT_DEFINED_HEIGHT_END
  0
MTEXT
  5
2A29
102
{ACAD_XDICTIONARY
360
2E35
102
}
330
1F
100
AcDbEntity
  8
SOLBET_Wymiary_Opisy
100
AcDbMText
 10
57.51477898803841
 20
51.65051581801032
 30
0.0
 40
2.5
 41
0.0
 71
     1
 72
     1
  1
Profil tynkarski naro\U+017Cny
  7
Solbet_2_5
 73
     1
 44
1.0
1001
ACAD
1000
MTEXTBEGIN
1070
    73
1070
     1
1070
    44
1040
1.0
1070
    74
1070
     0
1000
MTEXTEND
  0
LEADER
  5
2A2A
330
1F
100
AcDbEntity
  8
SOLBET_Wymiary_Opisy
100
AcDbLeader
  3
Solbet$7
 73
     0
 75
     1
 40
2.5
 41
20.0
 76
     3
 10
114.9737779639038
 20
28.91906319238314
 30
0.0
 10
82.41465188424944
 20
14.91825529572722
 30
0.0
 10
79.91465188424945
 20
14.91825529572722
 30
0.0
340
2A2B
213
1.177601578005123
223
-0.1753245211093599
233
0.0
1001
ACAD
1000
DSTYLE
1002
{
1070
   147
1040
0.625
1070
    77
1070
     1
1002
}
  0
MTEXT
  5
2A2B
102
{ACAD_REACTORS
330
2A2A
102
}
330
1F
100
AcDbEntity
  8
SOLBET_Wymiary_Opisy
100
AcDbMText
 10
58.11205030624432
 20
18.21857981683658
 30
0.0
 40
2.5
 41
0.0
 71
     1
 72
     1
  1
Uszczelnienie
  7
Solbet_2_5
 73
     1
 44
1.0
1001
ACAD
1000
MTEXTBEGIN
1070
    73
1070
     1
1070
    44
1040
1.0
1070
    74
1070
     0
1000
MTEXTEND
  0
LEADER
  5
2A2C
330
1F
100
AcDbEntity
  8
SOLBET_Wymiary_Opisy
100
AcDbLeader
  3
Solbet$7
 73
     0
 40
3.25
 41
27.5
 76
     2
 10
114.2182112749018
 20
32.25562891476599
 30
0.0
 10
82.41465188424944
 20
36.12241894316985
 30
0.0
340
2A2D
213
0.727144270117833
223
-0.6554414657568231
233
0.0
1001
ACAD
1000
DSTYLE
1002
{
1070
   147
1040
0.625
1070
    77
1070
     1
1002
}
  0
MTEXT
  5
2A2D
102
{ACAD_REACTORS
330
2A2C
102
}
330
1F
100
AcDbEntity
  8
SOLBET_Wymiary_Opisy
100
AcDbMText
 10
53.56250761413162
 20
40.65286040892667
 30
0.0
 40
2.5
 41
0.0
 71
     1
 72
     1
  1
Prowadnica rolety
  7
Solbet_2_5
 73
     1
 44
1.0
1001
ACAD
1000
MTEXTBEGIN
1070
    73
1070
     1
1070
    44
1040
1.0
1070
    74
1070
     0
1000
MTEXTEND
  0
INSERT
  5
2A2E
330
1F
100
AcDbEntity
  8
SOLBET_Wymiary_Opisy
100
AcDbBlockReference
  2
_DotSmall
 10
115.1953645900955
 20
38.31911126102875
 30
0.0
 41
2.499999999999959
 42
2.5
 43
2.5
 50
329.2949526565815
1001
ACAD
1000
DSTYLE
1002
{
1070
   147
1040
0.625
1070
    77
1070
     1
1002
}
  0
LINE
  5
2A30
330
1F
100
AcDbEntity
  8
SOLBET_Wymiary_Opisy
100
AcDbLine
 10
115.1953645900955
 20
38.31911126102875
 30
0.0
 11
99.56738056604354
 21
47.60019129690095
 31
0.0
1001
ACAD
1000
DSTYLE
1002
{
1070
   147
1040
0.625
1070
    77
1070
     1
1002
}
  0
LINE
  5
2A31
330
1F
100
AcDbEntity
  8
SOLBET_Wymiary_Opisy
100
AcDbLine
 10
99.56738056604354
 20
47.60019129690095
 30
0.0
 11
58.69238056604354
 21
47.60019129690095
 31
0.0
1001
ACAD
1000
DSTYLE
1002
{
1070
   147
1040
0.625
1070
    77
1070
     1
1002
}
  0
INSERT
  5
2A32
330
1F
100
AcDbEntity
  8
SOLBET_Wymiary_Opisy
100
AcDbBlockReference
  2
_DotSmall
 10
115.1953645900955
 20
16.73495756721729
 30
0.0
 41
2.499999999999958
 42
2.5
 43
2.5
 50
329.2949526565815
1001
ACAD
1000
DSTYLE
1002
{
1070
   147
1040
0.625
1070
    77
1070
     1
1002
}
  0
LINE
  5
2A33
330
1F
100
AcDbEntity
  8
SOLBET_Wymiary_Opisy
100
AcDbLine
 10
115.1953645900955
 20
16.73495756721729
 30
0.0
 11
99.56738056604365
 21
47.60019129690095
 31
0.0
1001
ACAD
1000
DSTYLE
1002
{
1070
   147
1040
0.625
1070
    77
1070
     1
1002
}
  0
LINE
  5
2AE0
330
1F
100
AcDbEntity
  8
SOLBET_Stolarka_Okna
100
AcDbLine
 10
65.46547237777963
 20
99.85653034764522
 30
0.0
 11
65.46547237777963
 21
100.4289486106304
 31
0.0
  0
LINE
  5
2B2B
330
1F
100
AcDbEntity
  8
SOLBET_Tynki_Posadzki
100
AcDbLine
 10
92.87165667662156
 20
217.3109621539652
 30
0.0
 11
92.87165667662156
 21
216.8109621539648
 31
0.0
  0
TEXT
  5
2BC0
330
1F
100
AcDbEntity
  8
SOLBET_Wymiary_Opisy
100
AcDbText
 10
171.2512425337088
 20
103.8382616636378
 30
0.0
 40
2.5
  1
Siatka z klejem SOLBET Gabit T
  7
Solbet_2_5
100
AcDbText
  0
TEXT
  5
2BC1
330
1F
100
AcDbEntity
  8
SOLBET_Wymiary_Opisy
100
AcDbText
 10
196.462725601352
 20
99.67159499697114
 30
0.0
 40
2.5
  1
jeżeli wymagane
  7
Solbet_2_5
100
AcDbText
  0
LINE
  5
2BC2
330
1F
100
AcDbEntity
  8
SOLBET_Wymiary_Opisy
100
AcDbLine
 10
224.2916823933965
 20
98.12127047586178
 30
0.0
 11
172.1463255709013
 21
98.12127047586178
 31
0.0
  0
LINE
  5
2C1A
330
1F
100
AcDbEntity
  8
SOLBET_Zbrojenie_Konstrukcja
100
AcDbLine
 10
78.11065380450617
 20
211.4817870999878
 30
0.0
 11
87.88905060252677
 21
211.4817870999878
 31
0.0
  0
LINE
  5
2C1B
330
1F
100
AcDbEntity
  8
SOLBET_Zbrojenie_Konstrukcja
100
AcDbLine
 10
76.1843920864224
 20
94.50758567336434
 30
0.0
 11
85.96278888444288
 21
94.50758567336434
 31
0.0
  0
LINE
  5
2C1C
330
1F
100
AcDbEntity
  8
SOLBET_Zbrojenie_Konstrukcja
100
AcDbLine
 10
250.8994913422384
 20
116.5666300150512
 30
0.0
 11
280.2346817363004
 21
116.5666300150512
 31
0.0
  0
INSERT
  5
2D2F
330
1F
100
AcDbEntity
  8
SOLBET_Bloczki
100
AcDbBlockReference
  2
SOLBET_Nadproze_120x240x1400_zz_PRA
 10
70.57359129566909
 20
187.4376551523967
 30
0.0
  0
INSERT
  5
2D30
330
1F
100
AcDbEntity
  8
SOLBET_Bloczki
100
AcDbBlockReference
  2
SOLBET_Nadproze_120x240x1400_zz_PRA
 10
70.57359129566909
 20
175.4376551523967
 30
0.0
  0
INSERT
  5
2D31
330
1F
100
AcDbEntity
  8
SOLBET_Bloczki
100
AcDbBlockReference
  2
SOLBET_Nadproze_120x240x1400_zz_PRA
 10
85.57359129566908
 20
187.4376551523967
 30
0.0
  0
INSERT
  5
2D47
330
1F
100
AcDbEntity
  8
SOLBET_Bloczki
100
AcDbBlockReference
  2
SOLBET_Nadproze_180x240x2300_zz_PRA
 10
76.57359088976661
 20
187.4376550279083
 30
0.0
  0
INSERT
  5
2D58
330
1F
100
AcDbEntity
  8
SOLBET_Bloczki
100
AcDbBlockReference
  2
SOLBET_Bloczek_Ideal_420x240x590_P+W_KG400_PRA
 10
70.57359040352617
 20
211.437655287659
 30
0.0
  0
INSERT
  5
2D59
330
1F
100
AcDbEntity
  8
SOLBET_Bloczki
100
AcDbBlockReference
  2
SOLBET_Bloczek_Ideal_420x240x590_P+W_KG400_PRA
 10
70.57359054427547
 20
223.4376554918075
 30
0.0
  0
INSERT
  5
2D90
330
1F
100
AcDbEntity
  8
SOLBET_Bloczki
100
AcDbBlockReference
  2
SOLBET_Bloczek_Ideal_420x240x590_P+W_KG400_PRA
 10
70.57359076693138
 20
82.43765549180706
 30
0.0
  0
INSERT
  5
2D91
330
1F
100
AcDbEntity
  8
SOLBET_Bloczki
100
AcDbBlockReference
  2
SOLBET_Bloczek_Ideal_420x240x590_P+W_KG400_PRA
 10
70.57359076693138
 20
70.43765566320434
 30
0.0
  0
INSERT
  5
2D92
330
1F
100
AcDbEntity
  8
SOLBET_Bloczki
100
AcDbBlockReference
  2
SOLBET_Bloczek_Ideal_420x240x590_P+W_KG400_PRA
 10
234.0757299467916
 20
80.38678689490508
 30
0.0
 41
3.000000000000014
 42
3.0
 43
3.0
  0
MTEXT
  5
2DD9
102
{ACAD_XDICTIONARY
360
2DDA
102
}
330
1F
100
AcDbEntity
  8
SOLBET_Wymiary_Opisy
100
AcDbMText
 10
301.5032906919232
 20
8.25938504565272
 30
0.0
 40
5.0
 41
0.0
 71
     1
 72
     5
  1
Skala 1:20
  7
Solbet_5
 73
     1
 44
1.0
1001
ACAD
1000
MTEXTBEGIN
1070
    73
1070
     1
1070
    44
1040
1.0
1070
    74
1070
     0
1000
MTEXTEND
1000
ACAD_MTEXT_DEFINED_HEIGHT_BEGIN
1070
    46
1040
5.395147572682731
1000
ACAD_MTEXT_DEFINED_HEIGHT_END
  0
LWPOLYLINE
  5
2DDC
330
1F
100
AcDbEntity
  8
SOLBET_Ramka_05
100
AcDbPolyline
 90
        4
 70
     1
 43
0.0
 10
298.4846245710094
 20
10.79045570917265
 10
334.6008014584315
 20
10.79045570917265
 10
334.6008014584315
 20
0.9862345102371818
 10
298.4846245710094
 20
0.9862345102371818
  0
ENDSEC
  0
SECTION
  2
OBJECTS
  0
DICTIONARY
  5
C
330
0
100
AcDbDictionary
281
     1
  3
ACAD_COLOR
350
6B
  3
ACAD_GROUP
350
D
  3
ACAD_LAYOUT
350
1A
  3
ACAD_MATERIAL
350
6A
  3
ACAD_MLEADERSTYLE
350
12D
  3
ACAD_MLINESTYLE
350
17
  3
ACAD_PLOTSETTINGS
350
19
  3
ACAD_PLOTSTYLENAME
350
E
  3
ACAD_SCALELIST
350
10C
  3
ACAD_TABLESTYLE
350
7E
  3
ACAD_VISUALSTYLE
350
EF
  3
ACDB_RECOMPOSE_DATA
350
15D
  3
AcDbVariableDictionary
350
5E
  3
DWGPROPS
350
2E15
  0
DICTIONARY
  5
443
330
8
100
AcDbDictionary
280
     1
281
     1
  0
DICTIONARY
  5
3E5
330
2
100
AcDbDictionary
280
     1
281
     1
  3
ACAD_LAYERFILTERS
360
2908
  3
ACLYDICTIONARY
360
2907
  0
DICTIONARY
  5
13C
330
10
100
AcDbDictionary
280
     1
281
     1
  3
ADSK_XREC_LAYER_RECONCILED
360
3F4
  0
DICTIONARY
  5
403
330
3DD
100
AcDbDictionary
280
     1
281
     1
  3
ADSK_XREC_LAYER_RECONCILED
360
404
  0
DICTIONARY
  5
405
330
3DF
100
AcDbDictionary
280
     1
281
     1
  3
ADSK_XREC_LAYER_RECONCILED
360
406
  0
DICTIONARY
  5
407
330
3E0
100
AcDbDictionary
280
     1
281
     1
  3
ADSK_XREC_LAYER_RECONCILED
360
408
  0
DICTIONARY
  5
409
330
3E1
100
AcDbDictionary
280
     1
281
     1
  3
ADSK_XREC_LAYER_RECONCILED
360
40A
  0
DICTIONARY
  5
40B
330
3E2
100
AcDbDictionary
280
     1
281
     1
  3
ADSK_XREC_LAYER_RECONCILED
360
40C
  0
DICTIONARY
  5
40F
330
3E4
100
AcDbDictionary
280
     1
281
     1
  3
ADSK_XREC_LAYER_RECONCILED
360
410
  0
DICTIONARY
  5
411
330
3E8
100
AcDbDictionary
280
     1
281
     1
  3
ADSK_XREC_LAYER_RECONCILED
360
412
  0
DICTIONARY
  5
2CD6
330
2CD5
100
AcDbDictionary
280
     1
281
     1
  3
ASDK_XREC_ANNO_SCALE_INFO
360
2CD7
  0
DICTIONARY
  5
4A3
330
1F
100
AcDbDictionary
280
     1
281
     1
  3
ACAD_SORTENTS
360
4A4
  0
DICTIONARY
  5
248A
330
2480
100
AcDbDictionary
280
     1
281
     1
  3
ACAD_SORTENTS
360
284B
  0
DICTIONARY
  5
27EE
330
27E2
100
AcDbDictionary
280
     1
281
     1
  3
ACAD_SORTENTS
360
27EF
  0
DICTIONARY
  5
2867
330
285D
100
AcDbDictionary
280
     1
281
     1
  3
ACAD_SORTENTS
360
2868
  0
DICTIONARY
  5
2876
330
286C
100
AcDbDictionary
280
     1
281
     1
  3
ACAD_SORTENTS
360
2877
  0
DICTIONARY
  5
2D2B
330
2D1A
100
AcDbDictionary
280
     1
281
     1
  3
ACAD_SORTENTS
360
2D2C
  0
DICTIONARY
  5
2D43
330
2D32
100
AcDbDictionary
280
     1
281
     1
  3
ACAD_SORTENTS
360
2D44
  0
DICTIONARY
  5
2D54
330
2D48
100
AcDbDictionary
280
     1
281
     1
  3
ACAD_SORTENTS
360
2D55
  0
DICTIONARY
  5
27DE
330
27DD
100
AcDbDictionary
280
     1
281
     1
  3
ACAD_MTEXT_RT
360
2E22
  3
AcDbContextDataManager
360
27DF
  0
DICTIONARY
  5
2944
330
2936
100
AcDbDictionary
280
     1
281
     1
  3
ACAD_DIMASSOC
360
294F
  0
DICTIONARY
  5
2E23
330
295B
100
AcDbDictionary
280
     1
281
     1
  3
ACAD_MTEXT_RT
360
2E24
  0
DICTIONARY
  5
2E25
330
2963
100
AcDbDictionary
280
     1
281
     1
  3
ACAD_MTEXT_RT
360
2E26
  0
DICTIONARY
  5
2E27
330
2965
100
AcDbDictionary
280
     1
281
     1
  3
ACAD_MTEXT_RT
360
2E28
  0
DICTIONARY
  5
2E29
330
2967
100
AcDbDictionary
280
     1
281
     1
  3
ACAD_MTEXT_RT
360
2E2A
  0
DICTIONARY
  5
2E2B
330
2985
100
AcDbDictionary
280
     1
281
     1
  3
ACAD_MTEXT_RT
360
2E2C
  0
DICTIONARY
  5
2E2D
330
29A7
100
AcDbDictionary
280
     1
281
     1
  3
ACAD_MTEXT_RT
360
2E2E
  0
DICTIONARY
  5
2E2F
330
29AD
100
AcDbDictionary
280
     1
281
     1
  3
ACAD_MTEXT_RT
360
2E30
  0
DICTIONARY
  5
2CD8
330
29B8
100
AcDbDictionary
280
     1
281
     1
  3
ACAD_MTEXT_2008_RT
360
2CD9
  0
DICTIONARY
  5
2E31
330
2A18
100
AcDbDictionary
280
     1
281
     1
  3
ACAD_MTEXT_RT
360
2E32
  0
DICTIONARY
  5
2E33
330
2A1E
100
AcDbDictionary
280
     1
281
     1
  3
ACAD_MTEXT_RT
360
2E34
  0
DICTIONARY
  5
2CDA
330
2A26
100
AcDbDictionary
280
     1
281
     1
  3
ACAD_MTEXT_2008_RT
360
2CDB
  0
DICTIONARY
  5
2E35
330
2A29
100
AcDbDictionary
280
     1
281
     1
  3
ACAD_MTEXT_RT
360
2E36
  0
DICTIONARY
  5
2DDA
330
2DD9
100
AcDbDictionary
280
     1
281
     1
  3
ACAD_MTEXT_2008_RT
360
2DDB
  0
DICTIONARY
  5
6B
102
{ACAD_REACTORS
330
C
102
}
330
C
100
AcDbDictionary
281
     1
  0
DICTIONARY
  5
D
102
{ACAD_REACTORS
330
C
102
}
330
C
100
AcDbDictionary
281
     1
  0
DICTIONARY
  5
1A
102
{ACAD_REACTORS
330
C
102
}
330
C
100
AcDbDictionary
281
     1
  3
Arkusz1
350
D3
  3
Arkusz2
350
D7
  3
Model
350
22
  0
DICTIONARY
  5
6A
102
{ACAD_REACTORS
330
C
102
}
330
C
100
AcDbDictionary
281
     1
  3
ByBlock
350
ED
  3
ByLayer
350
EC
  3
Global
350
EE
  0
DICTIONARY
  5
12D
102
{ACAD_REACTORS
330
C
102
}
330
C
100
AcDbDictionary
281
     1
  3
Standard
350
12E
  0
DICTIONARY
  5
17
102
{ACAD_REACTORS
330
C
102
}
330
C
100
AcDbDictionary
281
     1
  3
SOLBET_IZOLACJA
350
7E9
  3
Standard
350
18
  0
DICTIONARY
  5
19
102
{ACAD_REACTORS
330
C
102
}
330
C
100
AcDbDictionary
281
     1
  0
ACDBDICTIONARYWDFLT
  5
E
102
{ACAD_REACTORS
330
C
102
}
330
C
100
AcDbDictionary
281
     1
  3
Normal
350
F
100
AcDbDictionaryWithDefault
340
F
  0
DICTIONARY
  5
10C
102
{ACAD_REACTORS
330
C
102
}
330
C
100
AcDbDictionary
281
     1
  3
A0
350
10D
  3
A1
350
188
  3
A2
350
189
  3
A3
350
18A
  3
A4
350
18B
  3
A5
350
18C
  3
A6
350
18D
  3
A7
350
18E
  3
A8
350
18F
  3
A9
350
190
  3
B0
350
191
  3
B1
350
192
  3
B2
350
193
  3
B3
350
194
  3
B4
350
195
  3
B5
350
196
  3
B6
350
197
  3
B7
350
198
  3
B8
350
199
  3
B9
350
19A
  3
C0
350
19B
  3
C1
350
19C
  3
C2
350
19D
  3
C3
350
19E
  3
C4
350
19F
  3
C5
350
1A0
  3
C6
350
1A1
  3
C7
350
1A2
  3
C8
350
1A3
  3
C9
350
1A4
  3
D0
350
1A5
  3
D1
350
1A6
  3
D2
350
1A7
  0
DICTIONARY
  5
7E
102
{ACAD_REACTORS
330
C
102
}
330
C
100
AcDbDictionary
281
     1
  3
Standard
350
7F
  0
DICTIONARY
  5
EF
102
{ACAD_REACTORS
330
C
102
}
330
C
100
AcDbDictionary
281
     1
  3
2dWireframe
350
F5
  3
3D Hidden
350
F7
  3
3dWireframe
350
F6
  3
Basic
350
F4
  3
Brighten
350
FB
  3
ColorChange
350
FF
  3
Conceptual
350
F8
  3
Dim
350
FA
  3
Facepattern
350
FE
  3
Flat
350
F0
  3
FlatWithEdges
350
F1
  3
Gouraud
350
F2
  3
GouraudWithEdges
350
F3
  3
Linepattern
350
FD
  3
Realistic
350
F9
  3
Thicken
350
FC
  0
XRECORD
  5
15D
102
{ACAD_REACTORS
330
C
102
}
330
C
100
AcDbXrecord
280
     1
 90
        1
330
7F
330
27DD
330
29B8
330
2A26
  0
DICTIONARY
  5
5E
102
{ACAD_REACTORS
330
C
102
}
330
C
100
AcDbDictionary
281
     1
  3
CANNOSCALE
350
146
  3
CMLEADERSTYLE
350
145
  3
CTABLESTYLE
350
84
  3
DIMASSOC
350
5F
  3
HIDETEXT
350
63
  3
INDEXCTL
350
466
  3
LIGHTINGUNITS
350
464
  3
MSLTSCALE
350
463
  3
PSOLHEIGHT
350
2E14
  3
PSOLWIDTH
350
2E13
  3
SORTENTS
350
465
  0
XRECORD
  5
2E15
102
{ACAD_REACTORS
330
C
102
}
330
C
100
AcDbXrecord
280
     1
  1
DWGPROPS COOKIE
  2

  3

  4

  6

  7

  8
Olus
  9

300
=
301
=
302
=
303
=
304
=
305
=
306
=
307
=
308
=
309
=
 40
0.5319254976851852
 41
2454690.075573148
 42
2454848.862851829
  1

 90
        0
  0
DICTIONARY
  5
2908
102
{ACAD_REACTORS
330
3E5
102
}
330
3E5
100
AcDbDictionary
281
     1
  0
DICTIONARY
  5
2907
102
{ACAD_REACTORS
330
3E5
102
}
330
3E5
100
AcDbDictionary
281
     1
1001
ACAD
1000
<All
  0
XRECORD
  5
3F4
102
{ACAD_REACTORS
330
13C
102
}
330
13C
100
AcDbXrecord
280
     1
290
     1
  0
XRECORD
  5
404
102
{ACAD_REACTORS
330
403
102
}
330
403
100
AcDbXrecord
280
     1
290
     1
  0
XRECORD
  5
406
102
{ACAD_REACTORS
330
405
102
}
330
405
100
AcDbXrecord
280
     1
290
     1
  0
XRECORD
  5
408
102
{ACAD_REACTORS
330
407
102
}
330
407
100
AcDbXrecord
280
     1
290
     1
  0
XRECORD
  5
40A
102
{ACAD_REACTORS
330
409
102
}
330
409
100
AcDbXrecord
280
     1
290
     1
  0
XRECORD
  5
40C
102
{ACAD_REACTORS
330
40B
102
}
330
40B
100
AcDbXrecord
280
     1
290
     1
  0
XRECORD
  5
410
102
{ACAD_REACTORS
330
40F
102
}
330
40F
100
AcDbXrecord
280
     1
290
     1
  0
XRECORD
  5
412
102
{ACAD_REACTORS
330
411
102
}
330
411
100
AcDbXrecord
280
     1
290
     1
  0
XRECORD
  5
2CD7
102
{ACAD_REACTORS
330
2CD6
102
}
330
2CD6
100
AcDbXrecord
280
     1
 70
     1
340
10D
340
3DF
 70
    -1
  0
SORTENTSTABLE
  5
4A4
102
{ACAD_REACTORS
330
4A3
102
}
330
4A3
100
AcDbSortentsTable
330
1F
331
2729
  5
275C
331
2768
  5
2799
331
2770
  5
27A1
331
289D
  5
6FD
331
2739
  5
2770
331
2778
  5
27AA
331
27CF
  5
28B1
331
2702
  5
2735
331
2780
  5
27B2
331
295B
  5
2936
331
2914
  5
287D
331
2961
  5
2963
331
29D8
  5
29DC
331
29E0
  5
29F2
331
29E8
  5
29FB
331
2981
  5
2980
331
2788
  5
27BA
331
28AD
  5
2728
331
291C
  5
2885
331
2712
  5
2744
331
2790
  5
27C3
331
2924
  5
288D
331
271A
  5
274C
331
2751
  5
2785
331
2798
  5
27CB
331
28BD
  5
291B
331
2759
  5
278D
331
27A8
  5
27D8
331
28C5
  5
2921
331
29F8
  5
29FC
331
29A9
  5
29AB
331
29B1
  5
29B3
331
29B9
  5
29BB
331
2769
  5
279A
331
27B0
  5
2891
331
2771
  5
27A2
331
289E
  5
6FE
331
2827
  5
28C2
331
2779
  5
27AB
331
27D0
  5
28B2
331
28A6
  5
2720
331
2703
  5
2736
331
2781
  5
27B3
331
295C
  5
295A
331
2915
  5
287E
331
2962
  5
2965
331
29D9
  5
29DD
331
2A18
  5
2A18
331
297A
  5
2979
331
2982
  5
2984
331
2A30
  5
2A2D
331
2789
  5
27BB
331
28AE
  5
2729
331
291D
  5
2886
331
2713
  5
2745
331
274A
  5
277F
331
2791
  5
27C4
331
2925
  5
288E
331
271B
  5
274D
331
2752
  5
2786
331
2799
  5
27CC
331
28BE
  5
291C
331
275A
  5
278E
331
29AA
  5
29AC
331
2A01
  5
2A01
331
29B2
  5
29B4
331
29BA
  5
29BC
331
2AE0
  5
2BC0
331
29CA
  5
29CC
331
272B
  5
2761
331
276A
  5
279B
331
27B1
  5
2892
331
2772
  5
27A3
331
277A
  5
27AC
331
26FC
  5
2718
331
273B
  5
29DB
331
289F
  5
2913
331
295D
  5
295B
331
2704
  5
2737
331
2782
  5
27B4
331
28A7
  5
2721
331
2916
  5
287F
331
2963
  5
2967
331
29DA
  5
29DE
331
2A19
  5
2A19
331
2BC0
  5
2A1B
331
297B
  5
297B
331
29EA
  5
29F8
331
2983
  5
2985
331
2A29
  5
2A2F
331
2A31
  5
2A2E
331
2743
  5
2778
331
278A
  5
27BC
331
28AF
  5
272A
331
291E
  5
2887
331
2714
  5
2746
331
274B
  5
2780
331
2792
  5
27C5
331
271C
  5
274E
331
2753
  5
2787
331
2936
  5
2924
331
28BF
  5
291D
331
275B
  5
278F
331
27AA
  5
282E
331
28C7
  5
2922
331
29AB
  5
29AD
331
2A02
  5
2A02
331
29B3
  5
29B5
331
29BB
  5
29BD
331
29CB
  5
29CD
331
272C
  5
2762
331
276B
  5
279C
331
27B2
  5
2893
331
2734
  5
276A
331
2773
  5
27A4
331
28A0
  5
2914
331
2841
  5
6FF
331
273C
  5
2772
331
277B
  5
27AD
331
290F
  5
284D
331
2705
  5
2738
331
2917
  5
2880
331
29DB
  5
29DF
331
2BC1
  5
2A1C
331
297C
  5
2982
331
29EB
  5
29F9
331
2984
  5
29A6
331
2A2A
  5
2A30
331
2A32
  5
2AE0
331
28A8
  5
2722
331
278B
  5
27BD
331
28B0
  5
272B
331
291F
  5
2888
331
274C
  5
2781
331
2793
  5
27C6
331
28B8
  5
2733
331
271D
  5
274F
331
279B
  5
27CE
331
2725
  5
2757
331
275C
  5
2790
331
27AB
  5
2841
331
29AC
  5
29AE
331
2A03
  5
2A03
331
29B4
  5
29B6
331
29BC
  5
29BE
331
29CC
  5
29D8
331
272D
  5
2763
331
27B3
  5
2894
331
2735
  5
276B
331
2774
  5
27A5
331
28A1
  5
2915
331
277C
  5
27AE
331
295F
  5
2961
331
2910
  5
286B
331
2706
  5
2739
331
2965
  5
297D
331
29DC
  5
29E0
331
2A1B
  5
2A1D
331
297D
  5
2983
331
29EC
  5
29FA
331
2985
  5
29A7
331
2A2B
  5
2A31
331
29F4
  5
29F4
331
2A33
  5
2B2B
331
28A9
  5
2723
331
2918
  5
2881
331
278C
  5
27BE
331
28B1
  5
272C
331
2920
  5
2889
331
2716
  5
2748
331
274D
  5
2782
331
2794
  5
27C7
331
28B9
  5
2917
331
271E
  5
2750
331
2755
  5
2789
331
279C
  5
27CF
331
28C1
  5
291E
331
2726
  5
2758
331
275D
  5
2791
331
27AC
  5
284C
331
29FC
  5
2960
331
29AD
  5
29AF
331
2A04
  5
2A04
331
29B5
  5
29B7
331
29BD
  5
29BF
331
29CD
  5
29D9
331
2B2B
  5
2BC1
331
28C9
  5
2923
331
287A
  5
2911
331
27B4
  5
2895
331
272E
  5
2764
331
2736
  5
276C
331
2775
  5
27A6
331
27CC
  5
289C
331
28A2
  5
2916
331
26FF
  5
271B
331
273E
  5
2774
331
277D
  5
27AF
331
2911
  5
287A
331
2707
  5
273A
331
29DD
  5
29EE
331
2A1C
  5
2A1E
331
297E
  5
297E
331
2A2C
  5
2A32
331
29F5
  5
29F5
331
29A6
  5
29A8
331
28AA
  5
2724
331
2919
  5
2882
331
270F
  5
2741
331
2746
  5
277B
331
278D
  5
27BF
331
28B2
  5
272D
331
2921
  5
288A
331
2717
  5
2749
331
274E
  5
2783
331
28BA
  5
2918
331
271F
  5
2751
331
2756
  5
278A
331
28C2
  5
291F
331
2727
  5
2759
331
29FD
  5
29FD
331
29AE
  5
29B0
331
29B6
  5
29B8
331
29BE
  5
29CA
331
281C
  5
28C7
331
27B5
  5
2896
331
272F
  5
2765
331
289B
  5
2912
331
2737
  5
276D
331
2776
  5
27A8
331
27CD
  5
28AF
331
28A3
  5
271D
331
277E
  5
27B0
331
2912
  5
287B
331
2786
  5
27B8
331
2967
  5
2981
331
29DE
  5
29EF
331
2A1D
  5
2A26
331
2A2D
  5
2A33
331
29F6
  5
29F6
331
29A7
  5
29A9
331
2708
  5
273B
331
28AB
  5
2726
331
291A
  5
2883
331
278E
  5
27C0
331
2747
  5
277C
331
27DD
  5
28B6
331
28B3
  5
272E
331
2922
  5
288B
331
2718
  5
274A
331
28BB
  5
2919
331
2720
  5
2752
331
2757
  5
278B
331
28C3
  5
2920
331
27AE
  5
288F
331
29FE
  5
29FE
331
29AF
  5
29B1
331
29B7
  5
29B9
331
29BF
  5
29CB
331
2728
  5
275A
331
27B6
  5
2897
331
26F1
  5
26F6
331
2730
  5
2766
331
289C
  5
6FC
331
2738
  5
276F
331
2777
  5
27A9
331
27CE
  5
28B0
331
28A4
  5
271E
331
277F
  5
27B1
331
295A
  5
2925
331
2913
  5
287C
331
2787
  5
27B9
331
2960
  5
2962
331
2A1E
  5
2A29
331
29DF
  5
29F0
331
2978
  5
2978
331
1DBF
  5
1DC4
331
2980
  5
297F
331
2A26
  5
2A2B
331
2A2E
  5
2A2C
331
2709
  5
273C
331
2740
  5
2775
331
28AC
  5
2727
331
291B
  5
2884
331
2748
  5
277D
331
278F
  5
27C1
331
28B4
  5
272F
331
2923
  5
288C
331
2719
  5
274B
331
2750
  5
2784
331
28BC
  5
291A
331
2721
  5
2753
331
2758
  5
278C
331
27AF
  5
2890
331
29A8
  5
29AA
331
29B0
  5
29B2
331
29B8
  5
29BA
331
2A17
  5
2A17
  0
SORTENTSTABLE
  5
284B
102
{ACAD_REACTORS
330
248A
102
}
330
248A
100
AcDbSortentsTable
330
2480
  0
SORTENTSTABLE
  5
27EF
102
{ACAD_REACTORS
330
27EE
102
}
330
27EE
100
AcDbSortentsTable
330
27E2
  0
SORTENTSTABLE
  5
2868
102
{ACAD_REACTORS
330
2867
102
}
330
2867
100
AcDbSortentsTable
330
285D
  0
SORTENTSTABLE
  5
2877
102
{ACAD_REACTORS
330
2876
102
}
330
2876
100
AcDbSortentsTable
330
286C
  0
SORTENTSTABLE
  5
2D2C
102
{ACAD_REACTORS
330
2D2B
102
}
330
2D2B
100
AcDbSortentsTable
330
2D1A
  0
SORTENTSTABLE
  5
2D44
102
{ACAD_REACTORS
330
2D43
102
}
330
2D43
100
AcDbSortentsTable
330
2D32
  0
SORTENTSTABLE
  5
2D55
102
{ACAD_REACTORS
330
2D54
102
}
330
2D54
100
AcDbSortentsTable
330
2D48
  0
XRECORD
  5
2E22
102
{ACAD_REACTORS
330
27DE
102
}
330
27DE
100
AcDbXrecord
280
     1
 40
949256.0
  1
{\LDETAL 13\P}Sposób zamocowania stolarki w ścianie\Pjednowarstwowej z wbudowaną nad oknem skrzynką na roletę typu RKS
  0
DICTIONARY
  5
27DF
102
{ACAD_REACTORS
330
27DE
102
}
330
27DE
100
AcDbDictionary
281
     1
  3
ACDB_ANNOTATIONSCALES
350
27E0
  0
DIMASSOC
  5
294F
102
{ACAD_REACTORS
330
2944
102
}
330
2944
100
AcDbDimAssoc
330
2936
 90
        3
 70
     0
 71
     0
  1
AcDbOsnapPointRef
 72
    10
331
2780
 73
     2
 91
        0
 40
0.3533553793961099
 10
0.0
 20
0.0
 30
0.0
 75
     0
  1
AcDbOsnapPointRef
 72
     8
331
279C
 73
     2
 91
        0
 40
0.1550459200151526
 10
0.0
 20
0.0
 30
0.0
 75
     1
  1
AcDbOsnapPointRef
 72
    10
331
2780
 73
     2
 91
        0
 40
0.3533553793961099
 10
0.0
 20
0.0
 30
0.0
 75
     0
  0
XRECORD
  5
2E24
102
{ACAD_REACTORS
330
2E23
102
}
330
2E23
100
AcDbXrecord
280
     1
 40
25446.0
  1
Wieniec żelbetowy
  0
XRECORD
  5
2E26
102
{ACAD_REACTORS
330
2E25
102
}
330
2E25
100
AcDbXrecord
280
     1
 40
14518.0
  1
Płytka SOLBET
  0
XRECORD
  5
2E28
102
{ACAD_REACTORS
330
2E27
102
}
330
2E27
100
AcDbXrecord
280
     1
 40
16792.0
  1
Nadproża SOLBET
  0
XRECORD
  5
2E2A
102
{ACAD_REACTORS
330
2E29
102
}
330
2E29
100
AcDbXrecord
280
     1
 40
40925.0
  1
Profil tynkarski narożny
  0
XRECORD
  5
2E2C
102
{ACAD_REACTORS
330
2E2B
102
}
330
2E2B
100
AcDbXrecord
280
     1
 40
31617.0
  1
Skrzynka RKS na roletę
  0
XRECORD
  5
2E2E
102
{ACAD_REACTORS
330
2E2D
102
}
330
2E2D
100
AcDbXrecord
280
     1
 40
34960.0
  1
Warstwa wykończeniowa
  0
XRECORD
  5
2E30
102
{ACAD_REACTORS
330
2E2F
102
}
330
2E2F
100
AcDbXrecord
280
     1
 40
42625.0
  1
Płyty izolacyjne twarde
  0
XRECORD
  5
2CD9
102
{ACAD_REACTORS
330
2CD8
102
}
330
2CD8
100
AcDbXrecord
280
     1
 40
24757.0
  1
\pxqc;B\P(5 : 1)
  0
XRECORD
  5
2E32
102
{ACAD_REACTORS
330
2E31
102
}
330
2E31
100
AcDbXrecord
280
     1
 40
34304.0
  1
Tynk zewnętrzny SOLBET 
  0
XRECORD
  5
2E34
102
{ACAD_REACTORS
330
2E33
102
}
330
2E33
100
AcDbXrecord
280
     1
 40
34286.0
  1
Tynk wewnętrzny SOLBET 
  0
XRECORD
  5
2CDB
102
{ACAD_REACTORS
330
2CDA
102
}
330
2CDA
100
AcDbXrecord
280
     1
 40
24645.0
  1
\pxqc;A\P(3 : 1)
  0
XRECORD
  5
2E36
102
{ACAD_REACTORS
330
2E35
102
}
330
2E35
100
AcDbXrecord
280
     1
 40
40925.0
  1
Profil tynkarski narożny
  0
XRECORD
  5
2DDB
102
{ACAD_REACTORS
330
2DDA
102
}
330
2DDA
100
AcDbXrecord
280
     1
 40
24748.0
  1
\pxqc;C\P(5 : 1)
  0
LAYOUT
  5
D3
102
{ACAD_XDICTIONARY
360
2E19
102
}
102
{ACAD_REACTORS
330
1A
102
}
330
1A
100
AcDbPlotSettings
  1

  2
C:\Documents and Settings\basas\Application Data\Autodesk\AutoCAD 2005\R16.1\enu\plotters\Default Windows System Printer.pc3
  4

  6

 40
0.0
 41
0.0
 42
0.0
 43
0.0
 44
0.0
 45
0.0
 46
0.0
 47
0.0
 48
0.0
 49
0.0
140
0.0
141
0.0
142
1.0
143
1.0
 70
   688
 72
     0
 73
     0
 74
     5
  7

 75
    16
147
1.0
148
0.0
149
0.0
100
AcDbLayout
  1
Arkusz1
 70
     1
 71
     1
 10
0.0
 20
0.0
 11
12.0
 21
9.0
 12
0.0
 22
0.0
 32
0.0
 14
0.0
 24
0.0
 34
0.0
 15
0.0
 25
0.0
 35
0.0
146
0.0
 13
0.0
 23
0.0
 33
0.0
 16
1.0
 26
0.0
 36
0.0
 17
0.0
 27
1.0
 37
0.0
 76
     0
330
D2
  0
LAYOUT
  5
D7
102
{ACAD_XDICTIONARY
360
2E1B
102
}
102
{ACAD_REACTORS
330
1A
102
}
330
1A
100
AcDbPlotSettings
  1

  2
C:\Documents and Settings\basas\Application Data\Autodesk\AutoCAD 2005\R16.1\enu\plotters\Default Windows System Printer.pc3
  4

  6

 40
0.0
 41
0.0
 42
0.0
 43
0.0
 44
0.0
 45
0.0
 46
0.0
 47
0.0
 48
0.0
 49
0.0
140
0.0
141
0.0
142
1.0
143
1.0
 70
   688
 72
     0
 73
     0
 74
     5
  7

 75
    16
147
1.0
148
0.0
149
0.0
100
AcDbLayout
  1
Arkusz2
 70
     1
 71
     2
 10
0.0
 20
0.0
 11
12.0
 21
9.0
 12
0.0
 22
0.0
 32
0.0
 14
0.0
 24
0.0
 34
0.0
 15
0.0
 25
0.0
 35
0.0
146
0.0
 13
0.0
 23
0.0
 33
0.0
 16
1.0
 26
0.0
 36
0.0
 17
0.0
 27
1.0
 37
0.0
 76
     0
330
D6
  0
LAYOUT
  5
22
102
{ACAD_XDICTIONARY
360
2E16
102
}
102
{ACAD_REACTORS
330
1A
102
}
330
1A
100
AcDbPlotSettings
  1

  2
none_device
  4
Letter_(8.50_x_11.00_Inches)
  6

 40
6.349999904632568
 41
6.349999904632568
 42
6.350006103515625
 43
6.350006103515625
 44
215.8999938964844
 45
279.3999938964844
 46
11.54999923706054
 47
-13.65000009536743
 48
0.0
 49
0.0
140
210.0
141
297.0
142
1.0
143
1.0
 70
 11936
 72
     1
 73
     0
 74
     4
  7

 75
     0
147
0.9999999999999998
148
0.0
149
0.0
100
AcDbLayout
  1
Model
 70
     1
 71
     0
 10
0.0
 20
0.0
 11
12.0
 21
9.0
 12
0.0
 22
0.0
 32
0.0
 14
0.0
 24
0.0
 34
0.0
 15
0.0
 25
0.0
 35
0.0
146
0.0
 13
0.0
 23
0.0
 33
0.0
 16
1.0
 26
0.0
 36
0.0
 17
0.0
 27
1.0
 37
0.0
 76
     0
330
1F
331
EA
1001
ACAD_PSEXT
1000
Brak
1000
Brak
1000
Nie można zastosować.
1000
Arkusz nie zostanie wydrukowany dopóki nie wybrano konfiguracji plotera.
1070
     0
  0
MATERIAL
  5
ED
102
{ACAD_XDICTIONARY
360
2E1F
102
}
102
{ACAD_REACTORS
330
6A
102
}
330
6A
100
AcDbMaterial
  1
ByBlock
 73
     2
 78
     2
172
     2
176
     2
270
     2
274
     2
  0
MATERIAL
  5
EC
102
{ACAD_XDICTIONARY
360
2E1D
102
}
102
{ACAD_REACTORS
330
6A
102
}
330
6A
100
AcDbMaterial
  1
ByLayer
 73
     2
 78
     2
172
     2
176
     2
270
     2
274
     2
  0
MATERIAL
  5
EE
102
{ACAD_XDICTIONARY
360
173
102
}
102
{ACAD_REACTORS
330
6A
102
}
330
6A
100
AcDbMaterial
  1
Global
 73
     2
 43
0.0007999999797903
 43
0.0
 43
0.0
 43
0.0
 43
0.0
 43
0.0007999999797903
 43
0.0
 43
0.0
 43
0.0
 43
0.0
 43
1.0
 43
0.0
 43
0.0
 43
0.0
 43
0.0
 43
1.0
 78
     2
172
     2
 49
0.0007999999797903
 49
0.0
 49
0.0
 49
0.0
 49
0.0
 49
0.0007999999797903
 49
0.0
 49
0.0
 49
0.0
 49
0.0
 49
1.0
 49
0.0
 49
0.0
 49
0.0
 49
0.0
 49
1.0
176
     2
142
0.0007999999797903
142
0.0
142
0.0
142
0.0
142
0.0
142
0.0007999999797903
142
0.0
142
0.0
142
0.0
142
0.0
142
1.0
142
0.0
142
0.0
142
0.0
142
0.0
142
1.0
270
     2
144
0.0007999999797903
144
0.0
144
0.0
144
0.0
144
0.0
144
0.0007999999797903
144
0.0
144
0.0
144
0.0
144
0.0
144
1.0
144
0.0
144
0.0
144
0.0
144
0.0
144
1.0
274
     2
1001
ACAD
1070
    -1
1070
     3
1070
     0
1000

1071
        0
1070
     0
  0
ACAD_PROXY_OBJECT
  5
12E
102
{ACAD_REACTORS
330
12D
102
}
330
12D
100
AcDbProxyObject
 90
      499
 91
      508
 95
       23
 70
     0
 93
      618
310
40901902A4063FBFFFFFE0000000000000020400000000000020404254DD185B99185C99000000000000000104090140501A0000000000000410000000000000004102576400000000000003903F
340
14
340
0
340
11
340
0
 94
        0
1001
ACAD_MLEADERVER
1070
     2
1001
ACAD
1000
AcRTDxfName
1000
MLEADERSTYLE
1000
AcRTDxfName
1000
MLEADERSTYLE
  0
MLINESTYLE
  5
7E9
102
{ACAD_REACTORS
330
17
102
}
330
17
100
AcDbMlineStyle
  2
SOLBET_IZOLACJA
 70
   272
  3

 62
   256
 51
90.0
 52
90.0
 71
     2
 49
0.008
 62
   256
  6
BYLAYER
 49
-0.008
 62
   256
  6
BYLAYER
  0
MLINESTYLE
  5
18
102
{ACAD_REACTORS
330
17
102
}
330
17
100
AcDbMlineStyle
  2
STANDARD
 70
     0
  3

 62
   256
 51
90.0
 52
90.0
 71
     2
 49
0.5
 62
   256
  6
BYLAYER
 49
-0.5
 62
   256
  6
BYLAYER
  0
ACDBPLACEHOLDER
  5
F
102
{ACAD_REACTORS
330
E
102
}
330
E
  0
ACAD_PROXY_OBJECT
  5
10D
102
{ACAD_REACTORS
330
10C
102
}
330
10C
100
AcDbProxyObject
 90
      499
 91
      507
 95
       23
 70
     0
 93
       49
310
904313A31005FF
 94
        0
1001
ACAD
1000
AcRTDxfName
1000
SCALE
1000
AcRTDxfName
1000
SCALE
  0
ACAD_PROXY_OBJECT
  5
188
102
{ACAD_REACTORS
330
10C
102
}
330
10C
100
AcDbProxyObject
 90
      499
 91
      507
 95
       23
 70
     0
 93
      113
310
904313A3200400000000000000407F
 94
        0
1001
ACAD
1000
AcRTDxfName
1000
SCALE
1000
AcRTDxfName
1000
SCALE
  0
ACAD_PROXY_OBJECT
  5
189
102
{ACAD_REACTORS
330
10C
102
}
330
10C
100
AcDbProxyObject
 90
      499
 91
      507
 95
       23
 70
     0
 93
      113
310
904313A3400400000000000010407F
 94
        0
1001
ACAD
1000
AcRTDxfName
1000
SCALE
1000
AcRTDxfName
1000
SCALE
  0
ACAD_PROXY_OBJECT
  5
18A
102
{ACAD_REACTORS
330
10C
102
}
330
10C
100
AcDbProxyObject
 90
      499
 91
      507
 95
       23
 70
     0
 93
      113
310
904313A3500400000000000014407F
 94
        0
1001
ACAD
1000
AcRTDxfName
1000
SCALE
1000
AcRTDxfName
1000
SCALE
  0
ACAD_PROXY_OBJECT
  5
18B
102
{ACAD_REACTORS
330
10C
102
}
330
10C
100
AcDbProxyObject
 90
      499
 91
      507
 95
       23
 70
     0
 93
      113
310
904313A3800400000000000020407F
 94
        0
1001
ACAD
1000
AcRTDxfName
1000
SCALE
1000
AcRTDxfName
1000
SCALE
  0
ACAD_PROXY_OBJECT
  5
18C
102
{ACAD_REACTORS
330
10C
102
}
330
10C
100
AcDbProxyObject
 90
      499
 91
      507
 95
       23
 70
     0
 93
      121
310
905313A313000400000000000024407F
 94
        0
1001
ACAD
1000
AcRTDxfName
1000
SCALE
1000
AcRTDxfName
1000
SCALE
  0
ACAD_PROXY_OBJECT
  5
18D
102
{ACAD_REACTORS
330
10C
102
}
330
10C
100
AcDbProxyObject
 90
      499
 91
      507
 95
       23
 70
     0
 93
      121
310
905313A313600400000000000030407F
 94
        0
1001
ACAD
1000
AcRTDxfName
1000
SCALE
1000
AcRTDxfName
1000
SCALE
  0
ACAD_PROXY_OBJECT
  5
18E
102
{ACAD_REACTORS
330
10C
102
}
330
10C
100
AcDbProxyObject
 90
      499
 91
      507
 95
       23
 70
     0
 93
      121
310
905313A323000400000000000034407F
 94
        0
1001
ACAD
1000
AcRTDxfName
1000
SCALE
1000
AcRTDxfName
1000
SCALE
  0
ACAD_PROXY_OBJECT
  5
18F
102
{ACAD_REACTORS
330
10C
102
}
330
10C
100
AcDbProxyObject
 90
      499
 91
      507
 95
       23
 70
     0
 93
      121
310
905313A33300040000000000003E407F
 94
        0
1001
ACAD
1000
AcRTDxfName
1000
SCALE
1000
AcRTDxfName
1000
SCALE
  0
ACAD_PROXY_OBJECT
  5
190
102
{ACAD_REACTORS
330
10C
102
}
330
10C
100
AcDbProxyObject
 90
      499
 91
      507
 95
       23
 70
     0
 93
      121
310
905313A343000400000000000044407F
 94
        0
1001
ACAD
1000
AcRTDxfName
1000
SCALE
1000
AcRTDxfName
1000
SCALE
  0
ACAD_PROXY_OBJECT
  5
191
102
{ACAD_REACTORS
330
10C
102
}
330
10C
100
AcDbProxyObject
 90
      499
 91
      507
 95
       23
 70
     0
 93
      121
310
905313A353000400000000000049407F
 94
        0
1001
ACAD
1000
AcRTDxfName
1000
SCALE
1000
AcRTDxfName
1000
SCALE
  0
ACAD_PROXY_OBJECT
  5
192
102
{ACAD_REACTORS
330
10C
102
}
330
10C
100
AcDbProxyObject
 90
      499
 91
      507
 95
       23
 70
     0
 93
      129
310
906313A31303000400000000000059407F
 94
        0
1001
ACAD
1000
AcRTDxfName
1000
SCALE
1000
AcRTDxfName
1000
SCALE
  0
ACAD_PROXY_OBJECT
  5
193
102
{ACAD_REACTORS
330
10C
102
}
330
10C
100
AcDbProxyObject
 90
      499
 91
      507
 95
       23
 70
     0
 93
      113
310
904323A3100000000000000001017F
 94
        0
1001
ACAD
1000
AcRTDxfName
1000
SCALE
1000
AcRTDxfName
1000
SCALE
  0
ACAD_PROXY_OBJECT
  5
194
102
{ACAD_REACTORS
330
10C
102
}
330
10C
100
AcDbProxyObject
 90
      499
 91
      507
 95
       23
 70
     0
 93
      113
310
904343A3100000000000000041017F
 94
        0
1001
ACAD
1000
AcRTDxfName
1000
SCALE
1000
AcRTDxfName
1000
SCALE
  0
ACAD_PROXY_OBJECT
  5
195
102
{ACAD_REACTORS
330
10C
102
}
330
10C
100
AcDbProxyObject
 90
      499
 91
      507
 95
       23
 70
     0
 93
      113
310
904383A3100000000000000081017F
 94
        0
1001
ACAD
1000
AcRTDxfName
1000
SCALE
1000
AcRTDxfName
1000
SCALE
  0
ACAD_PROXY_OBJECT
  5
196
102
{ACAD_REACTORS
330
10C
102
}
330
10C
100
AcDbProxyObject
 90
      499
 91
      507
 95
       23
 70
     0
 93
      121
310
90531303A3100000000000000091017F
 94
        0
1001
ACAD
1000
AcRTDxfName
1000
SCALE
1000
AcRTDxfName
1000
SCALE
  0
ACAD_PROXY_OBJECT
  5
197
102
{ACAD_REACTORS
330
10C
102
}
330
10C
100
AcDbProxyObject
 90
      499
 91
      507
 95
       23
 70
     0
 93
      129
310
9063130303A3100000000000000165017F
 94
        0
1001
ACAD
1000
AcRTDxfName
1000
SCALE
1000
AcRTDxfName
1000
SCALE
  0
ACAD_PROXY_OBJECT
  5
198
102
{ACAD_REACTORS
330
10C
102
}
330
10C
100
AcDbProxyObject
 90
      499
 91
      507
 95
       23
 70
     0
 93
      265
310
90F312F31323822203D2031272D302200000000000000200FC00000000000028407F
 94
        0
1001
ACAD
1000
AcRTDxfName
1000
SCALE
1000
AcRTDxfName
1000
SCALE
  0
ACAD_PROXY_OBJECT
  5
199
102
{ACAD_REACTORS
330
10C
102
}
330
10C
100
AcDbProxyObject
 90
      499
 91
      507
 95
       23
 70
     0
 93
      257
310
90E312F363422203D2031272D302200000000000000240FC00000000000028407F
 94
        0
1001
ACAD
1000
AcRTDxfName
1000
SCALE
1000
AcRTDxfName
1000
SCALE
  0
ACAD_PROXY_OBJECT
  5
19A
102
{ACAD_REACTORS
330
10C
102
}
330
10C
100
AcDbProxyObject
 90
      499
 91
      507
 95
       23
 70
     0
 93
      257
310
90E312F333222203D2031272D302200000000000000280FC00000000000028407F
 94
        0
1001
ACAD
1000
AcRTDxfName
1000
SCALE
1000
AcRTDxfName
1000
SCALE
  0
ACAD_PROXY_OBJECT
  5
19B
102
{ACAD_REACTORS
330
10C
102
}
330
10C
100
AcDbProxyObject
 90
      499
 91
      507
 95
       23
 70
     0
 93
      257
310
90E312F313622203D2031272D3022000000000000002C0FC00000000000028407F
 94
        0
1001
ACAD
1000
AcRTDxfName
1000
SCALE
1000
AcRTDxfName
1000
SCALE
  0
ACAD_PROXY_OBJECT
  5
19C
102
{ACAD_REACTORS
330
10C
102
}
330
10C
100
AcDbProxyObject
 90
      499
 91
      507
 95
       23
 70
     0
 93
      257
310
90E332F333222203D2031272D3022000000000000002E0FC00000000000028407F
 94
        0
1001
ACAD
1000
AcRTDxfName
1000
SCALE
1000
AcRTDxfName
1000
SCALE
  0
ACAD_PROXY_OBJECT
  5
19D
102
{ACAD_REACTORS
330
10C
102
}
330
10C
100
AcDbProxyObject
 90
      499
 91
      507
 95
       23
 70
     0
 93
      249
310
90D312F3822203D2031272D302200000000000000300FC00000000000028407F
 94
        0
1001
ACAD
1000
AcRTDxfName
1000
SCALE
1000
AcRTDxfName
1000
SCALE
  0
ACAD_PROXY_OBJECT
  5
19E
102
{ACAD_REACTORS
330
10C
102
}
330
10C
100
AcDbProxyObject
 90
      499
 91
      507
 95
       23
 70
     0
 93
      257
310
90E332F313622203D2031272D302200000000000000320FC00000000000028407F
 94
        0
1001
ACAD
1000
AcRTDxfName
1000
SCALE
1000
AcRTDxfName
1000
SCALE
  0
ACAD_PROXY_OBJECT
  5
19F
102
{ACAD_REACTORS
330
10C
102
}
330
10C
100
AcDbProxyObject
 90
      499
 91
      507
 95
       23
 70
     0
 93
      249
310
90D312F3422203D2031272D302200000000000000340FC00000000000028407F
 94
        0
1001
ACAD
1000
AcRTDxfName
1000
SCALE
1000
AcRTDxfName
1000
SCALE
  0
ACAD_PROXY_OBJECT
  5
1A0
102
{ACAD_REACTORS
330
10C
102
}
330
10C
100
AcDbProxyObject
 90
      499
 91
      507
 95
       23
 70
     0
 93
      249
310
90D332F3822203D2031272D302200000000000000360FC00000000000028407F
 94
        0
1001
ACAD
1000
AcRTDxfName
1000
SCALE
1000
AcRTDxfName
1000
SCALE
  0
ACAD_PROXY_OBJECT
  5
1A1
102
{ACAD_REACTORS
330
10C
102
}
330
10C
100
AcDbProxyObject
 90
      499
 91
      507
 95
       23
 70
     0
 93
      249
310
90D312F3222203D2031272D302200000000000000380FC00000000000028407F
 94
        0
1001
ACAD
1000
AcRTDxfName
1000
SCALE
1000
AcRTDxfName
1000
SCALE
  0
ACAD_PROXY_OBJECT
  5
1A2
102
{ACAD_REACTORS
330
10C
102
}
330
10C
100
AcDbProxyObject
 90
      499
 91
      507
 95
       23
 70
     0
 93
      249
310
90D332F3422203D2031272D3022000000000000003A0FC00000000000028407F
 94
        0
1001
ACAD
1000
AcRTDxfName
1000
SCALE
1000
AcRTDxfName
1000
SCALE
  0
ACAD_PROXY_OBJECT
  5
1A3
102
{ACAD_REACTORS
330
10C
102
}
330
10C
100
AcDbProxyObject
 90
      499
 91
      507
 95
       23
 70
     0
 93
      169
310
90B3122203D2031272D302200400000000000028407F
 94
        0
1001
ACAD
1000
AcRTDxfName
1000
SCALE
1000
AcRTDxfName
1000
SCALE
  0
ACAD_PROXY_OBJECT
  5
1A4
102
{ACAD_REACTORS
330
10C
102
}
330
10C
100
AcDbProxyObject
 90
      499
 91
      507
 95
       23
 70
     0
 93
      265
310
90F312D312F3222203D2031272D3022000000000000003E0FC00000000000028407F
 94
        0
1001
ACAD
1000
AcRTDxfName
1000
SCALE
1000
AcRTDxfName
1000
SCALE
  0
ACAD_PROXY_OBJECT
  5
1A5
102
{ACAD_REACTORS
330
10C
102
}
330
10C
100
AcDbProxyObject
 90
      499
 91
      507
 95
       23
 70
     0
 93
      233
310
90B3322203D2031272D3022000000000000000210000000000000028407F
 94
        0
1001
ACAD
1000
AcRTDxfName
1000
SCALE
1000
AcRTDxfName
1000
SCALE
  0
ACAD_PROXY_OBJECT
  5
1A6
102
{ACAD_REACTORS
330
10C
102
}
330
10C
100
AcDbProxyObject
 90
      499
 91
      507
 95
       23
 70
     0
 93
      233
310
90B3622203D2031272D3022000000000000000610000000000000028407F
 94
        0
1001
ACAD
1000
AcRTDxfName
1000
SCALE
1000
AcRTDxfName
1000
SCALE
  0
ACAD_PROXY_OBJECT
  5
1A7
102
{ACAD_REACTORS
330
10C
102
}
330
10C
100
AcDbProxyObject
 90
      499
 91
      507
 95
       23
 70
     0
 93
      257
310
90E31272D3022203D2031272D3022000000000000000A10000000000000028407F
 94
        0
1001
ACAD
1000
AcRTDxfName
1000
SCALE
1000
AcRTDxfName
1000
SCALE
  0
TABLESTYLE
  5
7F
102
{ACAD_XDICTIONARY
360
162
102
}
102
{ACAD_REACTORS
330
7E
102
}
330
7E
100
AcDbTableStyle
  3
Standard
 70
     0
 71
     0
 40
1.5
 41
1.5
280
     0
281
     0
  7
Standard
140
4.5
170
     2
 62
     0
 63
     7
283
     0
274
    -2
284
     1
 64
     0
275
    -2
285
     1
 65
     0
276
    -2
286
     1
 66
     0
277
    -2
287
     1
 67
     0
278
    -2
288
     1
 68
     0
279
    -2
289
     1
 69
     0
  7
Standard
140
6.0
170
     5
 62
     0
 63
     7
283
     0
274
    -2
284
     1
 64
     0
275
    -2
285
     1
 65
     0
276
    -2
286
     1
 66
     0
277
    -2
287
     1
 67
     0
278
    -2
288
     1
 68
     0
279
    -2
289
     1
 69
     0
  7
Standard
140
4.5
170
     5
 62
     0
 63
     7
283
     0
274
    -2
284
     1
 64
     0
275
    -2
285
     1
 65
     0
276
    -2
286
     1
 66
     0
277
    -2
287
     1
 67
     0
278
    -2
288
     1
 68
     0
279
    -2
289
     1
 69
     0
  0
VISUALSTYLE
  5
F5
102
{ACAD_REACTORS
330
EF
102
}
330
EF
100
AcDbVisualStyle
  2
2dWireframe
 70
     4
 71
     0
 72
     2
 73
     1
 90
        0
 40
-0.6
 41
-30.0
 62
     5
 63
     7
 74
     1
 91
        4
 64
     7
 65
   257
 75
     1
175
     1
 42
1.0
 92
        0
 66
   257
 43
1.0
 76
     1
 77
     6
 78
     2
 67
     7
 79
     5
170
     0
171
     0
290
     0
174
     0
 93
        1
 44
0.0
173
     0
291
     0
 45
0.0
1001
ACAD
1000
AcDbSavedByObjectVersion
1070
     0
  0
VISUALSTYLE
  5
F7
102
{ACAD_REACTORS
330
EF
102
}
330
EF
100
AcDbVisualStyle
  2
3D Hidden
 70
     6
 71
     1
 72
     2
 73
     2
 90
        0
 40
-0.6
 41
-30.0
 62
     5
 63
     7
 74
     2
 91
        2
 64
     7
 65
   257
 75
     2
175
     1
 42
40.0
 92
        0
 66
   257
 43
1.0
 76
     1
 77
     6
 78
     2
 67
     7
 79
     3
170
     0
171
     0
290
     0
174
     0
 93
        1
 44
0.0
173
     0
291
     0
 45
0.0
1001
ACAD
1000
AcDbSavedByObjectVersion
1070
     0
  0
VISUALSTYLE
  5
F6
102
{ACAD_REACTORS
330
EF
102
}
330
EF
100
AcDbVisualStyle
  2
3dWireframe
 70
     5
 71
     0
 72
     2
 73
     1
 90
        0
 40
-0.6
 41
-30.0
 62
     5
 63
     7
 74
     1
 91
        4
 64
     7
 65
   257
 75
     1
175
     1
 42
1.0
 92
        0
 66
   257
 43
1.0
 76
     1
 77
     6
 78
     2
 67
     7
 79
     5
170
     0
171
     0
290
     0
174
     0
 93
        1
 44
0.0
173
     0
291
     0
 45
0.0
1001
ACAD
1000
AcDbSavedByObjectVersion
1070
     0
  0
VISUALSTYLE
  5
F4
102
{ACAD_REACTORS
330
EF
102
}
330
EF
100
AcDbVisualStyle
  2
Basic
 70
     7
 71
     1
 72
     0
 73
     1
 90
        0
 40
-0.6
 41
-30.0
 62
     5
 63
     7
 74
     0
 91
        4
 64
     7
 65
   257
 75
     1
175
     1
 42
1.0
 92
        8
 66
     7
 43
1.0
 76
     1
 77
     6
 78
     2
 67
     7
 79
     5
170
     0
171
     0
290
     0
174
     0
 93
        1
 44
0.0
173
     0
291
     1
 45
0.0
1001
ACAD
1000
AcDbSavedByObjectVersion
1070
     0
  0
VISUALSTYLE
  5
FB
102
{ACAD_REACTORS
330
EF
102
}
330
EF
100
AcDbVisualStyle
  2
Brighten
 70
    12
 71
     2
 72
     2
 73
     1
 90
        0
 40
-0.6
 41
-30.0
 62
     5
 63
     7
 74
     1
 91
        4
 64
     7
 65
   257
 75
     1
175
     1
 42
1.0
 92
        8
 66
     7
 43
1.0
 76
     1
 77
     6
 78
     2
 67
     7
 79
     5
170
     0
171
     0
290
     0
174
     0
 93
        1
 44
50.0
173
     0
291
     1
 45
0.0
1001
ACAD
1000
AcDbSavedByObjectVersion
1070
     0
  0
VISUALSTYLE
  5
FF
102
{ACAD_REACTORS
330
EF
102
}
330
EF
100
AcDbVisualStyle
  2
ColorChange
 70
    16
 71
     2
 72
     2
 73
     3
 90
        0
 40
-0.6
 41
-30.0
 62
     5
 63
     8
 74
     1
 91
        4
 64
     7
 65
   257
 75
     1
175
     1
 42
1.0
 92
        8
 66
     8
 43
1.0
 76
     1
 77
     6
 78
     2
 67
     7
 79
     5
170
     0
171
     0
290
     0
174
     0
 93
        1
 44
0.0
173
     0
291
     1
 45
0.0
1001
ACAD
1000
AcDbSavedByObjectVersion
1070
     0
  0
VISUALSTYLE
  5
F8
102
{ACAD_REACTORS
330
EF
102
}
330
EF
100
AcDbVisualStyle
  2
Conceptual
 70
     9
 71
     3
 72
     2
 73
     1
 90
        0
 40
-0.6
 41
-30.0
 62
     5
 63
     7
 74
     2
 91
        2
 64
     7
 65
   257
 75
     1
175
     1
 42
40.0
 92
        8
 66
     7
 43
1.0
 76
     1
 77
     6
 78
     2
 67
     7
 79
     3
170
     0
171
     0
290
     0
174
     0
 93
        1
 44
0.0
173
     0
291
     0
 45
0.0
1001
ACAD
1000
AcDbSavedByObjectVersion
1070
     0
  0
VISUALSTYLE
  5
FA
102
{ACAD_REACTORS
330
EF
102
}
330
EF
100
AcDbVisualStyle
  2
Dim
 70
    11
 71
     2
 72
     2
 73
     1
 90
        0
 40
-0.6
 41
-30.0
 62
     5
 63
     7
 74
     1
 91
        4
 64
     7
 65
   257
 75
     1
175
     1
 42
1.0
 92
        8
 66
     7
 43
1.0
 76
     1
 77
     6
 78
     2
 67
     7
 79
     5
170
     0
171
     0
290
     0
174
     0
 93
        1
 44
-50.0
173
     0
291
     1
 45
0.0
1001
ACAD
1000
AcDbSavedByObjectVersion
1070
     0
  0
VISUALSTYLE
  5
FE
102
{ACAD_REACTORS
330
EF
102
}
330
EF
100
AcDbVisualStyle
  2
Facepattern
 70
    15
 71
     2
 72
     2
 73
     1
 90
        0
 40
-0.6
 41
-30.0
 62
     5
 63
     7
 74
     1
 91
        4
 64
     7
 65
   257
 75
     1
175
     1
 42
1.0
 92
        8
 66
     7
 43
1.0
 76
     1
 77
     6
 78
     2
 67
     7
 79
     5
170
     0
171
     0
290
     0
174
     0
 93
        1
 44
0.0
173
     0
291
     1
 45
0.0
1001
ACAD
1000
AcDbSavedByObjectVersion
1070
     0
  0
VISUALSTYLE
  5
F0
102
{ACAD_REACTORS
330
EF
102
}
330
EF
100
AcDbVisualStyle
  2
Flat
 70
     0
 71
     2
 72
     1
 73
     1
 90
        2
 40
-0.6
 41
30.0
 62
     5
 63
     7
 74
     0
 91
        4
 64
     7
 65
   257
 75
     1
175
     1
 42
1.0
 92
        8
 66
     7
 43
1.0
 76
     1
 77
     6
 78
     2
 67
     7
 79
     5
170
     0
171
     0
290
     0
174
     0
 93
        1
 44
0.0
173
     0
291
     1
 45
0.0
1001
ACAD
1000
AcDbSavedByObjectVersion
1070
     0
  0
VISUALSTYLE
  5
F1
102
{ACAD_REACTORS
330
EF
102
}
330
EF
100
AcDbVisualStyle
  2
FlatWithEdges
 70
     1
 71
     2
 72
     1
 73
     1
 90
        2
 40
-0.6
 41
30.0
 62
     5
 63
     7
 74
     1
 91
        4
 64
     7
 65
   257
 75
     1
175
     1
 42
1.0
 92
        0
 66
   257
 43
1.0
 76
     1
 77
     6
 78
     2
 67
     7
 79
     5
170
     0
171
     0
290
     0
174
     0
 93
        1
 44
0.0
173
     0
291
     1
 45
0.0
1001
ACAD
1000
AcDbSavedByObjectVersion
1070
     0
  0
VISUALSTYLE
  5
F2
102
{ACAD_REACTORS
330
EF
102
}
330
EF
100
AcDbVisualStyle
  2
Gouraud
 70
     2
 71
     2
 72
     2
 73
     1
 90
        2
 40
-0.6
 41
30.0
 62
     5
 63
     7
 74
     0
 91
        4
 64
     7
 65
   257
 75
     1
175
     1
 42
1.0
 92
        0
 66
     7
 43
1.0
 76
     1
 77
     6
 78
     2
 67
     7
 79
     5
170
     0
171
     0
290
     0
174
     0
 93
        1
 44
0.0
173
     0
291
     1
 45
0.0
1001
ACAD
1000
AcDbSavedByObjectVersion
1070
     0
  0
VISUALSTYLE
  5
F3
102
{ACAD_REACTORS
330
EF
102
}
330
EF
100
AcDbVisualStyle
  2
GouraudWithEdges
 70
     3
 71
     2
 72
     2
 73
     1
 90
        2
 40
-0.6
 41
30.0
 62
     5
 63
     7
 74
     1
 91
        4
 64
     7
 65
   257
 75
     1
175
     1
 42
1.0
 92
        0
 66
   257
 43
1.0
 76
     1
 77
     6
 78
     2
 67
     7
 79
     5
170
     0
171
     0
290
     0
174
     0
 93
        1
 44
0.0
173
     0
291
     1
 45
0.0
1001
ACAD
1000
AcDbSavedByObjectVersion
1070
     0
  0
VISUALSTYLE
  5
FD
102
{ACAD_REACTORS
330
EF
102
}
330
EF
100
AcDbVisualStyle
  2
Linepattern
 70
    14
 71
     2
 72
     2
 73
     1
 90
        0
 40
-0.6
 41
-30.0
 62
     5
 63
     7
 74
     1
 91
        4
 64
     7
 65
   257
 75
     7
175
     7
 42
1.0
 92
        8
 66
     7
 43
1.0
 76
     1
 77
     6
 78
     2
 67
     7
 79
     5
170
     0
171
     0
290
     0
174
     0
 93
        1
 44
0.0
173
     0
291
     1
 45
0.0
1001
ACAD
1000
AcDbSavedByObjectVersion
1070
     0
  0
VISUALSTYLE
  5
F9
102
{ACAD_REACTORS
330
EF
102
}
330
EF
100
AcDbVisualStyle
  2
Realistic
 70
     8
 71
     2
 72
     2
 73
     1
 90
        0
 40
-0.6
 41
-30.0
 62
     5
 63
     7
 74
     1
 91
        0
 64
     7
 65
   257
 75
     1
175
     1
 42
1.0
 92
        8
 66
     8
 43
1.0
 76
     1
 77
     6
 78
     2
 67
     7
 79
     5
170
     0
171
     0
290
     0
174
     0
 93
       13
 44
0.0
173
     0
291
     0
 45
0.0
1001
ACAD
1000
AcDbSavedByObjectVersion
1070
     0
  0
VISUALSTYLE
  5
FC
102
{ACAD_REACTORS
330
EF
102
}
330
EF
100
AcDbVisualStyle
  2
Thicken
 70
    13
 71
     2
 72
     2
 73
     1
 90
        0
 40
-0.6
 41
-30.0
 62
     5
 63
     7
 74
     1
 91
        4
 64
     7
 65
   257
 75
     1
175
     1
 42
1.0
 92
       12
 66
     7
 43
1.0
 76
     1
 77
     6
 78
     2
 67
     7
 79
     5
170
     0
171
     0
290
     0
174
     0
 93
        1
 44
0.0
173
     0
291
     1
 45
0.0
1001
ACAD
1000
AcDbSavedByObjectVersion
1070
     0
  0
DICTIONARYVAR
  5
146
102
{ACAD_REACTORS
330
5E
102
}
330
5E
100
DictionaryVariables
280
     0
  1
1:1
  0
DICTIONARYVAR
  5
145
102
{ACAD_REACTORS
330
5E
102
}
330
5E
100
DictionaryVariables
280
     0
  1
STANDARD
  0
DICTIONARYVAR
  5
84
102
{ACAD_REACTORS
330
5E
102
}
330
5E
100
DictionaryVariables
280
     0
  1
STANDARD
  0
DICTIONARYVAR
  5
5F
102
{ACAD_REACTORS
330
5E
102
}
330
5E
100
DictionaryVariables
280
     0
  1
2
  0
DICTIONARYVAR
  5
63
102
{ACAD_REACTORS
330
5E
102
}
330
5E
100
DictionaryVariables
280
     0
  1
1
  0
DICTIONARYVAR
  5
466
102
{ACAD_REACTORS
330
5E
102
}
330
5E
100
DictionaryVariables
280
     0
  1
0
  0
DICTIONARYVAR
  5
464
102
{ACAD_REACTORS
330
5E
102
}
330
5E
100
DictionaryVariables
280
     0
  1
2
  0
DICTIONARYVAR
  5
463
102
{ACAD_REACTORS
330
5E
102
}
330
5E
100
DictionaryVariables
280
     0
  1
1
  0
DICTIONARYVAR
  5
2E14
102
{ACAD_REACTORS
330
5E
102
}
330
5E
100
DictionaryVariables
280
     0
  1
80.000000
  0
DICTIONARYVAR
  5
2E13
102
{ACAD_REACTORS
330
5E
102
}
330
5E
100
DictionaryVariables
280
     0
  1
5.000000
  0
DICTIONARYVAR
  5
465
102
{ACAD_REACTORS
330
5E
102
}
330
5E
100
DictionaryVariables
280
     0
  1
127
  0
DICTIONARY
  5
27E0
102
{ACAD_REACTORS
330
27DF
102
}
330
27DF
100
AcDbDictionary
281
     1
  0
DICTIONARY
  5
2E19
330
D3
100
AcDbDictionary
280
     1
281
     1
  3
ACAD_XREC_ROUNDTRIP
360
2E1A
  0
DICTIONARY
  5
2E1B
330
D7
100
AcDbDictionary
280
     1
281
     1
  3
ACAD_XREC_ROUNDTRIP
360
2E1C
  0
DICTIONARY
  5
2E16
330
22
100
AcDbDictionary
280
     1
281
     1
  3
ACAD_XREC_ROUNDTRIP
360
2E17
  0
DICTIONARY
  5
2E1F
330
ED
100
AcDbDictionary
280
     1
281
     1
  3
ACAD_XREC_ROUNDTRIP
360
2E20
  0
DICTIONARY
  5
2E1D
330
EC
100
AcDbDictionary
280
     1
281
     1
  3
ACAD_XREC_ROUNDTRIP
360
2E1E
  0
DICTIONARY
  5
173
330
EE
100
AcDbDictionary
280
     1
281
     1
  3
ACAD_XREC_ROUNDTRIP
360
2E21
  3
BUMPTILE
360
175
  3
DIFFUSETILE
360
174
  3
OPACITYTILE
360
176
  3
REFLECTIONTILE
360
177
  0
DICTIONARY
  5
162
330
7F
100
AcDbDictionary
280
     1
281
     1
  3
ACAD_ROUNDTRIP_2008_TABLESTYLE_CELLSTYLEMAP
360
2CD4
  3
ACAD_XREC_ROUNDTRIP
360
2E18
  0
XRECORD
  5
2E1A
102
{ACAD_REACTORS
330
2E19
102
}
330
2E19
100
AcDbXrecord
280
     1
102
SHADEPLOT
 70
     0
102
SHADEPLOTRESLEVEL
 70
     2
102
SHADEPLOTCUSTOMDPI
 70
   300
  0
XRECORD
  5
2E1C
102
{ACAD_REACTORS
330
2E1B
102
}
330
2E1B
100
AcDbXrecord
280
     1
102
SHADEPLOT
 70
     0
102
SHADEPLOTRESLEVEL
 70
     2
102
SHADEPLOTCUSTOMDPI
 70
   300
  0
XRECORD
  5
2E17
102
{ACAD_REACTORS
330
2E16
102
}
330
2E16
100
AcDbXrecord
280
     1
102
SHADEPLOT
 70
     0
102
SHADEPLOTRESLEVEL
 70
     2
102
SHADEPLOTCUSTOMDPI
 70
   300
  0
XRECORD
  5
2E20
102
{ACAD_REACTORS
330
2E1F
102
}
330
2E1F
100
AcDbXrecord
280
     1
102
MATERIAL
148
0.0
149
0.0
149
0.0
 93
        0
 94
       63
282
     0
 72
     1
 77
     1
171
     1
175
     1
179
     1
273
     0
  0
XRECORD
  5
2E1E
102
{ACAD_REACTORS
330
2E1D
102
}
330
2E1D
100
AcDbXrecord
280
     1
102
MATERIAL
148
0.0
149
0.0
149
0.0
 93
        0
 94
       63
282
     0
 72
     1
 77
     1
171
     1
175
     1
179
     1
273
     0
  0
XRECORD
  5
2E21
102
{ACAD_REACTORS
330
173
102
}
330
173
100
AcDbXrecord
280
     1
102
MATERIAL
148
0.0
149
0.0
149
0.0
 93
        0
 94
       63
282
     0
 72
     1
 77
     1
171
     1
175
     1
179
     1
273
     0
  0
XRECORD
  5
175
102
{ACAD_REACTORS
330
173
102
}
330
173
100
AcDbXrecord
280
     1
270
     1
271
     1
  0
XRECORD
  5
174
102
{ACAD_REACTORS
330
173
102
}
330
173
100
AcDbXrecord
280
     1
270
     1
271
     1
  0
XRECORD
  5
176
102
{ACAD_REACTORS
330
173
102
}
330
173
100
AcDbXrecord
280
     1
270
     1
271
     1
  0
XRECORD
  5
177
102
{ACAD_REACTORS
330
173
102
}
330
173
100
AcDbXrecord
280
     1
270
     1
271
     1
  0
ACAD_PROXY_OBJECT
  5
2CD4
102
{ACAD_REACTORS
330
162
102
}
330
162
100
AcDbProxyObject
 90
      499
 91
      509
 95
       23
 70
     0
 93
     5304
310
40D054060020000020000003200101A000080002A5058000000C10000000000000006101010000000000003E0FC000000000000F83F0000000000003E0FC000000000000F83F02B5E8DC0F42B1CFC0AD7A3703D0AC73F419019018000000C1003FBFFFFFE0000000000003C8FD029018000000C1003FBFFFFFE00000000000
310
03C8FD049018000000C1003FBFFFFFE0000000000003C8FD089018000000C1003FBFFFFFE0000000000003C8FD109018000000C1003FBFFFFFE0000000000003C8FD209018000000C1003FBFFFFFE0000000000003C8FD01405075F5449544C450041501A8000000C800406800020000A94160000003040000000000000012
310
40404000000000000F83F0000000000003E0FC000000000000F83F0000000000003E0FC0AD7A3703D0AC73F02B5E8DC0F42B1CFD0640640600000030400FEFFFFFF8000000000000F23F40A40600000030400FEFFFFFF8000000000000F23F41240600000030400FEFFFFFF8000000000000F23F42240600000030400FEFFF
310
FFF8000000000000F23F44240600000030400FEFFFFFF8000000000000F23F48240600000030400FEFFFFFF8000000000000F23F409014217D2115051115480105406A0000003200101A000080002A5028000000C10000000000000004901010000000000003E0FC000000000000F83F0000000000003E0FC000000000000F
310
83F02B5E8DC0F42B1CFC0AD7A3703D0AC73F419019018000000C1003FBFFFFFE0000000000003C8FD029018000000C1003FBFFFFFE0000000000003C8FD049018000000C1003FBFFFFFE0000000000003C8FD089018000000C1003FBFFFFFE0000000000003C8FD109018000000C1003FBFFFFFE0000000000003C8FD20901
310
8000000C1003FBFFFFFE0000000000003C8FD03409065F444154410000
340
11
340
14
340
14
340
14
340
14
340
14
340
14
340
11
340
14
340
14
340
14
340
14
340
14
340
14
340
11
340
14
340
14
340
14
340
14
340
14
340
14
 94
        0
1001
ACAD
1000
AcRTDxfName
1000
CELLSTYLEMAP
1000
AcRTDxfName
1000
CELLSTYLEMAP
  0
XRECORD
  5
2E18
102
{ACAD_REACTORS
330
162
102
}
330
162
100
AcDbXrecord
280
     1
102
ACAD_ROUNDTRIP_PRE2007_TABLESTYLE
 90
      512
 91
        0
  1

 92
      512
 93
        0
  2

 94
      512
 95
        0
  3

  0
ENDSEC
  0
EOF
