  0
SECTION
  2
HEADER
  9
$ACADVER
  1
AC1015
  9
$ACADMAINTVER
 70
    20
  9
$DWGCODEPAGE
  3
ANSI_1250
  9
$INSBASE
 10
0.0
 20
0.0
 30
0.0
  9
$EXTMIN
 10
-0.5542771727382388
 20
-0.411862223380922
 30
-0.0000000000112498
  9
$EXTMAX
 10
333.8076980345219
 20
296.5971992844089
 30
0.0000000000002956
  9
$LIMMIN
 10
-0.5491789507159411
 20
-0.4073335441337349
  9
$LIMMAX
 10
333.802595141374
 20
296.5926664558663
  9
$ORTHOMODE
 70
     0
  9
$REGENMODE
 70
     1
  9
$FILLMODE
 70
     1
  9
$QTEXTMODE
 70
     0
  9
$MIRRTEXT
 70
     0
  9
$LTSCALE
 40
1.0
  9
$ATTMODE
 70
     2
  9
$TEXTSIZE
 40
5.0
  9
$TRACEWID
 40
1.0
  9
$TEXTSTYLE
  7
Solbet_5
  9
$CLAYER
  8
SOLBET_Bloczki
  9
$CELTYPE
  6
ByLayer
  9
$CECOLOR
 62
   256
  9
$CELTSCALE
 40
1.0
  9
$DISPSILH
 70
     0
  9
$DIMSCALE
 40
1.0
  9
$DIMASZ
 40
2.5
  9
$DIMEXO
 40
0.0
  9
$DIMDLI
 40
3.75
  9
$DIMRND
 40
0.0
  9
$DIMDLE
 40
0.0
  9
$DIMEXE
 40
1.25
  9
$DIMTP
 40
0.0
  9
$DIMTM
 40
0.0
  9
$DIMTXT
 40
2.5
  9
$DIMCEN
 40
2.5
  9
$DIMTSZ
 40
0.0
  9
$DIMTOL
 70
     0
  9
$DIMLIM
 70
     0
  9
$DIMTIH
 70
     0
  9
$DIMTOH
 70
     0
  9
$DIMSE1
 70
     0
  9
$DIMSE2
 70
     0
  9
$DIMTAD
 70
     1
  9
$DIMZIN
 70
     8
  9
$DIMBLK
  1

  9
$DIMASO
 70
     1
  9
$DIMSHO
 70
     1
  9
$DIMPOST
  1

  9
$DIMAPOST
  1

  9
$DIMALT
 70
     0
  9
$DIMALTD
 70
     3
  9
$DIMALTF
 40
0.03937007874016
  9
$DIMLFAC
 40
1.0
  9
$DIMTOFL
 70
     1
  9
$DIMTVP
 40
0.0
  9
$DIMTIX
 70
     0
  9
$DIMSOXD
 70
     0
  9
$DIMSAH
 70
     0
  9
$DIMBLK1
  1

  9
$DIMBLK2
  1

  9
$DIMSTYLE
  2
Solbet
  9
$DIMCLRD
 70
     0
  9
$DIMCLRE
 70
     0
  9
$DIMCLRT
 70
     0
  9
$DIMTFAC
 40
1.0
  9
$DIMGAP
 40
0.625
  9
$DIMJUST
 70
     0
  9
$DIMSD1
 70
     0
  9
$DIMSD2
 70
     0
  9
$DIMTOLJ
 70
     0
  9
$DIMTZIN
 70
     8
  9
$DIMALTZ
 70
     0
  9
$DIMALTTZ
 70
     0
  9
$DIMUPT
 70
     0
  9
$DIMDEC
 70
     2
  9
$DIMTDEC
 70
     2
  9
$DIMALTU
 70
     2
  9
$DIMALTTD
 70
     3
  9
$DIMTXSTY
  7
Solbet_2_5
  9
$DIMAUNIT
 70
     0
  9
$DIMADEC
 70
     0
  9
$DIMALTRND
 40
0.0
  9
$DIMAZIN
 70
     0
  9
$DIMDSEP
 70
    44
  9
$DIMATFIT
 70
     3
  9
$DIMFRAC
 70
     0
  9
$DIMLDRBLK
  1

  9
$DIMLUNIT
 70
     2
  9
$DIMLWD
 70
    -2
  9
$DIMLWE
 70
    -2
  9
$DIMTMOVE
 70
     0
  9
$LUNITS
 70
     2
  9
$LUPREC
 70
     4
  9
$SKETCHINC
 40
1.0
  9
$FILLETRAD
 40
0.0
  9
$AUNITS
 70
     0
  9
$AUPREC
 70
     0
  9
$MENU
  1
.
  9
$ELEVATION
 40
0.0
  9
$PELEVATION
 40
0.0
  9
$THICKNESS
 40
0.0
  9
$LIMCHECK
 70
     0
  9
$CHAMFERA
 40
0.0
  9
$CHAMFERB
 40
0.0
  9
$CHAMFERC
 40
0.0
  9
$CHAMFERD
 40
0.0
  9
$SKPOLY
 70
     0
  9
$TDCREATE
 40
2454690.075573148
  9
$TDUCREATE
 40
2454690.033906482
  9
$TDUPDATE
 40
2454848.863279710
  9
$TDUUPDATE
 40
2454848.821613044
  9
$TDINDWG
 40
0.6268081250
  9
$TDUSRTIMER
 40
0.6268035995
  9
$USRTIMER
 70
     1
  9
$ANGBASE
 50
0.0
  9
$ANGDIR
 70
     0
  9
$PDMODE
 70
     0
  9
$PDSIZE
 40
0.0
  9
$PLINEWID
 40
0.0
  9
$SPLFRAME
 70
     0
  9
$SPLINETYPE
 70
     6
  9
$SPLINESEGS
 70
     8
  9
$HANDSEED
  5
2A4A
  9
$SURFTAB1
 70
     6
  9
$SURFTAB2
 70
     6
  9
$SURFTYPE
 70
     6
  9
$SURFU
 70
     6
  9
$SURFV
 70
     6
  9
$UCSBASE
  2

  9
$UCSNAME
  2

  9
$UCSORG
 10
0.0
 20
0.0
 30
0.0
  9
$UCSXDIR
 10
1.0
 20
0.0
 30
0.0
  9
$UCSYDIR
 10
0.0
 20
1.0
 30
0.0
  9
$UCSORTHOREF
  2

  9
$UCSORTHOVIEW
 70
     0
  9
$UCSORGTOP
 10
0.0
 20
0.0
 30
0.0
  9
$UCSORGBOTTOM
 10
0.0
 20
0.0
 30
0.0
  9
$UCSORGLEFT
 10
0.0
 20
0.0
 30
0.0
  9
$UCSORGRIGHT
 10
0.0
 20
0.0
 30
0.0
  9
$UCSORGFRONT
 10
0.0
 20
0.0
 30
0.0
  9
$UCSORGBACK
 10
0.0
 20
0.0
 30
0.0
  9
$PUCSBASE
  2

  9
$PUCSNAME
  2

  9
$PUCSORG
 10
0.0
 20
0.0
 30
0.0
  9
$PUCSXDIR
 10
1.0
 20
0.0
 30
0.0
  9
$PUCSYDIR
 10
0.0
 20
1.0
 30
0.0
  9
$PUCSORTHOREF
  2

  9
$PUCSORTHOVIEW
 70
     0
  9
$PUCSORGTOP
 10
0.0
 20
0.0
 30
0.0
  9
$PUCSORGBOTTOM
 10
0.0
 20
0.0
 30
0.0
  9
$PUCSORGLEFT
 10
0.0
 20
0.0
 30
0.0
  9
$PUCSORGRIGHT
 10
0.0
 20
0.0
 30
0.0
  9
$PUCSORGFRONT
 10
0.0
 20
0.0
 30
0.0
  9
$PUCSORGBACK
 10
0.0
 20
0.0
 30
0.0
  9
$USERI1
 70
     0
  9
$USERI2
 70
     0
  9
$USERI3
 70
     0
  9
$USERI4
 70
     0
  9
$USERI5
 70
     0
  9
$USERR1
 40
0.0
  9
$USERR2
 40
0.0
  9
$USERR3
 40
0.0
  9
$USERR4
 40
0.0
  9
$USERR5
 40
0.0
  9
$WORLDVIEW
 70
     1
  9
$SHADEDGE
 70
     3
  9
$SHADEDIF
 70
    70
  9
$TILEMODE
 70
     1
  9
$MAXACTVP
 70
    64
  9
$PINSBASE
 10
0.0
 20
0.0
 30
0.0
  9
$PLIMCHECK
 70
     0
  9
$PEXTMIN
 10
0.0
 20
0.0
 30
0.0
  9
$PEXTMAX
 10
0.0
 20
0.0
 30
0.0
  9
$PLIMMIN
 10
0.0
 20
0.0
  9
$PLIMMAX
 10
12.0
 20
9.0
  9
$UNITMODE
 70
     0
  9
$VISRETAIN
 70
     1
  9
$PLINEGEN
 70
     0
  9
$PSLTSCALE
 70
     1
  9
$TREEDEPTH
 70
  3020
  9
$CMLSTYLE
  2
SOLBET_IZOLACJA
  9
$CMLJUST
 70
     0
  9
$CMLSCALE
 40
20.0
  9
$PROXYGRAPHICS
 70
     1
  9
$MEASUREMENT
 70
     1
  9
$CELWEIGHT
370
    -1
  9
$ENDCAPS
280
     0
  9
$JOINSTYLE
280
     0
  9
$LWDISPLAY
290
     1
  9
$INSUNITS
 70
     4
  9
$HYPERLINKBASE
  1

  9
$STYLESHEET
  1

  9
$XEDIT
290
     1
  9
$CEPSNTYPE
380
     0
  9
$PSTYLEMODE
290
     1
  9
$FINGERPRINTGUID
  2
{6B12AB33-8E39-428E-8E85-461C8D99A3CB}
  9
$VERSIONGUID
  2
{0B8C4533-F602-4487-97E7-FD3DE825F65F}
  9
$EXTNAMES
290
     1
  9
$PSVPSCALE
 40
0.0
  9
$OLESTARTUP
290
     0
  0
ENDSEC
  0
SECTION
  2
CLASSES
  0
CLASS
  1
ACDBDICTIONARYWDFLT
  2
AcDbDictionaryWithDefault
  3
ObjectDBX Classes
 90
        0
280
     0
281
     0
  0
CLASS
  1
ACDBPLACEHOLDER
  2
AcDbPlaceHolder
  3
ObjectDBX Classes
 90
        0
280
     0
281
     0
  0
CLASS
  1
LAYOUT
  2
AcDbLayout
  3
ObjectDBX Classes
 90
        0
280
     0
281
     0
  0
CLASS
  1
DICTIONARYVAR
  2
AcDbDictionaryVar
  3
ObjectDBX Classes
 90
        0
280
     0
281
     0
  0
CLASS
  1
TABLESTYLE
  2
AcDbTableStyle
  3
ObjectDBX Classes
 90
     4095
280
     0
281
     0
  0
CLASS
  1
MATERIAL
  2
AcDbMaterial
  3
ObjectDBX Classes
 90
     1024
280
     0
281
     0
  0
CLASS
  1
VISUALSTYLE
  2
AcDbVisualStyle
  3
ObjectDBX Classes
 90
     4095
280
     0
281
     0
  0
CLASS
  1
SCALE
  2
AcDbScale
  3
ObjectDBX Classes
 90
     1153
280
     0
281
     0
  0
CLASS
  1
MLEADERSTYLE
  2
AcDbMLeaderStyle
  3
ACDB_MLEADERSTYLE_CLASS
 90
     4095
280
     0
281
     0
  0
CLASS
  1
CELLSTYLEMAP
  2
AcDbCellStyleMap
  3
ObjectDBX Classes
 90
     1152
280
     0
281
     0
  0
CLASS
  1
DIMASSOC
  2
AcDbDimAssoc
  3
"AcDbDimAssoc|Product Desc:     AcDim ARX App For Dimension|Company:          Autodesk, Inc.|WEB Address:      www.autodesk.com"
 90
        0
280
     0
281
     0
  0
CLASS
  1
SORTENTSTABLE
  2
AcDbSortentsTable
  3
ObjectDBX Classes
 90
        0
280
     0
281
     0
  0
CLASS
  1
MULTILEADER
  2
AcDbMLeader
  3
ACDB_MLEADER_CLASS
 90
    33793
280
     0
281
     1
  0
CLASS
  1
ACDB_MTEXTOBJECTCONTEXTDATA_CLASS
  2
AcDbMTextObjectContextData
  3
ObjectDBX Classes
 90
    33921
280
     0
281
     0
  0
ENDSEC
  0
SECTION
  2
TABLES
  0
TABLE
  2
VPORT
  5
8
102
{ACAD_XDICTIONARY
360
443
102
}
330
0
100
AcDbSymbolTable
 70
     1
  0
VPORT
  5
EA
330
8
100
AcDbSymbolTableRecord
100
AcDbViewportTableRecord
  2
*Active
 70
     0
 10
0.0
 20
0.0
 11
1.0
 21
1.0
 12
166.6267104308918
 22
148.092668530514
 13
0.0
 23
0.0
 14
10.0
 24
10.0
 15
10.0
 25
10.0
 16
0.0
 26
0.0
 36
1.0
 17
0.0
 27
0.0
 37
0.0
 40
300.3091621912098
 41
1.74582560296846
 42
50.0
 43
0.0
 44
0.0
 50
0.0
 51
0.0
 71
     0
 72
  1000
 73
     1
 74
     3
 75
     0
 76
     0
 77
     0
 78
     0
281
     0
 65
     1
110
0.0
120
0.0
130
0.0
111
1.0
121
0.0
131
0.0
112
0.0
122
1.0
132
0.0
 79
     0
146
0.0
  0
ENDTAB
  0
TABLE
  2
LTYPE
  5
5
330
0
100
AcDbSymbolTable
 70
     3
  0
LTYPE
  5
14
330
5
100
AcDbSymbolTableRecord
100
AcDbLinetypeTableRecord
  2
ByBlock
 70
     0
  3

 72
    65
 73
     0
 40
0.0
  0
LTYPE
  5
15
330
5
100
AcDbSymbolTableRecord
100
AcDbLinetypeTableRecord
  2
ByLayer
 70
     0
  3

 72
    65
 73
     0
 40
0.0
  0
LTYPE
  5
16
330
5
100
AcDbSymbolTableRecord
100
AcDbLinetypeTableRecord
  2
Continuous
 70
     0
  3
Solid line
 72
    65
 73
     0
 40
0.0
  0
LTYPE
  5
2B9
330
5
100
AcDbSymbolTableRecord
100
AcDbLinetypeTableRecord
  2
VERDECKT
 70
     0
  3
__ __ __ __ __ __ __ __ __ __ __ __ __ __ __ __
 72
    65
 73
     2
 40
0.375
 49
0.25
 74
     0
 49
-0.125
 74
     0
  0
LTYPE
  5
982
330
5
100
AcDbSymbolTableRecord
100
AcDbLinetypeTableRecord
  2
BATTING
 70
     0
  3
Batting SSSSSSSSSSSSSSSSSSSSSSSSSSSSSSSSSSSSSSSSSSSSSSS
 72
    65
 73
     4
 40
10.16254
 49
0.00254
 74
     0
 49
-2.54
 74
     4
 75
   134
340
7E7
 46
2.54
 50
0.0
 44
-2.54
 45
0.0
 49
-5.08
 74
     4
 75
   134
340
7E7
 46
2.54
 50
180.0
 44
2.54
 45
0.0
 49
-2.54
 74
     0
  0
ENDTAB
  0
TABLE
  2
LAYER
  5
2
102
{ACAD_XDICTIONARY
360
3E5
102
}
330
0
100
AcDbSymbolTable
 70
    13
  0
LAYER
  5
10
102
{ACAD_XDICTIONARY
360
13C
102
}
330
2
100
AcDbSymbolTableRecord
100
AcDbLayerTableRecord
  2
0
 70
     0
 62
     7
  6
Continuous
370
    -3
390
F
  0
LAYER
  5
2BB
330
2
100
AcDbSymbolTableRecord
100
AcDbLayerTableRecord
  2
DEFPOINTS
 70
     0
 62
     7
  6
Continuous
290
     0
370
    -3
390
F
  0
LAYER
  5
3DD
102
{ACAD_XDICTIONARY
360
403
102
}
330
2
100
AcDbSymbolTableRecord
100
AcDbLayerTableRecord
  2
SOLBET_Bloczki
 70
     0
 62
   140
  6
Continuous
370
    -3
390
F
1001
AcAecLayerStandard
1000

1000

  0
LAYER
  5
3DF
102
{ACAD_XDICTIONARY
360
405
102
}
330
2
100
AcDbSymbolTableRecord
100
AcDbLayerTableRecord
  2
SOLBET_Wymiary_Opisy
 70
     0
 62
     1
  6
Continuous
370
    -3
390
F
1001
AcAecLayerStandard
1000

1000

  0
LAYER
  5
3E0
102
{ACAD_XDICTIONARY
360
407
102
}
330
2
100
AcDbSymbolTableRecord
100
AcDbLayerTableRecord
  2
SOLBET_Beton
 70
     0
 62
     9
  6
Continuous
370
    -3
390
F
1001
AcAecLayerStandard
1000

1000

  0
LAYER
  5
3E1
102
{ACAD_XDICTIONARY
360
409
102
}
330
2
100
AcDbSymbolTableRecord
100
AcDbLayerTableRecord
  2
SOLBET_Izolacja
 70
     0
 62
    40
  6
Continuous
370
    -3
390
F
1001
AcAecLayerStandard
1000

1000

  0
LAYER
  5
3E2
102
{ACAD_XDICTIONARY
360
40B
102
}
330
2
100
AcDbSymbolTableRecord
100
AcDbLayerTableRecord
  2
SOLBET_Zbrojenie_Konstrukcja
 70
     0
 62
     7
  6
Continuous
370
    -3
390
F
1001
AcAecLayerStandard
1000

1000

  0
LAYER
  5
3E4
102
{ACAD_XDICTIONARY
360
40F
102
}
330
2
100
AcDbSymbolTableRecord
100
AcDbLayerTableRecord
  2
SOLBET_Tynki_Posadzki
 70
     0
 62
     3
  6
Continuous
370
    -3
390
F
1001
AcAecLayerStandard
1000

1000

  0
LAYER
  5
3E8
102
{ACAD_XDICTIONARY
360
411
102
}
330
2
100
AcDbSymbolTableRecord
100
AcDbLayerTableRecord
  2
SOLBET_Ramka_05
 70
     0
 62
     2
  6
Continuous
370
    -3
390
F
1001
AcAecLayerStandard
1000

1000

  0
LAYER
  5
472
330
2
100
AcDbSymbolTableRecord
100
AcDbLayerTableRecord
  2
SOLBET_Zaprawy
 70
     0
 62
     4
  6
Continuous
370
    -3
390
F
1001
AcAecLayerStandard
1000

1000

  0
LAYER
  5
4E2
330
2
100
AcDbSymbolTableRecord
100
AcDbLayerTableRecord
  2
SOLBET_Emulsje_Folie
 70
     0
 62
     6
  6
Continuous
370
    -3
390
F
1001
AcAecLayerStandard
1000

1000

  0
LAYER
  5
250E
330
2
100
AcDbSymbolTableRecord
100
AcDbLayerTableRecord
  2
SOLBET_Okna_Stolarka
 70
     0
 62
     2
  6
Continuous
370
    -3
390
F
1001
AcAecLayerStandard
1000

1000

  0
LAYER
  5
28D4
102
{ACAD_XDICTIONARY
360
28D5
102
}
330
2
100
AcDbSymbolTableRecord
100
AcDbLayerTableRecord
  2
SOLBET_Wymiary_Opisy @ 1
 70
     0
 62
     1
  6
Continuous
370
    -3
390
F
1001
AcAecLayerStandard
1000

1000

1001
AcadAnnotativeDecomposition
1000
AnnotativeData
1002
{
1070
     1
1070
     1
1002
}
  0
ENDTAB
  0
TABLE
  2
STYLE
  5
3
330
0
100
AcDbSymbolTable
 70
     5
  0
STYLE
  5
11
330
3
100
AcDbSymbolTableRecord
100
AcDbTextStyleTableRecord
  2
Standard
 70
     0
 40
0.0
 41
1.0
 50
0.0
 71
     0
 42
2.5
  3
txt.shx
  4

  0
STYLE
  5
7D7
330
3
100
AcDbSymbolTableRecord
100
AcDbTextStyleTableRecord
  2
Solbet_5
 70
     0
 40
5.0
 41
1.0
 50
0.0
 71
     0
 42
5.0
  3
isocpeur.ttf
  4

1001
ACAD
1000
ISOCPEUR
1071
       34
  0
STYLE
  5
7D9
330
3
100
AcDbSymbolTableRecord
100
AcDbTextStyleTableRecord
  2
Solbet_2_5
 70
     0
 40
2.5
 41
1.0
 50
0.0
 71
     0
 42
2.5
  3
isocpeur.ttf
  4

1001
ACAD
1000
ISOCPEUR
1071
       34
  0
STYLE
  5
7E7
330
3
100
AcDbSymbolTableRecord
100
AcDbTextStyleTableRecord
  2

 70
     1
 40
0.0
 41
1.0
 50
0.0
 71
     0
 42
2.5
  3
ltypeshp.shx
  4

  0
STYLE
  5
236A
330
3
100
AcDbSymbolTableRecord
100
AcDbTextStyleTableRecord
  2
Solbet_1
 70
     0
 40
1.0
 41
1.0
 50
0.0
 71
     0
 42
2.5
  3
isocpeur.ttf
  4

1001
ACAD
1000
ISOCPEUR
1071
       34
  0
ENDTAB
  0
TABLE
  2
VIEW
  5
6
330
0
100
AcDbSymbolTable
 70
     0
  0
ENDTAB
  0
TABLE
  2
UCS
  5
7
330
0
100
AcDbSymbolTable
 70
     0
  0
ENDTAB
  0
TABLE
  2
APPID
  5
9
330
0
100
AcDbSymbolTable
 70
    13
  0
APPID
  5
12
330
9
100
AcDbSymbolTableRecord
100
AcDbRegAppTableRecord
  2
ACAD
 70
     0
  0
APPID
  5
9E
330
9
100
AcDbSymbolTableRecord
100
AcDbRegAppTableRecord
  2
ACAD_PSEXT
 70
     0
  0
APPID
  5
133
330
9
100
AcDbSymbolTableRecord
100
AcDbRegAppTableRecord
  2
AcadAnnoPO
 70
     0
  0
APPID
  5
134
330
9
100
AcDbSymbolTableRecord
100
AcDbRegAppTableRecord
  2
AcadAnnotative
 70
     0
  0
APPID
  5
135
330
9
100
AcDbSymbolTableRecord
100
AcDbRegAppTableRecord
  2
ACAD_DSTYLE_DIMJAG
 70
     0
  0
APPID
  5
136
330
9
100
AcDbSymbolTableRecord
100
AcDbRegAppTableRecord
  2
ACAD_DSTYLE_DIMTALN
 70
     0
  0
APPID
  5
165
330
9
100
AcDbSymbolTableRecord
100
AcDbRegAppTableRecord
  2
ACAD_MLEADERVER
 70
     0
  0
APPID
  5
2C4
330
9
100
AcDbSymbolTableRecord
100
AcDbRegAppTableRecord
  2
ASO_SCHRAFF
 70
     0
  0
APPID
  5
3DE
330
9
100
AcDbSymbolTableRecord
100
AcDbRegAppTableRecord
  2
AcAecLayerStandard
 70
     0
  0
APPID
  5
7DE
330
9
100
AcDbSymbolTableRecord
100
AcDbRegAppTableRecord
  2
ACAD_EXEMPT_FROM_CAD_STANDARDS
 70
     0
  0
APPID
  5
948
330
9
100
AcDbSymbolTableRecord
100
AcDbRegAppTableRecord
  2
ACAD_DSTYLE_DIMBREAK
 70
     0
  0
APPID
  5
1D0A
330
9
100
AcDbSymbolTableRecord
100
AcDbRegAppTableRecord
  2
AcadAnnotativeDecomposition
 70
     0
  0
APPID
  5
236B
330
9
100
AcDbSymbolTableRecord
100
AcDbRegAppTableRecord
  2
AcDbAttr
 70
     0
  0
ENDTAB
  0
TABLE
  2
DIMSTYLE
  5
A
330
0
100
AcDbSymbolTable
 70
     2
100
AcDbDimStyleTable
 71
     1
340
949
  0
DIMSTYLE
105
949
102
{ACAD_REACTORS
330
256A
102
}
330
A
100
AcDbSymbolTableRecord
100
AcDbDimStyleTableRecord
  2
Solbet
 70
     0
 41
2.5
 42
0.0
 43
3.75
 44
1.25
 73
     0
 74
     0
 77
     1
 78
     8
140
2.5
141
2.5
143
0.03937007874016
147
0.625
171
     3
172
     1
271
     2
272
     2
274
     3
278
    44
283
     0
284
     8
340
7D9
1001
ACAD_DSTYLE_DIMBREAK
1070
   391
1040
3.75
1001
ACAD_DSTYLE_DIMJAG
1070
   388
1040
1.5
1001
ACAD_DSTYLE_DIMTALN
1070
   392
1070
     0
  0
DIMSTYLE
105
954
330
A
100
AcDbSymbolTableRecord
100
AcDbDimStyleTableRecord
  2
Solbet$7
 70
     0
 41
2.5
 42
0.0
 43
3.75
 44
1.25
 73
     0
 74
     0
 77
     1
 78
     8
140
2.5
141
2.5
143
0.03937007874016
147
0.625
171
     3
172
     1
271
     2
272
     2
274
     3
278
    44
283
     0
284
     8
340
7D9
341
958
1001
ACAD_DSTYLE_DIMBREAK
1070
   391
1040
3.75
1001
ACAD_DSTYLE_DIMJAG
1070
   388
1040
1.5
1001
ACAD_DSTYLE_DIMTALN
1070
   392
1070
     0
  0
ENDTAB
  0
TABLE
  2
BLOCK_RECORD
  5
1
330
0
100
AcDbSymbolTable
 70
    20
  0
BLOCK_RECORD
  5
1F
102
{ACAD_XDICTIONARY
360
4A3
102
}
330
1
100
AcDbSymbolTableRecord
100
AcDbBlockTableRecord
  2
*Model_Space
340
22
  0
BLOCK_RECORD
  5
D2
330
1
100
AcDbSymbolTableRecord
100
AcDbBlockTableRecord
  2
*Paper_Space
340
D3
  0
BLOCK_RECORD
  5
D6
330
1
100
AcDbSymbolTableRecord
100
AcDbBlockTableRecord
  2
*Paper_Space0
340
D7
  0
BLOCK_RECORD
  5
1C2
330
1
100
AcDbSymbolTableRecord
100
AcDbBlockTableRecord
  2
ASOWDBLK
340
0
102
{BLKREFS
331
2525
331
2526
331
2527
331
2528
331
2529
331
252A
331
252B
331
252C
331
252D
331
252E
331
252F
331
2530
331
2531
331
2532
331
2533
331
2534
331
2535
331
2536
331
2537
331
2538
331
2539
331
253A
331
253B
102
}
  0
BLOCK_RECORD
  5
958
330
1
100
AcDbSymbolTableRecord
100
AcDbBlockTableRecord
  2
_DotSmall
340
0
102
{BLKREFS
331
2552
331
2564
331
2568
331
2594
331
2598
331
2627
102
}
  0
BLOCK_RECORD
  5
1EF2
330
1
100
AcDbSymbolTableRecord
100
AcDbBlockTableRecord
  2
_None
340
0
  0
BLOCK_RECORD
  5
20E9
330
1
100
AcDbSymbolTableRecord
100
AcDbBlockTableRecord
  2
*U4
340
0
102
{BLKREFS
331
226F
331
253C
331
260B
102
}
  0
BLOCK_RECORD
  5
2113
330
1
100
AcDbSymbolTableRecord
100
AcDbBlockTableRecord
  2
*U5
340
0
102
{BLKREFS
331
22F4
102
}
  0
BLOCK_RECORD
  5
211D
330
1
100
AcDbSymbolTableRecord
100
AcDbBlockTableRecord
  2
*U6
340
0
102
{BLKREFS
331
2316
102
}
  0
BLOCK_RECORD
  5
2122
330
1
100
AcDbSymbolTableRecord
100
AcDbBlockTableRecord
  2
*U7
340
0
102
{BLKREFS
331
2317
102
}
  0
BLOCK_RECORD
  5
2127
330
1
100
AcDbSymbolTableRecord
100
AcDbBlockTableRecord
  2
*U8
340
0
102
{BLKREFS
331
2318
102
}
  0
BLOCK_RECORD
  5
215E
330
1
100
AcDbSymbolTableRecord
100
AcDbBlockTableRecord
  2
*U9
340
0
102
{BLKREFS
331
2355
331
253D
331
260F
102
}
  0
BLOCK_RECORD
  5
236C
102
{ACAD_XDICTIONARY
360
2378
102
}
330
1
100
AcDbSymbolTableRecord
100
AcDbBlockTableRecord
  2
SOLBET_Bloczek_Ideal_420x240x590_P+W_PRA
340
0
1001
ACAD
1000
DesignCenter Data
1002
{
1070
     1
1070
     4
1002
}
  0
BLOCK_RECORD
  5
23D6
102
{ACAD_XDICTIONARY
360
23E0
102
}
330
1
100
AcDbSymbolTableRecord
100
AcDbBlockTableRecord
  2
SOLBET_Nadproze_140_12_1400x240x120_PRA
340
0
1001
ACAD
1000
DesignCenter Data
1002
{
1070
     1
1070
     4
1002
}
  0
BLOCK_RECORD
  5
23F5
102
{ACAD_XDICTIONARY
360
2403
102
}
330
1
100
AcDbSymbolTableRecord
100
AcDbBlockTableRecord
  2
SOLBET_Ksztaltka_U_420x240x500_PRA
340
0
1001
ACAD
1000
DesignCenter Data
1002
{
1070
     1
1070
     4
1002
}
  0
BLOCK_RECORD
  5
2424
102
{ACAD_XDICTIONARY
360
242E
102
}
330
1
100
AcDbSymbolTableRecord
100
AcDbBlockTableRecord
  2
SOLBET_Plytka_80x240x590_brak_PRA
340
0
1001
ACAD
1000
DesignCenter Data
1002
{
1070
     1
1070
     4
1002
}
  0
BLOCK_RECORD
  5
256B
330
1
100
AcDbSymbolTableRecord
100
AcDbBlockTableRecord
  2
*D14
340
0
  0
BLOCK_RECORD
  5
291B
102
{ACAD_XDICTIONARY
360
2929
102
}
330
1
100
AcDbSymbolTableRecord
100
AcDbBlockTableRecord
  2
SOLBET_Ksztaltka_U_420x240x500_KG400_PRA
340
0
102
{BLKREFS
331
292D
102
}
1001
ACAD
1000
DesignCenter Data
1002
{
1070
     1
1070
     4
1002
}
  0
BLOCK_RECORD
  5
2966
102
{ACAD_XDICTIONARY
360
2970
102
}
330
1
100
AcDbSymbolTableRecord
100
AcDbBlockTableRecord
  2
SOLBET_Plytka_80x240x590_KG600_PRA
340
0
102
{BLKREFS
331
2974
102
}
1001
ACAD
1000
DesignCenter Data
1002
{
1070
     1
1070
     4
1002
}
  0
BLOCK_RECORD
  5
2975
102
{ACAD_XDICTIONARY
360
2981
102
}
330
1
100
AcDbSymbolTableRecord
100
AcDbBlockTableRecord
  2
SOLBET_Bloczek_Ideal_420x240x590_P+W_KG400_PRA
340
0
102
{BLKREFS
331
2985
331
2986
331
2987
331
2988
331
299F
102
}
1001
ACAD
1000
DesignCenter Data
1002
{
1070
     1
1070
     4
1002
}
  0
BLOCK_RECORD
  5
2989
102
{ACAD_XDICTIONARY
360
299A
102
}
330
1
100
AcDbSymbolTableRecord
100
AcDbBlockTableRecord
  2
SOLBET_Nadproze_120x240x1400_zz_PRA
340
0
102
{BLKREFS
331
299E
102
}
1001
ACAD
1000
DesignCenter Data
1002
{
1070
     1
1070
     4
1002
}
  0
ENDTAB
  0
ENDSEC
  0
SECTION
  2
BLOCKS
  0
BLOCK
  5
20
330
1F
100
AcDbEntity
  8
0
100
AcDbBlockBegin
  2
*Model_Space
 70
     0
 10
0.0
 20
0.0
 30
0.0
  3
*Model_Space
  1

  0
ENDBLK
  5
21
330
1F
100
AcDbEntity
  8
0
100
AcDbBlockEnd
  0
BLOCK
  5
D4
330
D2
100
AcDbEntity
 67
     1
  8
0
100
AcDbBlockBegin
  2
*Paper_Space
 70
     0
 10
0.0
 20
0.0
 30
0.0
  3
*Paper_Space
  1

  0
ENDBLK
  5
D5
330
D2
100
AcDbEntity
 67
     1
  8
0
100
AcDbBlockEnd
  0
BLOCK
  5
D8
330
D6
100
AcDbEntity
 67
     1
  8
0
100
AcDbBlockBegin
  2
*Paper_Space0
 70
     0
 10
0.0
 20
0.0
 30
0.0
  3
*Paper_Space0
  1

  0
ENDBLK
  5
D9
330
D6
100
AcDbEntity
 67
     1
  8
0
100
AcDbBlockEnd
  0
BLOCK
  5
1C3
330
1C2
100
AcDbEntity
  8
0
100
AcDbBlockBegin
  2
ASOWDBLK
 70
     0
 10
0.0
 20
0.0
 30
0.0
  3
ASOWDBLK
  1
ASOWDBLK
  0
ARC
  5
1C4
330
1C2
100
AcDbEntity
  8
0
  6
Continuous
 62
     0
100
AcDbCircle
 10
0.0
 20
0.25
 30
0.0
 40
0.25
100
AcDbArc
 50
270.0000011238745
 51
36.86989141244799
  0
ARC
  5
1C5
330
1C2
100
AcDbEntity
  8
0
  6
Continuous
 62
     0
100
AcDbCircle
 10
0.25
 20
0.75
 30
0.0
 40
0.25
100
AcDbArc
 50
323.1300909874582
 51
216.8699112602908
  0
LINE
  5
1C6
330
1C2
100
AcDbEntity
  8
0
  6
Continuous
 62
     0
100
AcDbLine
 10
0.05
 20
0.6
 30
0.0
 11
0.2
 21
0.4
 31
0.0
  0
ARC
  5
1C7
330
1C2
100
AcDbEntity
  8
0
  6
Continuous
 62
     0
100
AcDbCircle
 10
0.5
 20
0.25
 30
0.0
 40
0.25
100
AcDbArc
 50
143.1301284353948
 51
270.0000011238745
  0
LINE
  5
1C8
330
1C2
100
AcDbEntity
  8
0
  6
Continuous
 62
     0
100
AcDbLine
 10
0.45
 20
0.6
 30
0.0
 11
0.3
 21
0.4
 31
0.0
  0
ENDBLK
  5
1C9
330
1C2
100
AcDbEntity
  8
0
100
AcDbBlockEnd
  0
BLOCK
  5
95A
330
958
100
AcDbEntity
  8
0
100
AcDbBlockBegin
  2
_DotSmall
 70
     0
 10
0.0
 20
0.0
 30
0.0
  3
_DotSmall
  1

  0
LWPOLYLINE
  5
959
330
958
100
AcDbEntity
  8
0
  6
ByBlock
 62
     0
100
AcDbPolyline
 90
        2
 70
     1
 43
0.5
 10
-0.0625
 20
0.0
 42
1.0
 10
0.0625
 20
0.0
 42
1.0
  0
ENDBLK
  5
95B
330
958
100
AcDbEntity
  8
0
100
AcDbBlockEnd
  0
BLOCK
  5
1EF3
330
1EF2
100
AcDbEntity
  8
0
100
AcDbBlockBegin
  2
_None
 70
     0
 10
0.0
 20
0.0
 30
0.0
  3
_None
  1

  0
ENDBLK
  5
1EF4
330
1EF2
100
AcDbEntity
  8
0
100
AcDbBlockEnd
  0
BLOCK
  5
20EA
330
20E9
100
AcDbEntity
  8
0
100
AcDbBlockBegin
  2
*U4
 70
     1
 10
0.0
 20
0.0
 30
0.0
  3
*U4
  1
*ANON
  0
SOLID
  5
20EB
330
20E9
100
AcDbEntity
  8
0
 62
     0
100
AcDbTrace
 10
8.138963202893219
 20
4.153110275044026
 30
0.0
 11
8.139143255728106
 21
4.152782880701087
 31
0.0
 12
8.138963202893224
 22
4.152372156093623
 32
0.0
 13
8.138963202893224
 23
4.152372156093623
 33
0.0
  0
SOLID
  5
20EC
330
20E9
100
AcDbEntity
  8
0
 62
     0
100
AcDbTrace
 10
8.138963202893224
 20
4.152372156093623
 30
0.0
 11
8.138028867975624
 21
4.151884078297518
 31
0.0
 12
8.136896703462809
 22
4.151631537884072
 32
0.0
 13
8.136896703462809
 23
4.151631537884072
 33
0.0
  0
SOLID
  5
20ED
330
20E9
100
AcDbEntity
  8
0
 62
     0
100
AcDbTrace
 10
8.138963202893224
 20
4.152372156093623
 30
0.0
 11
8.136896703462809
 21
4.151631537884072
 31
0.0
 12
8.135333985407216
 22
4.151529040414927
 32
0.0
 13
8.135333985407216
 23
4.151529040414927
 33
0.0
  0
SOLID
  5
20EE
330
20E9
100
AcDbEntity
  8
0
 62
     0
100
AcDbTrace
 10
8.138963202893224
 20
4.152372156093623
 30
0.0
 11
8.135333985407216
 21
4.151529040414927
 31
0.0
 12
8.133771267351626
 22
4.151631537884071
 32
0.0
 13
8.133771267351626
 23
4.151631537884071
 33
0.0
  0
SOLID
  5
20EF
330
20E9
100
AcDbEntity
  8
0
 62
     0
100
AcDbTrace
 10
8.138963202893224
 20
4.152372156093623
 30
0.0
 11
8.133771267351626
 21
4.151631537884071
 31
0.0
 12
8.132639102838806
 22
4.15188407829752
 32
0.0
 13
8.132639102838806
 23
4.15188407829752
 33
0.0
  0
SOLID
  5
20F0
330
20E9
100
AcDbEntity
  8
0
 62
     0
100
AcDbTrace
 10
8.138963202893224
 20
4.152372156093623
 30
0.0
 11
8.132639102838806
 21
4.15188407829752
 31
0.0
 12
8.131704767921211
 22
4.152372156093618
 32
0.0
 13
8.131704767921211
 23
4.152372156093618
 33
0.0
  0
SOLID
  5
20F1
330
20E9
100
AcDbEntity
  8
0
 62
     0
100
AcDbTrace
 10
8.138963202893224
 20
4.152372156093623
 30
0.0
 11
8.131704767921211
 21
4.152372156093618
 31
0.0
 12
8.131522845929975
 22
4.152741215568822
 32
0.0
 13
8.131522845929975
 23
4.152741215568822
 33
0.0
  0
SOLID
  5
20F2
330
20E9
100
AcDbEntity
  8
0
 62
     0
100
AcDbTrace
 10
8.138963202893224
 20
4.152372156093623
 30
0.0
 11
8.131522845929975
 21
4.152741215568822
 31
0.0
 12
8.13170476792121
 22
4.153110275044022
 32
0.0
 13
8.13170476792121
 23
4.153110275044022
 33
0.0
  0
SOLID
  5
20F3
330
20E9
100
AcDbEntity
  8
0
 62
     0
100
AcDbTrace
 10
8.138963202893224
 20
4.152372156093623
 30
0.0
 11
8.13170476792121
 21
4.153110275044022
 31
0.0
 12
8.132639102838815
 22
4.153598352840128
 32
0.0
 13
8.132639102838815
 23
4.153598352840128
 33
0.0
  0
SOLID
  5
20F4
330
20E9
100
AcDbEntity
  8
0
 62
     0
100
AcDbTrace
 10
8.138963202893224
 20
4.152372156093623
 30
0.0
 11
8.132639102838815
 21
4.153598352840128
 31
0.0
 12
8.133771267351617
 22
4.153850893253571
 32
0.0
 13
8.133771267351617
 23
4.153850893253571
 33
0.0
  0
SOLID
  5
20F5
330
20E9
100
AcDbEntity
  8
0
 62
     0
100
AcDbTrace
 10
8.138963202893224
 20
4.152372156093623
 30
0.0
 11
8.133771267351617
 21
4.153850893253571
 31
0.0
 12
8.135333985407216
 22
4.153953390722717
 32
0.0
 13
8.135333985407216
 23
4.153953390722717
 33
0.0
  0
SOLID
  5
20F6
330
20E9
100
AcDbEntity
  8
0
 62
     0
100
AcDbTrace
 10
8.138963202893224
 20
4.152372156093623
 30
0.0
 11
8.135333985407216
 21
4.153953390722717
 31
0.0
 12
8.136896703462786
 22
4.153850893253575
 32
0.0
 13
8.136896703462786
 23
4.153850893253575
 33
0.0
  0
SOLID
  5
20F7
330
20E9
100
AcDbEntity
  8
0
 62
     0
100
AcDbTrace
 10
8.138963202893224
 20
4.152372156093623
 30
0.0
 11
8.136896703462786
 21
4.153850893253575
 31
0.0
 12
8.138028867975622
 22
4.153598352840125
 32
0.0
 13
8.138028867975622
 23
4.153598352840125
 33
0.0
  0
SOLID
  5
20F8
330
20E9
100
AcDbEntity
  8
0
 62
     0
100
AcDbTrace
 10
8.138963202893224
 20
4.152372156093623
 30
0.0
 11
8.138028867975622
 21
4.153598352840125
 31
0.0
 12
8.138963202829472
 22
4.153110275044026
 32
0.0
 13
8.138963202829472
 23
4.153110275044026
 33
0.0
  0
ENDBLK
  5
20F9
330
20E9
100
AcDbEntity
  8
0
100
AcDbBlockEnd
  0
BLOCK
  5
2114
330
2113
100
AcDbEntity
  8
0
100
AcDbBlockBegin
  2
*U5
 70
     1
 10
0.0
 20
0.0
 30
0.0
  3
*U5
  1
*ANON
  0
SOLID
  5
2115
330
2113
100
AcDbEntity
  8
0
 62
     0
100
AcDbTrace
 10
7.91857274013904
 20
2.701391938321373
 30
0.0
 11
7.972731263906927
 21
2.701391938321373
 31
0.0
 12
7.972731263906926
 22
2.711391938321373
 32
0.0
 13
7.972731263906926
 23
2.711391938321373
 33
0.0
  0
SOLID
  5
2116
330
2113
100
AcDbEntity
  8
0
 62
     0
100
AcDbTrace
 10
7.91857274013904
 20
2.701391938321373
 30
0.0
 11
7.972731263906926
 21
2.711391938321373
 31
0.0
 12
7.91857274013904
 22
2.711391938321373
 32
0.0
 13
7.91857274013904
 23
2.711391938321373
 33
0.0
  0
ENDBLK
  5
2117
330
2113
100
AcDbEntity
  8
0
100
AcDbBlockEnd
  0
BLOCK
  5
211E
330
211D
100
AcDbEntity
  8
0
100
AcDbBlockBegin
  2
*U6
 70
     1
 10
0.0
 20
0.0
 30
0.0
  3
*U6
  1
*ANON
  0
SOLID
  5
211F
330
211D
100
AcDbEntity
  8
0
 62
     0
100
AcDbTrace
 10
9.736510007084646
 20
8.634786545824299
 30
0.0
 11
9.790668530852533
 21
8.634786545824299
 31
0.0
 12
9.790668530852531
 22
8.624786545824299
 32
0.0
 13
9.790668530852531
 23
8.624786545824299
 33
0.0
  0
SOLID
  5
2120
330
211D
100
AcDbEntity
  8
0
 62
     0
100
AcDbTrace
 10
9.736510007060132
 20
8.634786545824299
 30
0.0
 11
9.790668530852531
 21
8.624786545824299
 31
0.0
 12
9.736510007084646
 22
8.624786545824299
 32
0.0
 13
9.736510007084646
 23
8.624786545824299
 33
0.0
  0
ENDBLK
  5
2121
330
211D
100
AcDbEntity
  8
0
100
AcDbBlockEnd
  0
BLOCK
  5
2123
330
2122
100
AcDbEntity
  8
0
100
AcDbBlockBegin
  2
*U7
 70
     1
 10
0.0
 20
0.0
 30
0.0
  3
*U7
  1
*ANON
  0
SOLID
  5
2124
330
2122
100
AcDbEntity
  8
0
 62
     0
100
AcDbTrace
 10
9.736510007084646
 20
7.1547865458243
 30
0.0
 11
9.790668530852533
 21
7.1547865458243
 31
0.0
 12
9.790668530852531
 22
7.1647865458243
 32
0.0
 13
9.790668530852531
 23
7.1647865458243
 33
0.0
  0
SOLID
  5
2125
330
2122
100
AcDbEntity
  8
0
 62
     0
100
AcDbTrace
 10
9.736510007084646
 20
7.1547865458243
 30
0.0
 11
9.790668530852531
 21
7.1647865458243
 31
0.0
 12
9.736510007084646
 22
7.1647865458243
 32
0.0
 13
9.736510007084646
 23
7.1647865458243
 33
0.0
  0
ENDBLK
  5
2126
330
2122
100
AcDbEntity
  8
0
100
AcDbBlockEnd
  0
BLOCK
  5
2128
330
2127
100
AcDbEntity
  8
0
100
AcDbBlockBegin
  2
*U8
 70
     1
 10
0.0
 20
0.0
 30
0.0
  3
*U8
  1
*ANON
  0
ARC
  5
2129
330
2127
100
AcDbEntity
  8
0
  6
ByBlock
 62
     0
100
AcDbCircle
 10
10.08363097998239
 20
7.208119879157635
 30
0.0
 40
0.0273333333333337
100
AcDbArc
 50
209.1964044096773
 51
270.0
  0
ARC
  5
212A
330
2127
100
AcDbEntity
  8
0
  6
ByBlock
 62
     0
100
AcDbCircle
 10
10.08363097998239
 20
7.208119879157635
 30
0.0
 40
0.0553333333333336
100
AcDbArc
 50
193.9434348608043
 51
254.5483065688689
  0
ARC
  5
212B
330
2127
100
AcDbEntity
  8
0
  6
ByBlock
 62
     0
100
AcDbCircle
 10
10.08363097998239
 20
7.208119879157635
 30
0.0
 40
0.0833333333333337
100
AcDbArc
 50
189.2068962213378
 51
219.7918194995297
  0
ARC
  5
212C
330
2127
100
AcDbEntity
  8
0
  6
ByBlock
 62
     0
100
AcDbCircle
 10
10.08363097998239
 20
7.208119879157635
 30
0.0
 40
0.1113333333333336
100
AcDbArc
 50
186.8782793511642
 51
208.6228467300185
  0
ARC
  5
212D
330
2127
100
AcDbEntity
  8
0
  6
ByBlock
 62
     0
100
AcDbCircle
 10
10.08363097998239
 20
7.208119879157635
 30
0.0
 40
0.1393333333333336
100
AcDbArc
 50
185.4912524022713
 51
202.5056862398089
  0
ARC
  5
212E
330
2127
100
AcDbEntity
  8
0
  6
ByBlock
 62
     0
100
AcDbCircle
 10
10.08363097998239
 20
7.208119879157635
 30
0.0
 40
0.1673333333333336
100
AcDbArc
 50
184.5702456483734
 51
198.5858418267903
  0
ARC
  5
212F
330
2127
100
AcDbEntity
  8
0
  6
ByBlock
 62
     0
100
AcDbCircle
 10
10.08363097998239
 20
7.208119879157635
 30
0.0
 40
0.1953333333333336
100
AcDbArc
 50
183.9140181923179
 51
195.8450985955665
  0
ARC
  5
2130
330
2127
100
AcDbEntity
  8
0
  6
ByBlock
 62
     0
100
AcDbCircle
 10
10.08363097998239
 20
7.208119879157635
 30
0.0
 40
0.2233333333333336
100
AcDbArc
 50
183.4226788343224
 51
193.8160784752668
  0
ARC
  5
2131
330
2127
100
AcDbEntity
  8
0
  6
ByBlock
 62
     0
100
AcDbCircle
 10
10.08363097998239
 20
7.208119879157635
 30
0.0
 40
0.2513333333333336
100
AcDbArc
 50
183.0409914386516
 51
192.2514024131567
  0
ARC
  5
2132
330
2127
100
AcDbEntity
  8
0
  6
ByBlock
 62
     0
100
AcDbCircle
 10
10.08363097998239
 20
7.208119879157635
 30
0.0
 40
0.2793333333333336
100
AcDbArc
 50
182.7359216738389
 51
191.0071088739846
  0
ENDBLK
  5
2133
330
2127
100
AcDbEntity
  8
0
100
AcDbBlockEnd
  0
BLOCK
  5
215F
330
215E
100
AcDbEntity
  8
0
100
AcDbBlockBegin
  2
*U9
 70
     1
 10
0.0
 20
0.0
 30
0.0
  3
*U9
  1
*ANON
  0
SOLID
  5
2160
330
215E
100
AcDbEntity
  8
0
 62
     0
100
AcDbTrace
 10
12.73947131715372
 20
7.015778800505495
 30
0.0
 11
12.73929126431883
 21
7.015451406162556
 31
0.0
 12
12.73947131715371
 22
7.015040681555092
 32
0.0
 13
12.73947131715371
 23
7.015040681555092
 33
0.0
  0
SOLID
  5
2161
330
215E
100
AcDbEntity
  8
0
 62
     0
100
AcDbTrace
 10
12.73947131715371
 20
7.015040681555092
 30
0.0
 11
12.74040565207132
 21
7.014552603758987
 31
0.0
 12
12.74153781658413
 22
7.014300063345541
 32
0.0
 13
12.74153781658413
 23
7.014300063345541
 33
0.0
  0
SOLID
  5
2162
330
215E
100
AcDbEntity
  8
0
 62
     0
100
AcDbTrace
 10
12.73947131715371
 20
7.015040681555092
 30
0.0
 11
12.74153781658413
 21
7.014300063345541
 31
0.0
 12
12.74310053463972
 22
7.014197565876396
 32
0.0
 13
12.74310053463972
 23
7.014197565876396
 33
0.0
  0
SOLID
  5
2163
330
215E
100
AcDbEntity
  8
0
 62
     0
100
AcDbTrace
 10
12.73947131715371
 20
7.015040681555092
 30
0.0
 11
12.74310053463972
 21
7.014197565876396
 31
0.0
 12
12.74466325269531
 22
7.01430006334554
 32
0.0
 13
12.74466325269531
 23
7.01430006334554
 33
0.0
  0
SOLID
  5
2164
330
215E
100
AcDbEntity
  8
0
 62
     0
100
AcDbTrace
 10
12.73947131715371
 20
7.015040681555092
 30
0.0
 11
12.74466325269531
 21
7.01430006334554
 31
0.0
 12
12.74579541720813
 22
7.014552603758989
 32
0.0
 13
12.74579541720813
 23
7.014552603758989
 33
0.0
  0
SOLID
  5
2165
330
215E
100
AcDbEntity
  8
0
 62
     0
100
AcDbTrace
 10
12.73947131715371
 20
7.015040681555092
 30
0.0
 11
12.74579541720813
 21
7.014552603758989
 31
0.0
 12
12.74672975212573
 22
7.015040681555087
 32
0.0
 13
12.74672975212573
 23
7.015040681555087
 33
0.0
  0
SOLID
  5
2166
330
215E
100
AcDbEntity
  8
0
 62
     0
100
AcDbTrace
 10
12.73947131715371
 20
7.015040681555092
 30
0.0
 11
12.74672975212573
 21
7.015040681555087
 31
0.0
 12
12.74691167411696
 22
7.015409741030291
 32
0.0
 13
12.74691167411696
 23
7.015409741030291
 33
0.0
  0
SOLID
  5
2167
330
215E
100
AcDbEntity
  8
0
 62
     0
100
AcDbTrace
 10
12.73947131715371
 20
7.015040681555092
 30
0.0
 11
12.74691167411696
 21
7.015409741030291
 31
0.0
 12
12.74672975212573
 22
7.015778800505491
 32
0.0
 13
12.74672975212573
 23
7.015778800505491
 33
0.0
  0
SOLID
  5
2168
330
215E
100
AcDbEntity
  8
0
 62
     0
100
AcDbTrace
 10
12.73947131715371
 20
7.015040681555092
 30
0.0
 11
12.74672975212573
 21
7.015778800505491
 31
0.0
 12
12.74579541720812
 22
7.016266878301597
 32
0.0
 13
12.74579541720812
 23
7.016266878301597
 33
0.0
  0
SOLID
  5
2169
330
215E
100
AcDbEntity
  8
0
 62
     0
100
AcDbTrace
 10
12.73947131715371
 20
7.015040681555092
 30
0.0
 11
12.74579541720812
 21
7.016266878301597
 31
0.0
 12
12.74466325269532
 22
7.016519418715041
 32
0.0
 13
12.74466325269532
 23
7.016519418715041
 33
0.0
  0
SOLID
  5
216A
330
215E
100
AcDbEntity
  8
0
 62
     0
100
AcDbTrace
 10
12.73947131715371
 20
7.015040681555092
 30
0.0
 11
12.74466325269532
 21
7.016519418715041
 31
0.0
 12
12.74310053463972
 22
7.016621916184186
 32
0.0
 13
12.74310053463972
 23
7.016621916184186
 33
0.0
  0
SOLID
  5
216B
330
215E
100
AcDbEntity
  8
0
 62
     0
100
AcDbTrace
 10
12.73947131715371
 20
7.015040681555092
 30
0.0
 11
12.74310053463972
 21
7.016621916184186
 31
0.0
 12
12.74153781658415
 22
7.016519418715044
 32
0.0
 13
12.74153781658415
 23
7.016519418715044
 33
0.0
  0
SOLID
  5
216C
330
215E
100
AcDbEntity
  8
0
 62
     0
100
AcDbTrace
 10
12.73947131715371
 20
7.015040681555092
 30
0.0
 11
12.74153781658415
 21
7.016519418715044
 31
0.0
 12
12.74040565207132
 22
7.016266878301594
 32
0.0
 13
12.74040565207132
 23
7.016266878301594
 33
0.0
  0
SOLID
  5
216D
330
215E
100
AcDbEntity
  8
0
 62
     0
100
AcDbTrace
 10
12.73947131715371
 20
7.015040681555092
 30
0.0
 11
12.74040565207132
 21
7.016266878301594
 31
0.0
 12
12.73947131715249
 22
7.015778800505495
 32
0.0
 13
12.73947131715249
 23
7.015778800505495
 33
0.0
  0
ENDBLK
  5
216E
330
215E
100
AcDbEntity
  8
0
100
AcDbBlockEnd
  0
BLOCK
  5
237A
330
236C
100
AcDbEntity
  8
0
100
AcDbBlockBegin
  2
SOLBET_Bloczek_Ideal_420x240x590_P+W_PRA
 70
     2
 10
0.0
 20
0.0
 30
0.0
  3
SOLBET_Bloczek_Ideal_420x240x590_P+W_PRA
  1

  0
ATTDEF
  5
236D
330
236C
100
AcDbEntity
  8
SOLBET_Wymiary_Opisy
100
AcDbText
 10
-0.0000000703746536
 20
6.303237281370451
 30
0.0
 40
0.9913121336814832
  1
420x240x590
  7
Solbet_1
100
AcDbAttributeDefinition
  3

  2
WYMIARY
 70
     3
1001
AcDbAttr
1070
     0
1070
     1
  0
ATTDEF
  5
236E
330
236C
100
AcDbEntity
  8
SOLBET_Wymiary_Opisy
100
AcDbText
 10
-0.0000000703746536
 20
4.790717873654354
 30
0.0
 40
0.9913121336814832
  1
400
  7
Solbet_1
100
AcDbAttributeDefinition
  3

  2
KLASA_GĘSTOŚCI
 70
     9
1001
AcDbAttr
1070
     0
1070
     1
  0
ATTDEF
  5
236F
330
236C
100
AcDbEntity
  8
SOLBET_Wymiary_Opisy
100
AcDbText
 10
-0.0000000703746536
 20
3.269569038442127
 30
0.0
 40
0.9913121336814832
  1
Pióra+Wpusty
  7
Solbet_1
100
AcDbAttributeDefinition
  3

  2
PROFILOWANIE
 70
     3
1001
AcDbAttr
1070
     0
1070
     1
  0
ATTDEF
  5
2370
330
236C
100
AcDbEntity
  8
SOLBET_Wymiary_Opisy
100
AcDbText
 10
-0.0000000703746536
 20
0.2448646291013483
 30
0.0
 40
0.9913121336814832
  1
SOLBET
  7
Solbet_1
100
AcDbAttributeDefinition
  3

  2
FIRMA
 70
     3
1001
AcDbAttr
1070
     0
1070
     1
  0
ATTDEF
  5
2371
330
236C
100
AcDbEntity
  8
SOLBET_Wymiary_Opisy
100
AcDbText
 10
-0.0000000703746536
 20
9.333547279718283
 30
0.0
 40
0.9913121336814832
  1
Bloczek
  7
Solbet_1
100
AcDbAttributeDefinition
  3
Nazwa
  2
NAZWA
 70
     3
1001
AcDbAttr
1070
     0
1070
     1
  0
ATTDEF
  5
2372
330
236C
100
AcDbEntity
  8
SOLBET_Wymiary_Opisy
100
AcDbText
 10
-0.0000000703746536
 20
7.794499099484078
 30
0.0
 40
0.9913121336814832
  1
SOLBET IDEAL
  7
Solbet_1
100
AcDbAttributeDefinition
  3

  2
SYSTEM
 70
     3
1001
AcDbAttr
1070
     0
1070
     1
  0
ATTDEF
  5
2373
330
236C
100
AcDbEntity
  8
SOLBET_Wymiary_Opisy
100
AcDbText
 10
-0.0000000703746536
 20
1.74418138862846
 30
0.0
 40
0.9913121336814832
  1
Prawo
  7
Solbet_1
100
AcDbAttributeDefinition
  3

  2
WIDOK
 70
    11
1001
AcDbAttr
1070
     0
1070
     1
  0
LINE
  5
2374
330
236C
100
AcDbEntity
  8
SOLBET_Bloczki
100
AcDbLine
 10
21.00000014074931
 20
12.00000020414847
 30
0.0
 11
21.00000014074931
 21
0.000000204148364
 31
0.0
  0
LINE
  5
2375
330
236C
100
AcDbEntity
  8
SOLBET_Bloczki
100
AcDbLine
 10
21.00000014074931
 20
12.00000020414847
 30
0.0
 11
0.0000001407493072
 21
12.00000020414847
 31
0.0
  0
LINE
  5
2376
330
236C
100
AcDbEntity
  8
SOLBET_Bloczki
100
AcDbLine
 10
0.0000001407493072
 20
12.00000020414847
 30
0.0
 11
0.0000001407493072
 21
0.000000204148364
 31
0.0
  0
LINE
  5
2377
330
236C
100
AcDbEntity
  8
SOLBET_Bloczki
100
AcDbLine
 10
0.0000001407493072
 20
0.000000204148364
 30
0.0
 11
21.00000014074931
 21
0.000000204148364
 31
0.0
  0
ENDBLK
  5
237B
330
236C
100
AcDbEntity
  8
0
100
AcDbBlockEnd
  0
BLOCK
  5
23E2
330
23D6
100
AcDbEntity
  8
0
100
AcDbBlockBegin
  2
SOLBET_Nadproze_140_12_1400x240x120_PRA
 70
     2
 10
0.0
 20
0.0
 30
0.0
  3
SOLBET_Nadproze_140_12_1400x240x120_PRA
  1

  0
ATTDEF
  5
23D7
330
23D6
100
AcDbEntity
  8
SOLBET_Wymiary_Opisy
100
AcDbText
 10
-0.0000002754209163
 20
4.914367003308234
 30
0.0
 40
0.9913121336814832
  1
1400x240x120
  7
Solbet_1
100
AcDbAttributeDefinition
  3

  2
WYMIARY
 70
     3
1001
AcDbAttr
1070
     0
1070
     1
  0
ATTDEF
  5
23D8
330
23D6
100
AcDbEntity
  8
SOLBET_Wymiary_Opisy
100
AcDbText
 10
0.0000001377104581
 20
3.269569171638422
 30
0.0
 40
0.9913121336814832
  1
20
  7
Solbet_1
100
AcDbAttributeDefinition
  3

  2
DŁUGOŚĆ_PODPARCIA_1
 70
    11
1001
AcDbAttr
1070
     0
1070
     1
  0
ATTDEF
  5
23D9
330
23D6
100
AcDbEntity
  8
SOLBET_Wymiary_Opisy
100
AcDbText
 10
0.0000001377104581
 20
0.2448647622976432
 30
0.0
 40
0.9913121336814832
  1
SOLBET
  7
Solbet_1
100
AcDbAttributeDefinition
  3

  2
FIRMA
 70
     3
1001
AcDbAttr
1070
     0
1070
     1
  0
ATTDEF
  5
23DA
330
23D6
100
AcDbEntity
  8
SOLBET_Wymiary_Opisy
100
AcDbText
 10
-0.0000002754209163
 20
6.505718915794942
 30
0.0
 40
0.9913121336814832
  1
Nadproże 140/12
  7
Solbet_1
100
AcDbAttributeDefinition
  3
Nazwa
  2
NAZWA
 70
     3
1001
AcDbAttr
1070
     0
1070
     1
  0
ATTDEF
  5
23DB
330
23D6
100
AcDbEntity
  8
SOLBET_Wymiary_Opisy
100
AcDbText
 10
0.0000001377104581
 20
1.744181521824755
 30
0.0
 40
0.9913121336814832
  1
Prawo
  7
Solbet_1
100
AcDbAttributeDefinition
  3

  2
WIDOK
 70
    11
1001
AcDbAttr
1070
     0
1070
     1
  0
LINE
  5
23DC
330
23D6
100
AcDbEntity
  8
SOLBET_Bloczki
100
AcDbLine
 10
5.999999594097516
 20
11.99999987551155
 30
0.0
 11
5.999999594097516
 21
-0.0000001244884515
 31
0.0
  0
LINE
  5
23DD
330
23D6
100
AcDbEntity
  8
SOLBET_Bloczki
100
AcDbLine
 10
5.999999594097516
 20
-0.0000001244884515
 30
0.0
 11
-0.0000004059024832
 21
-0.0000001244884515
 31
0.0
  0
LINE
  5
23DE
330
23D6
100
AcDbEntity
  8
SOLBET_Bloczki
100
AcDbLine
 10
-0.0000004059024832
 20
-0.0000001244884515
 30
0.0
 11
-0.0000004059024832
 21
11.99999987551155
 31
0.0
  0
LINE
  5
23DF
330
23D6
100
AcDbEntity
  8
SOLBET_Bloczki
100
AcDbLine
 10
-0.0000004059024832
 20
11.99999987551155
 30
0.0
 11
5.999999594097516
 21
11.99999987551155
 31
0.0
  0
ENDBLK
  5
23E3
330
23D6
100
AcDbEntity
  8
0
100
AcDbBlockEnd
  0
BLOCK
  5
2405
330
23F5
100
AcDbEntity
  8
0
100
AcDbBlockBegin
  2
SOLBET_Ksztaltka_U_420x240x500_PRA
 70
     2
 10
0.0
 20
0.0
 30
0.0
  3
SOLBET_Ksztaltka_U_420x240x500_PRA
  1

  0
ATTDEF
  5
23F6
330
23F5
100
AcDbEntity
  8
SOLBET_Wymiary_Opisy
100
AcDbText
 10
-0.0000000476806008
 20
4.790718044940628
 30
0.0
 40
0.9913121336814832
  1
420x240x500
  7
Solbet_1
100
AcDbAttributeDefinition
  3

  2
WYMIARY
 70
     3
1001
AcDbAttr
1070
     0
1070
     1
  0
ATTDEF
  5
23F7
330
23F5
100
AcDbEntity
  8
SOLBET_Wymiary_Opisy
100
AcDbText
 10
-0.0000000476806008
 20
3.27819863722453
 30
0.0
 40
0.9913121336814832
  1
400
  7
Solbet_1
100
AcDbAttributeDefinition
  3

  2
KLASA_GĘSTOŚCI
 70
     3
1001
AcDbAttr
1070
     0
1070
     1
  0
ATTDEF
  5
23F8
330
23F5
100
AcDbEntity
  8
SOLBET_Wymiary_Opisy
100
AcDbText
 10
-0.0000000476806008
 20
0.2448648003876223
 30
0.0
 40
0.9913121336814832
  1
SOLBET
  7
Solbet_1
100
AcDbAttributeDefinition
  3

  2
FIRMA
 70
     3
1001
AcDbAttr
1070
     0
1070
     1
  0
ATTDEF
  5
23F9
330
23F5
100
AcDbEntity
  8
SOLBET_Wymiary_Opisy
100
AcDbText
 10
-0.0000000476806008
 20
6.347422594011662
 30
0.0
 40
0.9913121336814832
  1
Kształtka U
  7
Solbet_1
100
AcDbAttributeDefinition
  3
Nazwa
  2
NAZWA
 70
     3
1001
AcDbAttr
1070
     0
1070
     1
  0
ATTDEF
  5
23FA
330
23F5
100
AcDbEntity
  8
SOLBET_Wymiary_Opisy
100
AcDbText
 10
-0.0000000476806008
 20
1.744181559914735
 30
0.0
 40
0.9913121336814832
  1
Prawo
  7
Solbet_1
100
AcDbAttributeDefinition
  3

  2
WIDOK
 70
    11
1001
AcDbAttr
1070
     0
1070
     1
  0
LINE
  5
23FB
330
23F5
100
AcDbEntity
  8
SOLBET_Bloczki
100
AcDbLine
 10
0.0000011705760737
 20
20.99999992050084
 30
0.0
 11
12.00000117057607
 21
20.99999992050084
 31
0.0
  0
LINE
  5
23FC
330
23F5
100
AcDbEntity
  8
SOLBET_Bloczki
100
AcDbLine
 10
12.00000117057607
 20
20.99999992050084
 30
0.0
 11
12.00000117057607
 21
-0.0000000794991628
 31
0.0
  0
LINE
  5
23FD
330
23F5
100
AcDbEntity
  8
SOLBET_Bloczki
100
AcDbLine
 10
12.00000117057607
 20
-0.0000000794991628
 30
0.0
 11
0.0000011705760699
 21
-0.0000000794991593
 31
0.0
  0
LINE
  5
23FE
330
23F5
100
AcDbEntity
  8
SOLBET_Bloczki
100
AcDbLine
 10
0.0000011705760699
 20
-0.0000000794991593
 30
0.0
 11
0.0000011705760706
 21
3.99999992050084
 31
0.0
  0
LINE
  5
23FF
330
23F5
100
AcDbEntity
  8
SOLBET_Bloczki
100
AcDbLine
 10
0.0000011705760737
 20
20.99999992050084
 30
0.0
 11
0.000001170576073
 21
16.99999992050084
 31
0.0
  0
LINE
  5
2400
330
23F5
100
AcDbEntity
  8
SOLBET_Bloczki
100
AcDbLine
 10
8.000001170576073
 20
16.99999992050084
 30
0.0
 11
8.000001170576069
 21
3.99999992050084
 31
0.0
  0
LINE
  5
2401
330
23F5
100
AcDbEntity
  8
SOLBET_Bloczki
100
AcDbLine
 10
0.000001170576073
 20
16.99999992050084
 30
0.0
 11
8.000001170576073
 21
16.99999992050084
 31
0.0
  0
LINE
  5
2402
330
23F5
100
AcDbEntity
  8
SOLBET_Bloczki
100
AcDbLine
 10
0.0000011705760706
 20
3.99999992050084
 30
0.0
 11
8.000001170576069
 21
3.99999992050084
 31
0.0
  0
ENDBLK
  5
2406
330
23F5
100
AcDbEntity
  8
0
100
AcDbBlockEnd
  0
BLOCK
  5
2430
330
2424
100
AcDbEntity
  8
0
100
AcDbBlockBegin
  2
SOLBET_Plytka_80x240x590_brak_PRA
 70
     2
 10
0.0
 20
0.0
 30
0.0
  3
SOLBET_Plytka_80x240x590_brak_PRA
  1

  0
ATTDEF
  5
2425
330
2424
100
AcDbEntity
  8
SOLBET_Wymiary_Opisy
100
AcDbText
 10
0.0000000947117284
 20
4.975188798271157
 30
0.0
 40
1.029483505648801
  1
80x240x590
  7
Solbet_1
100
AcDbAttributeDefinition
  3

  2
WYMIARY
 70
     3
1001
AcDbAttr
1070
     0
1070
     1
  0
ATTDEF
  5
2426
330
2424
100
AcDbEntity
  8
SOLBET_Wymiary_Opisy
100
AcDbText
 10
0.0000000947117284
 20
3.40442846021831
 30
0.0
 40
1.029483505648801
  1
600
  7
Solbet_1
100
AcDbAttributeDefinition
  3

  2
KLASA_GĘSTOŚCI
 70
     3
1001
AcDbAttr
1070
     0
1070
     1
  0
ATTDEF
  5
2427
330
2424
100
AcDbEntity
  8
SOLBET_Wymiary_Opisy
100
AcDbText
 10
0.0000000947117284
 20
0.2542933553923256
 30
0.0
 40
1.029483505648801
  1
SOLBET
  7
Solbet_1
100
AcDbAttributeDefinition
  3

  2
FIRMA
 70
     3
1001
AcDbAttr
1070
     0
1070
     1
  0
ATTDEF
  5
2428
330
2424
100
AcDbEntity
  8
SOLBET_Wymiary_Opisy
100
AcDbText
 10
-0.0000001564046322
 20
6.512920961642439
 30
0.0
 40
1.029483505648801
  1
Płytka
  7
Solbet_1
100
AcDbAttributeDefinition
  3
Nazwa
  2
NAZWA
 70
     3
1001
AcDbAttr
1070
     0
1070
     1
  0
ATTDEF
  5
2429
330
2424
100
AcDbEntity
  8
SOLBET_Wymiary_Opisy
100
AcDbText
 10
0.0000000947117284
 20
1.811342665324326
 30
0.0
 40
1.029483505648801
  1
Prawo
  7
Solbet_1
100
AcDbAttributeDefinition
  3

  2
WIDOK
 70
    11
1001
AcDbAttr
1070
     0
1070
     1
  0
LINE
  5
242A
330
2424
100
AcDbEntity
  8
SOLBET_Bloczki
100
AcDbLine
 10
3.999999830192336
 20
12.00000020463494
 30
0.0
 11
3.999999830192336
 21
0.0000002046349437
 31
0.0
  0
LINE
  5
242B
330
2424
100
AcDbEntity
  8
SOLBET_Bloczki
100
AcDbLine
 10
3.999999830192336
 20
0.0000002046349437
 30
0.0
 11
-0.000000169807663
 21
0.0000002046349437
 31
0.0
  0
LINE
  5
242C
330
2424
100
AcDbEntity
  8
SOLBET_Bloczki
100
AcDbLine
 10
-0.000000169807663
 20
0.0000002046349437
 30
0.0
 11
-0.000000169807663
 21
12.00000020463517
 31
0.0
  0
LINE
  5
242D
330
2424
100
AcDbEntity
  8
SOLBET_Bloczki
100
AcDbLine
 10
-0.000000169807663
 20
12.00000020463517
 30
0.0
 11
3.999999830192336
 21
12.00000020463517
 31
0.0
  0
ENDBLK
  5
2431
330
2424
100
AcDbEntity
  8
0
100
AcDbBlockEnd
  0
BLOCK
  5
256C
330
256B
100
AcDbEntity
  8
0
100
AcDbBlockBegin
  2
*D14
 70
     1
 10
0.0
 20
0.0
 30
0.0
  3
*D14
  1

  0
LINE
  5
2655
330
256B
100
AcDbEntity
  8
SOLBET_Wymiary_Opisy
 62
     0
370
    -2
100
AcDbLine
 10
111.7889123449354
 20
31.1076312925456
 30
0.0
 11
113.7573426916119
 21
31.1076312925456
 31
0.0
  0
LINE
  5
2656
330
256B
100
AcDbEntity
  8
SOLBET_Wymiary_Opisy
 62
     0
370
    -2
100
AcDbLine
 10
94.77388715236044
 20
37.85763129254561
 30
0.0
 11
113.7573426916119
 21
37.8576312925456
 31
0.0
  0
LINE
  5
2657
330
256B
100
AcDbEntity
  8
SOLBET_Wymiary_Opisy
 62
     0
370
    -2
100
AcDbLine
 10
112.5073426916119
 20
33.6076312925456
 30
0.0
 11
112.5073426916119
 21
35.3576312925456
 31
0.0
  0
LINE
  5
2658
330
256B
100
AcDbEntity
  8
SOLBET_Wymiary_Opisy
 62
     0
370
    -2
100
AcDbLine
 10
112.5073426916119
 20
37.8576312925456
 30
0.0
 11
112.5073426916119
 21
55.6076312925456
 31
0.0
  0
SOLID
  5
2659
330
256B
100
AcDbEntity
  8
SOLBET_Wymiary_Opisy
 62
     0
100
AcDbTrace
 10
112.0906760249452
 20
33.6076312925456
 30
0.0
 11
112.9240093582786
 21
33.6076312925456
 31
0.0
 12
112.5073426916119
 22
31.1076312925456
 32
0.0
 13
112.5073426916119
 23
31.1076312925456
 33
0.0
  0
SOLID
  5
265A
330
256B
100
AcDbEntity
  8
SOLBET_Wymiary_Opisy
 62
     0
100
AcDbTrace
 10
112.0906760249452
 20
35.3576312925456
 30
0.0
 11
112.9240093582786
 21
35.3576312925456
 31
0.0
 12
112.5073426916119
 22
37.8576312925456
 32
0.0
 13
112.5073426916119
 23
37.8576312925456
 33
0.0
  0
MTEXT
  5
265B
330
256B
100
AcDbEntity
  8
SOLBET_Wymiary_Opisy
 62
     0
100
AcDbMText
 10
110.6313957219149
 20
47.98263129254562
 30
0.0
 40
2.5
 41
0.0
 71
     5
 72
     1
  1
max 12cm
  7
Solbet_2_5
 11
0.0000000000000001
 21
1.0
 31
0.0
 73
     1
 44
1.0
1001
ACAD
1000
MTEXTBEGIN
1070
    73
1070
     1
1070
    44
1040
1.0
1070
    74
1070
     0
1000
MTEXTEND
  0
POINT
  5
265C
330
256B
100
AcDbEntity
  8
DEFPOINTS
 62
     0
100
AcDbPoint
 10
111.7889123449354
 20
31.1076312925456
 30
0.0
  0
POINT
  5
265D
330
256B
100
AcDbEntity
  8
DEFPOINTS
 62
     0
100
AcDbPoint
 10
94.77388715236044
 20
37.85763129254561
 30
0.0
  0
POINT
  5
265E
330
256B
100
AcDbEntity
  8
DEFPOINTS
 62
     0
100
AcDbPoint
 10
112.5073426916119
 20
37.8576312925456
 30
0.0
  0
ENDBLK
  5
256D
330
256B
100
AcDbEntity
  8
0
100
AcDbBlockEnd
  0
BLOCK
  5
292B
330
291B
100
AcDbEntity
  8
0
100
AcDbBlockBegin
  2
SOLBET_Ksztaltka_U_420x240x500_KG400_PRA
 70
     2
 10
0.0
 20
0.0
 30
0.0
  3
SOLBET_Ksztaltka_U_420x240x500_KG400_PRA
  1

  0
ATTDEF
  5
291C
330
291B
100
AcDbEntity
  8
SOLBET_Wymiary_Opisy
100
AcDbText
 10
-0.0000000476806008
 20
4.790718044940628
 30
0.0
 40
0.9913121336814832
  1
420x240x500
  7
Solbet_1
100
AcDbAttributeDefinition
  3

  2
WYMIARY
 70
    11
1001
AcDbAttr
1070
     0
1070
     1
  0
ATTDEF
  5
291D
330
291B
100
AcDbEntity
  8
SOLBET_Wymiary_Opisy
100
AcDbText
 10
-0.0000000476806008
 20
3.27819863722453
 30
0.0
 40
0.9913121336814832
  1
400
  7
Solbet_1
100
AcDbAttributeDefinition
  3

  2
KLASA_GĘSTOŚCI
 70
    11
1001
AcDbAttr
1070
     0
1070
     1
  0
ATTDEF
  5
291E
330
291B
100
AcDbEntity
  8
SOLBET_Wymiary_Opisy
100
AcDbText
 10
-0.0000000476806008
 20
0.2448648003876223
 30
0.0
 40
0.9913121336814832
  1
SOLBET
  7
Solbet_1
100
AcDbAttributeDefinition
  3

  2
FIRMA
 70
    11
1001
AcDbAttr
1070
     0
1070
     1
  0
ATTDEF
  5
291F
330
291B
100
AcDbEntity
  8
SOLBET_Wymiary_Opisy
100
AcDbText
 10
-0.0000000476806008
 20
6.347422594011662
 30
0.0
 40
0.9913121336814832
  1
Kształtka U
  7
Solbet_1
100
AcDbAttributeDefinition
  3
Nazwa
  2
NAZWA
 70
    11
1001
AcDbAttr
1070
     0
1070
     1
  0
ATTDEF
  5
2920
330
291B
100
AcDbEntity
  8
SOLBET_Wymiary_Opisy
100
AcDbText
 10
-0.0000000476806008
 20
1.744181559914735
 30
0.0
 40
0.9913121336814832
  1
Prawo
  7
Solbet_1
100
AcDbAttributeDefinition
  3

  2
WIDOK
 70
    11
1001
AcDbAttr
1070
     0
1070
     1
  0
LINE
  5
2921
330
291B
100
AcDbEntity
  8
SOLBET_Bloczki
100
AcDbLine
 10
0.0000011705760737
 20
20.99999992050084
 30
0.0
 11
12.00000117057607
 21
20.99999992050084
 31
0.0
  0
LINE
  5
2922
330
291B
100
AcDbEntity
  8
SOLBET_Bloczki
100
AcDbLine
 10
12.00000117057607
 20
20.99999992050084
 30
0.0
 11
12.00000117057607
 21
-0.0000000794991628
 31
0.0
  0
LINE
  5
2923
330
291B
100
AcDbEntity
  8
SOLBET_Bloczki
100
AcDbLine
 10
12.00000117057607
 20
-0.0000000794991628
 30
0.0
 11
0.0000011705760699
 21
-0.0000000794991593
 31
0.0
  0
LINE
  5
2924
330
291B
100
AcDbEntity
  8
SOLBET_Bloczki
100
AcDbLine
 10
0.0000011705760699
 20
-0.0000000794991593
 30
0.0
 11
0.0000011705760706
 21
3.99999992050084
 31
0.0
  0
LINE
  5
2925
330
291B
100
AcDbEntity
  8
SOLBET_Bloczki
100
AcDbLine
 10
0.0000011705760737
 20
20.99999992050084
 30
0.0
 11
0.000001170576073
 21
16.99999992050084
 31
0.0
  0
LINE
  5
2926
330
291B
100
AcDbEntity
  8
SOLBET_Bloczki
100
AcDbLine
 10
8.000001170576073
 20
16.99999992050084
 30
0.0
 11
8.000001170576069
 21
3.99999992050084
 31
0.0
  0
LINE
  5
2927
330
291B
100
AcDbEntity
  8
SOLBET_Bloczki
100
AcDbLine
 10
0.000001170576073
 20
16.99999992050084
 30
0.0
 11
8.000001170576073
 21
16.99999992050084
 31
0.0
  0
LINE
  5
2928
330
291B
100
AcDbEntity
  8
SOLBET_Bloczki
100
AcDbLine
 10
0.0000011705760706
 20
3.99999992050084
 30
0.0
 11
8.000001170576069
 21
3.99999992050084
 31
0.0
  0
ENDBLK
  5
292C
330
291B
100
AcDbEntity
  8
0
100
AcDbBlockEnd
  0
BLOCK
  5
2972
330
2966
100
AcDbEntity
  8
0
100
AcDbBlockBegin
  2
SOLBET_Plytka_80x240x590_KG600_PRA
 70
     2
 10
0.0
 20
0.0
 30
0.0
  3
SOLBET_Plytka_80x240x590_KG600_PRA
  1

  0
ATTDEF
  5
2967
330
2966
100
AcDbEntity
  8
SOLBET_Wymiary_Opisy
100
AcDbText
 10
0.0000000947117284
 20
4.975188798271157
 30
0.0
 40
1.029483505648801
  1
80x240x590
  7
Solbet_1
100
AcDbAttributeDefinition
  3

  2
WYMIARY
 70
    11
1001
AcDbAttr
1070
     0
1070
     1
  0
ATTDEF
  5
2968
330
2966
100
AcDbEntity
  8
SOLBET_Wymiary_Opisy
100
AcDbText
 10
0.0000000947117284
 20
3.40442846021831
 30
0.0
 40
1.029483505648801
  1
600
  7
Solbet_1
100
AcDbAttributeDefinition
  3

  2
KLASA_GĘSTOŚCI
 70
    11
1001
AcDbAttr
1070
     0
1070
     1
  0
ATTDEF
  5
2969
330
2966
100
AcDbEntity
  8
SOLBET_Wymiary_Opisy
100
AcDbText
 10
0.0000000947117284
 20
0.2542933553923256
 30
0.0
 40
1.029483505648801
  1
SOLBET
  7
Solbet_1
100
AcDbAttributeDefinition
  3

  2
FIRMA
 70
    11
1001
AcDbAttr
1070
     0
1070
     1
  0
ATTDEF
  5
296A
330
2966
100
AcDbEntity
  8
SOLBET_Wymiary_Opisy
100
AcDbText
 10
-0.0000001564046322
 20
6.512920961642439
 30
0.0
 40
1.029483505648801
  1
Płytka
  7
Solbet_1
100
AcDbAttributeDefinition
  3
Nazwa
  2
NAZWA
 70
    11
1001
AcDbAttr
1070
     0
1070
     1
  0
ATTDEF
  5
296B
330
2966
100
AcDbEntity
  8
SOLBET_Wymiary_Opisy
100
AcDbText
 10
0.0000000947117284
 20
1.811342665324326
 30
0.0
 40
1.029483505648801
  1
Prawo
  7
Solbet_1
100
AcDbAttributeDefinition
  3

  2
WIDOK
 70
    11
1001
AcDbAttr
1070
     0
1070
     1
  0
LINE
  5
296C
330
2966
100
AcDbEntity
  8
SOLBET_Bloczki
100
AcDbLine
 10
3.999999830192336
 20
12.00000020463494
 30
0.0
 11
3.999999830192336
 21
0.0000002046349437
 31
0.0
  0
LINE
  5
296D
330
2966
100
AcDbEntity
  8
SOLBET_Bloczki
100
AcDbLine
 10
3.999999830192336
 20
0.0000002046349437
 30
0.0
 11
-0.000000169807663
 21
0.0000002046349437
 31
0.0
  0
LINE
  5
296E
330
2966
100
AcDbEntity
  8
SOLBET_Bloczki
100
AcDbLine
 10
-0.000000169807663
 20
0.0000002046349437
 30
0.0
 11
-0.000000169807663
 21
12.00000020463517
 31
0.0
  0
LINE
  5
296F
330
2966
100
AcDbEntity
  8
SOLBET_Bloczki
100
AcDbLine
 10
-0.000000169807663
 20
12.00000020463517
 30
0.0
 11
3.999999830192336
 21
12.00000020463517
 31
0.0
  0
ENDBLK
  5
2973
330
2966
100
AcDbEntity
  8
0
100
AcDbBlockEnd
  0
BLOCK
  5
2983
330
2975
100
AcDbEntity
  8
0
100
AcDbBlockBegin
  2
SOLBET_Bloczek_Ideal_420x240x590_P+W_KG400_PRA
 70
     2
 10
0.0
 20
0.0
 30
0.0
  3
SOLBET_Bloczek_Ideal_420x240x590_P+W_KG400_PRA
  1

  0
ATTDEF
  5
2976
330
2975
100
AcDbEntity
  8
SOLBET_Wymiary_Opisy
100
AcDbText
 10
-0.0000000703746536
 20
6.303237281370451
 30
0.0
 40
0.9913121336814832
  1
420x240x590
  7
Solbet_1
100
AcDbAttributeDefinition
  3

  2
WYMIARY
 70
    11
1001
AcDbAttr
1070
     0
1070
     1
  0
ATTDEF
  5
2977
330
2975
100
AcDbEntity
  8
SOLBET_Wymiary_Opisy
100
AcDbText
 10
-0.0000000703746536
 20
4.790717873654354
 30
0.0
 40
0.9913121336814832
  1
400
  7
Solbet_1
100
AcDbAttributeDefinition
  3

  2
KLASA_GĘSTOŚCI
 70
    11
1001
AcDbAttr
1070
     0
1070
     1
  0
ATTDEF
  5
2978
330
2975
100
AcDbEntity
  8
SOLBET_Wymiary_Opisy
100
AcDbText
 10
-0.0000000703746536
 20
3.269569038442127
 30
0.0
 40
0.9913121336814832
  1
Pióra+Wpusty
  7
Solbet_1
100
AcDbAttributeDefinition
  3

  2
PROFILOWANIE
 70
    11
1001
AcDbAttr
1070
     0
1070
     1
  0
ATTDEF
  5
2979
330
2975
100
AcDbEntity
  8
SOLBET_Wymiary_Opisy
100
AcDbText
 10
-0.0000000703746536
 20
0.2448646291013483
 30
0.0
 40
0.9913121336814832
  1
SOLBET
  7
Solbet_1
100
AcDbAttributeDefinition
  3

  2
FIRMA
 70
    11
1001
AcDbAttr
1070
     0
1070
     1
  0
ATTDEF
  5
297A
330
2975
100
AcDbEntity
  8
SOLBET_Wymiary_Opisy
100
AcDbText
 10
-0.0000000703746536
 20
9.333547279718283
 30
0.0
 40
0.9913121336814832
  1
Bloczek
  7
Solbet_1
100
AcDbAttributeDefinition
  3
Nazwa
  2
NAZWA
 70
    11
1001
AcDbAttr
1070
     0
1070
     1
  0
ATTDEF
  5
297B
330
2975
100
AcDbEntity
  8
SOLBET_Wymiary_Opisy
100
AcDbText
 10
-0.0000000703746536
 20
7.794499099484078
 30
0.0
 40
0.9913121336814832
  1
SOLBET Ideal
  7
Solbet_1
100
AcDbAttributeDefinition
  3

  2
SYSTEM
 70
    11
1001
AcDbAttr
1070
     0
1070
     1
  0
ATTDEF
  5
297C
330
2975
100
AcDbEntity
  8
SOLBET_Wymiary_Opisy
100
AcDbText
 10
-0.0000000703746536
 20
1.74418138862846
 30
0.0
 40
0.9913121336814832
  1
Prawo
  7
Solbet_1
100
AcDbAttributeDefinition
  3

  2
WIDOK
 70
    11
1001
AcDbAttr
1070
     0
1070
     1
  0
LINE
  5
297D
330
2975
100
AcDbEntity
  8
SOLBET_Bloczki
100
AcDbLine
 10
21.00000014074931
 20
12.00000020414847
 30
0.0
 11
21.00000014074931
 21
0.000000204148364
 31
0.0
  0
LINE
  5
297E
330
2975
100
AcDbEntity
  8
SOLBET_Bloczki
100
AcDbLine
 10
21.00000014074931
 20
12.00000020414847
 30
0.0
 11
0.0000001407493072
 21
12.00000020414847
 31
0.0
  0
LINE
  5
297F
330
2975
100
AcDbEntity
  8
SOLBET_Bloczki
100
AcDbLine
 10
0.0000001407493072
 20
12.00000020414847
 30
0.0
 11
0.0000001407493072
 21
0.000000204148364
 31
0.0
  0
LINE
  5
2980
330
2975
100
AcDbEntity
  8
SOLBET_Bloczki
100
AcDbLine
 10
0.0000001407493072
 20
0.000000204148364
 30
0.0
 11
21.00000014074931
 21
0.000000204148364
 31
0.0
  0
ENDBLK
  5
2984
330
2975
100
AcDbEntity
  8
0
100
AcDbBlockEnd
  0
BLOCK
  5
299C
330
2989
100
AcDbEntity
  8
0
100
AcDbBlockBegin
  2
SOLBET_Nadproze_120x240x1400_zz_PRA
 70
     2
 10
0.0
 20
0.0
 30
0.0
  3
SOLBET_Nadproze_120x240x1400_zz_PRA
  1

  0
ATTDEF
  5
298A
330
2989
100
AcDbEntity
  8
SOLBET_Wymiary_Opisy
100
AcDbText
 10
-0.0000002754209163
 20
4.914367003308234
 30
0.0
 40
0.9913121336814832
  1
120x240x1400
  7
Solbet_1
100
AcDbAttributeDefinition
  3

  2
WYMIARY
 70
    11
1001
AcDbAttr
1070
     0
1070
     1
  0
ATTDEF
  5
298B
330
2989
100
AcDbEntity
  8
SOLBET_Wymiary_Opisy
100
AcDbText
 10
0.0000001377104581
 20
3.269569171638422
 30
0.0
 40
0.9913121336814832
  1
20
  7
Solbet_1
100
AcDbAttributeDefinition
  3

  2
DŁUGOŚĆ_PODPARCIA_1
 70
    11
1001
AcDbAttr
1070
     0
1070
     1
  0
ATTDEF
  5
298C
330
2989
100
AcDbEntity
  8
SOLBET_Wymiary_Opisy
100
AcDbText
 10
0.0000001377104581
 20
0.2448647622976432
 30
0.0
 40
0.9913121336814832
  1
SOLBET
  7
Solbet_1
100
AcDbAttributeDefinition
  3

  2
FIRMA
 70
    11
1001
AcDbAttr
1070
     0
1070
     1
  0
ATTDEF
  5
298D
330
2989
100
AcDbEntity
  8
SOLBET_Wymiary_Opisy
100
AcDbText
 10
-0.0000002754209163
 20
6.505718915794942
 30
0.0
 40
0.9913121336814832
  1
Nadproże 140/12
  7
Solbet_1
100
AcDbAttributeDefinition
  3
Nazwa
  2
NAZWA
 70
    11
1001
AcDbAttr
1070
     0
1070
     1
  0
ATTDEF
  5
298E
330
2989
100
AcDbEntity
  8
SOLBET_Wymiary_Opisy
100
AcDbText
 10
0.0000001377104581
 20
1.744181521824755
 30
0.0
 40
0.9913121336814832
  1
Prawo
  7
Solbet_1
100
AcDbAttributeDefinition
  3

  2
WIDOK
 70
    11
1001
AcDbAttr
1070
     0
1070
     1
  0
LINE
  5
298F
330
2989
100
AcDbEntity
  8
SOLBET_Bloczki
100
AcDbLine
 10
5.999999594097516
 20
11.99999987551155
 30
0.0
 11
5.999999594097516
 21
-0.0000001244884515
 31
0.0
  0
LINE
  5
2990
330
2989
100
AcDbEntity
  8
SOLBET_Bloczki
100
AcDbLine
 10
5.999999594097516
 20
-0.0000001244884515
 30
0.0
 11
-0.0000004059024832
 21
-0.0000001244884515
 31
0.0
  0
LINE
  5
2991
330
2989
100
AcDbEntity
  8
SOLBET_Bloczki
100
AcDbLine
 10
-0.0000004059024832
 20
-0.0000001244884515
 30
0.0
 11
-0.0000004059024832
 21
11.99999987551155
 31
0.0
  0
LINE
  5
2992
330
2989
100
AcDbEntity
  8
SOLBET_Bloczki
100
AcDbLine
 10
-0.0000004059024832
 20
11.99999987551155
 30
0.0
 11
5.999999594097516
 21
11.99999987551155
 31
0.0
  0
LWPOLYLINE
  5
2993
330
2989
100
AcDbEntity
  8
SOLBET_Zbrojenie_Konstrukcja
  6
Continuous
100
AcDbPolyline
 90
        4
 70
     0
 43
0.0
 10
5.249998918748815
 20
10.74999987551166
 10
5.249998918748815
 20
0.7499998755115485
 10
0.7499989187488155
 20
0.7499998755115485
 10
0.7499989187488155
 20
10.74999987551166
  0
LWPOLYLINE
  5
2994
330
2989
100
AcDbEntity
  8
SOLBET_Zbrojenie_Konstrukcja
  6
Continuous
100
AcDbPolyline
 90
        2
 70
     1
 43
0.3
 10
5.104412450089967
 20
10.42241386794614
 42
-1.0
 10
4.804412450089785
 20
10.42241386794614
 42
-1.0
  0
LWPOLYLINE
  5
2995
330
2989
100
AcDbEntity
  8
SOLBET_Zbrojenie_Konstrukcja
  6
Continuous
100
AcDbPolyline
 90
        2
 70
     1
 43
0.3
 10
0.8955853874078911
 20
10.42241386794614
 42
1.0
 10
1.195585387407845
 20
10.42241386794614
 42
1.0
  0
LWPOLYLINE
  5
2996
330
2989
100
AcDbEntity
  8
SOLBET_Zbrojenie_Konstrukcja
  6
Continuous
100
AcDbPolyline
 90
        2
 70
     1
 43
0.3
 10
5.104412450089967
 20
2.418619077883477
 42
-1.0
 10
4.804412450089785
 20
2.418619077883477
 42
-1.0
  0
LWPOLYLINE
  5
2997
330
2989
100
AcDbEntity
  8
SOLBET_Zbrojenie_Konstrukcja
  6
Continuous
100
AcDbPolyline
 90
        2
 70
     1
 43
0.3
 10
0.8955853874078911
 20
2.418619077883477
 42
1.0
 10
1.195585387407845
 20
2.418619077883477
 42
1.0
  0
LWPOLYLINE
  5
2998
330
2989
100
AcDbEntity
  8
SOLBET_Zbrojenie_Konstrukcja
  6
Continuous
100
AcDbPolyline
 90
        2
 70
     1
 43
0.3
 10
4.185083775025077
 20
1.061575122894964
 42
-1.0
 10
3.885083775025123
 20
1.061575122894964
 42
-1.0
  0
LWPOLYLINE
  5
2999
330
2989
100
AcDbEntity
  8
SOLBET_Zbrojenie_Konstrukcja
  6
Continuous
100
AcDbPolyline
 90
        2
 70
     1
 43
0.3
 10
1.814914062472325
 20
1.061575122894964
 42
1.0
 10
2.114914062472507
 20
1.061575122894964
 42
1.0
  0
ENDBLK
  5
299D
330
2989
100
AcDbEntity
  8
0
100
AcDbBlockEnd
  0
ENDSEC
  0
SECTION
  2
ENTITIES
  0
LINE
  5
2267
330
1F
100
AcDbEntity
  8
SOLBET_Wymiary_Opisy
 62
     1
100
AcDbLine
 10
64.91285597659384
 20
143.9100156004801
 30
0.0
 11
149.0489608757382
 21
143.9100156004801
 31
0.0
  0
INSERT
  5
226F
330
1F
100
AcDbEntity
  8
SOLBET_Zbrojenie_Konstrukcja
100
AcDbBlockReference
  2
*U4
 10
-323.6369044976475
 20
-116.3339691289433
 30
0.0
 41
50.0
 42
50.0
 43
50.0
1001
ASO_SCHRAFF
1005
0
1070
     0
1005
0
  0
LINE
  5
2274
330
1F
100
AcDbEntity
  8
SOLBET_Wymiary_Opisy
 62
     1
100
AcDbLine
 10
149.0489608757382
 20
237.9637703801853
 30
0.0
 11
149.0489608757382
 21
59.49192383050604
 31
0.0
  0
LWPOLYLINE
  5
2275
330
1F
100
AcDbEntity
  8
SOLBET_Zbrojenie_Konstrukcja
100
AcDbPolyline
 90
        2
 70
     1
 43
0.3
 10
75.5904396530193
 20
207.1728717299643
 42
1.0
 10
75.89043965303085
 20
207.1728717299643
 42
1.0
  0
LWPOLYLINE
  5
2276
330
1F
100
AcDbEntity
  8
SOLBET_Zbrojenie_Konstrukcja
100
AcDbPolyline
 90
        2
 70
     1
 43
0.3
 10
83.05515711890279
 20
207.1512520548828
 42
1.0
 10
83.35515711891435
 20
207.1512520548828
 42
1.0
  0
LWPOLYLINE
  5
2277
330
1F
100
AcDbEntity
  8
SOLBET_Zbrojenie_Konstrukcja
100
AcDbPolyline
 90
        2
 70
     1
 43
0.3
 10
83.05316395138584
 20
189.3143401798223
 42
1.0
 10
83.35316395138603
 20
189.3143401798223
 42
1.0
  0
LWPOLYLINE
  5
2278
330
1F
100
AcDbEntity
  8
SOLBET_Zbrojenie_Konstrukcja
100
AcDbPolyline
 90
        2
 70
     1
 43
0.3
 10
75.58844648549097
 20
189.3143401798223
 42
1.0
 10
75.88844648550253
 20
189.3143401798223
 42
1.0
  0
LINE
  5
2279
330
1F
100
AcDbEntity
  8
SOLBET_Zbrojenie_Konstrukcja
100
AcDbLine
 10
78.03535972429177
 20
206.08390521713
 30
0.0
 11
76.62114616191934
 21
207.4981187795026
 31
0.0
  0
LINE
  5
227A
330
1F
100
AcDbEntity
  8
SOLBET_Zbrojenie_Konstrukcja
100
AcDbLine
 10
76.83535972429194
 20
204.88390521713
 30
0.0
 11
75.42114616191907
 21
206.2981187795026
 31
0.0
  0
LWPOLYLINE
  5
227B
330
1F
100
AcDbEntity
  8
SOLBET_Zbrojenie_Konstrukcja
100
AcDbPolyline
 90
        5
 70
     0
 43
0.0
 10
83.49485779117754
 20
188.9981187795026
 10
83.4968509586945
 20
207.4981187795026
 10
75.42114616191907
 20
207.4981187795026
 10
75.41915299439074
 20
188.9981187795026
 10
83.49485779117754
 20
188.9981187795026
  0
LINE
  5
227C
330
1F
100
AcDbEntity
  8
SOLBET_Izolacja
  6
Continuous
100
AcDbLine
 10
71.55003939984112
 20
196.2481187795011
 30
0.0
 11
71.55003939984112
 21
208.2481187795012
 31
0.0
  0
LINE
  5
227D
330
1F
100
AcDbEntity
  8
SOLBET_Izolacja
  6
Continuous
100
AcDbLine
 10
74.54804623230097
 20
188.2481187795012
 30
0.0
 11
74.5500393998293
 21
208.2481187795012
 31
0.0
  0
LINE
  5
2280
330
1F
100
AcDbEntity
  8
SOLBET_Wymiary_Opisy
 62
     1
100
AcDbLine
 10
64.44615040705071
 20
237.9637703801853
 30
0.0
 11
149.0489608757382
 21
237.9637703801853
 31
0.0
  0
LWPOLYLINE
  5
2283
330
1F
100
AcDbEntity
  8
SOLBET_Okna_Stolarka
100
AcDbPolyline
 90
        4
 70
     1
 43
0.0
 10
79.13096992627948
 20
106.7719347181569
 10
80.49277566596378
 20
106.4228863423252
 10
80.49277566596378
 20
105.5705305537237
 10
79.13096992627948
 20
105.5705305537237
  0
LWPOLYLINE
  5
2284
330
1F
100
AcDbEntity
  8
SOLBET_Okna_Stolarka
100
AcDbPolyline
 90
       15
 70
     1
 43
0.0
 10
76.0500393998293
 20
98.74811877950115
 10
79.5500393998293
 20
98.74811877950115
 10
79.5500393998293
 20
101.8744394771914
 10
78.46591106883238
 20
101.8744394771914
 10
78.46591106883238
 20
102.7465068981108
 10
77.39218967435386
 20
102.7465068981108
 10
77.39218967435386
 20
103.6973851951595
 10
77.04652175009937
 20
103.6973851951595
 10
76.0500393998293
 20
103.4787510498615
 10
76.0500393998293
 20
101.9081887319974
 10
75.58688278075511
 20
101.6461235647118
 10
75.58688278075511
 20
100.2404274272935
 10
75.8472638463088
 20
100.2404274272935
 10
75.8472638463088
 20
100.7609945565185
 10
76.0500393998293
 20
100.7609945565185
  0
LINE
  5
2285
330
1F
100
AcDbEntity
  8
SOLBET_Wymiary_Opisy
 62
     1
100
AcDbLine
 10
64.91285597659384
 20
141.4681399859138
 30
0.0
 11
149.0489608757382
 21
141.4681399859138
 31
0.0
  0
LINE
  5
2287
330
1F
100
AcDbEntity
  8
SOLBET_Okna_Stolarka
100
AcDbLine
 10
76.0500393998293
 20
171.7481187795026
 30
0.0
 11
79.5500393998293
 21
171.7481187795026
 31
0.0
  0
LINE
  5
2288
330
1F
100
AcDbEntity
  8
SOLBET_Okna_Stolarka
100
AcDbLine
 10
79.5500393998293
 20
171.7481187795026
 30
0.0
 11
79.5500393998293
 21
168.6217980818123
 31
0.0
  0
LINE
  5
2289
330
1F
100
AcDbEntity
  8
SOLBET_Okna_Stolarka
100
AcDbLine
 10
79.5500393998293
 20
168.6217980818123
 30
0.0
 11
78.46591106883238
 21
168.6217980818123
 31
0.0
  0
LINE
  5
228A
330
1F
100
AcDbEntity
  8
SOLBET_Okna_Stolarka
100
AcDbLine
 10
78.46591106883238
 20
168.6217980818123
 30
0.0
 11
78.46591106883238
 21
167.7497306608928
 31
0.0
  0
LINE
  5
228B
330
1F
100
AcDbEntity
  8
SOLBET_Okna_Stolarka
100
AcDbLine
 10
78.46591106883238
 20
167.7497306608928
 30
0.0
 11
77.39218967435386
 21
167.7497306608928
 31
0.0
  0
LINE
  5
228C
330
1F
100
AcDbEntity
  8
SOLBET_Okna_Stolarka
100
AcDbLine
 10
77.39218967435386
 20
167.7497306608928
 30
0.0
 11
77.39218967435386
 21
166.7988523638443
 31
0.0
  0
LINE
  5
228D
330
1F
100
AcDbEntity
  8
SOLBET_Okna_Stolarka
100
AcDbLine
 10
77.39218967435386
 20
166.7988523638443
 30
0.0
 11
77.04652175009937
 21
166.7988523638443
 31
0.0
  0
LINE
  5
228E
330
1F
100
AcDbEntity
  8
SOLBET_Okna_Stolarka
100
AcDbLine
 10
77.04652175009937
 20
166.7988523638443
 30
0.0
 11
76.0500393998293
 21
167.0174865091422
 31
0.0
  0
LINE
  5
228F
330
1F
100
AcDbEntity
  8
SOLBET_Okna_Stolarka
100
AcDbLine
 10
76.0500393998293
 20
167.0174865091422
 30
0.0
 11
76.0500393998293
 21
171.7481187795026
 31
0.0
  0
LWPOLYLINE
  5
2290
330
1F
100
AcDbEntity
  8
SOLBET_Okna_Stolarka
100
AcDbPolyline
 90
       15
 70
     1
 43
0.0
 10
77.39218967435386
 20
104.5133045578782
 10
77.39218967435386
 20
103.8085630050481
 10
76.0500393998293
 20
103.8085630050481
 10
76.0500393998293
 20
106.6123350392327
 10
77.31032714872367
 20
107.0494134066087
 10
77.31032714872367
 20
105.4785987342343
 10
78.95271573062723
 20
105.4785987342343
 10
80.49277566596378
 20
105.4785987342343
 10
80.49277566596378
 20
101.5819897035994
 10
79.79798493133353
 20
101.5819897035994
 10
79.79798493133353
 20
103.8085630050481
 10
78.63319008195071
 20
103.8085630050481
 10
78.63319008195071
 20
103.0731818288403
 10
77.77492101739131
 20
103.0731818288403
 10
77.77492101739131
 20
104.5133045578782
  0
LWPOLYLINE
  5
2291
330
1F
100
AcDbEntity
  8
SOLBET_Okna_Stolarka
100
AcDbPolyline
 90
        4
 70
     1
 43
0.0
 10
79.13096992627948
 20
163.7243028408468
 10
80.49277566596378
 20
164.0733512166784
 10
80.49277566596378
 20
164.9257070052786
 10
79.13096992627948
 20
164.9257070052786
  0
LWPOLYLINE
  5
2292
330
1F
100
AcDbEntity
  8
SOLBET_Okna_Stolarka
100
AcDbPolyline
 90
       15
 70
     1
 43
0.0
 10
77.39218967435386
 20
165.9829330011255
 10
77.39218967435386
 20
166.6876745539556
 10
76.0500393998293
 20
166.6876745539556
 10
76.0500393998293
 20
163.8839025197709
 10
77.31032714872367
 20
163.446824152395
 10
77.31032714872367
 20
165.0176388247679
 10
78.95271573062723
 20
165.0176388247679
 10
80.49277566596378
 20
165.0176388247679
 10
80.49277566596378
 20
168.9142478554043
 10
79.79798493133353
 20
168.9142478554043
 10
79.79798493133353
 20
166.6876745539556
 10
78.63319008195071
 20
166.6876745539556
 10
78.63319008195071
 20
167.4230557301633
 10
77.77492101739131
 20
167.4230557301633
 10
77.77492101739131
 20
165.9829330011255
  0
LINE
  5
2296
330
1F
100
AcDbEntity
  8
SOLBET_Okna_Stolarka
100
AcDbLine
 10
75.94602407963908
 20
100.6613499179671
 30
0.0
 11
75.94602407963908
 21
98.33636580083251
 31
0.0
  0
LINE
  5
2297
330
1F
100
AcDbEntity
  8
SOLBET_Okna_Stolarka
100
AcDbLine
 10
75.94602407963908
 20
98.33636580083251
 30
0.0
 11
67.74965370782388
 21
98.33636580083251
 31
0.0
  0
LINE
  5
2298
330
1F
100
AcDbEntity
  8
SOLBET_Okna_Stolarka
100
AcDbLine
 10
67.74965370782388
 20
98.33636580083251
 30
0.0
 11
67.74965370782388
 21
98.82691062064671
 31
0.0
  0
LINE
  5
2299
330
1F
100
AcDbEntity
  8
SOLBET_Okna_Stolarka
100
AcDbLine
 10
75.90615900537909
 20
100.6646735869027
 30
0.0
 11
75.90615900537909
 21
99.92381483163182
 31
0.0
  0
LINE
  5
229A
330
1F
100
AcDbEntity
  8
SOLBET_Okna_Stolarka
100
AcDbLine
 10
75.90615900537909
 20
99.92381483163182
 30
0.0
 11
63.26887964269349
 21
98.22432657745514
 31
0.0
  0
LINE
  5
229B
330
1F
100
AcDbEntity
  8
SOLBET_Okna_Stolarka
100
AcDbLine
 10
62.44192129218231
 20
97.23941206972224
 30
0.0
 11
62.44192129218231
 21
96.6669938067381
 31
0.0
  0
LINE
  5
229C
330
1F
100
AcDbEntity
  8
SOLBET_Okna_Stolarka
100
AcDbLine
 10
62.44192129218231
 20
96.6669938067381
 30
0.0
 11
62.7490031790287
 21
96.6669938067381
 31
0.0
  0
LINE
  5
229D
330
1F
100
AcDbEntity
  8
SOLBET_Okna_Stolarka
100
AcDbLine
 10
62.7490031790287
 20
96.6669938067381
 30
0.0
 11
62.7490031790287
 21
97.19906716128015
 31
0.0
  0
ARC
  5
229E
330
1F
100
AcDbEntity
  8
SOLBET_Okna_Stolarka
100
AcDbCircle
 10
63.44192129218232
 20
97.23941206972224
 30
0.0
 40
1.0
100
AcDbArc
 50
99.96471431075763
 51
180.0
  0
LINE
  5
229F
330
1F
100
AcDbEntity
  8
SOLBET_Okna_Stolarka
100
AcDbLine
 10
68.48665141113565
 20
98.92602364206426
 30
0.0
 11
68.48665141113565
 21
98.33636580083251
 31
0.0
  0
CIRCLE
  5
22A0
330
1F
100
AcDbEntity
  8
SOLBET_Izolacja
100
AcDbCircle
 10
79.15801062157356
 20
98.50056224037535
 30
0.0
 40
0.25244346087405
  0
ARC
  5
22A1
330
1F
100
AcDbEntity
  8
SOLBET_Izolacja
100
AcDbCircle
 10
79.86878456900126
 20
98.49514365283678
 30
0.0
 40
0.4069335296814501
100
AcDbArc
 50
141.5623929960956
 51
217.3757720391787
  0
CIRCLE
  5
22A5
330
1F
100
AcDbEntity
  8
SOLBET_Izolacja
100
AcDbCircle
 10
79.15801062157356
 20
171.9956753186269
 30
0.0
 40
0.25244346087405
  0
ARC
  5
22A6
330
1F
100
AcDbEntity
  8
SOLBET_Izolacja
100
AcDbCircle
 10
79.86878456900126
 20
172.0010939061655
 30
0.0
 40
0.4069335296814501
100
AcDbArc
 50
142.6242279608212
 51
218.4376070039044
  0
LINE
  5
22A7
330
1F
100
AcDbEntity
  8
SOLBET_Okna_Stolarka
100
AcDbLine
 10
77.50826543650578
 20
164.7565528755337
 30
0.0
 11
77.50826543650578
 21
143.9100156004801
 31
0.0
  0
LINE
  5
22A8
330
1F
100
AcDbEntity
  8
SOLBET_Okna_Stolarka
100
AcDbLine
 10
78.96634144366931
 20
164.7565528755337
 30
0.0
 11
78.96634144366931
 21
143.9100156004801
 31
0.0
  0
LINE
  5
22A9
330
1F
100
AcDbEntity
  8
SOLBET_Okna_Stolarka
100
AcDbLine
 10
77.50826543650578
 20
141.4681399859138
 30
0.0
 11
77.50826543650578
 21
105.684699983838
 31
0.0
  0
LINE
  5
22AA
330
1F
100
AcDbEntity
  8
SOLBET_Okna_Stolarka
100
AcDbLine
 10
78.96634144366931
 20
141.4681399859138
 30
0.0
 11
78.96634144366931
 21
105.684699983838
 31
0.0
  0
LWPOLYLINE
  5
22AC
330
1F
100
AcDbEntity
  8
SOLBET_Okna_Stolarka
100
AcDbPolyline
 90
        4
 70
     1
 43
0.0
 10
79.5875250263673
 20
98.2481187795026
 10
93.55003939984113
 20
98.2481187795026
 10
93.55003939984113
 20
100.2481187795011
 10
79.5875250263673
 20
100.2481187795011
1001
ASO_SCHRAFF
1005
22AC
1070
     1
1002
{
1070
     1
1005
22AC
1002
}
1002
{
1070
     2
1005
2318
1002
}
1002
{
1070
     4
1000
SOFIHOLZ
1040
0.5
1040
0.0
1070
     0
1000
T__SCHR
1070
   256
1000
VONLAYER
1040
50.0
1070
     1
1002
}
  0
LINE
  5
22AD
330
1F
100
AcDbEntity
  8
SOLBET_Wymiary_Opisy
 62
     1
100
AcDbLine
 10
64.44615040705071
 20
59.49192383050604
 30
0.0
 11
149.0489608757382
 21
59.49192383050604
 31
0.0
  0
LINE
  5
22AE
330
1F
100
AcDbEntity
  8
SOLBET_Tynki_Posadzki
100
AcDbLine
 10
89.84810559101857
 20
214.1214256130565
 30
0.0
 11
89.84810559101857
 21
213.621425613058
 31
0.0
  0
ARC
  5
22AF
330
1F
100
AcDbEntity
  8
SOLBET_Tynki_Posadzki
100
AcDbCircle
 10
89.05003939982931
 20
214.1214256130565
 30
0.0
 40
1.5000521396288
100
AcDbArc
 50
0.0
 51
90.0
  0
LINE
  5
22B1
330
1F
100
AcDbEntity
  8
SOLBET_Izolacja
  6
Continuous
100
AcDbLine
 10
89.5500393998293
 20
213.621425613058
 30
0.0
 11
88.5500393998293
 21
213.621425613058
 31
0.0
  0
LINE
  5
22B3
330
1F
100
AcDbEntity
  8
SOLBET_Izolacja
  6
Continuous
100
AcDbLine
 10
89.5500393998293
 20
208.2481187795012
 30
0.0
 11
88.5500393998293
 21
208.2481187795012
 31
0.0
  0
LINE
  5
22B4
330
1F
100
AcDbEntity
  8
SOLBET_Tynki_Posadzki
100
AcDbLine
 10
89.84810559101857
 20
214.1214256130565
 30
0.0
 11
149.0489608757382
 21
214.1214256130565
 31
0.0
  0
LINE
  5
22B7
330
1F
100
AcDbEntity
  8
SOLBET_Izolacja
  6
Continuous
100
AcDbLine
 10
89.5500393998293
 20
208.2481187795012
 30
0.0
 11
89.5500393998293
 21
213.621425613058
 31
0.0
  0
LINE
  5
22B8
330
1F
100
AcDbEntity
  8
SOLBET_Izolacja
  6
Continuous
100
AcDbLine
 10
89.5500393998293
 20
210.7481187795026
 30
0.0
 11
149.0489608757382
 21
210.7481187795026
 31
0.0
  0
LINE
  5
22B9
330
1F
100
AcDbEntity
  8
SOLBET_Tynki_Posadzki
100
AcDbLine
 10
89.05003939982931
 20
213.621425613058
 30
0.0
 11
89.05003939982931
 21
237.9637703801853
 31
0.0
  0
LINE
  5
22BA
330
1F
100
AcDbEntity
  8
SOLBET_Izolacja
  6
Continuous
100
AcDbLine
 10
89.05003939982931
 20
208.2481187795012
 30
0.0
 11
149.0489608757382
 21
208.2481187795012
 31
0.0
  0
LINE
  5
22BB
330
1F
100
AcDbEntity
  8
SOLBET_Emulsje_Folie
100
AcDbLine
 10
89.66485544950206
 20
213.871425613058
 30
0.0
 11
89.66485544950206
 21
211.1939580930745
 31
0.0
  0
LINE
  5
22BC
330
1F
100
AcDbEntity
  8
SOLBET_Emulsje_Folie
100
AcDbLine
 10
89.91485544950206
 20
210.9439580930745
 30
0.0
 11
149.0489608757382
 21
210.9439580930745
 31
0.0
  0
ARC
  5
22BD
330
1F
100
AcDbEntity
  8
SOLBET_Emulsje_Folie
100
AcDbCircle
 10
89.91485544950206
 20
211.1939580930745
 30
0.0
 40
0.25
100
AcDbArc
 50
180.0
 51
270.0
  0
LWPOLYLINE
  5
22BE
102
{ACAD_REACTORS
330
2434
102
}
330
1F
100
AcDbEntity
  8
SOLBET_Tynki_Posadzki
100
AcDbPolyline
 90
        5
 70
     1
 43
0.0
 10
89.66485544950206
 20
211.1939580930745
 42
0.0737237824442244
 10
89.67560863272025
 20
211.1214256130566
 10
149.0489608757382
 20
211.1214256130566
 10
149.0489608757382
 20
213.621425613058
 10
89.66485544950206
 20
213.621425613058
1001
ASO_SCHRAFF
1005
0
1070
     1
1002
{
1070
     1
1005
0
1002
}
1002
{
1070
     2
1005
0
1002
}
1002
{
1070
     4
1000
AR-CONC
1040
0.01
1040
0.0
1070
     0
1000
T__SCHR
1070
   256
1000
_bylayer
1040
50.0
1070
     1
1002
}
  0
LINE
  5
22C1
330
1F
100
AcDbEntity
  8
SOLBET_Zaprawy
100
AcDbLine
 10
67.26671759330861
 20
59.49192383050604
 30
0.0
 11
67.26671759330861
 21
98.76196434300407
 31
0.0
  0
LINE
  5
22C2
330
1F
100
AcDbEntity
  8
SOLBET_Tynki_Posadzki
100
AcDbLine
 10
66.8000393998293
 20
59.49192383050604
 30
0.0
 11
66.8000393998293
 21
141.4681399859138
 31
0.0
  0
LINE
  5
22C5
330
1F
100
AcDbEntity
  8
SOLBET_Zaprawy
100
AcDbLine
 10
67.26671759330861
 20
171.9560419325963
 30
0.0
 11
67.26671759330861
 21
237.9637703801853
 31
0.0
  0
LINE
  5
22C6
330
1F
100
AcDbEntity
  8
SOLBET_Tynki_Posadzki
100
AcDbLine
 10
66.8000393998293
 20
143.9100156004801
 30
0.0
 11
66.8000393998293
 21
237.9637703801853
 31
0.0
  0
LINE
  5
22C7
330
1F
100
AcDbEntity
  8
SOLBET_Tynki_Posadzki
100
AcDbLine
 10
89.05003939982931
 20
195.7481187795012
 30
0.0
 11
89.05003939982931
 21
143.9100156004801
 31
0.0
  0
LINE
  5
22C8
330
1F
100
AcDbEntity
  8
SOLBET_Tynki_Posadzki
100
AcDbLine
 10
89.05003939982931
 20
141.4681399859138
 30
0.0
 11
89.05003939982931
 21
100.2481187795011
 31
0.0
  0
LINE
  5
22C9
330
1F
100
AcDbEntity
  8
SOLBET_Tynki_Posadzki
100
AcDbLine
 10
89.05003939982931
 20
98.2481187795026
 30
0.0
 11
89.05003939982931
 21
59.49192383050604
 31
0.0
  0
LINE
  5
22CA
330
1F
100
AcDbEntity
  8
SOLBET_Tynki_Posadzki
100
AcDbLine
 10
89.05003939982931
 20
195.7481187795012
 30
0.0
 11
149.0489608757382
 21
195.7481187795012
 31
0.0
  0
LINE
  5
22CB
330
1F
100
AcDbEntity
  8
SOLBET_Tynki_Posadzki
100
AcDbLine
 10
89.05003939982931
 20
195.7481187795012
 30
0.0
 11
88.55203256735808
 21
196.2481187795026
 31
0.0
  0
LWPOLYLINE
  5
22CC
330
1F
100
AcDbEntity
  8
SOLBET_Zbrojenie_Konstrukcja
100
AcDbPolyline
 90
        3
 70
     0
 43
0.05
 10
88.77162602602698
 20
173.4560419325963
 10
88.77162602602698
 20
171.9560419325963
 10
87.27162602602698
 20
171.9560419325963
  0
LWPOLYLINE
  5
22CD
330
1F
100
AcDbEntity
  8
SOLBET_Zbrojenie_Konstrukcja
100
AcDbPolyline
 90
        3
 70
     0
 43
0.05
 10
67.04628386579656
 20
173.4560419325963
 10
67.04628386579656
 20
171.9560419325963
 10
68.54628386579657
 20
171.9560419325963
  0
LINE
  5
22D5
330
1F
100
AcDbEntity
  8
SOLBET_Okna_Stolarka
100
AcDbLine
 10
76.0500393998293
 20
163.8839025197709
 30
0.0
 11
76.0500393998293
 21
143.9100156004801
 31
0.0
  0
LINE
  5
22D6
330
1F
100
AcDbEntity
  8
SOLBET_Okna_Stolarka
100
AcDbLine
 10
80.49277566596378
 20
164.0733512166784
 30
0.0
 11
80.49277566596378
 21
143.9100156004801
 31
0.0
  0
LINE
  5
22D7
330
1F
100
AcDbEntity
  8
SOLBET_Okna_Stolarka
100
AcDbLine
 10
80.49277566596378
 20
141.4681399859138
 30
0.0
 11
80.49277566596378
 21
106.4228863423252
 31
0.0
  0
LINE
  5
22D8
330
1F
100
AcDbEntity
  8
SOLBET_Okna_Stolarka
100
AcDbLine
 10
76.0500393998293
 20
141.4681399859138
 30
0.0
 11
76.0500393998293
 21
106.6123350392327
 31
0.0
  0
LINE
  5
22DD
330
1F
100
AcDbEntity
  8
SOLBET_Bloczki
100
AcDbLine
 10
79.77206570576254
 20
37.1076312925456
 30
0.0
 11
108.2251197040114
 21
37.1076312925456
 31
0.0
  0
LINE
  5
22DE
330
1F
100
AcDbEntity
  8
SOLBET_Bloczki
100
AcDbLine
 10
79.77206570576254
 20
16.10763129254487
 30
0.0
 11
108.2251197040114
 21
16.10763129254487
 31
0.0
  0
LINE
  5
22DF
330
1F
100
AcDbEntity
  8
SOLBET_Wymiary_Opisy
 62
     1
100
AcDbLine
 10
79.77206570576254
 20
6.587231340602779
 30
0.0
 11
79.77206570576254
 21
43.84396579658791
 31
0.0
  0
LINE
  5
22E0
330
1F
100
AcDbEntity
  8
SOLBET_Bloczki
100
AcDbLine
 10
108.2251197040114
 20
16.10763129254487
 30
0.0
 11
108.2251197040114
 21
31.33622579318912
 31
0.0
  0
LINE
  5
22E1
330
1F
100
AcDbEntity
  8
SOLBET_Zaprawy
100
AcDbLine
 10
79.77206570576254
 20
37.39095309907938
 30
0.0
 11
108.3883865585235
 21
37.39095309907938
 31
0.0
  0
LINE
  5
22E3
330
1F
100
AcDbEntity
  8
SOLBET_Tynki_Posadzki
  6
VERDECKT
100
AcDbLine
 10
128.455003014606
 20
15.6076312925456
 30
0.0
 11
108.7251197040113
 21
15.6076312925456
 31
0.0
  0
LINE
  5
22E4
330
1F
100
AcDbEntity
  8
SOLBET_Tynki_Posadzki
100
AcDbLine
 10
108.7251197040113
 20
15.6076312925456
 30
0.0
 11
108.7251197040113
 21
31.33622579318912
 31
0.0
  0
LINE
  5
22E5
330
1F
100
AcDbEntity
  8
SOLBET_Okna_Stolarka
100
AcDbLine
 10
108.7251197040113
 20
31.1076312925456
 30
0.0
 11
108.7251197040113
 21
27.60763129254633
 31
0.0
  0
LINE
  5
22E6
330
1F
100
AcDbEntity
  8
SOLBET_Okna_Stolarka
100
AcDbLine
 10
108.7251197040113
 20
27.60763129254633
 30
0.0
 11
111.8514404016928
 21
27.60763129254633
 31
0.0
  0
LINE
  5
22E7
330
1F
100
AcDbEntity
  8
SOLBET_Okna_Stolarka
100
AcDbLine
 10
111.8514404016928
 20
27.60763129254633
 30
0.0
 11
111.8514404016928
 21
28.69175962355152
 31
0.0
  0
LINE
  5
22E8
330
1F
100
AcDbEntity
  8
SOLBET_Okna_Stolarka
100
AcDbLine
 10
111.8514404016928
 20
28.69175962355152
 30
0.0
 11
112.7235078226226
 21
28.69175962355152
 31
0.0
  0
LINE
  5
22E9
330
1F
100
AcDbEntity
  8
SOLBET_Okna_Stolarka
100
AcDbLine
 10
112.7235078226226
 20
28.69175962355152
 30
0.0
 11
112.7235078226226
 21
29.76548101802841
 31
0.0
  0
LINE
  5
22EA
330
1F
100
AcDbEntity
  8
SOLBET_Okna_Stolarka
100
AcDbLine
 10
112.7235078226226
 20
29.76548101802841
 30
0.0
 11
113.674386119671
 21
29.76548101802841
 31
0.0
  0
LINE
  5
22EB
330
1F
100
AcDbEntity
  8
SOLBET_Okna_Stolarka
100
AcDbLine
 10
113.674386119671
 20
29.76548101802841
 30
0.0
 11
113.674386119671
 21
30.11114894228745
 31
0.0
  0
LINE
  5
22EC
330
1F
100
AcDbEntity
  8
SOLBET_Okna_Stolarka
100
AcDbLine
 10
113.674386119671
 20
30.11114894228745
 30
0.0
 11
113.4557519743716
 21
31.1076312925456
 31
0.0
  0
LINE
  5
22ED
102
{ACAD_REACTORS
330
2583
102
}
330
1F
100
AcDbEntity
  8
SOLBET_Okna_Stolarka
100
AcDbLine
 10
113.4557519743716
 20
31.1076312925456
 30
0.0
 11
108.7251197040113
 21
31.1076312925456
 31
0.0
  0
LWPOLYLINE
  5
22EE
330
1F
100
AcDbEntity
  8
SOLBET_Okna_Stolarka
100
AcDbPolyline
 90
        4
 70
     1
 43
0.0
 10
116.7489356426672
 20
28.02670076610162
 10
116.399887266828
 20
26.66489502641784
 10
115.5475314782384
 20
26.66489502641784
 10
115.5475314782384
 20
28.02670076610162
  0
LWPOLYLINE
  5
22EF
330
1F
100
AcDbEntity
  8
SOLBET_Okna_Stolarka
100
AcDbPolyline
 90
       15
 70
     1
 43
0.0
 10
114.4903054823899
 20
29.76548101802841
 10
113.7855639295567
 20
29.76548101802841
 10
113.7855639295567
 20
31.1076312925456
 10
116.5893359637384
 20
31.1076312925456
 10
117.0264143311219
 20
29.84734354365287
 10
115.4555996587414
 20
29.84734354365287
 10
115.4555996587414
 20
28.20495496175722
 10
115.4555996587414
 20
26.66489502641784
 10
111.5589906281125
 20
26.66489502641784
 10
111.5589906281125
 20
27.35968576104355
 10
113.7855639295567
 20
27.35968576104355
 10
113.7855639295567
 20
28.52448061042819
 10
113.0501827533503
 20
28.52448061042819
 10
113.0501827533503
 20
29.38274967498369
 10
114.4903054823899
 20
29.38274967498369
  0
CIRCLE
  5
22F3
330
1F
100
AcDbEntity
  8
SOLBET_Izolacja
100
AcDbCircle
 10
108.4775631648867
 20
27.99966007080662
 30
0.0
 40
0.25244346087405
  0
INSERT
  5
22F4
330
1F
100
AcDbEntity
  8
SOLBET_Izolacja
100
AcDbBlockReference
  2
*U5
 10
-26.84447721206516
 20
426.892316944385
 30
0.0
 41
50.0
 42
50.0
 43
50.0
 50
270.0
1001
ASO_SCHRAFF
1005
0
1070
     0
1005
0
  0
ARC
  5
22F5
330
1F
100
AcDbEntity
  8
SOLBET_Izolacja
100
AcDbCircle
 10
108.4721445773412
 20
27.28888612337764
 30
0.0
 40
0.4069335296814501
100
AcDbArc
 50
51.56239299620659
 51
127.3757720389613
  0
LINE
  5
22F6
330
1F
100
AcDbEntity
  8
SOLBET_Wymiary_Opisy
 62
     1
100
AcDbLine
 10
128.455003014606
 20
6.587231340602779
 30
0.0
 11
128.455003014606
 21
43.84396579658791
 31
0.0
  0
LINE
  5
22F7
330
1F
100
AcDbEntity
  8
SOLBET_Okna_Stolarka
100
AcDbLine
 10
128.455003014606
 20
29.64940525587376
 30
0.0
 11
115.6617009083425
 21
29.64940525587376
 31
0.0
  0
LINE
  5
22F8
330
1F
100
AcDbEntity
  8
SOLBET_Okna_Stolarka
100
AcDbLine
 10
128.455003014606
 20
28.19132924871378
 30
0.0
 11
115.6617009083425
 21
28.19132924871378
 31
0.0
  0
LWPOLYLINE
  5
22F9
330
1F
100
AcDbEntity
  8
SOLBET_Zbrojenie_Konstrukcja
100
AcDbPolyline
 90
        3
 70
     0
 43
0.05
 10
108.446706330209
 20
17.31555444564006
 10
108.446706330209
 20
15.81555444564006
 10
106.946706330209
 20
15.81555444564006
  0
LWPOLYLINE
  5
22FA
330
1F
100
AcDbEntity
  8
SOLBET_Zbrojenie_Konstrukcja
100
AcDbPolyline
 90
        3
 70
     0
 43
0.05
 10
108.446706330209
 20
35.89970813945115
 10
108.446706330209
 20
37.39970813945115
 10
106.946706330209
 20
37.39970813945115
  0
LINE
  5
22FB
330
1F
100
AcDbEntity
  8
SOLBET_Okna_Stolarka
100
AcDbLine
 10
116.5893359637384
 20
31.1076312925456
 30
0.0
 11
128.455003014606
 21
31.1076312925456
 31
0.0
  0
LINE
  5
22FC
330
1F
100
AcDbEntity
  8
SOLBET_Okna_Stolarka
100
AcDbLine
 10
116.399887266828
 20
26.66489502641784
 30
0.0
 11
128.455003014606
 21
26.66489502641784
 31
0.0
  0
LINE
  5
22FD
330
1F
100
AcDbEntity
  8
SOLBET_Okna_Stolarka
100
AcDbLine
 10
128.455003014606
 20
10.6076312925456
 30
0.0
 11
103.7251197039995
 21
10.6076312925456
 31
0.0
  0
LINE
  5
22FE
330
1F
100
AcDbEntity
  8
SOLBET_Okna_Stolarka
100
AcDbLine
 10
103.7251197039995
 20
27.60763129254633
 30
0.0
 11
103.7251197039995
 21
15.6076312925456
 31
0.0
  0
LINE
  5
22FF
330
1F
100
AcDbEntity
  8
SOLBET_Okna_Stolarka
100
AcDbLine
 10
103.7251197039995
 20
27.60763129254633
 30
0.0
 11
108.2251197040114
 21
27.61226455421788
 31
0.0
  0
LINE
  5
2300
330
1F
100
AcDbEntity
  8
SOLBET_Okna_Stolarka
100
AcDbLine
 10
103.7251197039995
 20
15.6076312925456
 30
0.0
 11
103.7251197039995
 21
10.6076312925456
 31
0.0
  0
LINE
  5
2301
330
1F
100
AcDbEntity
  8
SOLBET_Tynki_Posadzki
100
AcDbLine
 10
108.7251197040113
 20
15.6076312925456
 30
0.0
 11
79.77206570576254
 21
15.6076312925456
 31
0.0
  0
LINE
  5
2305
330
1F
100
AcDbEntity
  8
SOLBET_Okna_Stolarka
100
AcDbLine
 10
106.5581529619203
 20
31.1076312925456
 30
0.0
 11
106.5581529619203
 21
40.330292656376
 31
0.0
  0
LINE
  5
2306
330
1F
100
AcDbEntity
  8
SOLBET_Okna_Stolarka
100
AcDbLine
 10
106.5581529619203
 20
40.330292656376
 30
0.0
 11
128.455003014606
 21
40.330292656376
 31
0.0
  0
LINE
  5
2308
330
1F
100
AcDbEntity
  8
SOLBET_Okna_Stolarka
100
AcDbLine
 10
108.7251197040113
 20
31.1076312925456
 30
0.0
 11
106.5581529619203
 21
31.1076312925456
 31
0.0
  0
LWPOLYLINE
  5
2314
330
1F
100
AcDbEntity
  8
SOLBET_Okna_Stolarka
100
AcDbPolyline
 90
        4
 70
     1
 43
0.0
 10
73.5500393998293
 20
172.2481187795011
 10
88.5500393998293
 20
172.2481187795011
 10
88.5500393998293
 20
184.2481187795026
 10
73.5500393998293
 20
184.2481187795026
  0
INSERT
  5
2316
330
1F
100
AcDbEntity
  8
SOLBET_Izolacja
100
AcDbBlockReference
  2
*U6
 10
-410.6315095992806
 20
-259.4912085117132
 30
0.0
 41
50.0
 42
50.0
 43
50.0
1001
ASO_SCHRAFF
1005
0
1070
     0
1005
22A4
  0
INSERT
  5
2317
330
1F
100
AcDbEntity
  8
SOLBET_Izolacja
100
AcDbBlockReference
  2
*U7
 10
-410.6315095992806
 20
-259.4912085117132
 30
0.0
 41
50.0
 42
50.0
 43
50.0
1001
ASO_SCHRAFF
1005
2317
1070
     0
1005
22A4
  0
INSERT
  5
2318
330
1F
100
AcDbEntity
  8
SOLBET_Okna_Stolarka
100
AcDbBlockReference
  2
*U8
 10
-410.6315095992806
 20
-259.4912085117132
 30
0.0
 41
50.0
 42
50.0
 43
50.0
1001
ASO_SCHRAFF
1005
2318
1070
     0
1005
22AC
  0
CIRCLE
  5
231A
330
1F
100
AcDbEntity
  8
SOLBET_Okna_Stolarka
100
AcDbCircle
 10
80.23583844686596
 20
177.1231030162103
 30
0.0
 40
4.943224170657949
  0
LINE
  5
231B
330
1F
100
AcDbEntity
  8
SOLBET_Okna_Stolarka
100
AcDbLine
 10
75.0500393998293
 20
177.2481187795011
 30
0.0
 11
75.0500393998293
 21
172.2481187795011
 31
0.0
  0
LINE
  5
231C
330
1F
100
AcDbEntity
  8
SOLBET_Okna_Stolarka
100
AcDbLine
 10
80.0500393998293
 20
182.2481187795026
 30
0.0
 11
81.05003939984113
 21
182.2481187795026
 31
0.0
  0
LINE
  5
231D
330
1F
100
AcDbEntity
  8
SOLBET_Okna_Stolarka
100
AcDbLine
 10
86.0500393998293
 20
177.2481187795011
 30
0.0
 11
86.0500393998293
 21
172.2481187795011
 31
0.0
  0
LWPOLYLINE
  5
231E
330
1F
100
AcDbEntity
  8
SOLBET_Okna_Stolarka
100
AcDbPolyline
 90
        2
 70
     0
 43
0.0
 10
74.0500393998293
 20
172.7481187795012
 10
75.0500393998293
 20
172.7481187795012
  0
LWPOLYLINE
  5
231F
330
1F
100
AcDbEntity
  8
SOLBET_Okna_Stolarka
100
AcDbPolyline
 90
        5
 70
     0
 43
0.0
 10
86.0500393998293
 20
172.7481187795012
 10
88.05003939982929
 20
172.7481187795012
 10
88.05003939982929
 20
183.7481187795011
 10
74.0500393998293
 20
183.7481187795011
 10
74.0500393998293
 20
172.7481187795012
  0
ARC
  5
2320
330
1F
100
AcDbEntity
  8
SOLBET_Okna_Stolarka
100
AcDbCircle
 10
80.0500393998293
 20
177.2481187795011
 30
0.0
 40
5.0
100
AcDbArc
 50
90.0
 51
180.0
  0
ARC
  5
2321
330
1F
100
AcDbEntity
  8
SOLBET_Okna_Stolarka
100
AcDbCircle
 10
81.05003939984113
 20
177.2481187795011
 30
0.0
 40
5.0
100
AcDbArc
 50
0.0
 51
90.0
  0
LINE
  5
2322
330
1F
100
AcDbEntity
  8
SOLBET_Okna_Stolarka
100
AcDbLine
 10
75.2926142762019
 20
177.1231030162103
 30
0.0
 11
75.2926142762019
 21
171.7481187795026
 31
0.0
  0
LINE
  5
2338
330
1F
100
AcDbEntity
  8
SOLBET_Okna_Stolarka
100
AcDbLine
 10
108.7251197040113
 20
32.10429546920791
 30
0.0
 11
107.1771121062952
 21
32.10429546920791
 31
0.0
  0
LINE
  5
2339
330
1F
100
AcDbEntity
  8
SOLBET_Okna_Stolarka
100
AcDbLine
 10
107.1771121062952
 20
32.10429546920791
 30
0.0
 11
107.1771121062952
 21
31.33622579318912
 31
0.0
  0
LINE
  5
233A
330
1F
100
AcDbEntity
  8
SOLBET_Okna_Stolarka
100
AcDbLine
 10
107.1771121062952
 20
31.33622579318912
 30
0.0
 11
108.7251197040113
 21
31.33622579318912
 31
0.0
  0
LINE
  5
233B
330
1F
100
AcDbEntity
  8
SOLBET_Tynki_Posadzki
100
AcDbLine
 10
108.7251197040113
 20
32.10429546920791
 30
0.0
 11
108.7251197040113
 21
37.8576312925456
 31
0.0
  0
LINE
  5
233C
330
1F
100
AcDbEntity
  8
SOLBET_Bloczki
100
AcDbLine
 10
108.2251197040114
 20
32.10429546920791
 30
0.0
 11
108.2251197040114
 21
37.1076312925456
 31
0.0
  0
LWPOLYLINE
  5
2348
330
1F
100
AcDbEntity
  8
SOLBET_Zbrojenie_Konstrukcja
100
AcDbPolyline
 90
        2
 70
     1
 43
0.3
 10
77.80418866303012
 20
189.3143401798223
 42
1.0
 10
78.1041886630303
 20
189.3143401798223
 42
1.0
  0
LWPOLYLINE
  5
2349
330
1F
100
AcDbEntity
  8
SOLBET_Zbrojenie_Konstrukcja
100
AcDbPolyline
 90
        2
 70
     1
 43
0.3
 10
81.10982212252679
 20
189.3143401798223
 42
-1.0
 10
80.80982212253843
 20
189.3143401798223
 42
-1.0
  0
INSERT
  5
2355
330
1F
100
AcDbEntity
  8
SOLBET_Zbrojenie_Konstrukcja
100
AcDbBlockReference
  2
*U9
 10
-564.1847427050281
 20
-259.4673954020168
 30
0.0
 41
50.0
 42
50.0
 43
50.0
1001
ASO_SCHRAFF
1005
2355
1070
     0
1005
2271
  0
LWPOLYLINE
  5
2356
330
1F
100
AcDbEntity
  8
SOLBET_Ramka_05
100
AcDbPolyline
 90
        4
 70
     1
 43
0.0
 10
-0.5491789507159411
 20
-0.4073335441337349
 10
333.802595141374
 20
-0.4073335441337349
 10
333.802595141374
 20
296.5926664558663
 10
-0.5491789507159411
 20
296.5926664558663
  0
MTEXT
  5
2357
102
{ACAD_XDICTIONARY
360
2358
102
}
330
1F
100
AcDbEntity
  8
SOLBET_Wymiary_Opisy @ 1
100
AcDbMText
 10
16.41519599044545
 20
289.4893775466442
 30
0.0
 40
5.0
 41
124.2624847080697
 71
     1
 72
     5
  1
{\LDETAL 14\P}Spos\U+00F3b zamocowania stolarki w \U+015Bcianie\Pjednowarstwowej z wbudowan\U+0105 nad oknem skrzynk\U+0105 na rolet\U+0119 typu RKS
  7
Solbet_5
 73
     1
 44
1.0
1001
AcadAnnotative
1000
AnnotativeData
1002
{
1070
     1
1070
     0
1002
}
1001
ACAD
1000
MTEXTBEGIN
1070
    73
1070
     1
1070
    44
1040
1.0
1070
    74
1070
     0
1000
MTEXTEND
  0
LWPOLYLINE
  5
239A
330
1F
100
AcDbEntity
  8
SOLBET_Bloczki
100
AcDbPolyline
 90
        4
 70
     1
 43
0.0
 10
67.5500393998293
 20
237.9637703801853
 10
88.5500393998293
 20
237.9637703801853
 10
88.5500393998293
 20
232.2481187795027
 10
67.5500393998293
 20
232.2481187795027
  0
LWPOLYLINE
  5
23A7
330
1F
100
AcDbEntity
  8
SOLBET_Bloczki
100
AcDbPolyline
 90
        4
 70
     1
 43
0.0
 10
88.55003954057883
 20
67.24811857535268
 10
67.55003954057883
 20
67.24811857535268
 10
67.5500393998293
 20
59.49192383050604
 10
88.55003954057883
 20
59.49192383050604
  0
LWPOLYLINE
  5
23B7
330
1F
100
AcDbEntity
  8
SOLBET_Bloczki
100
AcDbPolyline
 90
        5
 70
     0
 43
0.0
 10
88.5500393998293
 20
98.2481187795026
 10
88.55003954057862
 20
91.2481189836488
 10
67.55003954057861
 20
91.2481189836488
 10
67.55003954057861
 20
98.2481187795026
 10
88.5500393998293
 20
98.24811920175056
  0
HATCH
  5
2434
330
1F
100
AcDbEntity
  8
SOLBET_Tynki_Posadzki
100
AcDbHatch
 10
0.0
 20
0.0
 30
0.0
210
0.0
220
0.0
230
1.0
  2
AR-CONC
 70
     0
 71
     1
 91
        1
 92
        1
 93
        5
 72
     2
 10
89.91485544950782
 20
211.1939580930906
 40
0.2500000000057696
 50
180.0000000036868
 51
196.8657343098292
 73
     1
 72
     1
 10
89.67560863272025
 20
211.1214256130566
 11
149.0489608757382
 21
211.1214256130566
 72
     1
 10
149.0489608757382
 20
211.1214256130566
 11
149.0489608757382
 21
213.621425613058
 72
     1
 10
149.0489608757382
 20
213.621425613058
 11
89.66485544950206
 21
213.621425613058
 72
     1
 10
89.66485544950206
 20
213.621425613058
 11
89.66485544950206
 21
211.1939580930745
 97
        1
330
22BE
 75
     0
 76
     1
 52
0.0
 41
0.05
 77
     0
 78
    13
 53
50.0
 43
831.7407755698793
 44
-18.50604615015372
 45
9.1092334498002
 46
-0.7969542769451543
 79
     2
 49
0.9525000000000002
 49
-10.4775
 53
355.0
 43
831.7407755698793
 44
-18.50604615015372
 45
-1.762141298783349
 46
9.552832144108998
 79
     2
 49
0.762
 49
-8.381999999999999
 53
100.451
 43
832.4998755698793
 44
-18.57245865015372
 45
7.347125083297962
 46
8.755834391014593
 79
     2
 49
0.8095
 49
-8.9045
 53
46.1842
 43
831.7407755698793
 44
-15.96604615015372
 45
13.5539520446065
 46
-2.102116396636357
 79
     2
 49
1.428749999999999
 49
-15.71625
 53
96.6356
 43
832.8702705698793
 44
-16.14122115015372
 45
11.87021172331186
 46
12.37127779450246
 79
     2
 49
1.21425
 49
-13.35675
 53
351.184
 43
831.7407755698793
 44
-15.96604615015372
 45
11.87023029069669
 46
12.37125589302988
 79
     2
 49
1.143
 49
-12.573
 53
21.0
 43
833.0107755698794
 44
-16.60104615015372
 45
7.580743991769164
 46
-5.113275925838125
 79
     2
 49
0.9525000000000002
 49
-10.4775
 53
326.0
 43
833.0107755698794
 44
-16.60104615015372
 45
3.090101417382353
 46
9.209398306115962
 79
     2
 49
0.762
 49
-8.381999999999999
 53
71.45140000000001
 43
833.6425005698792
 44
-17.02715115015372
 45
10.67082453850622
 46
4.096142885802872
 79
     2
 49
0.8095
 49
-8.9045
 53
37.5
 43
831.7407755698793
 44
-18.50604615015372
 45
0.1544301625295909
 46
4.227751943657655
 79
     6
 49
0.0
 49
-8.2804
 49
0.0
 49
-8.509
 49
0.0
 49
-8.41375
 53
7.499999999999999
 43
831.7407755698793
 44
-18.50604615015372
 45
3.340983125515287
 46
5.009028740905975
 79
     6
 49
0.0
 49
-4.851399999999999
 49
0.0
 49
-8.0899
 49
0.0
 49
-3.20675
 53
327.5
 43
828.9086755698793
 44
-18.50604615015372
 45
6.77952975834357
 46
-0.2864371996336729
 79
     6
 49
0.0
 49
-3.175
 49
0.0
 49
-9.906
 49
0.0
 49
-13.1445
 53
317.5
 43
827.6386755698792
 44
-18.50604615015372
 45
7.406459069300902
 46
1.27132455166665
 79
     6
 49
0.0
 49
-4.1275
 49
0.0
 49
-6.5786
 49
0.0
 49
-9.3345
 98
        1
 10
831.7407755698793
 20
-18.50604615015372
1001
ACAD
1010
0.0
1020
0.0
1030
0.0
  0
LINE
  5
2435
330
1F
100
AcDbEntity
  8
SOLBET_Izolacja
  6
BATTING
 48
0.05
100
AcDbLine
 10
89.05003939982931
 20
213.621425613058
 30
0.0
 11
89.05003939982931
 21
208.2481187795012
 31
0.0
  0
LINE
  5
2436
330
1F
100
AcDbEntity
  8
SOLBET_Izolacja
100
AcDbLine
 10
89.5500393998293
 20
210.7481187795026
 30
0.0
 11
89.5500393998293
 21
208.2481187795012
 31
0.0
  0
LINE
  5
2437
330
1F
100
AcDbEntity
  8
SOLBET_Izolacja
100
AcDbLine
 10
89.5500393998293
 20
208.2481187795012
 30
0.0
 11
89.5500393998293
 21
209.4981187795018
 31
0.0
  0
LINE
  5
2438
330
1F
100
AcDbEntity
  8
SOLBET_Izolacja
  6
BATTING
 48
0.12
100
AcDbLine
 10
89.5500393998293
 20
209.4981187795018
 30
0.0
 11
149.0489608757382
 21
209.4981187795019
 31
0.0
  0
LINE
  5
2439
330
1F
100
AcDbEntity
  8
SOLBET_Izolacja
100
AcDbLine
 10
71.5500393998293
 20
188.2481186550127
 30
0.0
 11
74.54804623230097
 21
188.2481187942131
 31
0.0
  0
LINE
  5
243A
330
1F
100
AcDbEntity
  8
SOLBET_Izolacja
100
AcDbLine
 10
74.54804623230097
 20
188.2481187942131
 30
0.0
 11
73.04904281606514
 21
188.2481187246129
 31
0.0
  0
LINE
  5
243B
330
1F
100
AcDbEntity
  8
SOLBET_Izolacja
  6
BATTING
 48
0.147
100
AcDbLine
 10
73.04904281606514
 20
188.2481187246129
 30
0.0
 11
73.04904281606514
 21
208.2481187795011
 31
0.0
  0
LINE
  5
243C
330
1F
100
AcDbEntity
  8
SOLBET_Zbrojenie_Konstrukcja
100
AcDbLine
 10
142.0500393998329
 20
204.7481187795027
 30
0.0
 11
145.0489608757382
 21
199.1251410121803
 31
0.0
  0
LINE
  5
243D
330
1F
100
AcDbEntity
  8
SOLBET_Zbrojenie_Konstrukcja
100
AcDbLine
 10
138.5833727331661
 20
198.2481187795025
 30
0.0
 11
142.0500393998329
 21
204.7481187795027
 31
0.0
  0
LINE
  5
243F
330
1F
100
AcDbEntity
  8
SOLBET_Zbrojenie_Konstrukcja
100
AcDbLine
 10
114.5833727331661
 20
198.2481187795025
 30
0.0
 11
118.0500393998329
 21
204.7481187795027
 31
0.0
  0
LINE
  5
2440
330
1F
100
AcDbEntity
  8
SOLBET_Zbrojenie_Konstrukcja
100
AcDbLine
 10
122.5833727331661
 20
198.2481187795025
 30
0.0
 11
126.0500393998327
 21
204.7481187795027
 31
0.0
  0
LINE
  5
2441
330
1F
100
AcDbEntity
  8
SOLBET_Zbrojenie_Konstrukcja
100
AcDbLine
 10
130.5833727331661
 20
198.2481187795025
 30
0.0
 11
134.0500393998328
 21
204.7481187795027
 31
0.0
  0
LINE
  5
2442
330
1F
100
AcDbEntity
  8
SOLBET_Zbrojenie_Konstrukcja
100
AcDbLine
 10
106.5833727331661
 20
198.2481187795025
 30
0.0
 11
110.0500393998329
 21
204.7481187795027
 31
0.0
  0
LINE
  5
2443
330
1F
100
AcDbEntity
  8
SOLBET_Zbrojenie_Konstrukcja
100
AcDbLine
 10
98.58337273316614
 20
198.2481187795025
 30
0.0
 11
102.0500393998329
 21
204.7481187795027
 31
0.0
  0
LINE
  5
2444
330
1F
100
AcDbEntity
  8
SOLBET_Zbrojenie_Konstrukcja
100
AcDbLine
 10
90.58337273316613
 20
198.2481187795025
 30
0.0
 11
94.05003939983293
 21
204.7481187795027
 31
0.0
  0
LINE
  5
2445
330
1F
100
AcDbEntity
  8
SOLBET_Zbrojenie_Konstrukcja
100
AcDbLine
 10
82.58337273316625
 20
198.2481187795025
 30
0.0
 11
86.05003939983294
 21
204.7481187795027
 31
0.0
  0
LINE
  5
2446
330
1F
100
AcDbEntity
  8
SOLBET_Zbrojenie_Konstrukcja
100
AcDbLine
 10
86.05003939983294
 20
204.7481187795027
 30
0.0
 11
89.51670606649953
 21
198.2481187795025
 31
0.0
  0
LINE
  5
2447
330
1F
100
AcDbEntity
  8
SOLBET_Zbrojenie_Konstrukcja
100
AcDbLine
 10
94.05003939983293
 20
204.7481187795027
 30
0.0
 11
97.51670606649952
 21
198.2481187795025
 31
0.0
  0
LINE
  5
2448
330
1F
100
AcDbEntity
  8
SOLBET_Zbrojenie_Konstrukcja
100
AcDbLine
 10
102.0500393998329
 20
204.7481187795027
 30
0.0
 11
105.5167060664997
 21
198.2481187795025
 31
0.0
  0
LINE
  5
2449
330
1F
100
AcDbEntity
  8
SOLBET_Zbrojenie_Konstrukcja
100
AcDbLine
 10
110.0500393998329
 20
204.7481187795027
 30
0.0
 11
113.5167060664997
 21
198.2481187795025
 31
0.0
  0
LINE
  5
244A
330
1F
100
AcDbEntity
  8
SOLBET_Zbrojenie_Konstrukcja
  6
Continuous
100
AcDbLine
 10
149.0489608757382
 20
204.7481187795028
 30
0.0
 11
80.55003939983294
 21
204.7481187795025
 31
0.0
  0
LINE
  5
244B
330
1F
100
AcDbEntity
  8
SOLBET_Zbrojenie_Konstrukcja
100
AcDbLine
 10
134.0500393998328
 20
204.7481187795027
 30
0.0
 11
137.5167060664996
 21
198.2481187795025
 31
0.0
  0
LINE
  5
244C
330
1F
100
AcDbEntity
  8
SOLBET_Zbrojenie_Konstrukcja
100
AcDbLine
 10
126.0500393998327
 20
204.7481187795027
 30
0.0
 11
129.5167060664996
 21
198.2481187795025
 31
0.0
  0
LINE
  5
244D
330
1F
100
AcDbEntity
  8
SOLBET_Zbrojenie_Konstrukcja
100
AcDbLine
 10
118.0500393998329
 20
204.7481187795027
 30
0.0
 11
121.5167060664996
 21
198.2481187795025
 31
0.0
  0
LWPOLYLINE
  5
2450
330
1F
100
AcDbEntity
  8
SOLBET_Beton
100
AcDbPolyline
 90
        5
 70
     1
 43
0.0
 10
80.55003939983294
 20
196.2481187795026
 10
84.55003939983283
 20
196.2481187795026
 10
149.0489608757382
 20
196.2481187795026
 10
149.0489608757382
 20
198.2481187795025
 10
80.55003939983294
 20
198.2481187795025
1001
ASO_SCHRAFF
1005
0
1070
     1
1002
{
1070
     1
1005
0
1002
}
1002
{
1070
     2
1005
0
1002
}
1002
{
1070
     4
1000
NET
1040
0.1
1040
45.0
1070
     0
1000
T__SCHR
1070
   256
1000
VONLAYER
1040
50.0
1070
     1
1002
}
  0
LINE
  5
2452
330
1F
100
AcDbEntity
  8
SOLBET_Beton
100
AcDbLine
 10
87.28571161310652
 20
206.7481187795025
 30
0.0
 11
149.0489608757382
 21
206.7481187795012
 31
0.0
  0
LINE
  5
2453
330
1F
100
AcDbEntity
  8
SOLBET_Beton
100
AcDbLine
 10
87.28571161310652
 20
206.7481187795025
 30
0.0
 11
87.28571161310652
 21
198.2481187795025
 31
0.0
  0
LINE
  5
2454
330
1F
100
AcDbEntity
  8
SOLBET_Beton
100
AcDbLine
 10
87.28571161310652
 20
198.2481187795025
 30
0.0
 11
149.0489608757382
 21
198.2481187795025
 31
0.0
  0
LINE
  5
2455
330
1F
100
AcDbEntity
  8
SOLBET_Beton
100
AcDbLine
 10
147.2857116130947
 20
198.2481187795025
 30
0.0
 11
147.2857116130947
 21
206.7481187795012
 31
0.0
  0
LINE
  5
2456
330
1F
100
AcDbEntity
  8
SOLBET_Beton
100
AcDbLine
 10
87.28571161310652
 20
201.7481187795026
 30
0.0
 11
149.0489608757382
 21
201.7481187795026
 31
0.0
  0
LINE
  5
2457
330
1F
100
AcDbEntity
  8
SOLBET_Beton
100
AcDbLine
 10
135.2857116130947
 20
206.7481187795014
 30
0.0
 11
135.2857116130947
 21
198.2481187795025
 31
0.0
  0
LINE
  5
2478
330
1F
100
AcDbEntity
  8
SOLBET_Beton
100
AcDbLine
 10
123.2857116131065
 20
206.7481187795017
 30
0.0
 11
123.2857116131065
 21
198.2481187795026
 31
0.0
  0
LINE
  5
2479
330
1F
100
AcDbEntity
  8
SOLBET_Beton
100
AcDbLine
 10
111.2857116131065
 20
206.748118779502
 30
0.0
 11
111.2857116131065
 21
198.2406527194667
 31
0.0
  0
LINE
  5
247A
330
1F
100
AcDbEntity
  8
SOLBET_Beton
100
AcDbLine
 10
99.28571161310651
 20
206.7481187795022
 30
0.0
 11
99.28571161310651
 21
198.2481187795026
 31
0.0
  0
INSERT
  5
2525
330
1F
100
AcDbEntity
  8
SOLBET_Izolacja
  6
Continuous
100
AcDbBlockReference
  2
ASOWDBLK
 10
68.76624829021261
 20
98.33636580083148
 30
0.0
 41
0.6243283295252695
 42
0.6423757254209477
 43
0.6243283295251633
  0
INSERT
  5
2526
330
1F
100
AcDbEntity
  8
SOLBET_Izolacja
  6
Continuous
100
AcDbBlockReference
  2
ASOWDBLK
 10
69.07841245497525
 20
98.33636580083148
 30
0.0
 41
0.6243283295252695
 42
0.6842243068815606
 43
0.6243283295251633
  0
INSERT
  5
2527
330
1F
100
AcDbEntity
  8
SOLBET_Izolacja
  6
Continuous
100
AcDbBlockReference
  2
ASOWDBLK
 10
69.39057661973777
 20
98.33636580083148
 30
0.0
 41
0.6243283295252695
 42
0.7260728883422019
 43
0.6243283295251633
  0
INSERT
  5
2528
330
1F
100
AcDbEntity
  8
SOLBET_Izolacja
  6
Continuous
100
AcDbBlockReference
  2
ASOWDBLK
 10
69.70274078450029
 20
98.33636580083148
 30
0.0
 41
0.6243283295252695
 42
0.7679214698028148
 43
0.6243283295251633
  0
INSERT
  5
2529
330
1F
100
AcDbEntity
  8
SOLBET_Izolacja
  6
Continuous
100
AcDbBlockReference
  2
ASOWDBLK
 10
70.01490494926293
 20
98.33636580083148
 30
0.0
 41
0.6243283295252695
 42
0.8097700512635128
 43
0.6243283295251633
  0
INSERT
  5
252A
330
1F
100
AcDbEntity
  8
SOLBET_Izolacja
  6
Continuous
100
AcDbBlockReference
  2
ASOWDBLK
 10
70.32706911402545
 20
98.33636580083148
 30
0.0
 41
0.6243283295252695
 42
0.8516186327241257
 43
0.6243283295251633
  0
INSERT
  5
252B
330
1F
100
AcDbEntity
  8
SOLBET_Izolacja
  6
Continuous
100
AcDbBlockReference
  2
ASOWDBLK
 10
70.63923327878796
 20
98.33636580083148
 30
0.0
 41
0.6243283295252695
 42
0.893467214184767
 43
0.6243283295251633
  0
INSERT
  5
252C
330
1F
100
AcDbEntity
  8
SOLBET_Izolacja
  6
Continuous
100
AcDbBlockReference
  2
ASOWDBLK
 10
70.9513974435506
 20
98.33636580083148
 30
0.0
 41
0.6243283295252695
 42
0.9353157956454367
 43
0.6243283295251633
  0
INSERT
  5
252D
330
1F
100
AcDbEntity
  8
SOLBET_Izolacja
  6
Continuous
100
AcDbBlockReference
  2
ASOWDBLK
 10
71.26356160831313
 20
98.33636580083148
 30
0.0
 41
0.6243283295252695
 42
0.977164377106078
 43
0.6243283295251633
  0
INSERT
  5
252E
330
1F
100
AcDbEntity
  8
SOLBET_Izolacja
  6
Continuous
100
AcDbBlockReference
  2
ASOWDBLK
 10
71.57572577307565
 20
98.33636580083148
 30
0.0
 41
0.6243283295252695
 42
1.019012958566719
 43
0.6243283295251633
  0
INSERT
  5
252F
330
1F
100
AcDbEntity
  8
SOLBET_Izolacja
  6
Continuous
100
AcDbBlockReference
  2
ASOWDBLK
 10
71.88788993783828
 20
98.33636580083148
 30
0.0
 41
0.6243283295252695
 42
1.060861540027389
 43
0.6243283295251633
  0
INSERT
  5
2530
330
1F
100
AcDbEntity
  8
SOLBET_Izolacja
  6
Continuous
100
AcDbBlockReference
  2
ASOWDBLK
 10
72.20005410260069
 20
98.33636580083148
 30
0.0
 41
0.6243283295252695
 42
1.10271012148803
 43
0.6243283295251633
  0
INSERT
  5
2531
330
1F
100
AcDbEntity
  8
SOLBET_Izolacja
  6
Continuous
100
AcDbBlockReference
  2
ASOWDBLK
 10
72.51221826736332
 20
98.33636580083148
 30
0.0
 41
0.6243283295252695
 42
1.144558702948643
 43
0.6243283295251633
  0
INSERT
  5
2532
330
1F
100
AcDbEntity
  8
SOLBET_Izolacja
  6
Continuous
100
AcDbBlockReference
  2
ASOWDBLK
 10
72.82438243212595
 20
98.33636580083148
 30
0.0
 41
0.6243283295252695
 42
1.186407284409341
 43
0.6243283295251633
  0
INSERT
  5
2533
330
1F
100
AcDbEntity
  8
SOLBET_Izolacja
  6
Continuous
100
AcDbBlockReference
  2
ASOWDBLK
 10
73.13654659688836
 20
98.33636580083148
 30
0.0
 41
0.6243283295252695
 42
1.228255865869954
 43
0.6243283295251633
  0
INSERT
  5
2534
330
1F
100
AcDbEntity
  8
SOLBET_Izolacja
  6
Continuous
100
AcDbBlockReference
  2
ASOWDBLK
 10
73.448710761651
 20
98.33636580083148
 30
0.0
 41
0.6243283295252695
 42
1.270104447330595
 43
0.6243283295251633
  0
INSERT
  5
2535
330
1F
100
AcDbEntity
  8
SOLBET_Izolacja
  6
Continuous
100
AcDbBlockReference
  2
ASOWDBLK
 10
73.76087492641352
 20
98.33636580083148
 30
0.0
 41
0.6243283295252695
 42
1.311953028791236
 43
0.6243283295251633
  0
INSERT
  5
2536
330
1F
100
AcDbEntity
  8
SOLBET_Izolacja
  6
Continuous
100
AcDbBlockReference
  2
ASOWDBLK
 10
74.07303909117604
 20
98.33636580083148
 30
0.0
 41
0.6243283295252695
 42
1.353801610251906
 43
0.6243283295251633
  0
INSERT
  5
2537
330
1F
100
AcDbEntity
  8
SOLBET_Izolacja
  6
Continuous
100
AcDbBlockReference
  2
ASOWDBLK
 10
74.38520325593867
 20
98.33636580083148
 30
0.0
 41
0.6243283295252695
 42
1.395650191712547
 43
0.6243283295251633
  0
INSERT
  5
2538
330
1F
100
AcDbEntity
  8
SOLBET_Izolacja
  6
Continuous
100
AcDbBlockReference
  2
ASOWDBLK
 10
74.6973674207012
 20
98.33636580083148
 30
0.0
 41
0.6243283295252695
 42
1.43749877317316
 43
0.6243283295251633
  0
INSERT
  5
2539
330
1F
100
AcDbEntity
  8
SOLBET_Izolacja
  6
Continuous
100
AcDbBlockReference
  2
ASOWDBLK
 10
75.00953158546372
 20
98.33636580083148
 30
0.0
 41
0.6243283295252695
 42
1.479347354633858
 43
0.6243283295251633
  0
INSERT
  5
253A
330
1F
100
AcDbEntity
  8
SOLBET_Izolacja
  6
Continuous
100
AcDbBlockReference
  2
ASOWDBLK
 10
75.32169575022635
 20
98.33636580083148
 30
0.0
 41
0.6243283295252695
 42
1.521195936094471
 43
0.6243283295251633
  0
INSERT
  5
253B
330
1F
100
AcDbEntity
  8
SOLBET_Izolacja
  6
Continuous
100
AcDbBlockReference
  2
ASOWDBLK
 10
75.63385991498887
 20
98.33636580083148
 30
0.0
 41
0.6243283295252695
 42
1.563044517555113
 43
0.6243283295251633
  0
INSERT
  5
253C
330
1F
100
AcDbEntity
  8
SOLBET_Zbrojenie_Konstrukcja
100
AcDbBlockReference
  2
*U4
 10
-320.5170060975113
 20
0.6691562839955623
 30
0.0
 41
50.0
 42
50.00000000000001
 43
50.0
1001
ASO_SCHRAFF
1005
0
1070
     0
1005
0
  0
INSERT
  5
253D
330
1F
100
AcDbEntity
  8
SOLBET_Zbrojenie_Konstrukcja
100
AcDbBlockReference
  2
*U9
 10
-561.0648443048919
 20
-142.464269989078
 30
0.0
 41
50.0
 42
50.00000000000001
 43
50.0
1001
ASO_SCHRAFF
1005
2355
1070
     0
1005
2271
  0
LEADER
  5
253E
330
1F
100
AcDbEntity
  8
SOLBET_Wymiary_Opisy
100
AcDbLeader
  3
Solbet$7
 73
     0
 74
     0
 75
     1
 40
7.916666666666666
 41
49.5
 76
     3
 10
79.07426657196561
 20
193.1439607779887
 30
0.0
 10
95.34692474740245
 20
223.5281113736118
 30
0.0
 10
97.84692474740246
 20
223.5281113736118
 30
0.0
340
253F
213
1.177601578005123
223
-0.1753245211093599
233
0.0
1001
ACAD
1000
DSTYLE
1002
{
1070
   147
1040
0.625
1070
    77
1070
     1
1002
}
  0
MTEXT
  5
253F
102
{ACAD_XDICTIONARY
360
2A34
102
}
102
{ACAD_REACTORS
330
253E
102
}
330
1F
100
AcDbEntity
  8
SOLBET_Wymiary_Opisy
100
AcDbMText
 10
97.29432316939734
 20
232.2451025613879
 30
0.0
 40
2.5
 41
0.0
 71
     1
 72
     1
  1
Podci\U+0105g zintegrowany z wie\U+0144cem\Pwg oblicze\U+0144 ststycznych
  7
Solbet_2_5
 73
     1
 44
1.0
1001
ACAD
1000
MTEXTBEGIN
1070
    73
1070
     1
1070
    44
1040
1.0
1070
    74
1070
     0
1000
MTEXTEND
  0
LEADER
  5
2540
330
1F
100
AcDbEntity
  8
SOLBET_Wymiary_Opisy
100
AcDbLeader
  3
Solbet$7
 73
     0
 74
     0
 75
     1
 40
3.25
 41
37.25
 76
     3
 10
86.57298737280802
 20
180.5891203432924
 30
0.0
 10
94.71142170620419
 20
166.6789511264609
 30
0.0
 10
97.21142170620419
 20
166.6789511264609
 30
0.0
340
2541
213
1.177601578005123
223
-0.1753245211093599
233
0.0
1001
ACAD
1000
DSTYLE
1002
{
1070
   147
1040
0.625
1070
    77
1070
     1
1002
}
  0
MTEXT
  5
2541
102
{ACAD_XDICTIONARY
360
2A36
102
}
102
{ACAD_REACTORS
330
2540
102
}
330
1F
100
AcDbEntity
  8
SOLBET_Wymiary_Opisy
100
AcDbMText
 10
96.65882012819906
 20
170.7292756475702
 30
0.0
 40
2.5
 41
0.0
 71
     1
 72
     1
  1
Skrzynka RKS na rolet\U+0119
  7
Solbet_2_5
 73
     1
 44
1.0
1001
ACAD
1000
MTEXTBEGIN
1070
    73
1070
     1
1070
    44
1040
1.0
1070
    74
1070
     0
1000
MTEXTEND
  0
MTEXT
  5
2543
330
1F
100
AcDbEntity
  8
SOLBET_Wymiary_Opisy
100
AcDbMText
 10
23.85413793964176
 20
231.2143423684664
 30
0.0
 40
2.5
 41
0.0
 71
     1
 72
     1
  1
Zbrojenie MURFOR
  7
Solbet_2_5
 73
     1
 44
1.0
1001
ACAD
1000
MTEXTBEGIN
1070
    73
1070
     1
1070
    44
1040
1.0
1070
    74
1070
     0
1000
MTEXTEND
  0
LEADER
  5
2544
330
1F
100
AcDbEntity
  8
SOLBET_Wymiary_Opisy
100
AcDbLeader
  3
Solbet$7
 73
     0
 75
     1
 40
3.25
 41
31.0
 76
     3
 10
72.53562140769441
 20
205.6302596928215
 30
0.0
 10
55.35559669331587
 20
216.3301194668512
 30
0.0
 10
52.85559669331587
 20
216.3301194668512
 30
0.0
340
2545
213
1.177601578005123
223
-0.1753245211093599
233
0.0
1001
ACAD
1000
DSTYLE
1002
{
1070
   147
1040
0.625
1070
    77
1070
     1
1002
}
  0
MTEXT
  5
2545
102
{ACAD_REACTORS
330
2544
102
}
330
1F
100
AcDbEntity
  8
SOLBET_Wymiary_Opisy
100
AcDbMText
 10
20.05299511531075
 20
220.3804439879606
 30
0.0
 40
2.5
 41
0.0
 71
     1
 72
     1
  1
Warstwa docieplenia
  7
Solbet_2_5
 73
     1
 44
1.0
1001
ACAD
1000
MTEXTBEGIN
1070
    73
1070
     1
1070
    44
1040
1.0
1070
    74
1070
     0
1000
MTEXTEND
  0
LEADER
  5
2546
330
1F
100
AcDbEntity
  8
SOLBET_Wymiary_Opisy
100
AcDbLeader
  3
Solbet$7
 73
     0
 75
     1
 40
3.25
 41
23.25
 76
     3
 10
69.48581325007274
 20
199.872669184158
 30
0.0
 10
55.42591524910449
 20
206.739456260418
 30
0.0
 10
52.92591524910449
 20
206.739456260418
 30
0.0
340
2547
213
1.177601578005123
223
-0.1753245211093599
233
0.0
1001
ACAD
1000
DSTYLE
1002
{
1070
   147
1040
0.625
1070
    77
1070
     1
1002
}
  0
MTEXT
  5
2547
102
{ACAD_XDICTIONARY
360
2A38
102
}
102
{ACAD_REACTORS
330
2546
102
}
330
1F
100
AcDbEntity
  8
SOLBET_Wymiary_Opisy
100
AcDbMText
 10
27.87331367109937
 20
210.7897807815274
 30
0.0
 40
2.5
 41
0.0
 71
     1
 72
     1
  1
P\U+0142ytka SOLBET
  7
Solbet_2_5
 73
     1
 44
1.0
1001
ACAD
1000
MTEXTBEGIN
1070
    73
1070
     1
1070
    44
1040
1.0
1070
    74
1070
     0
1000
MTEXTEND
  0
LEADER
  5
2548
330
1F
100
AcDbEntity
  8
SOLBET_Wymiary_Opisy
100
AcDbLeader
  3
Solbet$7
 73
     0
 75
     1
 40
2.501893939393939
 41
31.25
 76
     3
 10
69.62362059534621
 20
186.4995085478391
 30
0.0
 10
56.07868368922982
 20
196.1208493179385
 30
0.0
 10
53.57868368922982
 20
196.1208493179385
 30
0.0
340
2549
213
1.177601578005123
223
-0.1753245211093599
233
0.0
1001
ACAD
1000
DSTYLE
1002
{
1070
   147
1040
0.625
1070
    77
1070
     1
1002
}
  0
MTEXT
  5
2549
102
{ACAD_XDICTIONARY
360
2A3A
102
}
102
{ACAD_REACTORS
330
2548
102
}
330
1F
100
AcDbEntity
  8
SOLBET_Wymiary_Opisy
100
AcDbMText
 10
20.52608211122469
 20
199.4230677784418
 30
0.0
 40
2.5
 41
0.0
 71
     1
 72
     1
  1
Kszta\U+0142tka U SOLBET
  7
Solbet_2_5
 73
     1
 44
1.0
1001
ACAD
1000
MTEXTBEGIN
1070
    73
1070
     1
1070
    44
1040
1.0
1070
    74
1070
     0
1000
MTEXTEND
  0
MTEXT
  5
254B
102
{ACAD_XDICTIONARY
360
2A3C
102
}
330
1F
100
AcDbEntity
  8
SOLBET_Wymiary_Opisy
100
AcDbMText
 10
16.9540587729989
 20
163.3224699285883
 30
0.0
 40
2.5
 41
0.0
 71
     1
 72
     1
  1
Profil tynkarski naro\U+017Cny
  7
Solbet_2_5
 73
     1
 44
1.0
1001
ACAD
1000
MTEXTBEGIN
1070
    73
1070
     1
1070
    44
1040
1.0
1070
    74
1070
     0
1000
MTEXTEND
  0
LEADER
  5
254C
330
1F
100
AcDbEntity
  8
SOLBET_Wymiary_Opisy
100
AcDbLeader
  3
Solbet$7
 73
     0
 75
     1
 40
3.25
 41
27.0
 76
     3
 10
71.05307214918525
 20
176.8611054266045
 30
0.0
 10
55.9259987251919
 20
184.5388448768266
 30
0.0
 10
53.4259987251919
 20
184.5388448768266
 30
0.0
340
254D
213
1.177601578005123
223
-0.1753245211093599
233
0.0
1001
ACAD
1000
DSTYLE
1002
{
1070
   147
1040
0.625
1070
    77
1070
     1
1002
}
  0
MTEXT
  5
254D
102
{ACAD_XDICTIONARY
360
2A3E
102
}
102
{ACAD_REACTORS
330
254C
102
}
330
1F
100
AcDbEntity
  8
SOLBET_Wymiary_Opisy
100
AcDbMText
 10
24.62339714718678
 20
188.589169397936
 30
0.0
 40
2.5
 41
0.0
 71
     1
 72
     1
  1
Nadpro\U+017Ce SOLBET
  7
Solbet_2_5
 73
     1
 44
1.0
1001
ACAD
1000
MTEXTBEGIN
1070
    73
1070
     1
1070
    44
1040
1.0
1070
    74
1070
     0
1000
MTEXTEND
  0
LINE
  5
2551
330
1F
100
AcDbEntity
  8
SOLBET_Wymiary_Opisy
100
AcDbLine
 10
55.40673951764688
 20
227.1640178473571
 30
0.0
 11
25.03173951764689
 21
227.1640178473571
 31
0.0
1001
ACAD
1000
DSTYLE
1002
{
1070
   147
1040
0.625
1070
    77
1070
     1
1002
}
  0
INSERT
  5
2552
330
1F
100
AcDbEntity
  8
SOLBET_Wymiary_Opisy
100
AcDbBlockReference
  2
_DotSmall
 10
81.07226591012073
 20
208.5971760206563
 30
0.0
 41
2.499999999999997
 42
2.5
 43
2.5
 50
317.647299833815
1001
ACAD
1000
DSTYLE
1002
{
1070
   147
1040
0.625
1070
    77
1070
     1
1002
}
  0
LINE
  5
2553
330
1F
100
AcDbEntity
  8
SOLBET_Wymiary_Opisy
100
AcDbLine
 10
81.07226591012073
 20
208.5640608273814
 30
0.0
 11
55.40673951764688
 21
227.1640178473571
 31
0.0
1001
ACAD
1000
DSTYLE
1002
{
1070
   147
1040
0.625
1070
    77
1070
     1
1002
}
  0
INSERT
  5
2564
330
1F
100
AcDbEntity
  8
SOLBET_Wymiary_Opisy
100
AcDbBlockReference
  2
_DotSmall
 10
67.26671759330861
 20
171.9560419325963
 30
0.0
 41
2.500000000000001
 42
2.5
 43
2.5
 50
84.36948007618493
1001
ACAD
1000
DSTYLE
1002
{
1070
   147
1040
0.625
1070
    77
1070
     1
1002
}
  0
LINE
  5
2566
330
1F
100
AcDbEntity
  8
SOLBET_Wymiary_Opisy
100
AcDbLine
 10
67.26671759330861
 20
171.9560419325963
 30
0.0
 11
55.4067395176469
 21
159.272145407479
 31
0.0
1001
ACAD
1000
DSTYLE
1002
{
1070
   147
1040
0.625
1070
    77
1070
     1
1002
}
  0
LINE
  5
2567
330
1F
100
AcDbEntity
  8
SOLBET_Wymiary_Opisy
100
AcDbLine
 10
55.4067395176469
 20
159.272145407479
 30
0.0
 11
16.95405877299891
 21
159.272145407479
 31
0.0
1001
ACAD
1000
DSTYLE
1002
{
1070
   147
1040
0.625
1070
    77
1070
     1
1002
}
  0
INSERT
  5
2568
330
1F
100
AcDbEntity
  8
SOLBET_Wymiary_Opisy
100
AcDbBlockReference
  2
_DotSmall
 10
88.77162602602698
 20
171.9560419325963
 30
0.0
 41
2.500000000000001
 42
2.5
 43
2.5
 50
84.36948007618493
1001
ACAD
1000
DSTYLE
1002
{
1070
   147
1040
0.625
1070
    77
1070
     1
1002
}
  0
LINE
  5
2569
330
1F
100
AcDbEntity
  8
SOLBET_Wymiary_Opisy
100
AcDbLine
 10
88.77162602602698
 20
171.9560419325963
 30
0.0
 11
55.4067395176469
 21
159.272145407479
 31
0.0
1001
ACAD
1000
DSTYLE
1002
{
1070
   147
1040
0.625
1070
    77
1070
     1
1002
}
  0
DIMENSION
  5
256A
102
{ACAD_XDICTIONARY
360
2578
102
}
102
{ACAD_REACTORS
330
2583
102
}
330
1F
100
AcDbEntity
  8
SOLBET_Wymiary_Opisy
100
AcDbDimension
  2
*D14
 10
112.5073426916119
 20
37.8576312925456
 30
0.0
 11
110.6313957219149
 21
47.98263129254562
 31
0.0
 70
    32
  1
max 12cm
 71
     5
 42
6.75
  3
Solbet
100
AcDbAlignedDimension
 13
111.7889123449354
 23
31.1076312925456
 33
0.0
 14
94.77388715236044
 24
37.85763129254561
 34
0.0
 50
90.0
100
AcDbRotatedDimension
  0
MTEXT
  5
258F
102
{ACAD_XDICTIONARY
360
2A40
102
}
330
1F
100
AcDbEntity
  8
SOLBET_Wymiary_Opisy
100
AcDbMText
 10
61.95871155652503
 20
49.11901707041081
 30
0.0
 40
2.5
 41
0.0
 71
     1
 72
     1
  1
Profil tynkarski naro\U+017Cny
  7
Solbet_2_5
 73
     1
 44
1.0
1001
ACAD
1000
MTEXTBEGIN
1070
    73
1070
     1
1070
    44
1040
1.0
1070
    74
1070
     0
1000
MTEXTEND
  0
LEADER
  5
2590
330
1F
100
AcDbEntity
  8
SOLBET_Wymiary_Opisy
100
AcDbLeader
  3
Solbet$7
 73
     0
 40
3.25
 41
27.5
 76
     2
 10
107.1771121062952
 20
31.3362257931891
 30
0.0
 10
71.64771694230058
 20
26.72166307062457
 30
0.0
340
2591
213
1.177601578005123
223
-0.1753245211093599
233
0.0
1001
ACAD
1000
DSTYLE
1002
{
1070
   147
1040
0.625
1070
    77
1070
     1
1002
}
  0
MTEXT
  5
2591
102
{ACAD_REACTORS
330
2590
102
}
330
1F
100
AcDbEntity
  8
SOLBET_Wymiary_Opisy
100
AcDbMText
 10
42.34511536429545
 20
30.77198759173394
 30
0.0
 40
2.5
 41
0.0
 71
     1
 72
     1
  1
Prowadnica rolety
  7
Solbet_2_5
 73
     1
 44
1.0
1001
ACAD
1000
MTEXTBEGIN
1070
    73
1070
     1
1070
    44
1040
1.0
1070
    74
1070
     0
1000
MTEXTEND
  0
LEADER
  5
2592
330
1F
100
AcDbEntity
  8
SOLBET_Wymiary_Opisy
100
AcDbLeader
  3
Solbet$7
 73
     0
 40
2.5
 41
20.0
 76
     2
 10
108.2251197040114
 20
27.26674791483106
 30
0.0
 10
72.23432788369564
 20
19.17899540894245
 30
0.0
340
2593
213
1.177601578005123
223
-0.1753245211093599
233
0.0
1001
ACAD
1000
DSTYLE
1002
{
1070
   147
1040
0.625
1070
    77
1070
     1
1002
}
  0
MTEXT
  5
2593
102
{ACAD_REACTORS
330
2592
102
}
330
1F
100
AcDbEntity
  8
SOLBET_Wymiary_Opisy
100
AcDbMText
 10
50.43172630569052
 20
22.47931993005181
 30
0.0
 40
2.5
 41
0.0
 71
     1
 72
     1
  1
Uszczelnienie
  7
Solbet_2_5
 73
     1
 44
1.0
1001
ACAD
1000
MTEXTBEGIN
1070
    73
1070
     1
1070
    44
1040
1.0
1070
    74
1070
     0
1000
MTEXTEND
  0
INSERT
  5
2594
330
1F
100
AcDbEntity
  8
SOLBET_Wymiary_Opisy
100
AcDbBlockReference
  2
_DotSmall
 10
108.3883865585235
 20
37.39095309907938
 30
0.0
 41
2.500000000000026
 42
2.5
 43
2.5
 50
299.6874316571434
1001
ACAD
1000
DSTYLE
1002
{
1070
   147
1040
0.625
1070
    77
1070
     1
1002
}
  0
LINE
  5
2596
330
1F
100
AcDbEntity
  8
SOLBET_Wymiary_Opisy
100
AcDbLine
 10
108.3883865585235
 20
37.39095309907938
 30
0.0
 11
104.0113131345301
 21
45.06869254930146
 31
0.0
1001
ACAD
1000
DSTYLE
1002
{
1070
   147
1040
0.625
1070
    77
1070
     1
1002
}
  0
LINE
  5
2597
330
1F
100
AcDbEntity
  8
SOLBET_Wymiary_Opisy
100
AcDbLine
 10
104.0113131345301
 20
45.06869254930146
 30
0.0
 11
63.13631313453015
 21
45.06869254930146
 31
0.0
1001
ACAD
1000
DSTYLE
1002
{
1070
   147
1040
0.625
1070
    77
1070
     1
1002
}
  0
INSERT
  5
2598
330
1F
100
AcDbEntity
  8
SOLBET_Wymiary_Opisy
100
AcDbBlockReference
  2
_DotSmall
 10
108.3883865585235
 20
15.96941788595937
 30
0.0
 41
2.500000000000026
 42
2.5
 43
2.5
 50
299.6874316571434
1001
ACAD
1000
DSTYLE
1002
{
1070
   147
1040
0.625
1070
    77
1070
     1
1002
}
  0
LINE
  5
2599
330
1F
100
AcDbEntity
  8
SOLBET_Wymiary_Opisy
100
AcDbLine
 10
108.3883865585235
 20
15.96941788595937
 30
0.0
 11
104.0113131345301
 21
45.06869254930146
 31
0.0
1001
ACAD
1000
DSTYLE
1002
{
1070
   147
1040
0.625
1070
    77
1070
     1
1002
}
  0
LEADER
  5
25BA
330
1F
100
AcDbEntity
  8
SOLBET_Wymiary_Opisy
100
AcDbLeader
  3
Solbet$7
 73
     0
 74
     0
 75
     1
 40
3.5
 41
37.25
 76
     3
 10
258.5072694893768
 20
244.0405000781602
 30
0.0
 10
283.2088531095185
 20
253.1601047988347
 30
0.0
 10
285.7088531095185
 20
253.1601047988347
 30
0.0
213
1.177601578005123
223
-0.1753245211093599
233
0.0
1001
ACAD
1000
DSTYLE
1002
{
1070
   147
1040
0.625
1070
    77
1070
     1
1002
}
  0
MTEXT
  5
25BB
102
{ACAD_XDICTIONARY
360
2A42
102
}
102
{ACAD_REACTORS
330
25BA
102
}
330
1F
100
AcDbEntity
  8
SOLBET_Wymiary_Opisy
100
AcDbMText
 10
285.1562515315134
 20
257.4604293199441
 30
0.0
 40
2.5
 41
0.0
 71
     1
 72
     1
  1
Warstwa wyko\U+0144czeniowa
  7
Solbet_2_5
 73
     1
 44
1.0
1001
ACAD
1000
MTEXTBEGIN
1070
    73
1070
     1
1070
    44
1040
1.0
1070
    74
1070
     0
1000
MTEXTEND
  0
LEADER
  5
25BC
330
1F
100
AcDbEntity
  8
SOLBET_Wymiary_Opisy
100
AcDbLeader
  3
Solbet$7
 73
     0
 74
     0
 75
     1
 40
3.25
 41
32.5
 76
     3
 10
259.0655379984839
 20
236.2743812617414
 30
0.0
 10
283.2967578750884
 20
246.918898268244
 30
0.0
 10
285.7967578750884
 20
246.918898268244
 30
0.0
213
0.0
223
-0.2322806831707567
233
0.0
1001
ACAD
1000
DSTYLE
1002
{
1070
   147
1040
0.625
1070
    77
1070
     1
1002
}
  0
MTEXT
  5
25BD
102
{ACAD_REACTORS
330
25BC
102
}
330
1F
100
AcDbEntity
  8
SOLBET_Wymiary_Opisy
100
AcDbMText
 10
285.1562515315134
 20
251.0261789514148
 30
0.0
 40
2.5
 41
0.0
 71
     1
 72
     1
  1
Wylewka jastrychowa
  7
Solbet_2_5
 73
     1
 44
1.0
1001
ACAD
1000
MTEXTBEGIN
1070
    73
1070
     1
1070
    44
1040
1.0
1070
    74
1070
     0
1000
MTEXTEND
  0
LEADER
  5
25BE
330
1F
100
AcDbEntity
  8
SOLBET_Wymiary_Opisy
100
AcDbLeader
  3
Solbet$7
 73
     0
 74
     0
 75
     1
 40
3.25
 41
19.75
 76
     3
 10
261.1040868321832
 20
229.3807215620515
 30
0.0
 10
283.0306212994283
 20
240.6837411894662
 30
0.0
 10
285.5306212994283
 20
240.6837411894662
 30
0.0
213
0.0
223
-0.2322806831707567
233
0.0
1001
ACAD
1000
DSTYLE
1002
{
1070
   147
1040
0.625
1070
    77
1070
     1
1002
}
  0
MTEXT
  5
25BF
102
{ACAD_REACTORS
330
25BE
102
}
330
1F
100
AcDbEntity
  8
SOLBET_Wymiary_Opisy
100
AcDbMText
 10
285.1562515315134
 20
244.791021872637
 30
0.0
 40
2.5
 41
0.0
 71
     1
 72
     1
  1
Hydroizolacja
  7
Solbet_2_5
 73
     1
 44
1.0
1001
ACAD
1000
MTEXTBEGIN
1070
    73
1070
     1
1070
    44
1040
1.0
1070
    74
1070
     0
1000
MTEXTEND
  0
LEADER
  5
25C0
330
1F
100
AcDbEntity
  8
SOLBET_Wymiary_Opisy
100
AcDbLeader
  3
Solbet$7
 73
     0
 74
     0
 75
     1
 40
3.25
 41
36.5
 76
     3
 10
265.5895577970916
 20
218.6040032004905
 30
0.0
 10
283.2302237311735
 20
230.7498191632315
 30
0.0
 10
285.7302237311735
 20
230.7498191632315
 30
0.0
213
0.0
223
-0.2322806831707567
233
0.0
1001
ACAD
1000
DSTYLE
1002
{
1070
   147
1040
0.625
1070
    77
1070
     1
1002
}
  0
MTEXT
  5
25C1
102
{ACAD_XDICTIONARY
360
2A44
102
}
102
{ACAD_REACTORS
330
25C0
102
}
330
1F
100
AcDbEntity
  8
SOLBET_Wymiary_Opisy
100
AcDbMText
 10
285.1562515315134
 20
235.0690787537001
 30
0.0
 40
2.5
 41
0.0
 71
     1
 72
     1
  1
P\U+0142yty izolacyjne twarde
  7
Solbet_2_5
 73
     1
 44
1.0
1001
ACAD
1000
MTEXTBEGIN
1070
    73
1070
     1
1070
    44
1040
1.0
1070
    74
1070
     0
1000
MTEXTEND
  0
LINE
  5
25C2
330
1F
100
AcDbEntity
  8
SOLBET_Wymiary_Opisy
100
AcDbLine
 10
271.1258281353919
 20
245.2680591619671
 30
0.0
 11
271.1258281353919
 21
190.3036074552082
 31
0.0
  0
LINE
  5
25C3
330
1F
100
AcDbEntity
  8
SOLBET_Izolacja
100
AcDbLine
 10
227.2394821957858
 20
215.901524994191
 30
0.0
 11
271.1258281353919
 21
215.901524994191
 31
0.0
  0
LINE
  5
25C4
330
1F
100
AcDbEntity
  8
SOLBET_Izolacja
100
AcDbLine
 10
227.2394821957858
 20
228.401524994191
 30
0.0
 11
271.1258281353919
 21
228.401524994191
 31
0.0
  0
LINE
  5
25C5
330
1F
100
AcDbEntity
  8
SOLBET_Tynki_Posadzki
100
AcDbLine
 10
235.8546750578369
 20
245.2680591619671
 30
0.0
 11
271.1258281353919
 21
245.2680591619671
 31
0.0
  0
LINE
  5
25C6
330
1F
100
AcDbEntity
  8
SOLBET_Emulsje_Folie
100
AcDbLine
 10
227.4397436918268
 20
229.3807215620515
 30
0.0
 11
271.1258281353919
 21
229.3807215620515
 31
0.0
  0
HATCH
  5
25C7
330
1F
100
AcDbEntity
  8
SOLBET_Tynki_Posadzki
100
AcDbHatch
 10
0.0
 20
0.0
 30
0.0
210
0.0
220
0.0
230
1.0
  2
AR-CONC
 70
     0
 71
     0
 91
        1
 92
        5
 93
        4
 72
     2
 10
260.2934839517436
 20
222.1515249941912
 40
33.63970172404727
 50
142.2031821742316
 51
166.0379938227853
 73
     1
 72
     1
 10
227.6476357442582
 20
230.268059161968
 11
271.1258281353916
 21
230.268059161968
 72
     1
 10
271.1258281353919
 20
230.268059161968
 11
271.1258281353924
 21
242.7680591619669
 72
     1
 10
271.1258281353924
 20
242.7680591619669
 11
233.7117599483651
 21
242.7680591619669
 97
        0
 75
     0
 76
     1
 52
0.0
 41
0.03
 77
     0
 78
    13
 53
50.0
 43
897.2216790721475
 44
145.0195062154534
 45
5.46554006988012
 46
-0.4781725661670926
 79
     2
 49
0.5715
 49
-6.2865
 53
355.0
 43
897.2216790721475
 44
145.0195062154534
 45
-1.057284779270009
 46
5.731699286465398
 79
     2
 49
0.4572
 49
-5.029199999999999
 53
100.451
 43
897.6771390721474
 44
144.9796587154534
 45
4.408275049978777
 46
5.253500634608755
 79
     2
 49
0.4857000000000001
 49
-5.342699999999999
 53
46.1842
 43
897.2216790721475
 44
146.5435062154535
 45
8.132371226763897
 46
-1.261269837981814
 79
     2
 49
0.8572499999999999
 49
-9.429749999999998
 53
96.6356
 43
897.8993760721474
 44
146.4384012154534
 45
7.122127033987114
 46
7.422766676701476
 79
     2
 49
0.7285500000000001
 49
-8.014049999999999
 53
351.184
 43
897.2216790721475
 44
146.5435062154535
 45
7.122138174418017
 46
7.422753535817929
 79
     2
 49
0.6858
 49
-7.5438
 53
21.0
 43
897.9836790721474
 44
146.1625062154535
 45
4.548446395061498
 46
-3.067965555502874
 79
     2
 49
0.5715
 49
-6.2865
 53
326.0
 43
897.9836790721474
 44
146.1625062154535
 45
1.854060850429411
 46
5.525638983669577
 79
     2
 49
0.4572
 49
-5.029199999999999
 53
71.45140000000001
 43
898.3627140721473
 44
145.9068432154535
 45
6.402494723103733
 46
2.457685731481723
 79
     2
 49
0.4857000000000001
 49
-5.342699999999999
 53
37.5
 43
897.2216790721475
 44
145.0195062154534
 45
0.0926580975177545
 46
2.536651166194593
 79
     6
 49
0.0
 49
-4.968239999999999
 49
0.0
 49
-5.1054
 49
0.0
 49
-5.04825
 53
7.499999999999999
 43
897.2216790721475
 44
145.0195062154534
 45
2.004589875309172
 46
3.005417244543585
 79
     6
 49
0.0
 49
-2.910839999999999
 49
0.0
 49
-4.853939999999999
 49
0.0
 49
-1.92405
 53
327.5
 43
895.5224190721473
 44
145.0195062154534
 45
4.067717855006141
 46
-0.1718623197802037
 79
     6
 49
0.0
 49
-1.905
 49
0.0
 49
-5.943599999999999
 49
0.0
 49
-7.886699999999999
 53
317.5
 43
894.7604190721474
 44
145.0195062154534
 45
4.443875441580541
 46
0.7627947309999904
 79
     6
 49
0.0
 49
-2.476499999999999
 49
0.0
 49
-3.947159999999999
 49
0.0
 49
-5.600699999999999
 47
0.0387476598051738
 98
        1
 10
250.5962724959356
 20
236.3655974595819
1001
ACAD
1010
0.0
1020
0.0
1030
0.0
  0
LWPOLYLINE
  5
25C8
330
1F
100
AcDbEntity
  8
SOLBET_Tynki_Posadzki
100
AcDbPolyline
 90
        4
 70
     0
 43
0.0
 10
227.6476357442582
 20
230.268059161968
 10
271.1258281353919
 20
230.268059161968
 10
271.1258281353924
 20
242.7680591619671
 10
233.7117599483656
 20
242.7680591619671
1001
ASO_SCHRAFF
1005
0
1070
     1
1002
{
1070
     1
1005
0
1002
}
1002
{
1070
     2
1005
0
1002
}
1002
{
1070
     4
1000
AR-CONC
1040
0.01
1040
0.0
1070
     0
1000
T__SCHR
1070
   256
1000
_bylayer
1040
50.0
1070
     1
1002
}
  0
LINE
  5
25CA
330
1F
100
AcDbEntity
  8
SOLBET_Izolacja
  6
BATTING
 48
0.6
100
AcDbLine
 10
226.6537822276966
 20
222.151524994191
 30
0.0
 11
271.1258281353919
 21
222.151524994191
 31
0.0
  0
ARC
  5
25CB
330
1F
100
AcDbEntity
  8
SOLBET_Wymiary_Opisy
100
AcDbCircle
 10
260.2934839517436
 20
222.151524994191
 30
0.0
 40
33.6397017240473
100
AcDbArc
 50
136.5926968744823
 51
288.7845676764009
  0
MTEXT
  5
25CC
102
{ACAD_XDICTIONARY
360
28D7
102
}
330
1F
100
AcDbEntity
  8
SOLBET_Wymiary_Opisy
100
AcDbMText
 10
236.5224825855241
 20
273.9343734920613
 30
0.0
 40
5.0
 41
30.77919768571883
 71
     1
 72
     5
  1
\pxqc;B\P(5 : 1)
  7
Solbet_5
 73
     1
 44
1.0
1001
ACAD
1000
MTEXTBEGIN
1070
    73
1070
     1
1070
    44
1040
1.0
1070
    74
1070
     0
1000
MTEXTEND
1000
ACAD_MTEXT_DEFINED_HEIGHT_BEGIN
1070
    46
1040
23.42535011036716
1000
ACAD_MTEXT_DEFINED_HEIGHT_END
  0
CIRCLE
  5
25D1
330
1F
100
AcDbEntity
  8
SOLBET_Wymiary_Opisy
100
AcDbCircle
 10
145.038463102803
 20
210.6043875710608
 30
0.0
 40
6.72794034480946
  0
LEADER
  5
25D2
330
1F
100
AcDbEntity
  8
SOLBET_Wymiary_Opisy
100
AcDbLeader
  3
Solbet$7
 73
     0
 74
     0
 75
     1
 40
5.0
 41
4.0
 76
     3
 10
148.6600367729199
 20
216.2744303782387
 30
0.0
 10
151.6311869737364
 20
220.2729171172826
 30
0.0
 10
154.1311869737365
 20
220.2729171172826
 30
0.0
213
0.8103787685154202
223
-0.1753245211093599
233
0.0
1001
ACAD
1000
DSTYLE
1002
{
1070
   341
1005
1EF2
1070
   147
1040
0.625
1070
    77
1070
     1
1002
}
  0
MTEXT
  5
25D3
102
{ACAD_REACTORS
330
25D2
102
}
330
1F
100
AcDbEntity
  8
SOLBET_Wymiary_Opisy
100
AcDbMText
 10
157.945808205221
 20
226.073241638392
 30
0.0
 40
5.0
 41
0.0
 71
     3
 72
     1
  1
B
  7
Solbet_5
 73
     1
 44
1.0
1001
ACAD
1000
MTEXTBEGIN
1070
    73
1070
     1
1070
    44
1040
1.0
1070
    74
1070
     0
1000
MTEXTEND
  0
LEADER
  5
25DE
330
1F
100
AcDbEntity
  8
SOLBET_Wymiary_Opisy
100
AcDbLeader
  3
Solbet$7
 73
     0
 74
     0
 75
     1
 40
3.25
 41
20.25
 76
     3
 10
115.3061395809902
 20
195.5028997109467
 30
0.0
 10
150.7809935255427
 20
160.0492032445547
 30
0.0
 10
153.2809935255427
 20
160.0492032445547
 30
0.0
340
25DF
213
1.177601578005123
223
-0.1753245211093599
233
0.0
1001
ACAD
1000
DSTYLE
1002
{
1070
   147
1040
0.625
1070
    77
1070
     1
1002
}
  0
MTEXT
  5
25DF
102
{ACAD_REACTORS
330
25DE
102
}
330
1F
100
AcDbEntity
  8
SOLBET_Wymiary_Opisy
100
AcDbMText
 10
172.9783919475376
 20
164.0995277656641
 30
0.0
 40
2.5
 41
0.0
 71
     3
 72
     1
  1
Tynk SOLBET
  7
Solbet_2_5
 73
     1
 44
1.0
1001
ACAD
1000
MTEXTBEGIN
1070
    73
1070
     1
1070
    44
1040
1.0
1070
    74
1070
     0
1000
MTEXTEND
  0
LEADER
  5
25E0
330
1F
100
AcDbEntity
  8
SOLBET_Wymiary_Opisy
100
AcDbLeader
  3
Solbet$7
 73
     0
 74
     0
 75
     1
 40
3.25
 41
19.5
 76
     3
 10
125.9803329870221
 20
204.5028997109464
 30
0.0
 10
151.2581634207934
 20
173.0098550804978
 30
0.0
 10
153.7581634207934
 20
173.0098550804978
 30
0.0
340
25E1
213
1.177601578005123
223
-0.1753245211093599
233
0.0
1001
ACAD
1000
DSTYLE
1002
{
1070
   147
1040
0.625
1070
    77
1070
     1
1002
}
  0
MTEXT
  5
25E1
102
{ACAD_REACTORS
330
25E0
102
}
330
1F
100
AcDbEntity
  8
SOLBET_Wymiary_Opisy
100
AcDbMText
 10
172.7055618427882
 20
177.0601796016071
 30
0.0
 40
2.5
 41
0.0
 71
     3
 72
     1
  1
Strop Teriva
  7
Solbet_2_5
 73
     1
 44
1.0
1001
ACAD
1000
MTEXTBEGIN
1070
    73
1070
     1
1070
    44
1040
1.0
1070
    74
1070
     0
1000
MTEXTEND
  0
CIRCLE
  5
2607
330
1F
100
AcDbEntity
  8
SOLBET_Wymiary_Opisy
100
AcDbCircle
 10
78.22070206567037
 20
83.36956540907817
 30
0.0
 40
12.75985848300672
  0
LINE
  5
2608
330
1F
100
AcDbEntity
  8
SOLBET_Wymiary_Opisy
100
AcDbLine
 10
65.62875411601851
 20
85.43277536921753
 30
0.0
 11
57.00919169908411
 21
94.09259756909216
 31
0.0
1001
ACAD
1000
DSTYLE
1002
{
1070
   341
1005
0
1070
   147
1040
0.625
1070
    77
1070
     1
1002
}
  0
LINE
  5
2609
330
1F
100
AcDbEntity
  8
SOLBET_Wymiary_Opisy
100
AcDbLine
 10
49.88419169908411
 20
94.09259756909216
 30
0.0
 11
57.00919169908411
 21
94.09259756909216
 31
0.0
1001
ACAD
1000
DSTYLE
1002
{
1070
   341
1005
0
1070
   147
1040
0.625
1070
    77
1070
     1
1002
}
  0
MTEXT
  5
260A
330
1F
100
AcDbEntity
  8
SOLBET_Wymiary_Opisy
100
AcDbMText
 10
55.7309095214623
 20
100.5302029996924
 30
0.0
 40
5.0
 41
0.0
 71
     3
 72
     1
  1
A
  7
Solbet_5
 73
     1
 44
1.0
1001
ACAD
1000
MTEXTBEGIN
1070
    73
1070
     1
1070
    44
1040
1.0
1070
    74
1070
     0
1000
MTEXTEND
  0
INSERT
  5
260B
330
1F
100
AcDbEntity
  8
SOLBET_Zbrojenie_Konstrukcja
100
AcDbBlockReference
  2
*U4
 10
-929.783201035824
 20
-499.0492860533743
 30
0.0
 41
150.0
 42
150.0
 43
150.0
1001
ASO_SCHRAFF
1005
0
1070
     0
1005
0
  0
LINE
  5
260C
330
1F
100
AcDbEntity
  8
SOLBET_Zaprawy
100
AcDbLine
 10
242.9276652370456
 20
86.03901881705315
 30
0.0
 11
242.9276652370456
 21
123.3810563255903
 31
0.0
  0
LINE
  5
260D
330
1F
100
AcDbEntity
  8
SOLBET_Tynki_Posadzki
100
AcDbLine
 10
241.5276306566068
 20
88.80167602867372
 30
0.0
 11
241.5276306566068
 21
120.6183991139704
 31
0.0
  0
LINE
  5
260E
330
1F
100
AcDbEntity
  8
SOLBET_Tynki_Posadzki
100
AcDbLine
 10
308.2776306566068
 20
125.820074466381
 30
0.0
 11
308.2776306566059
 21
83.60000067626243
 31
0.0
  0
INSERT
  5
260F
330
1F
100
AcDbEntity
  8
SOLBET_Zbrojenie_Konstrukcja
100
AcDbBlockReference
  2
*U9
 10
-1651.426715657965
 20
-928.4495648725949
 30
0.0
 41
150.0
 42
150.0
 43
150.0
1001
ASO_SCHRAFF
1005
2355
1070
     0
1005
2271
  0
LWPOLYLINE
  5
2613
330
1F
100
AcDbEntity
  8
SOLBET_Bloczki
100
AcDbPolyline
 90
        4
 70
     0
 43
0.0
 10
306.7776309921594
 20
127.9303196146035
 10
306.7776310788547
 20
123.6186240282302
 10
243.7776310788547
 20
123.6186240282302
 10
243.7776310788547
 20
124.8269882137833
  0
ARC
  5
2614
330
1F
100
AcDbEntity
  8
SOLBET_Wymiary_Opisy
100
AcDbCircle
 10
276.345010362518
 20
104.7100375713221
 30
0.0
 40
38.27957544901983
100
AcDbArc
 50
33.46791863376171
 51
155.4439297375109
  0
ARC
  5
2618
330
1F
100
AcDbEntity
  8
SOLBET_Wymiary_Opisy
100
AcDbCircle
 10
276.345010362518
 20
104.7100375713221
 30
0.0
 40
38.27957544901983
100
AcDbArc
 50
204.5560702624889
 51
326.5320813662376
  0
MTEXT
  5
261A
330
1F
100
AcDbEntity
  8
SOLBET_Wymiary_Opisy
100
AcDbMText
 10
296.8874536904607
 20
143.5064195851474
 30
0.0
 40
2.5
 41
0.0
 71
     1
 72
     1
  1
Zbrojenie MURFOR
  7
Solbet_2_5
 73
     1
 44
1.0
1001
ACAD
1000
MTEXTBEGIN
1070
    73
1070
     1
1070
    44
1040
1.0
1070
    74
1070
     0
1000
MTEXTEND
  0
LEADER
  5
261B
330
1F
100
AcDbEntity
  8
SOLBET_Wymiary_Opisy
100
AcDbLeader
  3
Solbet$7
 73
     0
 75
     1
 40
3.25
 41
39.25
 76
     3
 10
241.5276306566068
 20
116.1686799262384
 30
0.0
 10
231.8930038961878
 20
124.2184255174655
 30
0.0
 10
229.3930038961878
 20
124.2184255174655
 30
0.0
340
261C
213
1.177601578005123
223
-0.1753245211093599
233
0.0
1001
ACAD
1000
DSTYLE
1002
{
1070
   147
1040
0.625
1070
    77
1070
     1
1002
}
  0
MTEXT
  5
261C
102
{ACAD_XDICTIONARY
360
2A46
102
}
102
{ACAD_REACTORS
330
261B
102
}
330
1F
100
AcDbEntity
  8
SOLBET_Wymiary_Opisy
100
AcDbMText
 10
188.3404023181826
 20
128.2687500385749
 30
0.0
 40
2.5
 41
0.0
 71
     1
 72
     1
  1
Tynk zewn\U+0119trzny SOLBET 
  7
Solbet_2_5
 73
     1
 44
1.0
1001
ACAD
1000
MTEXTBEGIN
1070
    73
1070
     1
1070
    44
1040
1.0
1070
    74
1070
     0
1000
MTEXTEND
  0
LEADER
  5
261D
330
1F
100
AcDbEntity
  8
SOLBET_Wymiary_Opisy
100
AcDbLeader
  3
Solbet$7
 40
7.416666666666666
 41
49.25
 76
     2
 10
242.9276652370456
 20
104.0732146952537
 30
0.0
 10
231.1398345564264
 20
110.6064078026167
 30
0.0
213
1.177601578005123
223
-0.1753245211093599
233
0.0
1001
ACAD
1000
DSTYLE
1002
{
1070
   147
1040
0.625
1070
    77
1070
     1
1002
}
  0
LEADER
  5
261F
330
1F
100
AcDbEntity
  8
SOLBET_Wymiary_Opisy
100
AcDbLeader
  3
Solbet$7
 73
     0
 75
     1
 40
2.501893939393939
 41
32.0
 76
     3
 10
248.2896636830262
 20
94.62378089817798
 30
0.0
 10
230.2727658527635
 20
102.7695282723104
 30
0.0
 10
227.7727658527636
 20
102.7695282723104
 30
0.0
340
2620
213
1.177601578005123
223
-0.1753245211093599
233
0.0
1001
ACAD
1000
DSTYLE
1002
{
1070
   147
1040
0.625
1070
    77
1070
     1
1002
}
  0
MTEXT
  5
2620
102
{ACAD_REACTORS
330
261F
102
}
330
1F
100
AcDbEntity
  8
SOLBET_Wymiary_Opisy
100
AcDbMText
 10
193.9701642747584
 20
106.0717467328138
 30
0.0
 40
2.5
 41
0.0
 71
     1
 72
     1
  1
Bloczki SOLBET Ideal
  7
Solbet_2_5
 73
     1
 44
1.0
1001
ACAD
1000
MTEXTBEGIN
1070
    73
1070
     1
1070
    44
1040
1.0
1070
    74
1070
     0
1000
MTEXTEND
  0
LEADER
  5
2621
330
1F
100
AcDbEntity
  8
SOLBET_Wymiary_Opisy
100
AcDbLeader
  3
Solbet$7
 73
     0
 40
3.25
 41
39.75
 76
     2
 10
308.277630656606
 20
88.68941037530294
 30
0.0
 10
233.7844632299887
 20
74.60698473158799
 30
0.0
340
2622
213
1.177601578005123
223
-0.1753245211093599
233
0.0
1001
ACAD
1000
DSTYLE
1002
{
1070
   147
1040
0.625
1070
    77
1070
     1
1002
}
  0
MTEXT
  5
2622
102
{ACAD_XDICTIONARY
360
2A48
102
}
102
{ACAD_REACTORS
330
2621
102
}
330
1F
100
AcDbEntity
  8
SOLBET_Wymiary_Opisy
100
AcDbMText
 10
192.2318616519835
 20
78.65730925269736
 30
0.0
 40
2.5
 41
0.0
 71
     1
 72
     1
  1
Tynk wewn\U+0119trzny SOLBET 
  7
Solbet_2_5
 73
     1
 44
1.0
1001
ACAD
1000
MTEXTBEGIN
1070
    73
1070
     1
1070
    44
1040
1.0
1070
    74
1070
     0
1000
MTEXTEND
  0
LINE
  5
2626
330
1F
100
AcDbEntity
  8
SOLBET_Wymiary_Opisy
100
AcDbLine
 10
296.0372770425843
 20
140.3636949530241
 30
0.0
 11
324.214547975017
 21
140.3636949530241
 31
0.0
1001
ACAD
1000
DSTYLE
1002
{
1070
   147
1040
0.625
1070
    77
1070
     1
1002
}
  0
INSERT
  5
2627
330
1F
100
AcDbEntity
  8
SOLBET_Wymiary_Opisy
100
AcDbBlockReference
  2
_DotSmall
 10
275.7590691282287
 20
124.0338436461381
 30
0.0
 41
2.499999999999974
 42
2.5
 43
2.5
 50
219.4753494592303
1001
ACAD
1000
DSTYLE
1002
{
1070
   147
1040
0.625
1070
    77
1070
     1
1002
}
  0
LINE
  5
2628
330
1F
100
AcDbEntity
  8
SOLBET_Wymiary_Opisy
100
AcDbLine
 10
275.7590691282287
 20
124.0338436461381
 30
0.0
 11
296.0372770425843
 21
140.3636949530241
 31
0.0
1001
ACAD
1000
DSTYLE
1002
{
1070
   147
1040
0.625
1070
    77
1070
     1
1002
}
  0
MTEXT
  5
2630
102
{ACAD_XDICTIONARY
360
28D9
102
}
330
1F
100
AcDbEntity
  8
SOLBET_Wymiary_Opisy
100
AcDbMText
 10
254.5523303855862
 20
171.2107354586737
 30
0.0
 40
5.0
 41
30.77919768571883
 71
     1
 72
     5
  1
\pxqc;A\P(3 : 1)
  7
Solbet_5
 73
     1
 44
1.0
1001
ACAD
1000
MTEXTBEGIN
1070
    73
1070
     1
1070
    44
1040
1.0
1070
    74
1070
     0
1000
MTEXTEND
1000
ACAD_MTEXT_DEFINED_HEIGHT_BEGIN
1070
    46
1040
23.42535011036716
1000
ACAD_MTEXT_DEFINED_HEIGHT_END
  0
TEXT
  5
270C
330
1F
100
AcDbEntity
  8
SOLBET_Wymiary_Opisy
100
AcDbText
 10
178.9187817106294
 20
116.3233989903927
 30
0.0
 40
2.5
  1
Siatka z klejem SOLBET Gabit T
  7
Solbet_2_5
100
AcDbText
  0
TEXT
  5
270D
330
1F
100
AcDbEntity
  8
SOLBET_Wymiary_Opisy
100
AcDbText
 10
204.0358286921232
 20
112.1567323237261
 30
0.0
 40
2.5
  1
jeżeli wymagane
  7
Solbet_2_5
100
AcDbText
  0
LINE
  5
2714
330
1F
100
AcDbEntity
  8
SOLBET_Wymiary_Opisy
100
AcDbLine
 10
231.1398345564264
 20
110.6064078026167
 30
0.0
 11
181.2711611542181
 21
110.6064078026167
 31
0.0
  0
LINE
  5
278C
330
1F
100
AcDbEntity
  8
SOLBET_Zbrojenie_Konstrukcja
100
AcDbLine
 10
76.28073940095635
 20
208.3062170624367
 30
0.0
 11
86.05913619898746
 21
208.3062170624367
 31
0.0
  0
LINE
  5
278D
330
1F
100
AcDbEntity
  8
SOLBET_Zbrojenie_Konstrukcja
100
AcDbLine
 10
260.6100354595796
 20
123.8618962819487
 30
0.0
 11
289.9452258536724
 21
123.861896281949
 31
0.0
  0
LWPOLYLINE
  5
27A7
330
1F
100
AcDbEntity
  8
SOLBET_Zbrojenie_Konstrukcja
  6
Continuous
100
AcDbPolyline
 90
        6
 70
     0
 43
0.0
 10
122.1730470072342
 20
207.920749345565
 10
75.67304700723423
 20
207.920749345565
 42
0.4142135623730951
 10
75.17304700723423
 20
207.4207493455643
 10
75.17304700723423
 20
199.9207493455643
 42
0.4142135623730964
 10
75.67304700723423
 20
199.4207493455636
 10
92.17304700723422
 20
199.4207493455636
  0
LINE
  5
27A9
330
1F
100
AcDbEntity
  8
SOLBET_Zbrojenie_Konstrukcja
100
AcDbLine
 10
146.5833727331661
 20
198.2481187795025
 30
0.0
 11
149.0489608757382
 21
202.8710965468251
 31
0.0
  0
LINE
  5
27AA
330
1F
100
AcDbEntity
  8
SOLBET_Zbrojenie_Konstrukcja
100
AcDbLine
 10
138.5833727331661
 20
198.2481187795025
 30
0.0
 11
142.0500393998328
 21
204.7481187795027
 31
0.0
  0
LINE
  5
27AB
330
1F
100
AcDbEntity
  8
SOLBET_Zbrojenie_Konstrukcja
100
AcDbLine
 10
142.0500393998328
 20
204.7481187795027
 30
0.0
 11
145.5167060664996
 21
198.2481187795025
 31
0.0
  0
LINE
  5
27B6
330
1F
100
AcDbEntity
  8
SOLBET_Zbrojenie_Konstrukcja
  6
Continuous
100
AcDbLine
 10
271.1258281353919
 20
198.4015249941992
 30
0.0
 11
236.469818572897
 21
198.4015249941991
 31
0.0
  0
LINE
  5
27B8
330
1F
100
AcDbEntity
  8
SOLBET_Beton
100
AcDbLine
 10
229.5922293831939
 20
208.401524994192
 30
0.0
 11
271.1258281353919
 21
208.4015249941911
 31
0.0
  0
LINE
  5
27B9
330
1F
100
AcDbEntity
  8
SOLBET_Beton
100
AcDbLine
 10
262.3095818221742
 20
188.5722921045058
 30
0.0
 11
262.3095818221743
 21
208.4015249941911
 31
0.0
  0
LINE
  5
27BA
330
1F
100
AcDbEntity
  8
0
 62
     0
100
AcDbLine
 10
110.5015295018211
 20
196.2481187795026
 30
0.0
 11
112.501529501821
 21
198.2481187795024
 31
0.0
  0
LINE
  5
27BB
330
1F
100
AcDbEntity
  8
0
 62
     0
100
AcDbLine
 10
108.2918208106131
 20
196.2481187795026
 30
0.0
 11
110.291820810613
 21
198.2481187795024
 31
0.0
  0
LINE
  5
27BC
330
1F
100
AcDbEntity
  8
0
 62
     0
100
AcDbLine
 10
106.0821121194051
 20
196.2481187795026
 30
0.0
 11
108.082112119405
 21
198.2481187795024
 31
0.0
  0
LINE
  5
27BD
330
1F
100
AcDbEntity
  8
0
 62
     0
100
AcDbLine
 10
103.8724034281971
 20
196.2481187795026
 30
0.0
 11
105.8724034281971
 21
198.2481187795024
 31
0.0
  0
LINE
  5
27BE
330
1F
100
AcDbEntity
  8
0
 62
     0
100
AcDbLine
 10
101.6626947369891
 20
196.2481187795026
 30
0.0
 11
103.6626947369891
 21
198.2481187795024
 31
0.0
  0
LINE
  5
27BF
330
1F
100
AcDbEntity
  8
0
 62
     0
100
AcDbLine
 10
99.45298604578125
 20
196.2481187795026
 30
0.0
 11
101.4529860457811
 21
198.2481187795024
 31
0.0
  0
LINE
  5
27C0
330
1F
100
AcDbEntity
  8
0
 62
     0
100
AcDbLine
 10
97.24327735457336
 20
196.2481187795026
 30
0.0
 11
99.24327735457314
 21
198.2481187795024
 31
0.0
  0
LINE
  5
27C1
330
1F
100
AcDbEntity
  8
0
 62
     0
100
AcDbLine
 10
95.03356866336536
 20
196.2481187795026
 30
0.0
 11
97.03356866336527
 21
198.2481187795024
 31
0.0
  0
LINE
  5
27C2
330
1F
100
AcDbEntity
  8
0
 62
     0
100
AcDbLine
 10
92.82385997215738
 20
196.2481187795026
 30
0.0
 11
94.82385997215727
 21
198.2481187795024
 31
0.0
  0
LINE
  5
27C3
330
1F
100
AcDbEntity
  8
0
 62
     0
100
AcDbLine
 10
90.61415128094949
 20
196.2481187795026
 30
0.0
 11
92.61415128094927
 21
198.2481187795024
 31
0.0
  0
LINE
  5
27C4
330
1F
100
AcDbEntity
  8
0
 62
     0
100
AcDbLine
 10
88.4044425897415
 20
196.2481187795026
 30
0.0
 11
90.40444258974138
 21
198.2481187795024
 31
0.0
  0
LINE
  5
27C5
330
1F
100
AcDbEntity
  8
0
 62
     0
100
AcDbLine
 10
86.19473389853352
 20
196.2481187795026
 30
0.0
 11
88.19473389853341
 21
198.2481187795024
 31
0.0
  0
LINE
  5
27C6
330
1F
100
AcDbEntity
  8
0
 62
     0
100
AcDbLine
 10
83.98502520732552
 20
196.2481187795026
 30
0.0
 11
85.98502520732552
 21
198.2481187795024
 31
0.0
  0
LINE
  5
27C7
330
1F
100
AcDbEntity
  8
0
 62
     0
100
AcDbLine
 10
81.77531651611763
 20
196.2481187795026
 30
0.0
 11
83.77531651611752
 21
198.2481187795024
 31
0.0
  0
LINE
  5
27C8
330
1F
100
AcDbEntity
  8
0
 62
     0
100
AcDbLine
 10
80.55003939983306
 20
197.232550354426
 30
0.0
 11
81.56560782490954
 21
198.2481187795024
 31
0.0
  0
LINE
  5
27C9
330
1F
100
AcDbEntity
  8
0
 62
     0
100
AcDbLine
 10
112.7112381930289
 20
196.2481187795026
 30
0.0
 11
114.7112381930289
 21
198.2481187795024
 31
0.0
  0
LINE
  5
27CA
330
1F
100
AcDbEntity
  8
0
 62
     0
100
AcDbLine
 10
114.9209468842369
 20
196.2481187795026
 30
0.0
 11
116.9209468842369
 21
198.2481187795024
 31
0.0
  0
LINE
  5
27CB
330
1F
100
AcDbEntity
  8
0
 62
     0
100
AcDbLine
 10
117.1306555754449
 20
196.2481187795026
 30
0.0
 11
119.1306555754448
 21
198.2481187795024
 31
0.0
  0
LINE
  5
27CC
330
1F
100
AcDbEntity
  8
0
 62
     0
100
AcDbLine
 10
119.3403642666529
 20
196.2481187795026
 30
0.0
 11
121.3403642666528
 21
198.2481187795024
 31
0.0
  0
LINE
  5
27CD
330
1F
100
AcDbEntity
  8
0
 62
     0
100
AcDbLine
 10
121.5500729578609
 20
196.2481187795026
 30
0.0
 11
123.5500729578607
 21
198.2481187795024
 31
0.0
  0
LINE
  5
27CE
330
1F
100
AcDbEntity
  8
0
 62
     0
100
AcDbLine
 10
123.7597816490688
 20
196.2481187795026
 30
0.0
 11
125.7597816490687
 21
198.2481187795024
 31
0.0
  0
LINE
  5
27CF
330
1F
100
AcDbEntity
  8
0
 62
     0
100
AcDbLine
 10
125.9694903402768
 20
196.2481187795026
 30
0.0
 11
127.9694903402767
 21
198.2481187795024
 31
0.0
  0
LINE
  5
27D0
330
1F
100
AcDbEntity
  8
0
 62
     0
100
AcDbLine
 10
128.1791990314847
 20
196.2481187795026
 30
0.0
 11
130.1791990314846
 21
198.2481187795024
 31
0.0
  0
LINE
  5
27D1
330
1F
100
AcDbEntity
  8
0
 62
     0
100
AcDbLine
 10
130.3889077226927
 20
196.2481187795026
 30
0.0
 11
132.3889077226926
 21
198.2481187795024
 31
0.0
  0
LINE
  5
27D2
330
1F
100
AcDbEntity
  8
0
 62
     0
100
AcDbLine
 10
132.5986164139007
 20
196.2481187795026
 30
0.0
 11
134.5986164139006
 21
198.2481187795024
 31
0.0
  0
LINE
  5
27D3
330
1F
100
AcDbEntity
  8
0
 62
     0
100
AcDbLine
 10
134.8083251051085
 20
196.2481187795026
 30
0.0
 11
136.8083251051085
 21
198.2481187795024
 31
0.0
  0
LINE
  5
27D4
330
1F
100
AcDbEntity
  8
0
 62
     0
100
AcDbLine
 10
137.0180337963165
 20
196.2481187795026
 30
0.0
 11
139.0180337963165
 21
198.2481187795024
 31
0.0
  0
LINE
  5
27D5
330
1F
100
AcDbEntity
  8
0
 62
     0
100
AcDbLine
 10
139.2277424875245
 20
196.2481187795026
 30
0.0
 11
141.2277424875244
 21
198.2481187795024
 31
0.0
  0
LINE
  5
27D6
330
1F
100
AcDbEntity
  8
0
 62
     0
100
AcDbLine
 10
141.4374511787325
 20
196.2481187795026
 30
0.0
 11
143.4374511787324
 21
198.2481187795024
 31
0.0
  0
LINE
  5
27D7
330
1F
100
AcDbEntity
  8
0
 62
     0
100
AcDbLine
 10
143.6471598699405
 20
196.2481187795026
 30
0.0
 11
145.0489608757383
 21
197.6499197853005
 31
0.0
  0
LINE
  5
27D8
330
1F
100
AcDbEntity
  8
0
 62
     0
100
AcDbLine
 10
113.2782455530625
 20
196.2481187795026
 30
0.0
 11
111.2782455530625
 21
198.2481187795024
 31
0.0
  0
LINE
  5
27D9
330
1F
100
AcDbEntity
  8
0
 62
     0
100
AcDbLine
 10
111.0685368618545
 20
196.2481187795026
 30
0.0
 11
109.0685368618547
 21
198.2481187795024
 31
0.0
  0
LINE
  5
27DA
330
1F
100
AcDbEntity
  8
0
 62
     0
100
AcDbLine
 10
108.8588281706467
 20
196.2481187795026
 30
0.0
 11
106.8588281706468
 21
198.2481187795024
 31
0.0
  0
LINE
  5
27DB
330
1F
100
AcDbEntity
  8
0
 62
     0
100
AcDbLine
 10
106.6491194794387
 20
196.2481187795026
 30
0.0
 11
104.6491194794388
 21
198.2481187795024
 31
0.0
  0
LINE
  5
27DC
330
1F
100
AcDbEntity
  8
0
 62
     0
100
AcDbLine
 10
104.4394107882307
 20
196.2481187795026
 30
0.0
 11
102.4394107882308
 21
198.2481187795024
 31
0.0
  0
LINE
  5
27DD
330
1F
100
AcDbEntity
  8
0
 62
     0
100
AcDbLine
 10
102.2297020970227
 20
196.2481187795026
 30
0.0
 11
100.2297020970228
 21
198.2481187795024
 31
0.0
  0
LINE
  5
27DE
330
1F
100
AcDbEntity
  8
0
 62
     0
100
AcDbLine
 10
100.0199934058148
 20
196.2481187795026
 30
0.0
 11
98.01999340581495
 21
198.2481187795024
 31
0.0
  0
LINE
  5
27DF
330
1F
100
AcDbEntity
  8
0
 62
     0
100
AcDbLine
 10
97.81028471460684
 20
196.2481187795026
 30
0.0
 11
95.81028471460696
 21
198.2481187795024
 31
0.0
  0
LINE
  5
27E0
330
1F
100
AcDbEntity
  8
0
 62
     0
100
AcDbLine
 10
95.60057602339895
 20
196.2481187795026
 30
0.0
 11
93.60057602339896
 21
198.2481187795024
 31
0.0
  0
LINE
  5
27E1
330
1F
100
AcDbEntity
  8
0
 62
     0
100
AcDbLine
 10
93.39086733219096
 20
196.2481187795026
 30
0.0
 11
91.39086733219096
 21
198.2481187795024
 31
0.0
  0
LINE
  5
27E2
330
1F
100
AcDbEntity
  8
0
 62
     0
100
AcDbLine
 10
91.18115864098298
 20
196.2481187795026
 30
0.0
 11
89.18115864098297
 21
198.2481187795024
 31
0.0
  0
LINE
  5
27E3
330
1F
100
AcDbEntity
  8
0
 62
     0
100
AcDbLine
 10
88.97144994977498
 20
196.2481187795026
 30
0.0
 11
86.97144994977509
 21
198.2481187795024
 31
0.0
  0
LINE
  5
27E4
330
1F
100
AcDbEntity
  8
0
 62
     0
100
AcDbLine
 10
86.76174125856698
 20
196.2481187795026
 30
0.0
 11
84.7617412585671
 21
198.2481187795024
 31
0.0
  0
LINE
  5
27E5
330
1F
100
AcDbEntity
  8
0
 62
     0
100
AcDbLine
 10
84.55203256735911
 20
196.2481187795026
 30
0.0
 11
82.5520325673591
 21
198.2481187795024
 31
0.0
  0
LINE
  5
27E6
330
1F
100
AcDbEntity
  8
0
 62
     0
100
AcDbLine
 10
82.34232387615122
 20
196.2481187795026
 30
0.0
 11
80.55003939983306
 21
198.0404032558207
 31
0.0
  0
LINE
  5
27E7
330
1F
100
AcDbEntity
  8
0
 62
     0
100
AcDbLine
 10
115.4879542442705
 20
196.2481187795026
 30
0.0
 11
113.4879542442705
 21
198.2481187795024
 31
0.0
  0
LINE
  5
27E8
330
1F
100
AcDbEntity
  8
0
 62
     0
100
AcDbLine
 10
117.6976629354783
 20
196.2481187795026
 30
0.0
 11
115.6976629354784
 21
198.2481187795024
 31
0.0
  0
LINE
  5
27E9
330
1F
100
AcDbEntity
  8
0
 62
     0
100
AcDbLine
 10
119.9073716266863
 20
196.2481187795026
 30
0.0
 11
117.9073716266864
 21
198.2481187795024
 31
0.0
  0
LINE
  5
27EA
330
1F
100
AcDbEntity
  8
0
 62
     0
100
AcDbLine
 10
122.1170803178943
 20
196.2481187795026
 30
0.0
 11
120.1170803178943
 21
198.2481187795024
 31
0.0
  0
LINE
  5
27EB
330
1F
100
AcDbEntity
  8
0
 62
     0
100
AcDbLine
 10
124.3267890091023
 20
196.2481187795026
 30
0.0
 11
122.3267890091023
 21
198.2481187795024
 31
0.0
  0
LINE
  5
27EC
330
1F
100
AcDbEntity
  8
0
 62
     0
100
AcDbLine
 10
126.5364977003102
 20
196.2481187795026
 30
0.0
 11
124.5364977003103
 21
198.2481187795024
 31
0.0
  0
LINE
  5
27ED
330
1F
100
AcDbEntity
  8
0
 62
     0
100
AcDbLine
 10
128.7462063915181
 20
196.2481187795026
 30
0.0
 11
126.7462063915183
 21
198.2481187795024
 31
0.0
  0
LINE
  5
27EE
330
1F
100
AcDbEntity
  8
0
 62
     0
100
AcDbLine
 10
130.9559150827261
 20
196.2481187795026
 30
0.0
 11
128.9559150827261
 21
198.2481187795024
 31
0.0
  0
LINE
  5
27EF
330
1F
100
AcDbEntity
  8
0
 62
     0
100
AcDbLine
 10
133.1656237739341
 20
196.2481187795026
 30
0.0
 11
131.1656237739341
 21
198.2481187795024
 31
0.0
  0
LINE
  5
27F0
330
1F
100
AcDbEntity
  8
0
 62
     0
100
AcDbLine
 10
135.375332465142
 20
196.2481187795026
 30
0.0
 11
133.3753324651421
 21
198.2481187795024
 31
0.0
  0
LINE
  5
27F1
330
1F
100
AcDbEntity
  8
0
 62
     0
100
AcDbLine
 10
137.58504115635
 20
196.2481187795026
 30
0.0
 11
135.5850411563501
 21
198.2481187795024
 31
0.0
  0
LINE
  5
27F2
330
1F
100
AcDbEntity
  8
0
 62
     0
100
AcDbLine
 10
139.7947498475579
 20
196.2481187795026
 30
0.0
 11
137.7947498475581
 21
198.2481187795024
 31
0.0
  0
LINE
  5
27F3
330
1F
100
AcDbEntity
  8
0
 62
     0
100
AcDbLine
 10
142.0044585387659
 20
196.2481187795026
 30
0.0
 11
140.004458538766
 21
198.2481187795024
 31
0.0
  0
LINE
  5
27F4
330
1F
100
AcDbEntity
  8
0
 62
     0
100
AcDbLine
 10
144.2141672299739
 20
196.2481187795026
 30
0.0
 11
142.214167229974
 21
198.2481187795024
 31
0.0
  0
LINE
  5
27F5
330
1F
100
AcDbEntity
  8
0
 62
     0
100
AcDbLine
 10
145.0489608757383
 20
197.6230338249462
 30
0.0
 11
144.4238759211819
 21
198.2481187795024
 31
0.0
  0
LINE
  5
27F6
330
1F
100
AcDbEntity
  8
0
 62
     0
100
AcDbLine
 10
143.6471598699405
 20
196.2481187795026
 30
0.0
 11
145.6471598699404
 21
198.2481187795024
 31
0.0
  0
LINE
  5
27F7
330
1F
100
AcDbEntity
  8
0
 62
     0
100
AcDbLine
 10
145.8568685611485
 20
196.2481187795026
 30
0.0
 11
147.8568685611484
 21
198.2481187795024
 31
0.0
  0
LINE
  5
27F8
330
1F
100
AcDbEntity
  8
0
 62
     0
100
AcDbLine
 10
148.0665772523565
 20
196.2481187795026
 30
0.0
 11
149.0489608757382
 21
197.2305024028843
 31
0.0
  0
LINE
  5
27F9
330
1F
100
AcDbEntity
  8
0
 62
     0
100
AcDbLine
 10
146.4238759211819
 20
196.2481187795026
 30
0.0
 11
144.423875921182
 21
198.2481187795024
 31
0.0
  0
LINE
  5
27FA
330
1F
100
AcDbEntity
  8
0
 62
     0
100
AcDbLine
 10
148.6335846123899
 20
196.2481187795026
 30
0.0
 11
146.63358461239
 21
198.2481187795024
 31
0.0
  0
LINE
  5
27FC
330
1F
100
AcDbEntity
  8
0
 62
     0
100
AcDbLine
 10
149.0489608757382
 20
198.0424512073622
 30
0.0
 11
148.8432933035978
 21
198.2481187795024
 31
0.0
  0
INSERT
  5
292D
330
1F
100
AcDbEntity
  8
SOLBET_Bloczki
100
AcDbBlockReference
  2
SOLBET_Ksztaltka_U_420x240x500_KG400_PRA
 10
67.54713714994989
 20
196.2481200302237
 30
0.0
 50
270.0
  0
INSERT
  5
2974
330
1F
100
AcDbEntity
  8
SOLBET_Bloczki
100
AcDbBlockReference
  2
SOLBET_Plytka_80x240x590_KG600_PRA
 10
67.54713707045073
 20
196.2481188596476
 30
0.0
  0
INSERT
  5
2985
330
1F
100
AcDbEntity
  8
SOLBET_Bloczki
100
AcDbBlockReference
  2
SOLBET_Bloczek_Ideal_420x240x590_P+W_KG400_PRA
 10
67.54713707045073
 20
208.2481190642828
 30
0.0
  0
INSERT
  5
2986
330
1F
100
AcDbEntity
  8
SOLBET_Bloczki
100
AcDbBlockReference
  2
SOLBET_Bloczek_Ideal_420x240x590_P+W_KG400_PRA
 10
67.54713721120004
 20
220.2481192684313
 30
0.0
  0
INSERT
  5
2987
330
1F
100
AcDbEntity
  8
SOLBET_Bloczki
100
AcDbBlockReference
  2
SOLBET_Bloczek_Ideal_420x240x590_P+W_KG400_PRA
 10
67.55003954057883
 20
67.24811857535268
 30
0.0
  0
INSERT
  5
2988
330
1F
100
AcDbEntity
  8
SOLBET_Bloczki
100
AcDbBlockReference
  2
SOLBET_Bloczek_Ideal_420x240x590_P+W_KG400_PRA
 10
67.55003968132815
 20
79.24811877950116
 30
0.0
  0
INSERT
  5
299E
330
1F
100
AcDbEntity
  8
SOLBET_Bloczki
100
AcDbBlockReference
  2
SOLBET_Nadproze_120x240x1400_zz_PRA
 10
67.54713707045073
 20
172.2481189841361
 30
0.0
  0
INSERT
  5
299F
330
1F
100
AcDbEntity
  8
SOLBET_Bloczki
100
AcDbBlockReference
  2
SOLBET_Bloczek_Ideal_420x240x590_P+W_KG400_PRA
 10
243.7776306566068
 20
87.61862341578478
 30
0.0
 41
3.0
 42
3.0
 43
3.0
  0
MTEXT
  5
29E8
102
{ACAD_XDICTIONARY
360
29E9
102
}
330
1F
100
AcDbEntity
  8
SOLBET_Wymiary_Opisy
100
AcDbMText
 10
300.7050843748657
 20
6.865816991281803
 30
0.0
 40
5.0
 41
0.0
 71
     1
 72
     5
  1
Skala 1:20
  7
Solbet_5
 73
     1
 44
1.0
1001
ACAD
1000
MTEXTBEGIN
1070
    73
1070
     1
1070
    44
1040
1.0
1070
    74
1070
     0
1000
MTEXTEND
1000
ACAD_MTEXT_DEFINED_HEIGHT_BEGIN
1070
    46
1040
5.395147572682731
1000
ACAD_MTEXT_DEFINED_HEIGHT_END
  0
LWPOLYLINE
  5
29EB
330
1F
100
AcDbEntity
  8
SOLBET_Ramka_05
100
AcDbPolyline
 90
        4
 70
     1
 43
0.0
 10
297.6864182539518
 20
9.39688765480173
 10
333.802595141374
 20
9.39688765480173
 10
333.802595141374
 20
-0.4073335441337349
 10
297.6864182539519
 20
-0.4073335441337349
  0
ENDSEC
  0
SECTION
  2
OBJECTS
  0
DICTIONARY
  5
C
330
0
100
AcDbDictionary
281
     1
  3
ACAD_COLOR
350
6B
  3
ACAD_GROUP
350
D
  3
ACAD_LAYOUT
350
1A
  3
ACAD_MATERIAL
350
6A
  3
ACAD_MLEADERSTYLE
350
12D
  3
ACAD_MLINESTYLE
350
17
  3
ACAD_PLOTSETTINGS
350
19
  3
ACAD_PLOTSTYLENAME
350
E
  3
ACAD_SCALELIST
350
10C
  3
ACAD_TABLESTYLE
350
7E
  3
ACAD_VISUALSTYLE
350
EF
  3
ACDB_RECOMPOSE_DATA
350
15D
  3
AcDbVariableDictionary
350
5E
  3
DWGPROPS
350
2A26
  0
DICTIONARY
  5
443
330
8
100
AcDbDictionary
280
     1
281
     1
  0
DICTIONARY
  5
3E5
330
2
100
AcDbDictionary
280
     1
281
     1
  3
ACAD_LAYERFILTERS
360
2514
  3
ACLYDICTIONARY
360
2513
  0
DICTIONARY
  5
13C
330
10
100
AcDbDictionary
280
     1
281
     1
  3
ADSK_XREC_LAYER_RECONCILED
360
3F4
  0
DICTIONARY
  5
403
330
3DD
100
AcDbDictionary
280
     1
281
     1
  3
ADSK_XREC_LAYER_RECONCILED
360
404
  0
DICTIONARY
  5
405
330
3DF
100
AcDbDictionary
280
     1
281
     1
  3
ADSK_XREC_LAYER_RECONCILED
360
406
  0
DICTIONARY
  5
407
330
3E0
100
AcDbDictionary
280
     1
281
     1
  3
ADSK_XREC_LAYER_RECONCILED
360
408
  0
DICTIONARY
  5
409
330
3E1
100
AcDbDictionary
280
     1
281
     1
  3
ADSK_XREC_LAYER_RECONCILED
360
40A
  0
DICTIONARY
  5
40B
330
3E2
100
AcDbDictionary
280
     1
281
     1
  3
ADSK_XREC_LAYER_RECONCILED
360
40C
  0
DICTIONARY
  5
40F
330
3E4
100
AcDbDictionary
280
     1
281
     1
  3
ADSK_XREC_LAYER_RECONCILED
360
410
  0
DICTIONARY
  5
411
330
3E8
100
AcDbDictionary
280
     1
281
     1
  3
ADSK_XREC_LAYER_RECONCILED
360
412
  0
DICTIONARY
  5
28D5
330
28D4
100
AcDbDictionary
280
     1
281
     1
  3
ASDK_XREC_ANNO_SCALE_INFO
360
28D6
  0
DICTIONARY
  5
4A3
330
1F
100
AcDbDictionary
280
     1
281
     1
  3
ACAD_SORTENTS
360
4A4
  0
DICTIONARY
  5
2378
330
236C
100
AcDbDictionary
280
     1
281
     1
  3
ACAD_SORTENTS
360
2379
  0
DICTIONARY
  5
23E0
330
23D6
100
AcDbDictionary
280
     1
281
     1
  3
ACAD_SORTENTS
360
23E1
  0
DICTIONARY
  5
2403
330
23F5
100
AcDbDictionary
280
     1
281
     1
  3
ACAD_SORTENTS
360
2404
  0
DICTIONARY
  5
242E
330
2424
100
AcDbDictionary
280
     1
281
     1
  3
ACAD_SORTENTS
360
242F
  0
DICTIONARY
  5
2929
330
291B
100
AcDbDictionary
280
     1
281
     1
  3
ACAD_SORTENTS
360
292A
  0
DICTIONARY
  5
2970
330
2966
100
AcDbDictionary
280
     1
281
     1
  3
ACAD_SORTENTS
360
2971
  0
DICTIONARY
  5
2981
330
2975
100
AcDbDictionary
280
     1
281
     1
  3
ACAD_SORTENTS
360
2982
  0
DICTIONARY
  5
299A
330
2989
100
AcDbDictionary
280
     1
281
     1
  3
ACAD_SORTENTS
360
299B
  0
DICTIONARY
  5
2358
330
2357
100
AcDbDictionary
280
     1
281
     1
  3
ACAD_MTEXT_RT
360
2A33
  3
AcDbContextDataManager
360
2359
  0
DICTIONARY
  5
2A34
330
253F
100
AcDbDictionary
280
     1
281
     1
  3
ACAD_MTEXT_RT
360
2A35
  0
DICTIONARY
  5
2A36
330
2541
100
AcDbDictionary
280
     1
281
     1
  3
ACAD_MTEXT_RT
360
2A37
  0
DICTIONARY
  5
2A38
330
2547
100
AcDbDictionary
280
     1
281
     1
  3
ACAD_MTEXT_RT
360
2A39
  0
DICTIONARY
  5
2A3A
330
2549
100
AcDbDictionary
280
     1
281
     1
  3
ACAD_MTEXT_RT
360
2A3B
  0
DICTIONARY
  5
2A3C
330
254B
100
AcDbDictionary
280
     1
281
     1
  3
ACAD_MTEXT_RT
360
2A3D
  0
DICTIONARY
  5
2A3E
330
254D
100
AcDbDictionary
280
     1
281
     1
  3
ACAD_MTEXT_RT
360
2A3F
  0
DICTIONARY
  5
2578
330
256A
100
AcDbDictionary
280
     1
281
     1
  3
ACAD_DIMASSOC
360
2583
  0
DICTIONARY
  5
2A40
330
258F
100
AcDbDictionary
280
     1
281
     1
  3
ACAD_MTEXT_RT
360
2A41
  0
DICTIONARY
  5
2A42
330
25BB
100
AcDbDictionary
280
     1
281
     1
  3
ACAD_MTEXT_RT
360
2A43
  0
DICTIONARY
  5
2A44
330
25C1
100
AcDbDictionary
280
     1
281
     1
  3
ACAD_MTEXT_RT
360
2A45
  0
DICTIONARY
  5
28D7
330
25CC
100
AcDbDictionary
280
     1
281
     1
  3
ACAD_MTEXT_2008_RT
360
28D8
  0
DICTIONARY
  5
2A46
330
261C
100
AcDbDictionary
280
     1
281
     1
  3
ACAD_MTEXT_RT
360
2A47
  0
DICTIONARY
  5
2A48
330
2622
100
AcDbDictionary
280
     1
281
     1
  3
ACAD_MTEXT_RT
360
2A49
  0
DICTIONARY
  5
28D9
330
2630
100
AcDbDictionary
280
     1
281
     1
  3
ACAD_MTEXT_2008_RT
360
28DA
  0
DICTIONARY
  5
29E9
330
29E8
100
AcDbDictionary
280
     1
281
     1
  3
ACAD_MTEXT_2008_RT
360
29EA
  0
DICTIONARY
  5
6B
102
{ACAD_REACTORS
330
C
102
}
330
C
100
AcDbDictionary
281
     1
  0
DICTIONARY
  5
D
102
{ACAD_REACTORS
330
C
102
}
330
C
100
AcDbDictionary
281
     1
  0
DICTIONARY
  5
1A
102
{ACAD_REACTORS
330
C
102
}
330
C
100
AcDbDictionary
281
     1
  3
Arkusz1
350
D3
  3
Arkusz2
350
D7
  3
Model
350
22
  0
DICTIONARY
  5
6A
102
{ACAD_REACTORS
330
C
102
}
330
C
100
AcDbDictionary
281
     1
  3
ByBlock
350
ED
  3
ByLayer
350
EC
  3
Global
350
EE
  0
DICTIONARY
  5
12D
102
{ACAD_REACTORS
330
C
102
}
330
C
100
AcDbDictionary
281
     1
  3
Standard
350
12E
  0
DICTIONARY
  5
17
102
{ACAD_REACTORS
330
C
102
}
330
C
100
AcDbDictionary
281
     1
  3
SOLBET_IZOLACJA
350
7E9
  3
Standard
350
18
  0
DICTIONARY
  5
19
102
{ACAD_REACTORS
330
C
102
}
330
C
100
AcDbDictionary
281
     1
  0
ACDBDICTIONARYWDFLT
  5
E
102
{ACAD_REACTORS
330
C
102
}
330
C
100
AcDbDictionary
281
     1
  3
Normal
350
F
100
AcDbDictionaryWithDefault
340
F
  0
DICTIONARY
  5
10C
102
{ACAD_REACTORS
330
C
102
}
330
C
100
AcDbDictionary
281
     1
  3
A0
350
10D
  3
A1
350
188
  3
A2
350
189
  3
A3
350
18A
  3
A4
350
18B
  3
A5
350
18C
  3
A6
350
18D
  3
A7
350
18E
  3
A8
350
18F
  3
A9
350
190
  3
B0
350
191
  3
B1
350
192
  3
B2
350
193
  3
B3
350
194
  3
B4
350
195
  3
B5
350
196
  3
B6
350
197
  3
B7
350
198
  3
B8
350
199
  3
B9
350
19A
  3
C0
350
19B
  3
C1
350
19C
  3
C2
350
19D
  3
C3
350
19E
  3
C4
350
19F
  3
C5
350
1A0
  3
C6
350
1A1
  3
C7
350
1A2
  3
C8
350
1A3
  3
C9
350
1A4
  3
D0
350
1A5
  3
D1
350
1A6
  3
D2
350
1A7
  0
DICTIONARY
  5
7E
102
{ACAD_REACTORS
330
C
102
}
330
C
100
AcDbDictionary
281
     1
  3
Standard
350
7F
  0
DICTIONARY
  5
EF
102
{ACAD_REACTORS
330
C
102
}
330
C
100
AcDbDictionary
281
     1
  3
2dWireframe
350
F5
  3
3D Hidden
350
F7
  3
3dWireframe
350
F6
  3
Basic
350
F4
  3
Brighten
350
FB
  3
ColorChange
350
FF
  3
Conceptual
350
F8
  3
Dim
350
FA
  3
Facepattern
350
FE
  3
Flat
350
F0
  3
FlatWithEdges
350
F1
  3
Gouraud
350
F2
  3
GouraudWithEdges
350
F3
  3
Linepattern
350
FD
  3
Realistic
350
F9
  3
Thicken
350
FC
  0
XRECORD
  5
15D
102
{ACAD_REACTORS
330
C
102
}
330
C
100
AcDbXrecord
280
     1
 90
        1
330
7F
330
2357
330
25CC
330
2630
  0
DICTIONARY
  5
5E
102
{ACAD_REACTORS
330
C
102
}
330
C
100
AcDbDictionary
281
     1
  3
CANNOSCALE
350
146
  3
CMLEADERSTYLE
350
145
  3
CTABLESTYLE
350
84
  3
DIMASSOC
350
5F
  3
HIDETEXT
350
63
  3
INDEXCTL
350
466
  3
LIGHTINGUNITS
350
464
  3
MSLTSCALE
350
463
  3
PSOLHEIGHT
350
2A25
  3
PSOLWIDTH
350
2A24
  3
SORTENTS
350
465
  0
XRECORD
  5
2A26
102
{ACAD_REACTORS
330
C
102
}
330
C
100
AcDbXrecord
280
     1
  1
DWGPROPS COOKIE
  2

  3

  4

  6

  7

  8
Olus
  9

300
=
301
=
302
=
303
=
304
=
305
=
306
=
307
=
308
=
309
=
 40
0.6268079513888889
 41
2454690.075573148
 42
2454848.86327971
  1

 90
        0
  0
DICTIONARY
  5
2514
102
{ACAD_REACTORS
330
3E5
102
}
330
3E5
100
AcDbDictionary
281
     1
  0
DICTIONARY
  5
2513
102
{ACAD_REACTORS
330
3E5
102
}
330
3E5
100
AcDbDictionary
281
     1
1001
ACAD
1000
<All
  0
XRECORD
  5
3F4
102
{ACAD_REACTORS
330
13C
102
}
330
13C
100
AcDbXrecord
280
     1
290
     1
  0
XRECORD
  5
404
102
{ACAD_REACTORS
330
403
102
}
330
403
100
AcDbXrecord
280
     1
290
     1
  0
XRECORD
  5
406
102
{ACAD_REACTORS
330
405
102
}
330
405
100
AcDbXrecord
280
     1
290
     1
  0
XRECORD
  5
408
102
{ACAD_REACTORS
330
407
102
}
330
407
100
AcDbXrecord
280
     1
290
     1
  0
XRECORD
  5
40A
102
{ACAD_REACTORS
330
409
102
}
330
409
100
AcDbXrecord
280
     1
290
     1
  0
XRECORD
  5
40C
102
{ACAD_REACTORS
330
40B
102
}
330
40B
100
AcDbXrecord
280
     1
290
     1
  0
XRECORD
  5
410
102
{ACAD_REACTORS
330
40F
102
}
330
40F
100
AcDbXrecord
280
     1
290
     1
  0
XRECORD
  5
412
102
{ACAD_REACTORS
330
411
102
}
330
411
100
AcDbXrecord
280
     1
290
     1
  0
XRECORD
  5
28D6
102
{ACAD_REACTORS
330
28D5
102
}
330
28D5
100
AcDbXrecord
280
     1
 70
     1
340
10D
340
3DF
 70
    -1
  0
SORTENTSTABLE
  5
4A4
102
{ACAD_REACTORS
330
4A3
102
}
330
4A3
100
AcDbSortentsTable
330
1F
331
27D0
  5
22A5
331
261A
  5
27DF
331
27D8
  5
22B1
331
2622
  5
27E8
331
27A9
  5
27F0
331
27E0
  5
22BE
331
27E8
  5
22C8
331
2478
  5
25E0
331
233B
  5
258F
331
22F4
  5
243C
331
2547
  5
2615
331
2596
  5
2714
331
22BD
  5
2332
331
22FC
  5
2454
331
22C5
  5
2338
331
25BE
  5
27BC
331
22CD
  5
2345
331
25C6
  5
27C4
331
2567
  5
2621
331
227C
  5
22E3
331
2284
  5
22ED
331
228C
  5
22F9
331
27F0
  5
22D3
331
27B9
  5
27F5
331
27F8
  5
27F8
331
27C1
  5
2291
331
260B
  5
27D5
331
27C9
  5
229E
331
2613
  5
27DB
331
2528
  5
2535
331
2439
  5
25C7
331
22D5
  5
2346
331
2314
  5
2527
331
2530
  5
253D
331
2441
  5
2278
331
22DD
  5
234A
331
231C
  5
2551
331
2538
  5
2549
331
2449
  5
2280
331
22E5
  5
2352
331
25DE
  5
27CD
331
22ED
  5
235E
331
258F
  5
278C
331
229C
  5
2309
331
22AC
  5
2316
331
2275
  5
22DC
331
27D1
  5
22A6
331
261B
  5
27E0
331
27D9
  5
22B2
331
27AA
  5
27F1
331
27E1
  5
22BF
331
27E9
  5
22CA
331
2540
  5
260C
331
2479
  5
25E1
331
233C
  5
2591
331
22F5
  5
243D
331
2548
  5
261A
331
2597
  5
276E
331
22BE
  5
2334
331
22FD
  5
2455
331
22C6
  5
2339
331
2305
  5
247A
331
25BF
  5
27BD
331
25C7
  5
27C5
331
227D
  5
22EB
331
2285
  5
22EE
331
228D
  5
22FA
331
27F1
  5
22D4
331
27BA
  5
228A
331
27F9
  5
27FA
331
27C2
  5
2292
331
260C
  5
27D6
331
27CA
  5
229F
331
2614
  5
27DC
331
2529
  5
2536
331
243A
  5
25C8
331
2568
  5
2628
331
22D6
  5
2347
331
2531
  5
253E
331
2442
  5
2279
331
22DE
  5
234B
331
231D
  5
2552
331
2539
  5
254A
331
244A
  5
2281
331
22E6
  5
2353
331
25DF
  5
27CE
331
2452
  5
25CC
331
22EE
  5
235F
331
229D
  5
230A
331
22A5
  5
230F
331
22AD
  5
25C2
331
2276
  5
22DD
331
27D2
  5
22A7
331
261C
  5
27E1
331
27DA
  5
22B3
331
27AB
  5
27F2
331
27E2
  5
22C1
331
27EA
  5
22CB
331
2590
  5
278D
331
2541
  5
260D
331
247A
  5
2607
331
22B7
  5
232B
331
22F6
  5
243E
331
2598
  5
27AB
331
2549
  5
261E
331
22FE
  5
2456
331
2551
  5
260E
331
2355
  5
2594
331
22C7
  5
233A
331
2306
  5
2525
331
25C0
  5
27BE
331
228E
  5
22FB
331
2296
  5
2300
331
27F2
  5
22D5
331
27BB
  5
228B
331
27FA
  5
27FB
331
27C3
  5
2293
331
260D
  5
27D7
331
270C
  5
27E3
331
27CB
  5
22A0
331
2714
  5
27EC
331
25C8
  5
27C6
331
252A
  5
2537
331
2569
  5
2630
331
243B
  5
25CB
331
22D7
  5
2348
331
2316
  5
252F
331
2532
  5
253F
331
2443
  5
227A
331
22DF
  5
234C
331
231E
  5
2553
331
253A
  5
254B
331
244B
  5
2282
331
22E7
  5
2354
331
2453
  5
25D1
331
22EF
  5
2360
331
229E
  5
230B
331
22A6
  5
2310
331
2267
  5
2267
331
226F
  5
226F
331
22AE
  5
2317
331
2277
  5
22DE
331
278C
  5
27ED
331
27D3
  5
22AB
331
261D
  5
27E2
331
27DB
  5
22B4
331
27E3
  5
22C2
331
27EB
  5
22CE
331
2591
  5
27A7
331
22B8
  5
232D
331
22F7
  5
243F
331
2599
  5
27B6
331
22FF
  5
2457
331
2552
  5
2626
331
2356
  5
2595
331
22C8
  5
233B
331
25C1
  5
27BF
331
2434
  5
2333
331
2287
  5
22F3
331
228F
  5
22FC
331
2297
  5
2301
331
27F3
  5
22D6
331
27BC
  5
228C
331
27C4
  5
2298
331
260E
  5
27D8
331
270D
  5
27E4
331
27CC
  5
22A1
331
252B
  5
2538
331
256A
  5
270C
331
243C
  5
2273
331
22D8
  5
2349
331
2317
  5
2530
331
25D1
  5
27CA
331
2533
  5
2540
331
2444
  5
227B
331
231F
  5
2564
331
22E0
  5
234D
331
253B
  5
254C
331
244C
  5
2283
331
22E8
  5
2355
331
2454
  5
25D2
331
229F
  5
230C
331
22A7
  5
2311
331
22AF
  5
2318
331
278D
  5
27EE
331
27D4
  5
22AC
331
2626
  5
27DE
331
27DC
  5
22B5
331
27E4
  5
22C3
331
27EC
  5
22CF
331
22B1
  5
231C
331
2543
  5
260F
331
2592
  5
27A9
331
22B9
  5
232E
331
22F8
  5
2440
331
254B
  5
2623
331
22C1
  5
2335
331
2300
  5
2478
331
2553
  5
2627
331
25BA
  5
27B8
331
2308
  5
2526
331
22C9
  5
233C
331
2357
  5
2596
331
2435
  5
25C3
331
25C2
  5
27C0
331
2278
  5
22DF
331
2280
  5
25C1
331
2288
  5
22F4
331
2290
  5
22FD
331
27F4
  5
22D7
331
27BD
  5
228D
331
2607
  5
27D1
331
27FC
  5
27FD
331
27C5
  5
2299
331
260F
  5
27D9
331
27CD
  5
22A2
331
25CA
  5
27C7
331
252C
  5
2539
331
243D
  5
2274
331
2318
  5
2531
331
25D2
  5
27CB
331
2534
  5
2541
331
2445
  5
227C
331
22E1
  5
234E
331
2320
  5
2565
331
253C
  5
2608
331
244D
  5
2284
331
22E9
  5
2356
331
2455
  5
25D3
331
2298
  5
2302
331
22A0
  5
230D
331
22A8
  5
2312
331
27D5
  5
22AD
331
261F
  5
27E5
331
27DD
  5
22B6
331
2627
  5
27E9
331
27E5
  5
22C5
331
27ED
  5
22D0
331
2338
  5
2568
331
2544
  5
2610
331
23A7
  5
25BC
331
2593
  5
27AA
331
2348
  5
2592
331
22BA
  5
232F
331
22F9
  5
2446
331
254C
  5
2624
331
23B7
  5
25BD
331
22C2
  5
2336
331
2301
  5
2479
331
25BB
  5
27B9
331
22CA
  5
233D
331
2525
  5
2532
331
2436
  5
25C4
331
2564
  5
261F
331
25C3
  5
27C1
331
2279
  5
22E0
331
2289
  5
22F5
331
2291
  5
22FE
331
25E0
  5
27CF
331
27B6
  5
27F3
331
27F5
  5
22D8
331
27BE
  5
228E
331
2608
  5
27D2
331
27C6
  5
229A
331
27CE
  5
22A3
331
252D
  5
253A
331
25CB
  5
27C8
331
2535
  5
2546
331
2446
  5
227D
331
2321
  5
2566
331
25D3
  5
27CC
331
253D
  5
2609
331
22EA
  5
2357
331
2456
  5
25DE
331
2299
  5
2303
331
22A1
  5
230E
331
22A9
  5
2313
331
2618
  5
27DD
331
2620
  5
27E6
331
27D6
  5
22AF
331
27A7
  5
27EF
331
27DE
  5
22B7
331
2628
  5
27EA
331
2630
  5
27EB
331
27E6
  5
22C6
331
27EE
  5
22D1
331
22B3
  5
231D
331
2339
  5
2569
331
2545
  5
2613
331
2594
  5
270D
331
2349
  5
2593
331
22BB
  5
2330
331
22FA
  5
2447
331
254D
  5
2625
331
25BC
  5
27BA
331
22CB
  5
233E
331
2526
  5
2533
331
2437
  5
25C5
331
25C4
  5
27C2
331
227A
  5
22E1
331
228A
  5
22F6
331
2292
  5
22FF
331
25E1
  5
27D0
331
27F6
  5
27F6
331
27BF
  5
228F
331
2609
  5
27D3
331
27C7
  5
229C
331
27CF
  5
22A4
331
252E
  5
253B
331
243F
  5
2276
331
231A
  5
254D
331
25CC
  5
27C9
331
2536
  5
2547
331
2447
  5
227E
331
22E3
  5
2350
331
2322
  5
2567
331
253E
  5
260A
331
22EB
  5
235C
331
2457
  5
25DF
331
229A
  5
2304
331
22AA
  5
2314
331
2621
  5
27E7
331
27D7
  5
22B0
331
27DF
  5
22BB
331
27E7
  5
22C7
331
27EF
  5
22D2
331
233A
  5
256A
331
22B4
  5
231F
331
22F3
  5
2361
331
2546
  5
2614
331
22BC
  5
2331
331
22FB
  5
2453
331
25BD
  5
27BB
331
22CC
  5
233F
331
2527
  5
2534
331
2566
  5
2620
331
25C5
  5
27C3
331
227B
  5
22E2
331
2283
  5
22EC
331
228B
  5
22F7
331
27B8
  5
27F4
331
27F7
  5
27F7
331
27C0
  5
2290
331
260A
  5
27D4
331
27C8
  5
229D
331
2438
  5
25C6
331
252F
  5
253C
331
231B
  5
254F
331
2440
  5
2277
331
2537
  5
2548
331
22E4
  5
2351
331
2448
  5
227F
331
253F
  5
260B
331
2450
  5
2287
331
22EC
  5
235D
331
239A
  5
25BB
331
229B
  5
2305
331
2274
  5
22DB
  0
SORTENTSTABLE
  5
2379
102
{ACAD_REACTORS
330
2378
102
}
330
2378
100
AcDbSortentsTable
330
236C
  0
SORTENTSTABLE
  5
23E1
102
{ACAD_REACTORS
330
23E0
102
}
330
23E0
100
AcDbSortentsTable
330
23D6
  0
SORTENTSTABLE
  5
2404
102
{ACAD_REACTORS
330
2403
102
}
330
2403
100
AcDbSortentsTable
330
23F5
  0
SORTENTSTABLE
  5
242F
102
{ACAD_REACTORS
330
242E
102
}
330
242E
100
AcDbSortentsTable
330
2424
  0
SORTENTSTABLE
  5
292A
102
{ACAD_REACTORS
330
2929
102
}
330
2929
100
AcDbSortentsTable
330
291B
  0
SORTENTSTABLE
  5
2971
102
{ACAD_REACTORS
330
2970
102
}
330
2970
100
AcDbSortentsTable
330
2966
  0
SORTENTSTABLE
  5
2982
102
{ACAD_REACTORS
330
2981
102
}
330
2981
100
AcDbSortentsTable
330
2975
  0
SORTENTSTABLE
  5
299B
102
{ACAD_REACTORS
330
299A
102
}
330
299A
100
AcDbSortentsTable
330
2989
  0
XRECORD
  5
2A33
102
{ACAD_REACTORS
330
2358
102
}
330
2358
100
AcDbXrecord
280
     1
 40
949267.0
  1
{\LDETAL 14\P}Sposób zamocowania stolarki w ścianie\Pjednowarstwowej z wbudowaną nad oknem skrzynką na roletę typu RKS
  0
DICTIONARY
  5
2359
102
{ACAD_REACTORS
330
2358
102
}
330
2358
100
AcDbDictionary
281
     1
  3
ACDB_ANNOTATIONSCALES
350
235A
  0
XRECORD
  5
2A35
102
{ACAD_REACTORS
330
2A34
102
}
330
2A34
100
AcDbXrecord
280
     1
 40
244367.0
  1
Podciąg zintegrowany z wieńcem\Pwg obliczeń ststycznych
  0
XRECORD
  5
2A37
102
{ACAD_REACTORS
330
2A36
102
}
330
2A36
100
AcDbXrecord
280
     1
 40
31617.0
  1
Skrzynka RKS na roletę
  0
XRECORD
  5
2A39
102
{ACAD_REACTORS
330
2A38
102
}
330
2A38
100
AcDbXrecord
280
     1
 40
14518.0
  1
Płytka SOLBET
  0
XRECORD
  5
2A3B
102
{ACAD_REACTORS
330
2A3A
102
}
330
2A3A
100
AcDbXrecord
280
     1
 40
22007.0
  1
Kształtka U SOLBET
  0
XRECORD
  5
2A3D
102
{ACAD_REACTORS
330
2A3C
102
}
330
2A3C
100
AcDbXrecord
280
     1
 40
40925.0
  1
Profil tynkarski narożny
  0
XRECORD
  5
2A3F
102
{ACAD_REACTORS
330
2A3E
102
}
330
2A3E
100
AcDbXrecord
280
     1
 40
16848.0
  1
Nadproże SOLBET
  0
DIMASSOC
  5
2583
102
{ACAD_REACTORS
330
2578
102
}
330
2578
100
AcDbDimAssoc
330
256A
 90
        1
 70
     0
 71
     0
  1
AcDbOsnapPointRef
 72
    10
331
22ED
 73
     2
 91
        0
 40
0.3523502851574026
 10
0.0
 20
0.0
 30
0.0
 75
     0
  0
XRECORD
  5
2A41
102
{ACAD_REACTORS
330
2A40
102
}
330
2A40
100
AcDbXrecord
280
     1
 40
40925.0
  1
Profil tynkarski narożny
  0
XRECORD
  5
2A43
102
{ACAD_REACTORS
330
2A42
102
}
330
2A42
100
AcDbXrecord
280
     1
 40
34960.0
  1
Warstwa wykończeniowa
  0
XRECORD
  5
2A45
102
{ACAD_REACTORS
330
2A44
102
}
330
2A44
100
AcDbXrecord
280
     1
 40
42625.0
  1
Płyty izolacyjne twarde
  0
XRECORD
  5
28D8
102
{ACAD_REACTORS
330
28D7
102
}
330
28D7
100
AcDbXrecord
280
     1
 40
24757.0
  1
\pxqc;B\P(5 : 1)
  0
XRECORD
  5
2A47
102
{ACAD_REACTORS
330
2A46
102
}
330
2A46
100
AcDbXrecord
280
     1
 40
34304.0
  1
Tynk zewnętrzny SOLBET 
  0
XRECORD
  5
2A49
102
{ACAD_REACTORS
330
2A48
102
}
330
2A48
100
AcDbXrecord
280
     1
 40
34286.0
  1
Tynk wewnętrzny SOLBET 
  0
XRECORD
  5
28DA
102
{ACAD_REACTORS
330
28D9
102
}
330
28D9
100
AcDbXrecord
280
     1
 40
24645.0
  1
\pxqc;A\P(3 : 1)
  0
XRECORD
  5
29EA
102
{ACAD_REACTORS
330
29E9
102
}
330
29E9
100
AcDbXrecord
280
     1
 40
24748.0
  1
\pxqc;C\P(5 : 1)
  0
LAYOUT
  5
D3
102
{ACAD_XDICTIONARY
360
2A2A
102
}
102
{ACAD_REACTORS
330
1A
102
}
330
1A
100
AcDbPlotSettings
  1

  2
C:\Documents and Settings\basas\Application Data\Autodesk\AutoCAD 2005\R16.1\enu\plotters\Default Windows System Printer.pc3
  4

  6

 40
0.0
 41
0.0
 42
0.0
 43
0.0
 44
0.0
 45
0.0
 46
0.0
 47
0.0
 48
0.0
 49
0.0
140
0.0
141
0.0
142
1.0
143
1.0
 70
   688
 72
     0
 73
     0
 74
     5
  7

 75
    16
147
1.0
148
0.0
149
0.0
100
AcDbLayout
  1
Arkusz1
 70
     1
 71
     1
 10
0.0
 20
0.0
 11
12.0
 21
9.0
 12
0.0
 22
0.0
 32
0.0
 14
0.0
 24
0.0
 34
0.0
 15
0.0
 25
0.0
 35
0.0
146
0.0
 13
0.0
 23
0.0
 33
0.0
 16
1.0
 26
0.0
 36
0.0
 17
0.0
 27
1.0
 37
0.0
 76
     0
330
D2
  0
LAYOUT
  5
D7
102
{ACAD_XDICTIONARY
360
2A2C
102
}
102
{ACAD_REACTORS
330
1A
102
}
330
1A
100
AcDbPlotSettings
  1

  2
C:\Documents and Settings\basas\Application Data\Autodesk\AutoCAD 2005\R16.1\enu\plotters\Default Windows System Printer.pc3
  4

  6

 40
0.0
 41
0.0
 42
0.0
 43
0.0
 44
0.0
 45
0.0
 46
0.0
 47
0.0
 48
0.0
 49
0.0
140
0.0
141
0.0
142
1.0
143
1.0
 70
   688
 72
     0
 73
     0
 74
     5
  7

 75
    16
147
1.0
148
0.0
149
0.0
100
AcDbLayout
  1
Arkusz2
 70
     1
 71
     2
 10
0.0
 20
0.0
 11
12.0
 21
9.0
 12
0.0
 22
0.0
 32
0.0
 14
0.0
 24
0.0
 34
0.0
 15
0.0
 25
0.0
 35
0.0
146
0.0
 13
0.0
 23
0.0
 33
0.0
 16
1.0
 26
0.0
 36
0.0
 17
0.0
 27
1.0
 37
0.0
 76
     0
330
D6
  0
LAYOUT
  5
22
102
{ACAD_XDICTIONARY
360
2A27
102
}
102
{ACAD_REACTORS
330
1A
102
}
330
1A
100
AcDbPlotSettings
  1

  2
none_device
  4
Letter_(8.50_x_11.00_Inches)
  6

 40
6.349999904632568
 41
6.349999904632568
 42
6.350006103515625
 43
6.350006103515625
 44
215.8999938964844
 45
279.3999938964844
 46
11.54999923706054
 47
-13.65000009536743
 48
0.0
 49
0.0
140
210.0
141
297.0
142
1.0
143
1.0
 70
 11936
 72
     1
 73
     0
 74
     4
  7

 75
     0
147
0.9999999999999998
148
0.0
149
0.0
100
AcDbLayout
  1
Model
 70
     1
 71
     0
 10
0.0
 20
0.0
 11
12.0
 21
9.0
 12
0.0
 22
0.0
 32
0.0
 14
0.0
 24
0.0
 34
0.0
 15
0.0
 25
0.0
 35
0.0
146
0.0
 13
0.0
 23
0.0
 33
0.0
 16
1.0
 26
0.0
 36
0.0
 17
0.0
 27
1.0
 37
0.0
 76
     0
330
1F
331
EA
1001
ACAD_PSEXT
1000
Brak
1000
Brak
1000
Nie można zastosować.
1000
Arkusz nie zostanie wydrukowany dopóki nie wybrano konfiguracji plotera.
1070
     0
  0
MATERIAL
  5
ED
102
{ACAD_XDICTIONARY
360
2A30
102
}
102
{ACAD_REACTORS
330
6A
102
}
330
6A
100
AcDbMaterial
  1
ByBlock
 73
     2
 78
     2
172
     2
176
     2
270
     2
274
     2
  0
MATERIAL
  5
EC
102
{ACAD_XDICTIONARY
360
2A2E
102
}
102
{ACAD_REACTORS
330
6A
102
}
330
6A
100
AcDbMaterial
  1
ByLayer
 73
     2
 78
     2
172
     2
176
     2
270
     2
274
     2
  0
MATERIAL
  5
EE
102
{ACAD_XDICTIONARY
360
173
102
}
102
{ACAD_REACTORS
330
6A
102
}
330
6A
100
AcDbMaterial
  1
Global
 73
     2
 43
0.0007999999797903
 43
0.0
 43
0.0
 43
0.0
 43
0.0
 43
0.0007999999797903
 43
0.0
 43
0.0
 43
0.0
 43
0.0
 43
1.0
 43
0.0
 43
0.0
 43
0.0
 43
0.0
 43
1.0
 78
     2
172
     2
 49
0.0007999999797903
 49
0.0
 49
0.0
 49
0.0
 49
0.0
 49
0.0007999999797903
 49
0.0
 49
0.0
 49
0.0
 49
0.0
 49
1.0
 49
0.0
 49
0.0
 49
0.0
 49
0.0
 49
1.0
176
     2
142
0.0007999999797903
142
0.0
142
0.0
142
0.0
142
0.0
142
0.0007999999797903
142
0.0
142
0.0
142
0.0
142
0.0
142
1.0
142
0.0
142
0.0
142
0.0
142
0.0
142
1.0
270
     2
144
0.0007999999797903
144
0.0
144
0.0
144
0.0
144
0.0
144
0.0007999999797903
144
0.0
144
0.0
144
0.0
144
0.0
144
1.0
144
0.0
144
0.0
144
0.0
144
0.0
144
1.0
274
     2
1001
ACAD
1070
    -1
1070
     3
1070
     0
1000

1071
        0
1070
     0
  0
ACAD_PROXY_OBJECT
  5
12E
102
{ACAD_REACTORS
330
12D
102
}
330
12D
100
AcDbProxyObject
 90
      499
 91
      508
 95
       23
 70
     0
 93
      618
310
40901902A4063FBFFFFFE0000000000000020400000000000020404254DD185B99185C99000000000000000104090140501A0000000000000410000000000000004102576400000000000003903F
340
14
340
0
340
11
340
0
 94
        0
1001
ACAD_MLEADERVER
1070
     2
1001
ACAD
1000
AcRTDxfName
1000
MLEADERSTYLE
1000
AcRTDxfName
1000
MLEADERSTYLE
  0
MLINESTYLE
  5
7E9
102
{ACAD_REACTORS
330
17
102
}
330
17
100
AcDbMlineStyle
  2
SOLBET_IZOLACJA
 70
   272
  3

 62
   256
 51
90.0
 52
90.0
 71
     2
 49
0.008
 62
   256
  6
BYLAYER
 49
-0.008
 62
   256
  6
BYLAYER
  0
MLINESTYLE
  5
18
102
{ACAD_REACTORS
330
17
102
}
330
17
100
AcDbMlineStyle
  2
STANDARD
 70
     0
  3

 62
   256
 51
90.0
 52
90.0
 71
     2
 49
0.5
 62
   256
  6
BYLAYER
 49
-0.5
 62
   256
  6
BYLAYER
  0
ACDBPLACEHOLDER
  5
F
102
{ACAD_REACTORS
330
E
102
}
330
E
  0
ACAD_PROXY_OBJECT
  5
10D
102
{ACAD_REACTORS
330
10C
102
}
330
10C
100
AcDbProxyObject
 90
      499
 91
      507
 95
       23
 70
     0
 93
       49
310
904313A31005FF
 94
        0
1001
ACAD
1000
AcRTDxfName
1000
SCALE
1000
AcRTDxfName
1000
SCALE
  0
ACAD_PROXY_OBJECT
  5
188
102
{ACAD_REACTORS
330
10C
102
}
330
10C
100
AcDbProxyObject
 90
      499
 91
      507
 95
       23
 70
     0
 93
      113
310
904313A3200400000000000000407F
 94
        0
1001
ACAD
1000
AcRTDxfName
1000
SCALE
1000
AcRTDxfName
1000
SCALE
  0
ACAD_PROXY_OBJECT
  5
189
102
{ACAD_REACTORS
330
10C
102
}
330
10C
100
AcDbProxyObject
 90
      499
 91
      507
 95
       23
 70
     0
 93
      113
310
904313A3400400000000000010407F
 94
        0
1001
ACAD
1000
AcRTDxfName
1000
SCALE
1000
AcRTDxfName
1000
SCALE
  0
ACAD_PROXY_OBJECT
  5
18A
102
{ACAD_REACTORS
330
10C
102
}
330
10C
100
AcDbProxyObject
 90
      499
 91
      507
 95
       23
 70
     0
 93
      113
310
904313A3500400000000000014407F
 94
        0
1001
ACAD
1000
AcRTDxfName
1000
SCALE
1000
AcRTDxfName
1000
SCALE
  0
ACAD_PROXY_OBJECT
  5
18B
102
{ACAD_REACTORS
330
10C
102
}
330
10C
100
AcDbProxyObject
 90
      499
 91
      507
 95
       23
 70
     0
 93
      113
310
904313A3800400000000000020407F
 94
        0
1001
ACAD
1000
AcRTDxfName
1000
SCALE
1000
AcRTDxfName
1000
SCALE
  0
ACAD_PROXY_OBJECT
  5
18C
102
{ACAD_REACTORS
330
10C
102
}
330
10C
100
AcDbProxyObject
 90
      499
 91
      507
 95
       23
 70
     0
 93
      121
310
905313A313000400000000000024407F
 94
        0
1001
ACAD
1000
AcRTDxfName
1000
SCALE
1000
AcRTDxfName
1000
SCALE
  0
ACAD_PROXY_OBJECT
  5
18D
102
{ACAD_REACTORS
330
10C
102
}
330
10C
100
AcDbProxyObject
 90
      499
 91
      507
 95
       23
 70
     0
 93
      121
310
905313A313600400000000000030407F
 94
        0
1001
ACAD
1000
AcRTDxfName
1000
SCALE
1000
AcRTDxfName
1000
SCALE
  0
ACAD_PROXY_OBJECT
  5
18E
102
{ACAD_REACTORS
330
10C
102
}
330
10C
100
AcDbProxyObject
 90
      499
 91
      507
 95
       23
 70
     0
 93
      121
310
905313A323000400000000000034407F
 94
        0
1001
ACAD
1000
AcRTDxfName
1000
SCALE
1000
AcRTDxfName
1000
SCALE
  0
ACAD_PROXY_OBJECT
  5
18F
102
{ACAD_REACTORS
330
10C
102
}
330
10C
100
AcDbProxyObject
 90
      499
 91
      507
 95
       23
 70
     0
 93
      121
310
905313A33300040000000000003E407F
 94
        0
1001
ACAD
1000
AcRTDxfName
1000
SCALE
1000
AcRTDxfName
1000
SCALE
  0
ACAD_PROXY_OBJECT
  5
190
102
{ACAD_REACTORS
330
10C
102
}
330
10C
100
AcDbProxyObject
 90
      499
 91
      507
 95
       23
 70
     0
 93
      121
310
905313A343000400000000000044407F
 94
        0
1001
ACAD
1000
AcRTDxfName
1000
SCALE
1000
AcRTDxfName
1000
SCALE
  0
ACAD_PROXY_OBJECT
  5
191
102
{ACAD_REACTORS
330
10C
102
}
330
10C
100
AcDbProxyObject
 90
      499
 91
      507
 95
       23
 70
     0
 93
      121
310
905313A353000400000000000049407F
 94
        0
1001
ACAD
1000
AcRTDxfName
1000
SCALE
1000
AcRTDxfName
1000
SCALE
  0
ACAD_PROXY_OBJECT
  5
192
102
{ACAD_REACTORS
330
10C
102
}
330
10C
100
AcDbProxyObject
 90
      499
 91
      507
 95
       23
 70
     0
 93
      129
310
906313A31303000400000000000059407F
 94
        0
1001
ACAD
1000
AcRTDxfName
1000
SCALE
1000
AcRTDxfName
1000
SCALE
  0
ACAD_PROXY_OBJECT
  5
193
102
{ACAD_REACTORS
330
10C
102
}
330
10C
100
AcDbProxyObject
 90
      499
 91
      507
 95
       23
 70
     0
 93
      113
310
904323A3100000000000000001017F
 94
        0
1001
ACAD
1000
AcRTDxfName
1000
SCALE
1000
AcRTDxfName
1000
SCALE
  0
ACAD_PROXY_OBJECT
  5
194
102
{ACAD_REACTORS
330
10C
102
}
330
10C
100
AcDbProxyObject
 90
      499
 91
      507
 95
       23
 70
     0
 93
      113
310
904343A3100000000000000041017F
 94
        0
1001
ACAD
1000
AcRTDxfName
1000
SCALE
1000
AcRTDxfName
1000
SCALE
  0
ACAD_PROXY_OBJECT
  5
195
102
{ACAD_REACTORS
330
10C
102
}
330
10C
100
AcDbProxyObject
 90
      499
 91
      507
 95
       23
 70
     0
 93
      113
310
904383A3100000000000000081017F
 94
        0
1001
ACAD
1000
AcRTDxfName
1000
SCALE
1000
AcRTDxfName
1000
SCALE
  0
ACAD_PROXY_OBJECT
  5
196
102
{ACAD_REACTORS
330
10C
102
}
330
10C
100
AcDbProxyObject
 90
      499
 91
      507
 95
       23
 70
     0
 93
      121
310
90531303A3100000000000000091017F
 94
        0
1001
ACAD
1000
AcRTDxfName
1000
SCALE
1000
AcRTDxfName
1000
SCALE
  0
ACAD_PROXY_OBJECT
  5
197
102
{ACAD_REACTORS
330
10C
102
}
330
10C
100
AcDbProxyObject
 90
      499
 91
      507
 95
       23
 70
     0
 93
      129
310
9063130303A3100000000000000165017F
 94
        0
1001
ACAD
1000
AcRTDxfName
1000
SCALE
1000
AcRTDxfName
1000
SCALE
  0
ACAD_PROXY_OBJECT
  5
198
102
{ACAD_REACTORS
330
10C
102
}
330
10C
100
AcDbProxyObject
 90
      499
 91
      507
 95
       23
 70
     0
 93
      265
310
90F312F31323822203D2031272D302200000000000000200FC00000000000028407F
 94
        0
1001
ACAD
1000
AcRTDxfName
1000
SCALE
1000
AcRTDxfName
1000
SCALE
  0
ACAD_PROXY_OBJECT
  5
199
102
{ACAD_REACTORS
330
10C
102
}
330
10C
100
AcDbProxyObject
 90
      499
 91
      507
 95
       23
 70
     0
 93
      257
310
90E312F363422203D2031272D302200000000000000240FC00000000000028407F
 94
        0
1001
ACAD
1000
AcRTDxfName
1000
SCALE
1000
AcRTDxfName
1000
SCALE
  0
ACAD_PROXY_OBJECT
  5
19A
102
{ACAD_REACTORS
330
10C
102
}
330
10C
100
AcDbProxyObject
 90
      499
 91
      507
 95
       23
 70
     0
 93
      257
310
90E312F333222203D2031272D302200000000000000280FC00000000000028407F
 94
        0
1001
ACAD
1000
AcRTDxfName
1000
SCALE
1000
AcRTDxfName
1000
SCALE
  0
ACAD_PROXY_OBJECT
  5
19B
102
{ACAD_REACTORS
330
10C
102
}
330
10C
100
AcDbProxyObject
 90
      499
 91
      507
 95
       23
 70
     0
 93
      257
310
90E312F313622203D2031272D3022000000000000002C0FC00000000000028407F
 94
        0
1001
ACAD
1000
AcRTDxfName
1000
SCALE
1000
AcRTDxfName
1000
SCALE
  0
ACAD_PROXY_OBJECT
  5
19C
102
{ACAD_REACTORS
330
10C
102
}
330
10C
100
AcDbProxyObject
 90
      499
 91
      507
 95
       23
 70
     0
 93
      257
310
90E332F333222203D2031272D3022000000000000002E0FC00000000000028407F
 94
        0
1001
ACAD
1000
AcRTDxfName
1000
SCALE
1000
AcRTDxfName
1000
SCALE
  0
ACAD_PROXY_OBJECT
  5
19D
102
{ACAD_REACTORS
330
10C
102
}
330
10C
100
AcDbProxyObject
 90
      499
 91
      507
 95
       23
 70
     0
 93
      249
310
90D312F3822203D2031272D302200000000000000300FC00000000000028407F
 94
        0
1001
ACAD
1000
AcRTDxfName
1000
SCALE
1000
AcRTDxfName
1000
SCALE
  0
ACAD_PROXY_OBJECT
  5
19E
102
{ACAD_REACTORS
330
10C
102
}
330
10C
100
AcDbProxyObject
 90
      499
 91
      507
 95
       23
 70
     0
 93
      257
310
90E332F313622203D2031272D302200000000000000320FC00000000000028407F
 94
        0
1001
ACAD
1000
AcRTDxfName
1000
SCALE
1000
AcRTDxfName
1000
SCALE
  0
ACAD_PROXY_OBJECT
  5
19F
102
{ACAD_REACTORS
330
10C
102
}
330
10C
100
AcDbProxyObject
 90
      499
 91
      507
 95
       23
 70
     0
 93
      249
310
90D312F3422203D2031272D302200000000000000340FC00000000000028407F
 94
        0
1001
ACAD
1000
AcRTDxfName
1000
SCALE
1000
AcRTDxfName
1000
SCALE
  0
ACAD_PROXY_OBJECT
  5
1A0
102
{ACAD_REACTORS
330
10C
102
}
330
10C
100
AcDbProxyObject
 90
      499
 91
      507
 95
       23
 70
     0
 93
      249
310
90D332F3822203D2031272D302200000000000000360FC00000000000028407F
 94
        0
1001
ACAD
1000
AcRTDxfName
1000
SCALE
1000
AcRTDxfName
1000
SCALE
  0
ACAD_PROXY_OBJECT
  5
1A1
102
{ACAD_REACTORS
330
10C
102
}
330
10C
100
AcDbProxyObject
 90
      499
 91
      507
 95
       23
 70
     0
 93
      249
310
90D312F3222203D2031272D302200000000000000380FC00000000000028407F
 94
        0
1001
ACAD
1000
AcRTDxfName
1000
SCALE
1000
AcRTDxfName
1000
SCALE
  0
ACAD_PROXY_OBJECT
  5
1A2
102
{ACAD_REACTORS
330
10C
102
}
330
10C
100
AcDbProxyObject
 90
      499
 91
      507
 95
       23
 70
     0
 93
      249
310
90D332F3422203D2031272D3022000000000000003A0FC00000000000028407F
 94
        0
1001
ACAD
1000
AcRTDxfName
1000
SCALE
1000
AcRTDxfName
1000
SCALE
  0
ACAD_PROXY_OBJECT
  5
1A3
102
{ACAD_REACTORS
330
10C
102
}
330
10C
100
AcDbProxyObject
 90
      499
 91
      507
 95
       23
 70
     0
 93
      169
310
90B3122203D2031272D302200400000000000028407F
 94
        0
1001
ACAD
1000
AcRTDxfName
1000
SCALE
1000
AcRTDxfName
1000
SCALE
  0
ACAD_PROXY_OBJECT
  5
1A4
102
{ACAD_REACTORS
330
10C
102
}
330
10C
100
AcDbProxyObject
 90
      499
 91
      507
 95
       23
 70
     0
 93
      265
310
90F312D312F3222203D2031272D3022000000000000003E0FC00000000000028407F
 94
        0
1001
ACAD
1000
AcRTDxfName
1000
SCALE
1000
AcRTDxfName
1000
SCALE
  0
ACAD_PROXY_OBJECT
  5
1A5
102
{ACAD_REACTORS
330
10C
102
}
330
10C
100
AcDbProxyObject
 90
      499
 91
      507
 95
       23
 70
     0
 93
      233
310
90B3322203D2031272D3022000000000000000210000000000000028407F
 94
        0
1001
ACAD
1000
AcRTDxfName
1000
SCALE
1000
AcRTDxfName
1000
SCALE
  0
ACAD_PROXY_OBJECT
  5
1A6
102
{ACAD_REACTORS
330
10C
102
}
330
10C
100
AcDbProxyObject
 90
      499
 91
      507
 95
       23
 70
     0
 93
      233
310
90B3622203D2031272D3022000000000000000610000000000000028407F
 94
        0
1001
ACAD
1000
AcRTDxfName
1000
SCALE
1000
AcRTDxfName
1000
SCALE
  0
ACAD_PROXY_OBJECT
  5
1A7
102
{ACAD_REACTORS
330
10C
102
}
330
10C
100
AcDbProxyObject
 90
      499
 91
      507
 95
       23
 70
     0
 93
      257
310
90E31272D3022203D2031272D3022000000000000000A10000000000000028407F
 94
        0
1001
ACAD
1000
AcRTDxfName
1000
SCALE
1000
AcRTDxfName
1000
SCALE
  0
TABLESTYLE
  5
7F
102
{ACAD_XDICTIONARY
360
162
102
}
102
{ACAD_REACTORS
330
7E
102
}
330
7E
100
AcDbTableStyle
  3
Standard
 70
     0
 71
     0
 40
1.5
 41
1.5
280
     0
281
     0
  7
Standard
140
4.5
170
     2
 62
     0
 63
     7
283
     0
274
    -2
284
     1
 64
     0
275
    -2
285
     1
 65
     0
276
    -2
286
     1
 66
     0
277
    -2
287
     1
 67
     0
278
    -2
288
     1
 68
     0
279
    -2
289
     1
 69
     0
  7
Standard
140
6.0
170
     5
 62
     0
 63
     7
283
     0
274
    -2
284
     1
 64
     0
275
    -2
285
     1
 65
     0
276
    -2
286
     1
 66
     0
277
    -2
287
     1
 67
     0
278
    -2
288
     1
 68
     0
279
    -2
289
     1
 69
     0
  7
Standard
140
4.5
170
     5
 62
     0
 63
     7
283
     0
274
    -2
284
     1
 64
     0
275
    -2
285
     1
 65
     0
276
    -2
286
     1
 66
     0
277
    -2
287
     1
 67
     0
278
    -2
288
     1
 68
     0
279
    -2
289
     1
 69
     0
  0
VISUALSTYLE
  5
F5
102
{ACAD_REACTORS
330
EF
102
}
330
EF
100
AcDbVisualStyle
  2
2dWireframe
 70
     4
 71
     0
 72
     2
 73
     1
 90
        0
 40
-0.6
 41
-30.0
 62
     5
 63
     7
 74
     1
 91
        4
 64
     7
 65
   257
 75
     1
175
     1
 42
1.0
 92
        0
 66
   257
 43
1.0
 76
     1
 77
     6
 78
     2
 67
     7
 79
     5
170
     0
171
     0
290
     0
174
     0
 93
        1
 44
0.0
173
     0
291
     0
 45
0.0
1001
ACAD
1000
AcDbSavedByObjectVersion
1070
     0
  0
VISUALSTYLE
  5
F7
102
{ACAD_REACTORS
330
EF
102
}
330
EF
100
AcDbVisualStyle
  2
3D Hidden
 70
     6
 71
     1
 72
     2
 73
     2
 90
        0
 40
-0.6
 41
-30.0
 62
     5
 63
     7
 74
     2
 91
        2
 64
     7
 65
   257
 75
     2
175
     1
 42
40.0
 92
        0
 66
   257
 43
1.0
 76
     1
 77
     6
 78
     2
 67
     7
 79
     3
170
     0
171
     0
290
     0
174
     0
 93
        1
 44
0.0
173
     0
291
     0
 45
0.0
1001
ACAD
1000
AcDbSavedByObjectVersion
1070
     0
  0
VISUALSTYLE
  5
F6
102
{ACAD_REACTORS
330
EF
102
}
330
EF
100
AcDbVisualStyle
  2
3dWireframe
 70
     5
 71
     0
 72
     2
 73
     1
 90
        0
 40
-0.6
 41
-30.0
 62
     5
 63
     7
 74
     1
 91
        4
 64
     7
 65
   257
 75
     1
175
     1
 42
1.0
 92
        0
 66
   257
 43
1.0
 76
     1
 77
     6
 78
     2
 67
     7
 79
     5
170
     0
171
     0
290
     0
174
     0
 93
        1
 44
0.0
173
     0
291
     0
 45
0.0
1001
ACAD
1000
AcDbSavedByObjectVersion
1070
     0
  0
VISUALSTYLE
  5
F4
102
{ACAD_REACTORS
330
EF
102
}
330
EF
100
AcDbVisualStyle
  2
Basic
 70
     7
 71
     1
 72
     0
 73
     1
 90
        0
 40
-0.6
 41
-30.0
 62
     5
 63
     7
 74
     0
 91
        4
 64
     7
 65
   257
 75
     1
175
     1
 42
1.0
 92
        8
 66
     7
 43
1.0
 76
     1
 77
     6
 78
     2
 67
     7
 79
     5
170
     0
171
     0
290
     0
174
     0
 93
        1
 44
0.0
173
     0
291
     1
 45
0.0
1001
ACAD
1000
AcDbSavedByObjectVersion
1070
     0
  0
VISUALSTYLE
  5
FB
102
{ACAD_REACTORS
330
EF
102
}
330
EF
100
AcDbVisualStyle
  2
Brighten
 70
    12
 71
     2
 72
     2
 73
     1
 90
        0
 40
-0.6
 41
-30.0
 62
     5
 63
     7
 74
     1
 91
        4
 64
     7
 65
   257
 75
     1
175
     1
 42
1.0
 92
        8
 66
     7
 43
1.0
 76
     1
 77
     6
 78
     2
 67
     7
 79
     5
170
     0
171
     0
290
     0
174
     0
 93
        1
 44
50.0
173
     0
291
     1
 45
0.0
1001
ACAD
1000
AcDbSavedByObjectVersion
1070
     0
  0
VISUALSTYLE
  5
FF
102
{ACAD_REACTORS
330
EF
102
}
330
EF
100
AcDbVisualStyle
  2
ColorChange
 70
    16
 71
     2
 72
     2
 73
     3
 90
        0
 40
-0.6
 41
-30.0
 62
     5
 63
     8
 74
     1
 91
        4
 64
     7
 65
   257
 75
     1
175
     1
 42
1.0
 92
        8
 66
     8
 43
1.0
 76
     1
 77
     6
 78
     2
 67
     7
 79
     5
170
     0
171
     0
290
     0
174
     0
 93
        1
 44
0.0
173
     0
291
     1
 45
0.0
1001
ACAD
1000
AcDbSavedByObjectVersion
1070
     0
  0
VISUALSTYLE
  5
F8
102
{ACAD_REACTORS
330
EF
102
}
330
EF
100
AcDbVisualStyle
  2
Conceptual
 70
     9
 71
     3
 72
     2
 73
     1
 90
        0
 40
-0.6
 41
-30.0
 62
     5
 63
     7
 74
     2
 91
        2
 64
     7
 65
   257
 75
     1
175
     1
 42
40.0
 92
        8
 66
     7
 43
1.0
 76
     1
 77
     6
 78
     2
 67
     7
 79
     3
170
     0
171
     0
290
     0
174
     0
 93
        1
 44
0.0
173
     0
291
     0
 45
0.0
1001
ACAD
1000
AcDbSavedByObjectVersion
1070
     0
  0
VISUALSTYLE
  5
FA
102
{ACAD_REACTORS
330
EF
102
}
330
EF
100
AcDbVisualStyle
  2
Dim
 70
    11
 71
     2
 72
     2
 73
     1
 90
        0
 40
-0.6
 41
-30.0
 62
     5
 63
     7
 74
     1
 91
        4
 64
     7
 65
   257
 75
     1
175
     1
 42
1.0
 92
        8
 66
     7
 43
1.0
 76
     1
 77
     6
 78
     2
 67
     7
 79
     5
170
     0
171
     0
290
     0
174
     0
 93
        1
 44
-50.0
173
     0
291
     1
 45
0.0
1001
ACAD
1000
AcDbSavedByObjectVersion
1070
     0
  0
VISUALSTYLE
  5
FE
102
{ACAD_REACTORS
330
EF
102
}
330
EF
100
AcDbVisualStyle
  2
Facepattern
 70
    15
 71
     2
 72
     2
 73
     1
 90
        0
 40
-0.6
 41
-30.0
 62
     5
 63
     7
 74
     1
 91
        4
 64
     7
 65
   257
 75
     1
175
     1
 42
1.0
 92
        8
 66
     7
 43
1.0
 76
     1
 77
     6
 78
     2
 67
     7
 79
     5
170
     0
171
     0
290
     0
174
     0
 93
        1
 44
0.0
173
     0
291
     1
 45
0.0
1001
ACAD
1000
AcDbSavedByObjectVersion
1070
     0
  0
VISUALSTYLE
  5
F0
102
{ACAD_REACTORS
330
EF
102
}
330
EF
100
AcDbVisualStyle
  2
Flat
 70
     0
 71
     2
 72
     1
 73
     1
 90
        2
 40
-0.6
 41
30.0
 62
     5
 63
     7
 74
     0
 91
        4
 64
     7
 65
   257
 75
     1
175
     1
 42
1.0
 92
        8
 66
     7
 43
1.0
 76
     1
 77
     6
 78
     2
 67
     7
 79
     5
170
     0
171
     0
290
     0
174
     0
 93
        1
 44
0.0
173
     0
291
     1
 45
0.0
1001
ACAD
1000
AcDbSavedByObjectVersion
1070
     0
  0
VISUALSTYLE
  5
F1
102
{ACAD_REACTORS
330
EF
102
}
330
EF
100
AcDbVisualStyle
  2
FlatWithEdges
 70
     1
 71
     2
 72
     1
 73
     1
 90
        2
 40
-0.6
 41
30.0
 62
     5
 63
     7
 74
     1
 91
        4
 64
     7
 65
   257
 75
     1
175
     1
 42
1.0
 92
        0
 66
   257
 43
1.0
 76
     1
 77
     6
 78
     2
 67
     7
 79
     5
170
     0
171
     0
290
     0
174
     0
 93
        1
 44
0.0
173
     0
291
     1
 45
0.0
1001
ACAD
1000
AcDbSavedByObjectVersion
1070
     0
  0
VISUALSTYLE
  5
F2
102
{ACAD_REACTORS
330
EF
102
}
330
EF
100
AcDbVisualStyle
  2
Gouraud
 70
     2
 71
     2
 72
     2
 73
     1
 90
        2
 40
-0.6
 41
30.0
 62
     5
 63
     7
 74
     0
 91
        4
 64
     7
 65
   257
 75
     1
175
     1
 42
1.0
 92
        0
 66
     7
 43
1.0
 76
     1
 77
     6
 78
     2
 67
     7
 79
     5
170
     0
171
     0
290
     0
174
     0
 93
        1
 44
0.0
173
     0
291
     1
 45
0.0
1001
ACAD
1000
AcDbSavedByObjectVersion
1070
     0
  0
VISUALSTYLE
  5
F3
102
{ACAD_REACTORS
330
EF
102
}
330
EF
100
AcDbVisualStyle
  2
GouraudWithEdges
 70
     3
 71
     2
 72
     2
 73
     1
 90
        2
 40
-0.6
 41
30.0
 62
     5
 63
     7
 74
     1
 91
        4
 64
     7
 65
   257
 75
     1
175
     1
 42
1.0
 92
        0
 66
   257
 43
1.0
 76
     1
 77
     6
 78
     2
 67
     7
 79
     5
170
     0
171
     0
290
     0
174
     0
 93
        1
 44
0.0
173
     0
291
     1
 45
0.0
1001
ACAD
1000
AcDbSavedByObjectVersion
1070
     0
  0
VISUALSTYLE
  5
FD
102
{ACAD_REACTORS
330
EF
102
}
330
EF
100
AcDbVisualStyle
  2
Linepattern
 70
    14
 71
     2
 72
     2
 73
     1
 90
        0
 40
-0.6
 41
-30.0
 62
     5
 63
     7
 74
     1
 91
        4
 64
     7
 65
   257
 75
     7
175
     7
 42
1.0
 92
        8
 66
     7
 43
1.0
 76
     1
 77
     6
 78
     2
 67
     7
 79
     5
170
     0
171
     0
290
     0
174
     0
 93
        1
 44
0.0
173
     0
291
     1
 45
0.0
1001
ACAD
1000
AcDbSavedByObjectVersion
1070
     0
  0
VISUALSTYLE
  5
F9
102
{ACAD_REACTORS
330
EF
102
}
330
EF
100
AcDbVisualStyle
  2
Realistic
 70
     8
 71
     2
 72
     2
 73
     1
 90
        0
 40
-0.6
 41
-30.0
 62
     5
 63
     7
 74
     1
 91
        0
 64
     7
 65
   257
 75
     1
175
     1
 42
1.0
 92
        8
 66
     8
 43
1.0
 76
     1
 77
     6
 78
     2
 67
     7
 79
     5
170
     0
171
     0
290
     0
174
     0
 93
       13
 44
0.0
173
     0
291
     0
 45
0.0
1001
ACAD
1000
AcDbSavedByObjectVersion
1070
     0
  0
VISUALSTYLE
  5
FC
102
{ACAD_REACTORS
330
EF
102
}
330
EF
100
AcDbVisualStyle
  2
Thicken
 70
    13
 71
     2
 72
     2
 73
     1
 90
        0
 40
-0.6
 41
-30.0
 62
     5
 63
     7
 74
     1
 91
        4
 64
     7
 65
   257
 75
     1
175
     1
 42
1.0
 92
       12
 66
     7
 43
1.0
 76
     1
 77
     6
 78
     2
 67
     7
 79
     5
170
     0
171
     0
290
     0
174
     0
 93
        1
 44
0.0
173
     0
291
     1
 45
0.0
1001
ACAD
1000
AcDbSavedByObjectVersion
1070
     0
  0
DICTIONARYVAR
  5
146
102
{ACAD_REACTORS
330
5E
102
}
330
5E
100
DictionaryVariables
280
     0
  1
1:1
  0
DICTIONARYVAR
  5
145
102
{ACAD_REACTORS
330
5E
102
}
330
5E
100
DictionaryVariables
280
     0
  1
STANDARD
  0
DICTIONARYVAR
  5
84
102
{ACAD_REACTORS
330
5E
102
}
330
5E
100
DictionaryVariables
280
     0
  1
STANDARD
  0
DICTIONARYVAR
  5
5F
102
{ACAD_REACTORS
330
5E
102
}
330
5E
100
DictionaryVariables
280
     0
  1
2
  0
DICTIONARYVAR
  5
63
102
{ACAD_REACTORS
330
5E
102
}
330
5E
100
DictionaryVariables
280
     0
  1
1
  0
DICTIONARYVAR
  5
466
102
{ACAD_REACTORS
330
5E
102
}
330
5E
100
DictionaryVariables
280
     0
  1
0
  0
DICTIONARYVAR
  5
464
102
{ACAD_REACTORS
330
5E
102
}
330
5E
100
DictionaryVariables
280
     0
  1
2
  0
DICTIONARYVAR
  5
463
102
{ACAD_REACTORS
330
5E
102
}
330
5E
100
DictionaryVariables
280
     0
  1
1
  0
DICTIONARYVAR
  5
2A25
102
{ACAD_REACTORS
330
5E
102
}
330
5E
100
DictionaryVariables
280
     0
  1
80.000000
  0
DICTIONARYVAR
  5
2A24
102
{ACAD_REACTORS
330
5E
102
}
330
5E
100
DictionaryVariables
280
     0
  1
5.000000
  0
DICTIONARYVAR
  5
465
102
{ACAD_REACTORS
330
5E
102
}
330
5E
100
DictionaryVariables
280
     0
  1
127
  0
DICTIONARY
  5
235A
102
{ACAD_REACTORS
330
2359
102
}
330
2359
100
AcDbDictionary
281
     1
  0
DICTIONARY
  5
2A2A
330
D3
100
AcDbDictionary
280
     1
281
     1
  3
ACAD_XREC_ROUNDTRIP
360
2A2B
  0
DICTIONARY
  5
2A2C
330
D7
100
AcDbDictionary
280
     1
281
     1
  3
ACAD_XREC_ROUNDTRIP
360
2A2D
  0
DICTIONARY
  5
2A27
330
22
100
AcDbDictionary
280
     1
281
     1
  3
ACAD_XREC_ROUNDTRIP
360
2A28
  0
DICTIONARY
  5
2A30
330
ED
100
AcDbDictionary
280
     1
281
     1
  3
ACAD_XREC_ROUNDTRIP
360
2A31
  0
DICTIONARY
  5
2A2E
330
EC
100
AcDbDictionary
280
     1
281
     1
  3
ACAD_XREC_ROUNDTRIP
360
2A2F
  0
DICTIONARY
  5
173
330
EE
100
AcDbDictionary
280
     1
281
     1
  3
ACAD_XREC_ROUNDTRIP
360
2A32
  3
BUMPTILE
360
175
  3
DIFFUSETILE
360
174
  3
OPACITYTILE
360
176
  3
REFLECTIONTILE
360
177
  0
DICTIONARY
  5
162
330
7F
100
AcDbDictionary
280
     1
281
     1
  3
ACAD_ROUNDTRIP_2008_TABLESTYLE_CELLSTYLEMAP
360
28D3
  3
ACAD_XREC_ROUNDTRIP
360
2A29
  0
XRECORD
  5
2A2B
102
{ACAD_REACTORS
330
2A2A
102
}
330
2A2A
100
AcDbXrecord
280
     1
102
SHADEPLOT
 70
     0
102
SHADEPLOTRESLEVEL
 70
     2
102
SHADEPLOTCUSTOMDPI
 70
   300
  0
XRECORD
  5
2A2D
102
{ACAD_REACTORS
330
2A2C
102
}
330
2A2C
100
AcDbXrecord
280
     1
102
SHADEPLOT
 70
     0
102
SHADEPLOTRESLEVEL
 70
     2
102
SHADEPLOTCUSTOMDPI
 70
   300
  0
XRECORD
  5
2A28
102
{ACAD_REACTORS
330
2A27
102
}
330
2A27
100
AcDbXrecord
280
     1
102
SHADEPLOT
 70
     0
102
SHADEPLOTRESLEVEL
 70
     2
102
SHADEPLOTCUSTOMDPI
 70
   300
  0
XRECORD
  5
2A31
102
{ACAD_REACTORS
330
2A30
102
}
330
2A30
100
AcDbXrecord
280
     1
102
MATERIAL
148
0.0
149
0.0
149
0.0
 93
        0
 94
       63
282
     0
 72
     1
 77
     1
171
     1
175
     1
179
     1
273
     0
  0
XRECORD
  5
2A2F
102
{ACAD_REACTORS
330
2A2E
102
}
330
2A2E
100
AcDbXrecord
280
     1
102
MATERIAL
148
0.0
149
0.0
149
0.0
 93
        0
 94
       63
282
     0
 72
     1
 77
     1
171
     1
175
     1
179
     1
273
     0
  0
XRECORD
  5
2A32
102
{ACAD_REACTORS
330
173
102
}
330
173
100
AcDbXrecord
280
     1
102
MATERIAL
148
0.0
149
0.0
149
0.0
 93
        0
 94
       63
282
     0
 72
     1
 77
     1
171
     1
175
     1
179
     1
273
     0
  0
XRECORD
  5
175
102
{ACAD_REACTORS
330
173
102
}
330
173
100
AcDbXrecord
280
     1
270
     1
271
     1
  0
XRECORD
  5
174
102
{ACAD_REACTORS
330
173
102
}
330
173
100
AcDbXrecord
280
     1
270
     1
271
     1
  0
XRECORD
  5
176
102
{ACAD_REACTORS
330
173
102
}
330
173
100
AcDbXrecord
280
     1
270
     1
271
     1
  0
XRECORD
  5
177
102
{ACAD_REACTORS
330
173
102
}
330
173
100
AcDbXrecord
280
     1
270
     1
271
     1
  0
ACAD_PROXY_OBJECT
  5
28D3
102
{ACAD_REACTORS
330
162
102
}
330
162
100
AcDbProxyObject
 90
      499
 91
      509
 95
       23
 70
     0
 93
     5304
310
40D054060020000020000003200101A000080002A5058000000C10000000000000006101010000000000003E0FC000000000000F83F0000000000003E0FC000000000000F83F02B5E8DC0F42B1CFC0AD7A3703D0AC73F419019018000000C1003FBFFFFFE0000000000003C8FD029018000000C1003FBFFFFFE00000000000
310
03C8FD049018000000C1003FBFFFFFE0000000000003C8FD089018000000C1003FBFFFFFE0000000000003C8FD109018000000C1003FBFFFFFE0000000000003C8FD209018000000C1003FBFFFFFE0000000000003C8FD01405075F5449544C450041501A8000000C800406800020000A94160000003040000000000000012
310
40404000000000000F83F0000000000003E0FC000000000000F83F0000000000003E0FC0AD7A3703D0AC73F02B5E8DC0F42B1CFD0640640600000030400FEFFFFFF8000000000000F23F40A40600000030400FEFFFFFF8000000000000F23F41240600000030400FEFFFFFF8000000000000F23F42240600000030400FEFFF
310
FFF8000000000000F23F44240600000030400FEFFFFFF8000000000000F23F48240600000030400FEFFFFFF8000000000000F23F409014217D2115051115480105406A0000003200101A000080002A5028000000C10000000000000004901010000000000003E0FC000000000000F83F0000000000003E0FC000000000000F
310
83F02B5E8DC0F42B1CFC0AD7A3703D0AC73F419019018000000C1003FBFFFFFE0000000000003C8FD029018000000C1003FBFFFFFE0000000000003C8FD049018000000C1003FBFFFFFE0000000000003C8FD089018000000C1003FBFFFFFE0000000000003C8FD109018000000C1003FBFFFFFE0000000000003C8FD20901
310
8000000C1003FBFFFFFE0000000000003C8FD03409065F444154410000
340
11
340
14
340
14
340
14
340
14
340
14
340
14
340
11
340
14
340
14
340
14
340
14
340
14
340
14
340
11
340
14
340
14
340
14
340
14
340
14
340
14
 94
        0
1001
ACAD
1000
AcRTDxfName
1000
CELLSTYLEMAP
1000
AcRTDxfName
1000
CELLSTYLEMAP
  0
XRECORD
  5
2A29
102
{ACAD_REACTORS
330
162
102
}
330
162
100
AcDbXrecord
280
     1
102
ACAD_ROUNDTRIP_PRE2007_TABLESTYLE
 90
      512
 91
        0
  1

 92
      512
 93
        0
  2

 94
      512
 95
        0
  3

  0
ENDSEC
  0
EOF
