  0
SECTION
  2
HEADER
  9
$ACADVER
  1
AC1015
  9
$ACADMAINTVER
 70
    20
  9
$DWGCODEPAGE
  3
ANSI_1250
  9
$INSBASE
 10
0.0
 20
0.0
 30
0.0
  9
$EXTMIN
 10
-0.0050982220222977
 20
-0.004528679247187
 30
-0.0000000000112498
  9
$EXTMAX
 10
334.3568769852385
 20
297.0045328285427
 30
0.0000000000002956
  9
$LIMMIN
 10
0.0
 20
0.0
  9
$LIMMAX
 10
334.3517740920906
 20
297.0
  9
$ORTHOMODE
 70
     0
  9
$REGENMODE
 70
     1
  9
$FILLMODE
 70
     1
  9
$QTEXTMODE
 70
     0
  9
$MIRRTEXT
 70
     0
  9
$LTSCALE
 40
1.0
  9
$ATTMODE
 70
     2
  9
$TEXTSIZE
 40
2.5
  9
$TRACEWID
 40
1.0
  9
$TEXTSTYLE
  7
Standard
  9
$CLAYER
  8
SOLBET_Emulsje_Folie
  9
$CELTYPE
  6
ByLayer
  9
$CECOLOR
 62
   256
  9
$CELTSCALE
 40
1.0
  9
$DISPSILH
 70
     0
  9
$DIMSCALE
 40
1.0
  9
$DIMASZ
 40
2.5
  9
$DIMEXO
 40
0.0
  9
$DIMDLI
 40
3.75
  9
$DIMRND
 40
0.0
  9
$DIMDLE
 40
0.0
  9
$DIMEXE
 40
1.25
  9
$DIMTP
 40
0.0
  9
$DIMTM
 40
0.0
  9
$DIMTXT
 40
2.5
  9
$DIMCEN
 40
2.5
  9
$DIMTSZ
 40
0.0
  9
$DIMTOL
 70
     0
  9
$DIMLIM
 70
     0
  9
$DIMTIH
 70
     0
  9
$DIMTOH
 70
     0
  9
$DIMSE1
 70
     0
  9
$DIMSE2
 70
     0
  9
$DIMTAD
 70
     1
  9
$DIMZIN
 70
     8
  9
$DIMBLK
  1

  9
$DIMASO
 70
     1
  9
$DIMSHO
 70
     1
  9
$DIMPOST
  1

  9
$DIMAPOST
  1

  9
$DIMALT
 70
     0
  9
$DIMALTD
 70
     3
  9
$DIMALTF
 40
0.03937007874016
  9
$DIMLFAC
 40
1.0
  9
$DIMTOFL
 70
     1
  9
$DIMTVP
 40
0.0
  9
$DIMTIX
 70
     0
  9
$DIMSOXD
 70
     0
  9
$DIMSAH
 70
     0
  9
$DIMBLK1
  1

  9
$DIMBLK2
  1

  9
$DIMSTYLE
  2
Solbet
  9
$DIMCLRD
 70
     0
  9
$DIMCLRE
 70
     0
  9
$DIMCLRT
 70
     0
  9
$DIMTFAC
 40
1.0
  9
$DIMGAP
 40
0.625
  9
$DIMJUST
 70
     0
  9
$DIMSD1
 70
     0
  9
$DIMSD2
 70
     0
  9
$DIMTOLJ
 70
     0
  9
$DIMTZIN
 70
     8
  9
$DIMALTZ
 70
     0
  9
$DIMALTTZ
 70
     0
  9
$DIMUPT
 70
     0
  9
$DIMDEC
 70
     2
  9
$DIMTDEC
 70
     2
  9
$DIMALTU
 70
     2
  9
$DIMALTTD
 70
     3
  9
$DIMTXSTY
  7
Solbet_2_5
  9
$DIMAUNIT
 70
     0
  9
$DIMADEC
 70
     0
  9
$DIMALTRND
 40
0.0
  9
$DIMAZIN
 70
     0
  9
$DIMDSEP
 70
    44
  9
$DIMATFIT
 70
     3
  9
$DIMFRAC
 70
     0
  9
$DIMLDRBLK
  1

  9
$DIMLUNIT
 70
     2
  9
$DIMLWD
 70
    -2
  9
$DIMLWE
 70
    -2
  9
$DIMTMOVE
 70
     0
  9
$LUNITS
 70
     2
  9
$LUPREC
 70
     4
  9
$SKETCHINC
 40
1.0
  9
$FILLETRAD
 40
0.0
  9
$AUNITS
 70
     0
  9
$AUPREC
 70
     0
  9
$MENU
  1
.
  9
$ELEVATION
 40
0.0
  9
$PELEVATION
 40
0.0
  9
$THICKNESS
 40
0.0
  9
$LIMCHECK
 70
     0
  9
$CHAMFERA
 40
0.0
  9
$CHAMFERB
 40
0.0
  9
$CHAMFERC
 40
0.0
  9
$CHAMFERD
 40
0.0
  9
$SKPOLY
 70
     0
  9
$TDCREATE
 40
2454725.418526782
  9
$TDUCREATE
 40
2454725.376860116
  9
$TDUPDATE
 40
2454848.833644838
  9
$TDUUPDATE
 40
2454848.791978171
  9
$TDINDWG
 40
0.3059709954
  9
$TDUSRTIMER
 40
0.3059693750
  9
$USRTIMER
 70
     1
  9
$ANGBASE
 50
0.0
  9
$ANGDIR
 70
     0
  9
$PDMODE
 70
     0
  9
$PDSIZE
 40
0.0
  9
$PLINEWID
 40
0.0
  9
$SPLFRAME
 70
     0
  9
$SPLINETYPE
 70
     6
  9
$SPLINESEGS
 70
     8
  9
$HANDSEED
  5
4F3B
  9
$SURFTAB1
 70
     6
  9
$SURFTAB2
 70
     6
  9
$SURFTYPE
 70
     6
  9
$SURFU
 70
     6
  9
$SURFV
 70
     6
  9
$UCSBASE
  2

  9
$UCSNAME
  2

  9
$UCSORG
 10
0.0
 20
0.0
 30
0.0
  9
$UCSXDIR
 10
1.0
 20
0.0
 30
0.0
  9
$UCSYDIR
 10
0.0
 20
1.0
 30
0.0
  9
$UCSORTHOREF
  2

  9
$UCSORTHOVIEW
 70
     0
  9
$UCSORGTOP
 10
0.0
 20
0.0
 30
0.0
  9
$UCSORGBOTTOM
 10
0.0
 20
0.0
 30
0.0
  9
$UCSORGLEFT
 10
0.0
 20
0.0
 30
0.0
  9
$UCSORGRIGHT
 10
0.0
 20
0.0
 30
0.0
  9
$UCSORGFRONT
 10
0.0
 20
0.0
 30
0.0
  9
$UCSORGBACK
 10
0.0
 20
0.0
 30
0.0
  9
$PUCSBASE
  2

  9
$PUCSNAME
  2

  9
$PUCSORG
 10
0.0
 20
0.0
 30
0.0
  9
$PUCSXDIR
 10
1.0
 20
0.0
 30
0.0
  9
$PUCSYDIR
 10
0.0
 20
1.0
 30
0.0
  9
$PUCSORTHOREF
  2

  9
$PUCSORTHOVIEW
 70
     0
  9
$PUCSORGTOP
 10
0.0
 20
0.0
 30
0.0
  9
$PUCSORGBOTTOM
 10
0.0
 20
0.0
 30
0.0
  9
$PUCSORGLEFT
 10
0.0
 20
0.0
 30
0.0
  9
$PUCSORGRIGHT
 10
0.0
 20
0.0
 30
0.0
  9
$PUCSORGFRONT
 10
0.0
 20
0.0
 30
0.0
  9
$PUCSORGBACK
 10
0.0
 20
0.0
 30
0.0
  9
$USERI1
 70
     0
  9
$USERI2
 70
     0
  9
$USERI3
 70
     0
  9
$USERI4
 70
     0
  9
$USERI5
 70
     0
  9
$USERR1
 40
0.0
  9
$USERR2
 40
0.0
  9
$USERR3
 40
0.0
  9
$USERR4
 40
0.0
  9
$USERR5
 40
0.0
  9
$WORLDVIEW
 70
     1
  9
$SHADEDGE
 70
     3
  9
$SHADEDIF
 70
    70
  9
$TILEMODE
 70
     1
  9
$MAXACTVP
 70
    64
  9
$PINSBASE
 10
0.0
 20
0.0
 30
0.0
  9
$PLIMCHECK
 70
     0
  9
$PEXTMIN
 10
0.0
 20
0.0
 30
0.0
  9
$PEXTMAX
 10
0.0
 20
0.0
 30
0.0
  9
$PLIMMIN
 10
0.0
 20
0.0
  9
$PLIMMAX
 10
12.0
 20
9.0
  9
$UNITMODE
 70
     0
  9
$VISRETAIN
 70
     1
  9
$PLINEGEN
 70
     0
  9
$PSLTSCALE
 70
     1
  9
$TREEDEPTH
 70
  3020
  9
$CMLSTYLE
  2
Standard
  9
$CMLJUST
 70
     0
  9
$CMLSCALE
 40
20.0
  9
$PROXYGRAPHICS
 70
     1
  9
$MEASUREMENT
 70
     1
  9
$CELWEIGHT
370
    -1
  9
$ENDCAPS
280
     0
  9
$JOINSTYLE
280
     0
  9
$LWDISPLAY
290
     1
  9
$INSUNITS
 70
     4
  9
$HYPERLINKBASE
  1

  9
$STYLESHEET
  1

  9
$XEDIT
290
     1
  9
$CEPSNTYPE
380
     0
  9
$PSTYLEMODE
290
     1
  9
$FINGERPRINTGUID
  2
{991D6ED4-CB34-4C4F-80C9-C989A9A133B6}
  9
$VERSIONGUID
  2
{5883782C-44F4-4550-BE19-12DABF192740}
  9
$EXTNAMES
290
     1
  9
$PSVPSCALE
 40
0.0
  9
$OLESTARTUP
290
     0
  0
ENDSEC
  0
SECTION
  2
CLASSES
  0
CLASS
  1
ACDBDICTIONARYWDFLT
  2
AcDbDictionaryWithDefault
  3
ObjectDBX Classes
 90
        0
280
     0
281
     0
  0
CLASS
  1
ACDBPLACEHOLDER
  2
AcDbPlaceHolder
  3
ObjectDBX Classes
 90
        0
280
     0
281
     0
  0
CLASS
  1
LAYOUT
  2
AcDbLayout
  3
ObjectDBX Classes
 90
        0
280
     0
281
     0
  0
CLASS
  1
DICTIONARYVAR
  2
AcDbDictionaryVar
  3
ObjectDBX Classes
 90
        0
280
     0
281
     0
  0
CLASS
  1
TABLESTYLE
  2
AcDbTableStyle
  3
ObjectDBX Classes
 90
     4095
280
     0
281
     0
  0
CLASS
  1
MATERIAL
  2
AcDbMaterial
  3
ObjectDBX Classes
 90
     1024
280
     0
281
     0
  0
CLASS
  1
VISUALSTYLE
  2
AcDbVisualStyle
  3
ObjectDBX Classes
 90
     4095
280
     0
281
     0
  0
CLASS
  1
SCALE
  2
AcDbScale
  3
ObjectDBX Classes
 90
     1153
280
     0
281
     0
  0
CLASS
  1
MLEADERSTYLE
  2
AcDbMLeaderStyle
  3
ACDB_MLEADERSTYLE_CLASS
 90
     4095
280
     0
281
     0
  0
CLASS
  1
CELLSTYLEMAP
  2
AcDbCellStyleMap
  3
ObjectDBX Classes
 90
     1152
280
     0
281
     0
  0
CLASS
  1
SORTENTSTABLE
  2
AcDbSortentsTable
  3
ObjectDBX Classes
 90
        0
280
     0
281
     0
  0
CLASS
  1
ACDB_MTEXTOBJECTCONTEXTDATA_CLASS
  2
AcDbMTextObjectContextData
  3
ObjectDBX Classes
 90
    33921
280
     0
281
     0
  0
CLASS
  1
DIMASSOC
  2
AcDbDimAssoc
  3
"AcDbDimAssoc|Product Desc:     AcDim ARX App For Dimension|Company:          Autodesk, Inc.|WEB Address:      www.autodesk.com"
 90
    32768
280
     0
281
     0
  0
ENDSEC
  0
SECTION
  2
TABLES
  0
TABLE
  2
VPORT
  5
8
102
{ACAD_XDICTIONARY
360
3096
102
}
330
0
100
AcDbSymbolTable
 70
     1
  0
VPORT
  5
EA
330
8
100
AcDbSymbolTableRecord
100
AcDbViewportTableRecord
  2
*Active
 70
     0
 10
0.0
 20
0.0
 11
1.0
 21
1.0
 12
167.1758893816081
 22
148.5000020746477
 13
0.0
 23
0.0
 14
10.0
 24
10.0
 15
10.0
 25
10.0
 16
0.0
 26
0.0
 36
1.0
 17
0.0
 27
0.0
 37
0.0
 40
300.3091621912098
 41
1.74582560296846
 42
50.0
 43
0.0
 44
0.0
 50
0.0
 51
0.0
 71
     0
 72
  1000
 73
     1
 74
     3
 75
     0
 76
     0
 77
     0
 78
     0
281
     0
 65
     1
110
0.0
120
0.0
130
0.0
111
1.0
121
0.0
131
0.0
112
0.0
122
1.0
132
0.0
 79
     0
146
0.0
  0
ENDTAB
  0
TABLE
  2
LTYPE
  5
5
330
0
100
AcDbSymbolTable
 70
     3
  0
LTYPE
  5
14
330
5
100
AcDbSymbolTableRecord
100
AcDbLinetypeTableRecord
  2
ByBlock
 70
     0
  3

 72
    65
 73
     0
 40
0.0
  0
LTYPE
  5
15
330
5
100
AcDbSymbolTableRecord
100
AcDbLinetypeTableRecord
  2
ByLayer
 70
     0
  3

 72
    65
 73
     0
 40
0.0
  0
LTYPE
  5
16
330
5
100
AcDbSymbolTableRecord
100
AcDbLinetypeTableRecord
  2
Continuous
 70
     0
  3
Solid line
 72
    65
 73
     0
 40
0.0
  0
LTYPE
  5
30D3
330
5
100
AcDbSymbolTableRecord
100
AcDbLinetypeTableRecord
  2
DASHED2
 70
     0
  3
Dashed (.5x) _ _ _ _ _ _ _ _ _ _ _ _ _ _ _ _ _
 72
    65
 73
     2
 40
9.524999999999998
 49
6.349999999999999
 74
     0
 49
-3.174999999999999
 74
     0
  0
LTYPE
  5
30D4
330
5
100
AcDbSymbolTableRecord
100
AcDbLinetypeTableRecord
  2
BATTING
 70
     0
  3
Batting SSSSSSSSSSSSSSSSSSSSSSSSSSSSSSSSSSSSSSSSSSSSSSS
 72
    65
 73
     4
 40
10.16254
 49
0.00254
 74
     0
 49
-2.54
 74
     4
 75
   134
340
30E9
 46
2.54
 50
0.0
 44
-2.54
 45
0.0
 49
-5.08
 74
     4
 75
   134
340
30E9
 46
2.54
 50
180.0
 44
2.54
 45
0.0
 49
-2.54
 74
     0
  0
ENDTAB
  0
TABLE
  2
LAYER
  5
2
102
{ACAD_XDICTIONARY
360
421A
102
}
330
0
100
AcDbSymbolTable
 70
    14
  0
LAYER
  5
10
102
{ACAD_XDICTIONARY
360
13C
102
}
330
2
100
AcDbSymbolTableRecord
100
AcDbLayerTableRecord
  2
0
 70
     0
 62
     7
  6
Continuous
370
    -3
390
F
  0
LAYER
  5
1D1C
330
2
100
AcDbSymbolTableRecord
100
AcDbLayerTableRecord
  2
DEFPOINTS
 70
     0
 62
     7
  6
Continuous
290
     0
370
    -3
390
F
  0
LAYER
  5
1D1D
102
{ACAD_XDICTIONARY
360
1D1E
102
}
330
2
100
AcDbSymbolTableRecord
100
AcDbLayerTableRecord
  2
T__SCHR
 70
     0
 62
     1
  6
Continuous
370
    -3
390
F
  0
LAYER
  5
30D5
330
2
100
AcDbSymbolTableRecord
100
AcDbLayerTableRecord
  2
SOLBET_Bloczki
 70
     0
 62
   140
  6
Continuous
370
    -3
390
F
1001
AcAecLayerStandard
1000

1000

  0
LAYER
  5
30D7
330
2
100
AcDbSymbolTableRecord
100
AcDbLayerTableRecord
  2
SOLBET_Wymiary_Opisy
 70
     0
 62
     1
  6
Continuous
370
    -3
390
F
1001
AcAecLayerStandard
1000

1000

  0
LAYER
  5
30D9
330
2
100
AcDbSymbolTableRecord
100
AcDbLayerTableRecord
  2
SOLBET_Beton
 70
     0
 62
     9
  6
Continuous
370
    -3
390
F
1001
AcAecLayerStandard
1000

1000

  0
LAYER
  5
30DB
330
2
100
AcDbSymbolTableRecord
100
AcDbLayerTableRecord
  2
SOLBET_Izolacja
 70
     0
 62
    40
  6
Continuous
370
    -3
390
F
1001
AcAecLayerStandard
1000

1000

  0
LAYER
  5
30DD
330
2
100
AcDbSymbolTableRecord
100
AcDbLayerTableRecord
  2
SOLBET_Zbrojenie_Konstrukcja
 70
     0
 62
     7
  6
Continuous
370
    -3
390
F
1001
AcAecLayerStandard
1000

1000

  0
LAYER
  5
30DF
330
2
100
AcDbSymbolTableRecord
100
AcDbLayerTableRecord
  2
SOLBET_Grunt
 70
     0
 62
    42
  6
Continuous
370
    -3
390
F
1001
AcAecLayerStandard
1000

1000

  0
LAYER
  5
30E1
330
2
100
AcDbSymbolTableRecord
100
AcDbLayerTableRecord
  2
SOLBET_Tynki_Posadzki
 70
     0
 62
     3
  6
Continuous
370
    -3
390
F
1001
AcAecLayerStandard
1000

1000

  0
LAYER
  5
30E3
330
2
100
AcDbSymbolTableRecord
100
AcDbLayerTableRecord
  2
SOLBET_Ramka_05
 70
     0
 62
     2
  6
Continuous
370
    -3
390
F
1001
AcAecLayerStandard
1000

1000

  0
LAYER
  5
30E5
330
2
100
AcDbSymbolTableRecord
100
AcDbLayerTableRecord
  2
SOLBET_Zaprawy
 70
     0
 62
     4
  6
Continuous
370
    -3
390
F
1001
AcAecLayerStandard
1000

1000

  0
LAYER
  5
30E6
330
2
100
AcDbSymbolTableRecord
100
AcDbLayerTableRecord
  2
SOLBET_Emulsje_Folie
 70
     0
 62
     6
  6
Continuous
370
    -3
390
F
1001
AcAecLayerStandard
1000

1000

  0
LAYER
  5
4E1B
102
{ACAD_XDICTIONARY
360
4E1C
102
}
330
2
100
AcDbSymbolTableRecord
100
AcDbLayerTableRecord
  2
SOLBET_Wymiary_Opisy @ 1
 70
     0
 62
     1
  6
Continuous
370
    -3
390
F
1001
AcAecLayerStandard
1000

1000

1001
AcadAnnotativeDecomposition
1000
AnnotativeData
1002
{
1070
     1
1070
     1
1002
}
  0
ENDTAB
  0
TABLE
  2
STYLE
  5
3
330
0
100
AcDbSymbolTable
 70
     5
  0
STYLE
  5
11
330
3
100
AcDbSymbolTableRecord
100
AcDbTextStyleTableRecord
  2
Standard
 70
     0
 40
0.0
 41
1.0
 50
0.0
 71
     0
 42
2.5
  3
txt.shx
  4

  0
STYLE
  5
30E7
330
3
100
AcDbSymbolTableRecord
100
AcDbTextStyleTableRecord
  2
Solbet_5
 70
     0
 40
5.0
 41
1.0
 50
0.0
 71
     0
 42
5.0
  3
isocpeur.ttf
  4

1001
ACAD
1000
ISOCPEUR
1071
       34
  0
STYLE
  5
30E8
330
3
100
AcDbSymbolTableRecord
100
AcDbTextStyleTableRecord
  2
Solbet_2_5
 70
     0
 40
2.5
 41
1.0
 50
0.0
 71
     0
 42
2.5
  3
isocpeur.ttf
  4

1001
ACAD
1000
ISOCPEUR
1071
       34
  0
STYLE
  5
30E9
330
3
100
AcDbSymbolTableRecord
100
AcDbTextStyleTableRecord
  2

 70
     1
 40
0.0
 41
1.0
 50
0.0
 71
     0
 42
2.5
  3
ltypeshp.shx
  4

  0
STYLE
  5
418A
330
3
100
AcDbSymbolTableRecord
100
AcDbTextStyleTableRecord
  2
Solbet_1
 70
     0
 40
1.0
 41
1.0
 50
0.0
 71
     0
 42
2.5
  3
isocpeur.ttf
  4

1001
ACAD
1000
ISOCPEUR
1071
       34
  0
ENDTAB
  0
TABLE
  2
VIEW
  5
6
330
0
100
AcDbSymbolTable
 70
     0
  0
ENDTAB
  0
TABLE
  2
UCS
  5
7
330
0
100
AcDbSymbolTable
 70
     0
  0
ENDTAB
  0
TABLE
  2
APPID
  5
9
330
0
100
AcDbSymbolTable
 70
    15
  0
APPID
  5
12
330
9
100
AcDbSymbolTableRecord
100
AcDbRegAppTableRecord
  2
ACAD
 70
     0
  0
APPID
  5
9E
330
9
100
AcDbSymbolTableRecord
100
AcDbRegAppTableRecord
  2
ACAD_PSEXT
 70
     0
  0
APPID
  5
133
330
9
100
AcDbSymbolTableRecord
100
AcDbRegAppTableRecord
  2
AcadAnnoPO
 70
     0
  0
APPID
  5
134
330
9
100
AcDbSymbolTableRecord
100
AcDbRegAppTableRecord
  2
AcadAnnotative
 70
     0
  0
APPID
  5
135
330
9
100
AcDbSymbolTableRecord
100
AcDbRegAppTableRecord
  2
ACAD_DSTYLE_DIMJAG
 70
     0
  0
APPID
  5
136
330
9
100
AcDbSymbolTableRecord
100
AcDbRegAppTableRecord
  2
ACAD_DSTYLE_DIMTALN
 70
     0
  0
APPID
  5
165
330
9
100
AcDbSymbolTableRecord
100
AcDbRegAppTableRecord
  2
ACAD_MLEADERVER
 70
     0
  0
APPID
  5
1D31
330
9
100
AcDbSymbolTableRecord
100
AcDbRegAppTableRecord
  2
SOFICAD
 70
     0
  0
APPID
  5
1D32
330
9
100
AcDbSymbolTableRecord
100
AcDbRegAppTableRecord
  2
ASO_SCHRAFF
 70
     0
  0
APPID
  5
1D33
330
9
100
AcDbSymbolTableRecord
100
AcDbRegAppTableRecord
  2
ASO_B
 70
     0
  0
APPID
  5
2BFD
330
9
100
AcDbSymbolTableRecord
100
AcDbRegAppTableRecord
  2
ACAD_EXEMPT_FROM_CAD_STANDARDS
 70
     0
  0
APPID
  5
30EC
330
9
100
AcDbSymbolTableRecord
100
AcDbRegAppTableRecord
  2
AcAecLayerStandard
 70
     0
  0
APPID
  5
30ED
330
9
100
AcDbSymbolTableRecord
100
AcDbRegAppTableRecord
  2
ACAD_DSTYLE_DIMBREAK
 70
     0
  0
APPID
  5
30EE
330
9
100
AcDbSymbolTableRecord
100
AcDbRegAppTableRecord
  2
AcadAnnotativeDecomposition
 70
     0
  0
APPID
  5
418B
330
9
100
AcDbSymbolTableRecord
100
AcDbRegAppTableRecord
  2
AcDbAttr
 70
     0
  0
ENDTAB
  0
TABLE
  2
DIMSTYLE
  5
A
330
0
100
AcDbSymbolTable
 70
     2
100
AcDbDimStyleTable
 71
     1
340
30EA
  0
DIMSTYLE
105
30EA
102
{ACAD_REACTORS
330
3E63
330
4A12
102
}
330
A
100
AcDbSymbolTableRecord
100
AcDbDimStyleTableRecord
  2
Solbet
 70
     0
 41
2.5
 42
0.0
 43
3.75
 44
1.25
 73
     0
 74
     0
 77
     1
 78
     8
140
2.5
141
2.5
143
0.03937007874016
147
0.625
171
     3
172
     1
271
     2
272
     2
274
     3
278
    44
283
     0
284
     8
340
30E8
1001
ACAD_DSTYLE_DIMBREAK
1070
   391
1040
3.75
1001
ACAD_DSTYLE_DIMJAG
1070
   388
1040
1.5
1001
ACAD_DSTYLE_DIMTALN
1070
   392
1070
     0
  0
DIMSTYLE
105
30EB
330
A
100
AcDbSymbolTableRecord
100
AcDbDimStyleTableRecord
  2
Solbet$7
 70
     0
 41
2.5
 42
0.0
 43
3.75
 44
1.25
 73
     0
 74
     0
 77
     1
 78
     8
140
2.5
141
2.5
143
0.03937007874016
147
0.625
171
     3
172
     1
271
     2
272
     2
274
     3
278
    44
283
     0
284
     8
340
30E8
341
30C0
1001
ACAD_DSTYLE_DIMBREAK
1070
   391
1040
3.75
1001
ACAD_DSTYLE_DIMJAG
1070
   388
1040
1.5
1001
ACAD_DSTYLE_DIMTALN
1070
   392
1070
     0
  0
ENDTAB
  0
TABLE
  2
BLOCK_RECORD
  5
1
330
0
100
AcDbSymbolTable
 70
    12
  0
BLOCK_RECORD
  5
1F
102
{ACAD_XDICTIONARY
360
308A
102
}
330
1
100
AcDbSymbolTableRecord
100
AcDbBlockTableRecord
  2
*Model_Space
340
22
  0
BLOCK_RECORD
  5
D2
330
1
100
AcDbSymbolTableRecord
100
AcDbBlockTableRecord
  2
*Paper_Space
340
D3
  0
BLOCK_RECORD
  5
D6
330
1
100
AcDbSymbolTableRecord
100
AcDbBlockTableRecord
  2
*Paper_Space0
340
D7
  0
BLOCK_RECORD
  5
1829
330
1
100
AcDbSymbolTableRecord
100
AcDbBlockTableRecord
  2
*X1
340
0
102
{BLKREFS
331
24F6
102
}
  0
BLOCK_RECORD
  5
30C0
330
1
100
AcDbSymbolTableRecord
100
AcDbBlockTableRecord
  2
_DotSmall
340
0
102
{BLKREFS
331
43A0
331
43A8
331
43AA
331
43AC
331
43AE
331
4408
331
4452
331
4467
331
448C
102
}
  0
BLOCK_RECORD
  5
30D0
330
1
100
AcDbSymbolTableRecord
100
AcDbBlockTableRecord
  2
_None
340
0
  0
BLOCK_RECORD
  5
3352
330
1
100
AcDbSymbolTableRecord
100
AcDbBlockTableRecord
  2
*X4
340
0
102
{BLKREFS
331
354E
102
}
  0
BLOCK_RECORD
  5
3396
330
1
100
AcDbSymbolTableRecord
100
AcDbBlockTableRecord
  2
*X5
340
0
102
{BLKREFS
331
3607
102
}
  0
BLOCK_RECORD
  5
3E69
330
1
100
AcDbSymbolTableRecord
100
AcDbBlockTableRecord
  2
*D6
340
0
  0
BLOCK_RECORD
  5
41B3
102
{ACAD_XDICTIONARY
360
41BF
102
}
330
1
100
AcDbSymbolTableRecord
100
AcDbBlockTableRecord
  2
SOLBET_Bloczek_Ideal_420x240x590_P+W_PRA
340
0
1001
ACAD
1000
DesignCenter Data
1002
{
1070
     1
1070
     4
1002
}
  0
BLOCK_RECORD
  5
4A13
330
1
100
AcDbSymbolTableRecord
100
AcDbBlockTableRecord
  2
*D8
340
0
  0
BLOCK_RECORD
  5
4E69
102
{ACAD_XDICTIONARY
360
4E75
102
}
330
1
100
AcDbSymbolTableRecord
100
AcDbBlockTableRecord
  2
SOLBET_Bloczek_Ideal_420x240x590_P+W_KG400_GOR
340
0
1001
ACAD
1000
DesignCenter Data
1002
{
1070
     1
1070
     4
1002
}
  0
BLOCK_RECORD
  5
4E79
102
{ACAD_XDICTIONARY
360
4E85
102
}
330
1
100
AcDbSymbolTableRecord
100
AcDbBlockTableRecord
  2
SOLBET_Bloczek_Ideal_420x240x590_P+W_KG400_PRA
340
0
102
{BLKREFS
331
4E89
331
4E8A
331
4E8B
102
}
1001
ACAD
1000
DesignCenter Data
1002
{
1070
     1
1070
     4
1002
}
  0
ENDTAB
  0
ENDSEC
  0
SECTION
  2
BLOCKS
  0
BLOCK
  5
20
330
1F
100
AcDbEntity
  8
0
100
AcDbBlockBegin
  2
*Model_Space
 70
     0
 10
0.0
 20
0.0
 30
0.0
  3
*Model_Space
  1

  0
ENDBLK
  5
21
330
1F
100
AcDbEntity
  8
0
100
AcDbBlockEnd
  0
BLOCK
  5
D4
330
D2
100
AcDbEntity
 67
     1
  8
0
100
AcDbBlockBegin
  2
*Paper_Space
 70
     0
 10
0.0
 20
0.0
 30
0.0
  3
*Paper_Space
  1

  0
ENDBLK
  5
D5
330
D2
100
AcDbEntity
 67
     1
  8
0
100
AcDbBlockEnd
  0
BLOCK
  5
D8
330
D6
100
AcDbEntity
 67
     1
  8
0
100
AcDbBlockBegin
  2
*Paper_Space0
 70
     0
 10
0.0
 20
0.0
 30
0.0
  3
*Paper_Space0
  1

  0
ENDBLK
  5
D9
330
D6
100
AcDbEntity
 67
     1
  8
0
100
AcDbBlockEnd
  0
BLOCK
  5
182A
330
1829
100
AcDbEntity
  8
0
100
AcDbBlockBegin
  2
*X1
 70
     1
 10
0.0
 20
0.0
 30
0.0
  3
*X1
  1
ASOWDBLK
  0
ENDBLK
  5
182B
330
1829
100
AcDbEntity
  8
0
100
AcDbBlockEnd
  0
BLOCK
  5
30C1
330
30C0
100
AcDbEntity
  8
0
100
AcDbBlockBegin
  2
_DotSmall
 70
     0
 10
0.0
 20
0.0
 30
0.0
  3
_DotSmall
  1

  0
LWPOLYLINE
  5
30C2
330
30C0
100
AcDbEntity
  8
0
  6
ByBlock
 62
     0
100
AcDbPolyline
 90
        2
 70
     1
 43
0.5
 10
-0.0625
 20
0.0
 42
1.0
 10
0.0625
 20
0.0
 42
1.0
  0
ENDBLK
  5
30C3
330
30C0
100
AcDbEntity
  8
0
100
AcDbBlockEnd
  0
BLOCK
  5
30D1
330
30D0
100
AcDbEntity
  8
0
100
AcDbBlockBegin
  2
_None
 70
     0
 10
0.0
 20
0.0
 30
0.0
  3
_None
  1

  0
ENDBLK
  5
30D2
330
30D0
100
AcDbEntity
  8
0
100
AcDbBlockEnd
  0
BLOCK
  5
3353
330
3352
100
AcDbEntity
  8
0
100
AcDbBlockBegin
  2
*X4
 70
     1
 10
0.0
 20
0.0
 30
0.0
  3
*X4
  1
ASOWDBLK
  0
LINE
  5
3354
330
3352
100
AcDbEntity
  8
0
 62
     0
100
AcDbLine
 10
2.651650429449553
 20
2.430679560328757
 30
0.0
 11
2.651650429449553
 21
2.430679560328757
 31
0.0
  0
LINE
  5
3355
330
3352
100
AcDbEntity
  8
0
 62
     0
100
AcDbLine
 10
2.706893146729752
 20
2.485922277608956
 30
0.0
 11
2.706893146729752
 21
2.485922277608956
 31
0.0
  0
LINE
  5
3356
330
3352
100
AcDbEntity
  8
0
 62
     0
100
AcDbLine
 10
2.762135864009951
 20
2.541164994889155
 30
0.0
 11
2.762135864009951
 21
2.541164994889155
 31
0.0
  0
LINE
  5
3357
330
3352
100
AcDbEntity
  8
0
 62
     0
100
AcDbLine
 10
2.81737858129015
 20
2.596407712169354
 30
0.0
 11
2.81737858129015
 21
2.596407712169354
 31
0.0
  0
LINE
  5
3358
330
3352
100
AcDbEntity
  8
0
 62
     0
100
AcDbLine
 10
2.872621298570349
 20
2.651650429449553
 30
0.0
 11
2.872621298570349
 21
2.651650429449553
 31
0.0
  0
LINE
  5
3359
330
3352
100
AcDbEntity
  8
0
 62
     0
100
AcDbLine
 10
2.927864015850548
 20
2.706893146729752
 30
0.0
 11
2.927864015850548
 21
2.706893146729752
 31
0.0
  0
LINE
  5
335A
330
3352
100
AcDbEntity
  8
0
 62
     0
100
AcDbLine
 10
2.513543636249055
 20
2.403058201688657
 30
0.0
 11
2.513543636249055
 21
2.403058201688657
 31
0.0
  0
LINE
  5
335B
330
3352
100
AcDbEntity
  8
0
 62
     0
100
AcDbLine
 10
2.568786353529254
 20
2.458300918968856
 30
0.0
 11
2.568786353529254
 21
2.458300918968856
 31
0.0
  0
LINE
  5
335C
330
3352
100
AcDbEntity
  8
0
 62
     0
100
AcDbLine
 10
2.624029070809454
 20
2.513543636249055
 30
0.0
 11
2.624029070809454
 21
2.513543636249055
 31
0.0
  0
LINE
  5
335D
330
3352
100
AcDbEntity
  8
0
 62
     0
100
AcDbLine
 10
2.679271788089653
 20
2.568786353529254
 30
0.0
 11
2.679271788089653
 21
2.568786353529254
 31
0.0
  0
LINE
  5
335E
330
3352
100
AcDbEntity
  8
0
 62
     0
100
AcDbLine
 10
2.734514505369852
 20
2.624029070809454
 30
0.0
 11
2.734514505369852
 21
2.624029070809454
 31
0.0
  0
LINE
  5
335F
330
3352
100
AcDbEntity
  8
0
 62
     0
100
AcDbLine
 10
2.789757222650051
 20
2.679271788089653
 30
0.0
 11
2.789757222650051
 21
2.679271788089653
 31
0.0
  0
LINE
  5
3360
330
3352
100
AcDbEntity
  8
0
 62
     0
100
AcDbLine
 10
2.84499993993025
 20
2.734514505369852
 30
0.0
 11
2.84499993993025
 21
2.734514505369852
 31
0.0
  0
LINE
  5
3361
330
3352
100
AcDbEntity
  8
0
 62
     0
100
AcDbLine
 10
2.430679560328757
 20
2.430679560328757
 30
0.0
 11
2.430679560328757
 21
2.430679560328757
 31
0.0
  0
LINE
  5
3362
330
3352
100
AcDbEntity
  8
0
 62
     0
100
AcDbLine
 10
2.485922277608956
 20
2.485922277608956
 30
0.0
 11
2.485922277608956
 21
2.485922277608956
 31
0.0
  0
LINE
  5
3363
330
3352
100
AcDbEntity
  8
0
 62
     0
100
AcDbLine
 10
2.541164994889155
 20
2.541164994889155
 30
0.0
 11
2.541164994889155
 21
2.541164994889155
 31
0.0
  0
LINE
  5
3364
330
3352
100
AcDbEntity
  8
0
 62
     0
100
AcDbLine
 10
2.596407712169354
 20
2.596407712169354
 30
0.0
 11
2.596407712169354
 21
2.596407712169354
 31
0.0
  0
LINE
  5
3365
330
3352
100
AcDbEntity
  8
0
 62
     0
100
AcDbLine
 10
2.651650429449553
 20
2.651650429449553
 30
0.0
 11
2.651650429449553
 21
2.651650429449553
 31
0.0
  0
LINE
  5
3366
330
3352
100
AcDbEntity
  8
0
 62
     0
100
AcDbLine
 10
2.706893146729752
 20
2.706893146729752
 30
0.0
 11
2.706893146729752
 21
2.706893146729752
 31
0.0
  0
LINE
  5
3367
330
3352
100
AcDbEntity
  8
0
 62
     0
100
AcDbLine
 10
2.347815484408458
 20
2.458300918968856
 30
0.0
 11
2.347815484408458
 21
2.458300918968856
 31
0.0
  0
LINE
  5
3368
330
3352
100
AcDbEntity
  8
0
 62
     0
100
AcDbLine
 10
2.403058201688657
 20
2.513543636249055
 30
0.0
 11
2.403058201688657
 21
2.513543636249055
 31
0.0
  0
LINE
  5
3369
330
3352
100
AcDbEntity
  8
0
 62
     0
100
AcDbLine
 10
2.458300918968856
 20
2.568786353529254
 30
0.0
 11
2.458300918968856
 21
2.568786353529254
 31
0.0
  0
LINE
  5
336A
330
3352
100
AcDbEntity
  8
0
 62
     0
100
AcDbLine
 10
2.513543636249055
 20
2.624029070809454
 30
0.0
 11
2.513543636249055
 21
2.624029070809454
 31
0.0
  0
LINE
  5
336B
330
3352
100
AcDbEntity
  8
0
 62
     0
100
AcDbLine
 10
2.568786353529254
 20
2.679271788089653
 30
0.0
 11
2.568786353529254
 21
2.679271788089653
 31
0.0
  0
LINE
  5
336C
330
3352
100
AcDbEntity
  8
0
 62
     0
100
AcDbLine
 10
2.624029070809454
 20
2.734514505369852
 30
0.0
 11
2.624029070809454
 21
2.734514505369852
 31
0.0
  0
LINE
  5
336D
330
3352
100
AcDbEntity
  8
0
 62
     0
100
AcDbLine
 10
2.375436843048558
 20
2.596407712169354
 30
0.0
 11
2.375436843048558
 21
2.596407712169354
 31
0.0
  0
LINE
  5
336E
330
3352
100
AcDbEntity
  8
0
 62
     0
100
AcDbLine
 10
2.430679560328757
 20
2.651650429449553
 30
0.0
 11
2.430679560328757
 21
2.651650429449553
 31
0.0
  0
LINE
  5
336F
330
3352
100
AcDbEntity
  8
0
 62
     0
100
AcDbLine
 10
2.485922277608956
 20
2.706893146729752
 30
0.0
 11
2.485922277608956
 21
2.706893146729752
 31
0.0
  0
LINE
  5
3370
330
3352
100
AcDbEntity
  8
0
 62
     0
100
AcDbLine
 10
2.347815484408458
 20
2.679271788089653
 30
0.0
 11
2.347815484408458
 21
2.679271788089653
 31
0.0
  0
LINE
  5
3371
330
3352
100
AcDbEntity
  8
0
 62
     0
100
AcDbLine
 10
2.403058201688657
 20
2.734514505369852
 30
0.0
 11
2.403058201688657
 21
2.734514505369852
 31
0.0
  0
LINE
  5
3372
330
3352
100
AcDbEntity
  8
0
 62
     0
100
AcDbLine
 10
2.734514505369852
 20
2.403058201688657
 30
0.0
 11
2.734514505369852
 21
2.403058201688657
 31
0.0
  0
LINE
  5
3373
330
3352
100
AcDbEntity
  8
0
 62
     0
100
AcDbLine
 10
2.789757222650051
 20
2.458300918968856
 30
0.0
 11
2.789757222650051
 21
2.458300918968856
 31
0.0
  0
LINE
  5
3374
330
3352
100
AcDbEntity
  8
0
 62
     0
100
AcDbLine
 10
2.84499993993025
 20
2.513543636249055
 30
0.0
 11
2.84499993993025
 21
2.513543636249055
 31
0.0
  0
LINE
  5
3375
330
3352
100
AcDbEntity
  8
0
 62
     0
100
AcDbLine
 10
2.900242657210449
 20
2.568786353529254
 30
0.0
 11
2.900242657210449
 21
2.568786353529254
 31
0.0
  0
LINE
  5
3376
330
3352
100
AcDbEntity
  8
0
 62
     0
100
AcDbLine
 10
2.955485374490648
 20
2.624029070809454
 30
0.0
 11
2.955485374490648
 21
2.624029070809454
 31
0.0
  0
LINE
  5
3377
330
3352
100
AcDbEntity
  8
0
 62
     0
100
AcDbLine
 10
3.010728091770847
 20
2.679271788089653
 30
0.0
 11
3.010728091770847
 21
2.679271788089653
 31
0.0
  0
LINE
  5
3378
330
3352
100
AcDbEntity
  8
0
 62
     0
100
AcDbLine
 10
3.065970809051046
 20
2.734514505369852
 30
0.0
 11
3.065970809051046
 21
2.734514505369852
 31
0.0
  0
LINE
  5
3379
330
3352
100
AcDbEntity
  8
0
 62
     0
100
AcDbLine
 10
2.872621298570349
 20
2.430679560328757
 30
0.0
 11
2.872621298570349
 21
2.430679560328757
 31
0.0
  0
LINE
  5
337A
330
3352
100
AcDbEntity
  8
0
 62
     0
100
AcDbLine
 10
2.927864015850548
 20
2.485922277608956
 30
0.0
 11
2.927864015850548
 21
2.485922277608956
 31
0.0
  0
LINE
  5
337B
330
3352
100
AcDbEntity
  8
0
 62
     0
100
AcDbLine
 10
2.983106733130747
 20
2.541164994889155
 30
0.0
 11
2.983106733130747
 21
2.541164994889155
 31
0.0
  0
LINE
  5
337C
330
3352
100
AcDbEntity
  8
0
 62
     0
100
AcDbLine
 10
3.038349450410946
 20
2.596407712169354
 30
0.0
 11
3.038349450410946
 21
2.596407712169354
 31
0.0
  0
LINE
  5
337D
330
3352
100
AcDbEntity
  8
0
 62
     0
100
AcDbLine
 10
3.093592167691145
 20
2.651650429449553
 30
0.0
 11
3.093592167691145
 21
2.651650429449553
 31
0.0
  0
LINE
  5
337E
330
3352
100
AcDbEntity
  8
0
 62
     0
100
AcDbLine
 10
3.148834884971344
 20
2.706893146729752
 30
0.0
 11
3.148834884971344
 21
2.706893146729752
 31
0.0
  0
LINE
  5
337F
330
3352
100
AcDbEntity
  8
0
 62
     0
100
AcDbLine
 10
2.955485374490648
 20
2.403058201688657
 30
0.0
 11
2.955485374490648
 21
2.403058201688657
 31
0.0
  0
LINE
  5
3380
330
3352
100
AcDbEntity
  8
0
 62
     0
100
AcDbLine
 10
3.010728091770847
 20
2.458300918968856
 30
0.0
 11
3.010728091770847
 21
2.458300918968856
 31
0.0
  0
LINE
  5
3381
330
3352
100
AcDbEntity
  8
0
 62
     0
100
AcDbLine
 10
3.065970809051046
 20
2.513543636249055
 30
0.0
 11
3.065970809051046
 21
2.513543636249055
 31
0.0
  0
LINE
  5
3382
330
3352
100
AcDbEntity
  8
0
 62
     0
100
AcDbLine
 10
3.121213526331245
 20
2.568786353529254
 30
0.0
 11
3.121213526331245
 21
2.568786353529254
 31
0.0
  0
LINE
  5
3383
330
3352
100
AcDbEntity
  8
0
 62
     0
100
AcDbLine
 10
3.176456243611444
 20
2.624029070809454
 30
0.0
 11
3.176456243611444
 21
2.624029070809454
 31
0.0
  0
LINE
  5
3384
330
3352
100
AcDbEntity
  8
0
 62
     0
100
AcDbLine
 10
3.231698960891643
 20
2.679271788089653
 30
0.0
 11
3.231698960891643
 21
2.679271788089653
 31
0.0
  0
LINE
  5
3385
330
3352
100
AcDbEntity
  8
0
 62
     0
100
AcDbLine
 10
3.286941678171842
 20
2.734514505369852
 30
0.0
 11
3.286941678171842
 21
2.734514505369852
 31
0.0
  0
LINE
  5
3386
330
3352
100
AcDbEntity
  8
0
 62
     0
100
AcDbLine
 10
3.093592167691145
 20
2.430679560328757
 30
0.0
 11
3.093592167691145
 21
2.430679560328757
 31
0.0
  0
LINE
  5
3387
330
3352
100
AcDbEntity
  8
0
 62
     0
100
AcDbLine
 10
3.148834884971345
 20
2.485922277608956
 30
0.0
 11
3.148834884971345
 21
2.485922277608956
 31
0.0
  0
LINE
  5
3388
330
3352
100
AcDbEntity
  8
0
 62
     0
100
AcDbLine
 10
3.204077602251544
 20
2.541164994889155
 30
0.0
 11
3.204077602251544
 21
2.541164994889155
 31
0.0
  0
LINE
  5
3389
330
3352
100
AcDbEntity
  8
0
 62
     0
100
AcDbLine
 10
3.259320319531743
 20
2.596407712169354
 30
0.0
 11
3.259320319531743
 21
2.596407712169354
 31
0.0
  0
LINE
  5
338A
330
3352
100
AcDbEntity
  8
0
 62
     0
100
AcDbLine
 10
3.314563036811942
 20
2.651650429449553
 30
0.0
 11
3.314563036811942
 21
2.651650429449553
 31
0.0
  0
LINE
  5
338B
330
3352
100
AcDbEntity
  8
0
 62
     0
100
AcDbLine
 10
3.369805754092141
 20
2.706893146729752
 30
0.0
 11
3.369805754092141
 21
2.706893146729752
 31
0.0
  0
LINE
  5
338C
330
3352
100
AcDbEntity
  8
0
 62
     0
100
AcDbLine
 10
3.176456243611444
 20
2.403058201688658
 30
0.0
 11
3.176456243611444
 21
2.403058201688658
 31
0.0
  0
LINE
  5
338D
330
3352
100
AcDbEntity
  8
0
 62
     0
100
AcDbLine
 10
3.231698960891643
 20
2.458300918968857
 30
0.0
 11
3.231698960891643
 21
2.458300918968857
 31
0.0
  0
LINE
  5
338E
330
3352
100
AcDbEntity
  8
0
 62
     0
100
AcDbLine
 10
3.286941678171842
 20
2.513543636249056
 30
0.0
 11
3.286941678171842
 21
2.513543636249056
 31
0.0
  0
LINE
  5
338F
330
3352
100
AcDbEntity
  8
0
 62
     0
100
AcDbLine
 10
3.342184395452041
 20
2.568786353529255
 30
0.0
 11
3.342184395452041
 21
2.568786353529255
 31
0.0
  0
LINE
  5
3390
330
3352
100
AcDbEntity
  8
0
 62
     0
100
AcDbLine
 10
3.39742711273224
 20
2.624029070809454
 30
0.0
 11
3.39742711273224
 21
2.624029070809454
 31
0.0
  0
LINE
  5
3391
330
3352
100
AcDbEntity
  8
0
 62
     0
100
AcDbLine
 10
3.314563036811942
 20
2.430679560328757
 30
0.0
 11
3.314563036811942
 21
2.430679560328757
 31
0.0
  0
LINE
  5
3392
330
3352
100
AcDbEntity
  8
0
 62
     0
100
AcDbLine
 10
3.369805754092141
 20
2.485922277608956
 30
0.0
 11
3.369805754092141
 21
2.485922277608956
 31
0.0
  0
LINE
  5
3393
330
3352
100
AcDbEntity
  8
0
 62
     0
100
AcDbLine
 10
3.42504847137234
 20
2.541164994889155
 30
0.0
 11
3.42504847137234
 21
2.541164994889155
 31
0.0
  0
LINE
  5
3394
330
3352
100
AcDbEntity
  8
0
 62
     0
100
AcDbLine
 10
3.39742711273224
 20
2.403058201688658
 30
0.0
 11
3.39742711273224
 21
2.403058201688658
 31
0.0
  0
ENDBLK
  5
3395
330
3352
100
AcDbEntity
  8
0
100
AcDbBlockEnd
  0
BLOCK
  5
3397
330
3396
100
AcDbEntity
  8
0
100
AcDbBlockBegin
  2
*X5
 70
     1
 10
0.0
 20
0.0
 30
0.0
  3
*X5
  1
ASOWDBLK
  0
LINE
  5
3398
330
3396
100
AcDbEntity
  8
0
 62
     0
100
AcDbLine
 10
5.51018939871279
 20
8.987335292005429
 30
0.0
 11
5.529661522570592
 21
9.00762942952015
 31
0.0
  0
LINE
  5
3399
330
3396
100
AcDbEntity
  8
0
 62
     0
100
AcDbLine
 10
5.532261927273106
 20
8.985332240929846
 30
0.0
 11
5.529668564352935
 21
9.007624698506489
 31
0.0
  0
LINE
  5
339A
330
3396
100
AcDbEntity
  8
0
 62
     0
100
AcDbLine
 10
5.265620385536379
 20
9.025262166273204
 30
0.0
 11
5.264448897012599
 21
9.035332240929843
 31
0.0
  0
LINE
  5
339B
330
3396
100
AcDbEntity
  8
0
 62
     0
100
AcDbLine
 10
5.25384698231597
 20
9.027091582505482
 30
0.0
 11
5.265613324552737
 21
9.025266733875342
 31
0.0
  0
LINE
  5
339C
330
3396
100
AcDbEntity
  8
0
 62
     0
100
AcDbLine
 10
5.510189398209466
 20
8.987335293161097
 30
0.0
 11
5.523104769754124
 21
8.985332240929846
 31
0.0
  0
LINE
  5
339D
330
3396
100
AcDbEntity
  8
0
 62
     0
100
AcDbLine
 10
6.150756114506505
 20
9.022332882199918
 30
0.0
 11
6.168260747503328
 21
9.029052281253893
 31
0.0
  0
LINE
  5
339E
330
3396
100
AcDbEntity
  8
0
 62
     0
100
AcDbLine
 10
5.801885151209762
 20
9.035332240929843
 30
0.0
 11
5.80390932234987
 21
9.033966920256293
 31
0.0
  0
LINE
  5
339F
330
3396
100
AcDbEntity
  8
0
 62
     0
100
AcDbLine
 10
6.150756117861755
 20
9.0223328798206
 30
0.0
 11
6.16319168145008
 21
9.013944986268539
 31
0.0
  0
LINE
  5
33A0
330
3396
100
AcDbEntity
  8
0
 62
     0
100
AcDbLine
 10
5.803916312018628
 20
9.0339623861027
 30
0.0
 11
5.804375951436487
 21
9.035332240929843
 31
0.0
  0
LINE
  5
33A1
330
3396
100
AcDbEntity
  8
0
 62
     0
100
AcDbLine
 10
6.163198651970116
 20
9.01394017108697
 30
0.0
 11
6.168267733019254
 21
9.029047459266671
 31
0.0
  0
LINE
  5
33A2
330
3396
100
AcDbEntity
  8
0
 62
     0
100
AcDbLine
 10
5.809988532237387
 20
8.988046762104104
 30
0.0
 11
5.809988532237387
 21
8.988046762104104
 31
0.0
  0
LINE
  5
33A3
330
3396
100
AcDbEntity
  8
0
 62
     0
100
AcDbLine
 10
5.428545961602688
 20
9.018918851968464
 30
0.0
 11
5.428545961602688
 21
9.018918851968464
 31
0.0
  0
LINE
  5
33A4
330
3396
100
AcDbEntity
  8
0
 62
     0
100
AcDbLine
 10
5.30226933096454
 20
9.002914202497871
 30
0.0
 11
5.30226933096454
 21
9.002914202497871
 31
0.0
  0
LINE
  5
33A5
330
3396
100
AcDbEntity
  8
0
 62
     0
100
AcDbLine
 10
5.939835252906846
 20
9.006790838005237
 30
0.0
 11
5.939835252906846
 21
9.006790838005237
 31
0.0
  0
LINE
  5
33A6
330
3396
100
AcDbEntity
  8
0
 62
     0
100
AcDbLine
 10
6.068194436063259
 20
9.024393486226978
 30
0.0
 11
6.068194436063259
 21
9.024393486226978
 31
0.0
  0
LINE
  5
33A7
330
3396
100
AcDbEntity
  8
0
 62
     0
100
AcDbLine
 10
6.237402555243861
 20
9.006117992791752
 30
0.0
 11
6.237402555243861
 21
9.006117992791752
 31
0.0
  0
LINE
  5
33A8
330
3396
100
AcDbEntity
  8
0
 62
     0
100
AcDbLine
 10
6.299987512118082
 20
9.014357458675643
 30
0.0
 11
6.299987512118082
 21
9.014357458675643
 31
0.0
  0
LINE
  5
33A9
330
3396
100
AcDbEntity
  8
0
 62
     0
100
AcDbLine
 10
5.420288290551019
 20
8.988487346590387
 30
0.0
 11
5.420288290551019
 21
8.988487346590387
 31
0.0
  0
LINE
  5
33AA
330
3396
100
AcDbEntity
  8
0
 62
     0
100
AcDbLine
 10
5.514971274812218
 20
9.000952597947401
 30
0.0
 11
5.514971274812218
 21
9.000952597947401
 31
0.0
  0
LINE
  5
33AB
330
3396
100
AcDbEntity
  8
0
 62
     0
100
AcDbLine
 10
5.672858868985997
 20
9.021738894058444
 30
0.0
 11
5.672858868985997
 21
9.021738894058444
 31
0.0
  0
LINE
  5
33AC
330
3396
100
AcDbEntity
  8
0
 62
     0
100
AcDbLine
 10
5.735443825860219
 20
9.029978359942335
 30
0.0
 11
5.735443825860219
 21
9.029978359942335
 31
0.0
  0
LINE
  5
33AD
330
3396
100
AcDbEntity
  8
0
 62
     0
100
AcDbLine
 10
6.075796218956492
 20
9.033020972428071
 30
0.0
 11
6.075796218956492
 21
9.033020972428071
 31
0.0
  0
LINE
  5
33AE
330
3396
100
AcDbEntity
  8
0
 62
     0
100
AcDbLine
 10
6.209251827999596
 20
9.027382254494476
 30
0.0
 11
6.209251827999596
 21
9.027382254494476
 31
0.0
  0
LINE
  5
33AF
330
3396
100
AcDbEntity
  8
0
 62
     0
100
AcDbLine
 10
6.342707437042697
 20
9.021743536560881
 30
0.0
 11
6.342707437042697
 21
9.021743536560881
 31
0.0
  0
LINE
  5
33B0
330
3396
100
AcDbEntity
  8
0
 62
     0
100
AcDbLine
 10
6.206930702920631
 20
8.990449261835836
 30
0.0
 11
6.206930702920631
 21
8.990449261835836
 31
0.0
  0
LINE
  5
33B1
330
3396
100
AcDbEntity
  8
0
 62
     0
100
AcDbLine
 10
5.488269822939384
 20
9.014483980152895
 30
0.0
 11
5.488269822939384
 21
9.014483980152895
 31
0.0
  0
LINE
  5
33B2
330
3396
100
AcDbEntity
  8
0
 62
     0
100
AcDbLine
 10
5.342473280603788
 20
8.989457734569814
 30
0.0
 11
5.342473280603788
 21
8.989457734569814
 31
0.0
  0
ENDBLK
  5
33B3
330
3396
100
AcDbEntity
  8
0
100
AcDbBlockEnd
  0
BLOCK
  5
3E6A
330
3E69
100
AcDbEntity
  8
0
100
AcDbBlockBegin
  2
*D6
 70
     1
 10
0.0
 20
0.0
 30
0.0
  3
*D6
  1

  0
LINE
  5
4B0D
330
3E69
100
AcDbEntity
  8
SOLBET_Wymiary_Opisy
 62
     0
370
    -2
100
AcDbLine
 10
199.4217847897398
 20
140.1751712858422
 30
0.0
 11
129.3274809695413
 21
140.1751712858422
 31
0.0
  0
LINE
  5
4B0E
330
3E69
100
AcDbEntity
  8
SOLBET_Wymiary_Opisy
 62
     0
370
    -2
100
AcDbLine
 10
199.4217847897398
 20
125.1751712858422
 30
0.0
 11
129.3274809695413
 21
125.1751712858422
 31
0.0
  0
LINE
  5
4B0F
330
3E69
100
AcDbEntity
  8
SOLBET_Wymiary_Opisy
 62
     0
370
    -2
100
AcDbLine
 10
130.5774809695413
 20
137.6751712858422
 30
0.0
 11
130.5774809695413
 21
127.6751712858422
 31
0.0
  0
SOLID
  5
4B10
330
3E69
100
AcDbEntity
  8
SOLBET_Wymiary_Opisy
 62
     0
100
AcDbTrace
 10
130.1608143028746
 20
137.6751712858422
 30
0.0
 11
130.994147636208
 21
137.6751712858422
 31
0.0
 12
130.5774809695413
 22
140.1751712858422
 32
0.0
 13
130.5774809695413
 23
140.1751712858422
 33
0.0
  0
SOLID
  5
4B11
330
3E69
100
AcDbEntity
  8
SOLBET_Wymiary_Opisy
 62
     0
100
AcDbTrace
 10
130.1608143028746
 20
127.6751712858422
 30
0.0
 11
130.994147636208
 21
127.6751712858422
 31
0.0
 12
130.5774809695413
 22
125.1751712858422
 32
0.0
 13
130.5774809695413
 23
125.1751712858422
 33
0.0
  0
MTEXT
  5
4B12
330
3E69
100
AcDbEntity
  8
SOLBET_Wymiary_Opisy
 62
     0
100
AcDbMText
 10
128.7015339998443
 20
132.9779202317386
 30
0.0
 40
2.5
 41
0.0
 71
     5
 72
     1
  1
Min. 30cm
  7
Solbet_2_5
 11
0.0000000000000001
 21
1.0
 31
0.0
 73
     1
 44
1.0
1001
ACAD
1000
MTEXTBEGIN
1070
    73
1070
     1
1070
    44
1040
1.0
1070
    74
1070
     0
1000
MTEXTEND
  0
POINT
  5
4B13
330
3E69
100
AcDbEntity
  8
DEFPOINTS
 62
     0
100
AcDbPoint
 10
199.4217847897398
 20
140.1751712858422
 30
0.0
  0
POINT
  5
4B14
330
3E69
100
AcDbEntity
  8
DEFPOINTS
 62
     0
100
AcDbPoint
 10
199.4217847897398
 20
125.1751712858422
 30
0.0
  0
POINT
  5
4B15
330
3E69
100
AcDbEntity
  8
DEFPOINTS
 62
     0
100
AcDbPoint
 10
130.5774809695413
 20
125.1751712858422
 30
0.0
  0
ENDBLK
  5
3E6B
330
3E69
100
AcDbEntity
  8
0
100
AcDbBlockEnd
  0
BLOCK
  5
41C1
330
41B3
100
AcDbEntity
  8
0
100
AcDbBlockBegin
  2
SOLBET_Bloczek_Ideal_420x240x590_P+W_PRA
 70
     2
 10
0.0
 20
0.0
 30
0.0
  3
SOLBET_Bloczek_Ideal_420x240x590_P+W_PRA
  1

  0
ATTDEF
  5
41B4
330
41B3
100
AcDbEntity
  8
SOLBET_Wymiary_Opisy
100
AcDbText
 10
-0.0000000703746536
 20
6.303237281370451
 30
0.0
 40
0.9913121336814832
  1
420x240x590
  7
Solbet_1
100
AcDbAttributeDefinition
  3

  2
WYMIARY
 70
     3
1001
AcDbAttr
1070
     0
1070
     1
  0
ATTDEF
  5
41B5
330
41B3
100
AcDbEntity
  8
SOLBET_Wymiary_Opisy
100
AcDbText
 10
-0.0000000703746536
 20
4.790717873654354
 30
0.0
 40
0.9913121336814832
  1
400
  7
Solbet_1
100
AcDbAttributeDefinition
  3

  2
KLASA_GĘSTOŚCI
 70
     9
1001
AcDbAttr
1070
     0
1070
     1
  0
ATTDEF
  5
41B6
330
41B3
100
AcDbEntity
  8
SOLBET_Wymiary_Opisy
100
AcDbText
 10
-0.0000000703746536
 20
3.269569038442127
 30
0.0
 40
0.9913121336814832
  1
Pióra+Wpusty
  7
Solbet_1
100
AcDbAttributeDefinition
  3

  2
PROFILOWANIE
 70
     3
1001
AcDbAttr
1070
     0
1070
     1
  0
ATTDEF
  5
41B7
330
41B3
100
AcDbEntity
  8
SOLBET_Wymiary_Opisy
100
AcDbText
 10
-0.0000000703746536
 20
0.2448646291013483
 30
0.0
 40
0.9913121336814832
  1
SOLBET
  7
Solbet_1
100
AcDbAttributeDefinition
  3

  2
FIRMA
 70
     3
1001
AcDbAttr
1070
     0
1070
     1
  0
ATTDEF
  5
41B8
330
41B3
100
AcDbEntity
  8
SOLBET_Wymiary_Opisy
100
AcDbText
 10
-0.0000000703746536
 20
9.333547279718283
 30
0.0
 40
0.9913121336814832
  1
Bloczek
  7
Solbet_1
100
AcDbAttributeDefinition
  3
Nazwa
  2
NAZWA
 70
     3
1001
AcDbAttr
1070
     0
1070
     1
  0
ATTDEF
  5
41B9
330
41B3
100
AcDbEntity
  8
SOLBET_Wymiary_Opisy
100
AcDbText
 10
-0.0000000703746536
 20
7.794499099484078
 30
0.0
 40
0.9913121336814832
  1
SOLBET IDEAL
  7
Solbet_1
100
AcDbAttributeDefinition
  3

  2
SYSTEM
 70
     3
1001
AcDbAttr
1070
     0
1070
     1
  0
ATTDEF
  5
41BA
330
41B3
100
AcDbEntity
  8
SOLBET_Wymiary_Opisy
100
AcDbText
 10
-0.0000000703746536
 20
1.74418138862846
 30
0.0
 40
0.9913121336814832
  1
Prawo
  7
Solbet_1
100
AcDbAttributeDefinition
  3

  2
WIDOK
 70
    11
1001
AcDbAttr
1070
     0
1070
     1
  0
LINE
  5
41BB
330
41B3
100
AcDbEntity
  8
SOLBET_Bloczki
100
AcDbLine
 10
21.00000014074931
 20
12.00000020414847
 30
0.0
 11
21.00000014074931
 21
0.000000204148364
 31
0.0
  0
LINE
  5
41BC
330
41B3
100
AcDbEntity
  8
SOLBET_Bloczki
100
AcDbLine
 10
21.00000014074931
 20
12.00000020414847
 30
0.0
 11
0.0000001407493072
 21
12.00000020414847
 31
0.0
  0
LINE
  5
41BD
330
41B3
100
AcDbEntity
  8
SOLBET_Bloczki
100
AcDbLine
 10
0.0000001407493072
 20
12.00000020414847
 30
0.0
 11
0.0000001407493072
 21
0.000000204148364
 31
0.0
  0
LINE
  5
41BE
330
41B3
100
AcDbEntity
  8
SOLBET_Bloczki
100
AcDbLine
 10
0.0000001407493072
 20
0.000000204148364
 30
0.0
 11
21.00000014074931
 21
0.000000204148364
 31
0.0
  0
ENDBLK
  5
41C2
330
41B3
100
AcDbEntity
  8
0
100
AcDbBlockEnd
  0
BLOCK
  5
4A1E
330
4A13
100
AcDbEntity
  8
0
100
AcDbBlockBegin
  2
*D8
 70
     1
 10
0.0
 20
0.0
 30
0.0
  3
*D8
  1

  0
LINE
  5
4B28
330
4A13
100
AcDbEntity
  8
SOLBET_Wymiary_Opisy
 62
     0
370
    -2
100
AcDbLine
 10
91.95225254307661
 20
172.1065854701264
 30
0.0
 11
91.95225254307661
 21
140.6366215952384
 31
0.0
  0
LINE
  5
4B29
330
4A13
100
AcDbEntity
  8
SOLBET_Wymiary_Opisy
 62
     0
370
    -2
100
AcDbLine
 10
115.4522525430766
 20
152.5421866385364
 30
0.0
 11
115.4522525430766
 21
140.6366215952384
 31
0.0
  0
LINE
  5
4B2A
330
4A13
100
AcDbEntity
  8
SOLBET_Wymiary_Opisy
 62
     0
370
    -2
100
AcDbLine
 10
112.9522525430766
 20
141.8866215952384
 30
0.0
 11
94.45225254307661
 21
141.8866215952384
 31
0.0
  0
LINE
  5
4B2B
330
4A13
100
AcDbEntity
  8
SOLBET_Wymiary_Opisy
 62
     0
370
    -2
100
AcDbLine
 10
91.95225254307661
 20
141.8866215952384
 30
0.0
 11
47.20225254307661
 21
141.8866215952384
 31
0.0
  0
SOLID
  5
4B2C
330
4A13
100
AcDbEntity
  8
SOLBET_Wymiary_Opisy
 62
     0
100
AcDbTrace
 10
112.9522525430766
 20
142.3032882619051
 30
0.0
 11
112.9522525430766
 21
141.4699549285718
 31
0.0
 12
115.4522525430766
 22
141.8866215952384
 32
0.0
 13
115.4522525430766
 23
141.8866215952384
 33
0.0
  0
SOLID
  5
4B2D
330
4A13
100
AcDbEntity
  8
SOLBET_Wymiary_Opisy
 62
     0
100
AcDbTrace
 10
94.45225254307661
 20
142.3032882619051
 30
0.0
 11
94.45225254307661
 21
141.4699549285718
 31
0.0
 12
91.95225254307661
 22
141.8866215952384
 32
0.0
 13
91.95225254307661
 23
141.8866215952384
 33
0.0
  0
MTEXT
  5
4B2E
102
{ACAD_XDICTIONARY
360
4F39
102
}
330
4A13
100
AcDbEntity
  8
SOLBET_Wymiary_Opisy
 62
     0
100
AcDbMText
 10
68.32725254307661
 20
143.8875685649354
 30
0.0
 40
2.5
 41
0.0
 71
     5
 72
     1
  1
max. 1/3 szeoko\U+015Bci bloczka
  7
Solbet_2_5
 73
     1
 44
1.0
1001
ACAD
1000
MTEXTBEGIN
1070
    73
1070
     1
1070
    44
1040
1.0
1070
    74
1070
     0
1000
MTEXTEND
  0
POINT
  5
4B2F
330
4A13
100
AcDbEntity
  8
DEFPOINTS
 62
     0
100
AcDbPoint
 10
91.95225254307661
 20
172.1065854701264
 30
0.0
  0
POINT
  5
4B30
330
4A13
100
AcDbEntity
  8
DEFPOINTS
 62
     0
100
AcDbPoint
 10
115.4522525430766
 20
152.5421866385364
 30
0.0
  0
POINT
  5
4B31
330
4A13
100
AcDbEntity
  8
DEFPOINTS
 62
     0
100
AcDbPoint
 10
115.4522525430766
 20
141.8866215952384
 30
0.0
  0
ENDBLK
  5
4A1F
330
4A13
100
AcDbEntity
  8
0
100
AcDbBlockEnd
  0
BLOCK
  5
4E77
330
4E69
100
AcDbEntity
  8
0
100
AcDbBlockBegin
  2
SOLBET_Bloczek_Ideal_420x240x590_P+W_KG400_GOR
 70
     2
 10
0.0
 20
0.0
 30
0.0
  3
SOLBET_Bloczek_Ideal_420x240x590_P+W_KG400_GOR
  1

  0
ATTDEF
  5
4E6A
330
4E69
100
AcDbEntity
  8
SOLBET_Wymiary_Opisy
100
AcDbText
 10
0.0000000363686468
 20
6.303237354177662
 30
0.0
 40
0.9913121336814832
  1
420x240x590
  7
Solbet_1
100
AcDbAttributeDefinition
  3

  2
WYMIARY
 70
    11
1001
AcDbAttr
1070
     0
1070
     1
  0
ATTDEF
  5
4E6B
330
4E69
100
AcDbEntity
  8
SOLBET_Wymiary_Opisy
100
AcDbText
 10
0.0000000363686468
 20
4.790717946461565
 30
0.0
 40
0.9913121336814832
  1
400
  7
Solbet_1
100
AcDbAttributeDefinition
  3

  2
KLASA_GĘSTOŚCI
 70
    11
1001
AcDbAttr
1070
     0
1070
     1
  0
ATTDEF
  5
4E6C
330
4E69
100
AcDbEntity
  8
SOLBET_Wymiary_Opisy
100
AcDbText
 10
0.0000000363686468
 20
3.269569111249338
 30
0.0
 40
0.9913121336814832
  1
Pióra+Wpusty
  7
Solbet_1
100
AcDbAttributeDefinition
  3

  2
PROFILOWANIE
 70
    11
1001
AcDbAttr
1070
     0
1070
     1
  0
ATTDEF
  5
4E6D
330
4E69
100
AcDbEntity
  8
SOLBET_Wymiary_Opisy
100
AcDbText
 10
0.0000000363686468
 20
0.2448647019085592
 30
0.0
 40
0.9913121336814832
  1
SOLBET
  7
Solbet_1
100
AcDbAttributeDefinition
  3

  2
FIRMA
 70
    11
1001
AcDbAttr
1070
     0
1070
     1
  0
ATTDEF
  5
4E6E
330
4E69
100
AcDbEntity
  8
SOLBET_Wymiary_Opisy
100
AcDbText
 10
0.0000000363686468
 20
9.333547352525494
 30
0.0
 40
0.9913121336814832
  1
Bloczek
  7
Solbet_1
100
AcDbAttributeDefinition
  3
Nazwa
  2
NAZWA
 70
    11
1001
AcDbAttr
1070
     0
1070
     1
  0
ATTDEF
  5
4E6F
330
4E69
100
AcDbEntity
  8
SOLBET_Wymiary_Opisy
100
AcDbText
 10
0.0000000363686468
 20
7.794499172291289
 30
0.0
 40
0.9913121336814832
  1
SOLBET Ideal
  7
Solbet_1
100
AcDbAttributeDefinition
  3

  2
SYSTEM
 70
    11
1001
AcDbAttr
1070
     0
1070
     1
  0
ATTDEF
  5
4E70
330
4E69
100
AcDbEntity
  8
SOLBET_Wymiary_Opisy
100
AcDbText
 10
0.0000000363686468
 20
1.744181461435671
 30
0.0
 40
0.9913121336814832
  1
Góra
  7
Solbet_1
100
AcDbAttributeDefinition
  3

  2
WIDOK
 70
    11
1001
AcDbAttr
1070
     0
1070
     1
  0
LINE
  5
4E71
330
4E69
100
AcDbEntity
  8
SOLBET_Bloczki
100
AcDbLine
 10
-0.0000001473426892
 20
0.0000000920231287
 30
0.0
 11
29.49999992726271
 21
0.0000000585339421
 31
0.0
  0
LINE
  5
4E72
330
4E69
100
AcDbEntity
  8
SOLBET_Bloczki
100
AcDbLine
 10
29.49999992726271
 20
0.0000000585339421
 30
0.0
 11
29.49999985265754
 21
21.00000009202324
 31
0.0
  0
LINE
  5
4E73
330
4E69
100
AcDbEntity
  8
SOLBET_Bloczki
100
AcDbLine
 10
29.49999985265754
 20
21.00000009202324
 30
0.0
 11
-0.0000001473426892
 21
21.00000009202324
 31
0.0
  0
LINE
  5
4E74
330
4E69
100
AcDbEntity
  8
SOLBET_Bloczki
100
AcDbLine
 10
-0.0000001473426892
 20
21.00000009202324
 30
0.0
 11
-0.0000000727372935
 21
0.0000000585339421
 31
0.0
  0
ENDBLK
  5
4E78
330
4E69
100
AcDbEntity
  8
0
100
AcDbBlockEnd
  0
BLOCK
  5
4E87
330
4E79
100
AcDbEntity
  8
0
100
AcDbBlockBegin
  2
SOLBET_Bloczek_Ideal_420x240x590_P+W_KG400_PRA
 70
     2
 10
0.0
 20
0.0
 30
0.0
  3
SOLBET_Bloczek_Ideal_420x240x590_P+W_KG400_PRA
  1

  0
ATTDEF
  5
4E7A
330
4E79
100
AcDbEntity
  8
SOLBET_Wymiary_Opisy
100
AcDbText
 10
-0.0000000703746536
 20
6.303237281370451
 30
0.0
 40
0.9913121336814832
  1
420x240x590
  7
Solbet_1
100
AcDbAttributeDefinition
  3

  2
WYMIARY
 70
    11
1001
AcDbAttr
1070
     0
1070
     1
  0
ATTDEF
  5
4E7B
330
4E79
100
AcDbEntity
  8
SOLBET_Wymiary_Opisy
100
AcDbText
 10
-0.0000000703746536
 20
4.790717873654354
 30
0.0
 40
0.9913121336814832
  1
400
  7
Solbet_1
100
AcDbAttributeDefinition
  3

  2
KLASA_GĘSTOŚCI
 70
    11
1001
AcDbAttr
1070
     0
1070
     1
  0
ATTDEF
  5
4E7C
330
4E79
100
AcDbEntity
  8
SOLBET_Wymiary_Opisy
100
AcDbText
 10
-0.0000000703746536
 20
3.269569038442127
 30
0.0
 40
0.9913121336814832
  1
Pióra+Wpusty
  7
Solbet_1
100
AcDbAttributeDefinition
  3

  2
PROFILOWANIE
 70
    11
1001
AcDbAttr
1070
     0
1070
     1
  0
ATTDEF
  5
4E7D
330
4E79
100
AcDbEntity
  8
SOLBET_Wymiary_Opisy
100
AcDbText
 10
-0.0000000703746536
 20
0.2448646291013483
 30
0.0
 40
0.9913121336814832
  1
SOLBET
  7
Solbet_1
100
AcDbAttributeDefinition
  3

  2
FIRMA
 70
    11
1001
AcDbAttr
1070
     0
1070
     1
  0
ATTDEF
  5
4E7E
330
4E79
100
AcDbEntity
  8
SOLBET_Wymiary_Opisy
100
AcDbText
 10
-0.0000000703746536
 20
9.333547279718283
 30
0.0
 40
0.9913121336814832
  1
Bloczek
  7
Solbet_1
100
AcDbAttributeDefinition
  3
Nazwa
  2
NAZWA
 70
    11
1001
AcDbAttr
1070
     0
1070
     1
  0
ATTDEF
  5
4E7F
330
4E79
100
AcDbEntity
  8
SOLBET_Wymiary_Opisy
100
AcDbText
 10
-0.0000000703746536
 20
7.794499099484078
 30
0.0
 40
0.9913121336814832
  1
SOLBET Ideal
  7
Solbet_1
100
AcDbAttributeDefinition
  3

  2
SYSTEM
 70
    11
1001
AcDbAttr
1070
     0
1070
     1
  0
ATTDEF
  5
4E80
330
4E79
100
AcDbEntity
  8
SOLBET_Wymiary_Opisy
100
AcDbText
 10
-0.0000000703746536
 20
1.74418138862846
 30
0.0
 40
0.9913121336814832
  1
Prawo
  7
Solbet_1
100
AcDbAttributeDefinition
  3

  2
WIDOK
 70
    11
1001
AcDbAttr
1070
     0
1070
     1
  0
LINE
  5
4E81
330
4E79
100
AcDbEntity
  8
SOLBET_Bloczki
100
AcDbLine
 10
21.00000014074931
 20
12.00000020414847
 30
0.0
 11
21.00000014074931
 21
0.000000204148364
 31
0.0
  0
LINE
  5
4E82
330
4E79
100
AcDbEntity
  8
SOLBET_Bloczki
100
AcDbLine
 10
21.00000014074931
 20
12.00000020414847
 30
0.0
 11
0.0000001407493072
 21
12.00000020414847
 31
0.0
  0
LINE
  5
4E83
330
4E79
100
AcDbEntity
  8
SOLBET_Bloczki
100
AcDbLine
 10
0.0000001407493072
 20
12.00000020414847
 30
0.0
 11
0.0000001407493072
 21
0.000000204148364
 31
0.0
  0
LINE
  5
4E84
330
4E79
100
AcDbEntity
  8
SOLBET_Bloczki
100
AcDbLine
 10
0.0000001407493072
 20
0.000000204148364
 30
0.0
 11
21.00000014074931
 21
0.000000204148364
 31
0.0
  0
ENDBLK
  5
4E88
330
4E79
100
AcDbEntity
  8
0
100
AcDbBlockEnd
  0
ENDSEC
  0
SECTION
  2
ENTITIES
  0
INSERT
  5
24F6
330
1F
100
AcDbEntity
  8
T__SCHR
100
AcDbBlockReference
  2
*X1
 10
3581.67151895541
 20
1859.499999734221
 30
0.0
1001
ASO_SCHRAFF
1005
24F6
1070
     0
1005
0
1001
ACAD
1000
HATCH
1002
{
1070
    16
1000
SWAMP
1040
0.75
1040
0.7853981633974483
1002
}
  0
LINE
  5
34F2
330
1F
100
AcDbEntity
  8
SOLBET_Wymiary_Opisy
 62
     1
100
AcDbLine
 10
176.7840355874723
 20
113.0773415214826
 30
0.0
 11
223.1855898200028
 21
113.0773415214826
 31
0.0
  0
LINE
  5
34F6
330
1F
100
AcDbEntity
  8
SOLBET_Wymiary_Opisy
 62
     1
100
AcDbLine
 10
176.6130850330064
 20
114.5773415214826
 30
0.0
 11
223.1855898200028
 21
114.5773415214826
 31
0.0
  0
LINE
  5
34F7
330
1F
100
AcDbEntity
  8
SOLBET_Beton
  6
Continuous
 62
     1
100
AcDbLine
 10
195.4855898200021
 20
59.76149617306146
 30
0.0
 11
228.8855898200018
 21
59.76149617306146
 31
0.0
  0
LINE
  5
34F8
330
1F
100
AcDbEntity
  8
SOLBET_Beton
  6
Continuous
 62
     1
100
AcDbLine
 10
192.241687380978
 20
56.26149617306146
 30
0.0
 11
232.1294922590259
 21
56.26149617306146
 31
0.0
  0
LINE
  5
34F9
330
1F
100
AcDbEntity
  8
SOLBET_Beton
  6
Continuous
 62
     1
100
AcDbLine
 10
195.4855898200021
 20
59.76149617306146
 30
0.0
 11
192.241687380978
 21
56.26149617306146
 31
0.0
  0
LINE
  5
34FA
330
1F
100
AcDbEntity
  8
SOLBET_Beton
  6
Continuous
 62
     1
100
AcDbLine
 10
228.8855898200018
 20
59.76149617306146
 30
0.0
 11
232.1294922590259
 21
56.26149617306146
 31
0.0
  0
LINE
  5
34FD
330
1F
100
AcDbEntity
  8
SOLBET_Izolacja
  6
Continuous
100
AcDbLine
 10
202.1855898200028
 20
80.67734152148295
 30
0.0
 11
202.1855898200028
 21
113.0773415214826
 31
0.0
  0
LINE
  5
34FE
330
1F
100
AcDbEntity
  8
SOLBET_Izolacja
  6
Continuous
100
AcDbLine
 10
199.6855898200028
 20
80.67734152148295
 30
0.0
 11
199.6855898200028
 21
113.0773415214826
 31
0.0
  0
LINE
  5
34FF
330
1F
100
AcDbEntity
  8
SOLBET_Izolacja
  6
Continuous
100
AcDbLine
 10
199.6855898200028
 20
80.67734152148295
 30
0.0
 11
202.1855898200028
 21
80.67734152148295
 31
0.0
  0
LINE
  5
3500
330
1F
100
AcDbEntity
  8
SOLBET_Izolacja
  6
Continuous
100
AcDbLine
 10
199.6855898200028
 20
114.5773415214826
 30
0.0
 11
199.6855898200028
 21
140.1773415214829
 31
0.0
  0
LINE
  5
3501
330
1F
100
AcDbEntity
  8
SOLBET_Izolacja
  6
Continuous
100
AcDbLine
 10
202.1855898200028
 20
114.5773415214826
 30
0.0
 11
202.1855898200028
 21
140.1773415214829
 31
0.0
  0
LINE
  5
3507
330
1F
100
AcDbEntity
  8
SOLBET_Izolacja
  6
Continuous
100
AcDbLine
 10
199.6855898200028
 20
140.1773415214829
 30
0.0
 11
202.1855898200028
 21
140.1773415340358
 31
0.0
  0
LINE
  5
3508
330
1F
100
AcDbEntity
  8
SOLBET_Zbrojenie_Konstrukcja
100
AcDbLine
 10
199.8503659085581
 20
129.1693333262938
 30
0.0
 11
208.6855898200028
 21
129.1693333262938
 31
0.0
  0
LINE
  5
3509
330
1F
100
AcDbEntity
  8
SOLBET_Zbrojenie_Konstrukcja
100
AcDbLine
 10
200.0985825755342
 20
131.464471031617
 30
0.0
 11
200.0985825755342
 21
126.8741956209705
 31
0.0
  0
LINE
  5
350D
330
1F
100
AcDbEntity
  8
SOLBET_Wymiary_Opisy
 62
     1
100
AcDbLine
 10
195.5484063967578
 20
183.0773415214826
 30
0.0
 11
224.1855898200029
 21
183.0773415214826
 31
0.0
  0
LINE
  5
3512
330
1F
100
AcDbEntity
  8
SOLBET_Wymiary_Opisy
100
AcDbLine
 10
275.1855898200028
 20
153.0371503744663
 30
0.0
 11
275.1855898200028
 21
128.5371503744663
 31
0.0
  0
LINE
  5
3513
330
1F
100
AcDbEntity
  8
SOLBET_Izolacja
  6
Continuous
100
AcDbLine
 10
219.6855898200029
 20
140.6513884657725
 30
0.0
 11
275.1855898200028
 21
140.6513884657725
 31
0.0
  0
LINE
  5
3515
330
1F
100
AcDbEntity
  8
SOLBET_Tynki_Posadzki
100
AcDbLine
 10
219.6855898200029
 20
146.0246952993275
 30
0.0
 11
219.6855898200029
 21
183.0773415214826
 31
0.0
  0
LINE
  5
3516
330
1F
100
AcDbEntity
  8
SOLBET_Izolacja
  6
Continuous
100
AcDbLine
 10
220.1855898200029
 20
143.1513884657724
 30
0.0
 11
275.1855898200028
 21
143.1513884657724
 31
0.0
  0
LINE
  5
3517
330
1F
100
AcDbEntity
  8
SOLBET_Izolacja
  6
Continuous
100
AcDbLine
 10
220.1855898200029
 20
140.6513884657725
 30
0.0
 11
220.1855898200029
 21
146.0246952993275
 31
0.0
  0
LINE
  5
351A
330
1F
100
AcDbEntity
  8
SOLBET_Tynki_Posadzki
100
AcDbLine
 10
220.4836560111926
 20
146.5246952993275
 30
0.0
 11
275.1855898200028
 21
146.5246952993275
 31
0.0
  0
LINE
  5
351B
330
1F
100
AcDbEntity
  8
SOLBET_Izolacja
  6
Continuous
100
AcDbLine
 10
220.1855898200029
 20
140.6513884657725
 30
0.0
 11
219.1855898200028
 21
140.6513884657725
 31
0.0
  0
LINE
  5
351C
330
1F
100
AcDbEntity
  8
SOLBET_Izolacja
  6
Continuous
100
AcDbLine
 10
219.1855898200028
 20
140.9773415214822
 30
0.0
 11
219.1855898200028
 21
140.6513884657725
 31
0.0
  0
LINE
  5
351D
330
1F
100
AcDbEntity
  8
SOLBET_Izolacja
  6
Continuous
100
AcDbLine
 10
220.1855898200029
 20
146.0246952993275
 30
0.0
 11
219.1855898200028
 21
146.0246952993275
 31
0.0
  0
LINE
  5
3520
330
1F
100
AcDbEntity
  8
SOLBET_Zaprawy
100
AcDbLine
 10
198.1855898200029
 20
140.9773415214822
 30
0.0
 11
198.1855898200029
 21
183.0773415214826
 31
0.0
  0
LINE
  5
3521
330
1F
100
AcDbEntity
  8
SOLBET_Tynki_Posadzki
100
AcDbLine
 10
197.4355898200028
 20
140.9773415214822
 30
0.0
 11
197.4355898200028
 21
183.0773415214826
 31
0.0
  0
LINE
  5
3522
330
1F
100
AcDbEntity
  8
SOLBET_Zaprawy
100
AcDbLine
 10
197.9022680134694
 20
140.9773415214822
 30
0.0
 11
197.9022680134694
 21
183.0773415214826
 31
0.0
  0
LINE
  5
3525
330
1F
100
AcDbEntity
  8
SOLBET_Zaprawy
100
AcDbLine
 10
199.5200619809638
 20
140.1773415214829
 30
0.0
 11
199.5200619809638
 21
126.1773415214829
 31
0.0
  0
LINE
  5
3526
330
1F
100
AcDbEntity
  8
SOLBET_Wymiary_Opisy
  6
Continuous
100
AcDbLine
 10
199.5200619809638
 20
125.1773415214829
 30
0.0
 11
165.5312311702473
 21
125.1773415214829
 31
0.0
  0
LINE
  5
3527
330
1F
100
AcDbEntity
  8
SOLBET_Wymiary_Opisy
 62
     1
100
AcDbLine
 10
165.5312311702473
 20
126.1641720745938
 30
0.0
 11
165.5312311702473
 21
120.9503460465348
 31
0.0
  0
LINE
  5
3528
330
1F
100
AcDbEntity
  8
SOLBET_Grunt
  6
Continuous
100
AcDbLine
 10
174.5271531517392
 20
121.9614764113721
 30
0.0
 11
171.5898178550469
 21
125.1773415214829
 31
0.0
  0
LINE
  5
3529
330
1F
100
AcDbEntity
  8
SOLBET_Grunt
  6
Continuous
100
AcDbLine
 10
174.1845732257061
 20
124.1794578714507
 30
0.0
 11
173.2731174379587
 21
125.1773415214829
 31
0.0
  0
LINE
  5
352A
330
1F
100
AcDbEntity
  8
SOLBET_Grunt
  6
Continuous
100
AcDbLine
 10
177.8937523175609
 20
121.9614764113721
 30
0.0
 11
174.9564170208687
 21
125.1773415214829
 31
0.0
  0
ARC
  5
3549
330
1F
100
AcDbEntity
  8
SOLBET_Tynki_Posadzki
100
AcDbCircle
 10
219.6855898200029
 20
146.5246952993275
 30
0.0
 40
1.5000521396288
100
AcDbArc
 50
0.0
 51
90.0
  0
LINE
  5
354A
330
1F
100
AcDbEntity
  8
SOLBET_Tynki_Posadzki
100
AcDbLine
 10
220.4836560111926
 20
146.5246952993275
 30
0.0
 11
220.4836560111926
 21
146.0246952993275
 31
0.0
  0
INSERT
  5
354E
330
1F
100
AcDbEntity
  8
SOLBET_Grunt
100
AcDbBlockReference
  2
*X4
 10
105.6117223220717
 20
-5.56112032904457
 30
0.0
 41
50.0
 42
50.0
 43
50.0
1001
ASO_SCHRAFF
1005
0
1070
     0
1005
0
1001
ACAD
1000
HATCH
1002
{
1070
    16
1000
DOTS
1040
1.25
1040
0.7853981633974483
1002
}
  0
LINE
  5
3551
330
1F
100
AcDbEntity
  8
SOLBET_Wymiary_Opisy
  6
Continuous
100
AcDbLine
 10
178.5375268086645
 20
125.1773415214829
 30
0.0
 11
179.5277842491068
 21
114.5773415214826
 31
0.0
  0
LINE
  5
358B
330
1F
100
AcDbEntity
  8
SOLBET_Grunt
  6
Continuous
100
AcDbLine
 10
167.0633125176591
 20
121.9614764113721
 30
0.0
 11
170.0006478143496
 21
125.1773415214829
 31
0.0
  0
LINE
  5
358C
330
1F
100
AcDbEntity
  8
SOLBET_Grunt
  6
Continuous
100
AcDbLine
 10
167.4058924436904
 20
124.1794578714507
 30
0.0
 11
168.3173482314396
 21
125.1773415214829
 31
0.0
  0
LINE
  5
35A1
330
1F
100
AcDbEntity
  8
SOLBET_Wymiary_Opisy
  6
Continuous
100
AcDbLine
 10
181.8506683282939
 20
113.0773415214826
 30
0.0
 11
187.1584337614367
 21
56.26149617306146
 31
0.0
  0
LINE
  5
35A2
330
1F
100
AcDbEntity
  8
SOLBET_Wymiary_Opisy
  6
Continuous
100
AcDbLine
 10
192.241687380978
 20
56.26149617306146
 30
0.0
 11
187.1584337614367
 21
56.26149617306146
 31
0.0
  0
LINE
  5
35A4
330
1F
100
AcDbEntity
  8
SOLBET_Emulsje_Folie
100
AcDbLine
 10
199.1200619809642
 20
105.9441403864803
 30
0.0
 11
199.5200619809638
 21
106.0951945287797
 31
0.0
  0
LINE
  5
35A5
330
1F
100
AcDbEntity
  8
SOLBET_Emulsje_Folie
100
AcDbLine
 10
199.1200619809642
 20
106.9671657035833
 30
0.0
 11
199.5200619809638
 21
106.8161115612838
 31
0.0
  0
LINE
  5
35A6
330
1F
100
AcDbEntity
  8
SOLBET_Emulsje_Folie
100
AcDbLine
 10
199.1200619809642
 20
80.67734152148295
 30
0.0
 11
199.5200619809638
 21
80.67734152148295
 31
0.0
  0
LINE
  5
35A7
330
1F
100
AcDbEntity
  8
SOLBET_Emulsje_Folie
100
AcDbLine
 10
199.1200619809642
 20
82.01604055976895
 30
0.0
 11
199.5200619809638
 21
81.8649864174713
 31
0.0
  0
LINE
  5
35A8
330
1F
100
AcDbEntity
  8
SOLBET_Emulsje_Folie
100
AcDbLine
 10
199.1200619809642
 20
80.99301524266776
 30
0.0
 11
199.5200619809638
 21
81.14406938496541
 31
0.0
  0
LINE
  5
35A9
330
1F
100
AcDbEntity
  8
SOLBET_Emulsje_Folie
100
AcDbLine
 10
199.1200619809642
 20
82.77523846722578
 30
0.0
 11
199.5200619809638
 21
82.92629260952343
 31
0.0
  0
LINE
  5
35AA
330
1F
100
AcDbEntity
  8
SOLBET_Emulsje_Folie
100
AcDbLine
 10
199.1200619809642
 20
83.79826378432699
 30
0.0
 11
199.5200619809638
 21
83.64720964202934
 31
0.0
  0
LINE
  5
35AB
330
1F
100
AcDbEntity
  8
SOLBET_Emulsje_Folie
100
AcDbLine
 10
199.1200619809642
 20
85.58048700888685
 30
0.0
 11
199.5200619809638
 21
85.42943286658738
 31
0.0
  0
LINE
  5
35AC
330
1F
100
AcDbEntity
  8
SOLBET_Emulsje_Folie
100
AcDbLine
 10
199.1200619809642
 20
84.55746169178382
 30
0.0
 11
199.5200619809638
 21
84.70851583408148
 31
0.0
  0
LINE
  5
35AD
330
1F
100
AcDbEntity
  8
SOLBET_Emulsje_Folie
100
AcDbLine
 10
199.1200619809642
 20
86.33968491634187
 30
0.0
 11
199.5200619809638
 21
86.49073905863952
 31
0.0
  0
LINE
  5
35AE
330
1F
100
AcDbEntity
  8
SOLBET_Emulsje_Folie
100
AcDbLine
 10
199.1200619809642
 20
87.36271023344306
 30
0.0
 11
199.5200619809638
 21
87.21165609114541
 31
0.0
  0
LINE
  5
35AF
330
1F
100
AcDbEntity
  8
SOLBET_Emulsje_Folie
100
AcDbLine
 10
199.1200619809642
 20
88.12190814089991
 30
0.0
 11
199.5200619809638
 21
88.27296228319756
 31
0.0
  0
LINE
  5
35B0
330
1F
100
AcDbEntity
  8
SOLBET_Emulsje_Folie
100
AcDbLine
 10
199.1200619809642
 20
89.14493345800293
 30
0.0
 11
199.5200619809638
 21
88.99387931570345
 31
0.0
  0
LINE
  5
35B1
330
1F
100
AcDbEntity
  8
SOLBET_Emulsje_Folie
100
AcDbLine
 10
199.1200619809642
 20
89.90413136545795
 30
0.0
 11
199.5200619809638
 21
90.05518550775741
 31
0.0
  0
LINE
  5
35B2
330
1F
100
AcDbEntity
  8
SOLBET_Emulsje_Folie
100
AcDbLine
 10
199.1200619809642
 20
90.92715668255914
 30
0.0
 11
199.5200619809638
 21
90.77610254026149
 31
0.0
  0
LINE
  5
35B3
330
1F
100
AcDbEntity
  8
SOLBET_Emulsje_Folie
100
AcDbLine
 10
199.1200619809642
 20
91.68635459001597
 30
0.0
 11
199.5200619809638
 21
91.83740873231363
 31
0.0
  0
LINE
  5
35B4
330
1F
100
AcDbEntity
  8
SOLBET_Emulsje_Folie
100
AcDbLine
 10
199.1200619809642
 20
92.709379907119
 30
0.0
 11
199.5200619809638
 21
92.55832576481953
 31
0.0
  0
LINE
  5
35B5
330
1F
100
AcDbEntity
  8
SOLBET_Emulsje_Folie
100
AcDbLine
 10
199.1200619809642
 20
93.46857781457401
 30
0.0
 11
199.5200619809638
 21
93.6196319568735
 31
0.0
  0
LINE
  5
35B6
330
1F
100
AcDbEntity
  8
SOLBET_Emulsje_Folie
100
AcDbLine
 10
199.1200619809642
 20
94.49160313167704
 30
0.0
 11
199.5200619809638
 21
94.34054898937757
 31
0.0
  0
LINE
  5
35B7
330
1F
100
AcDbEntity
  8
SOLBET_Emulsje_Folie
100
AcDbLine
 10
199.1200619809642
 20
105.1849424790253
 30
0.0
 11
199.5200619809638
 21
105.0338883367258
 31
0.0
  0
LINE
  5
35B8
330
1F
100
AcDbEntity
  8
SOLBET_Emulsje_Folie
100
AcDbLine
 10
199.1200619809642
 20
104.1619171619222
 30
0.0
 11
199.5200619809638
 21
104.3129713042217
 31
0.0
  0
LINE
  5
35B9
330
1F
100
AcDbEntity
  8
SOLBET_Emulsje_Folie
100
AcDbLine
 10
199.1200619809642
 20
103.4027192544672
 30
0.0
 11
199.5200619809638
 21
103.2516651121677
 31
0.0
  0
LINE
  5
35BA
330
1F
100
AcDbEntity
  8
SOLBET_Emulsje_Folie
100
AcDbLine
 10
199.1200619809642
 20
102.3796939373642
 30
0.0
 11
199.5200619809638
 21
102.5307480796637
 31
0.0
  0
LINE
  5
35BB
330
1F
100
AcDbEntity
  8
SOLBET_Emulsje_Folie
100
AcDbLine
 10
199.1200619809642
 20
101.6204960299092
 30
0.0
 11
199.5200619809638
 21
101.4694418876097
 31
0.0
  0
LINE
  5
35BC
330
1F
100
AcDbEntity
  8
SOLBET_Emulsje_Folie
100
AcDbLine
 10
199.1200619809642
 20
100.5974707128062
 30
0.0
 11
199.5200619809638
 21
100.7485248551056
 31
0.0
  0
LINE
  5
35BD
330
1F
100
AcDbEntity
  8
SOLBET_Emulsje_Folie
100
AcDbLine
 10
199.1200619809642
 20
99.83827280535116
 30
0.0
 11
199.5200619809638
 21
99.68721866305168
 31
0.0
  0
LINE
  5
35BE
330
1F
100
AcDbEntity
  8
SOLBET_Emulsje_Folie
100
AcDbLine
 10
199.1200619809642
 20
98.81524748824814
 30
0.0
 11
199.5200619809638
 21
98.9663016305476
 31
0.0
  0
LINE
  5
35BF
330
1F
100
AcDbEntity
  8
SOLBET_Emulsje_Folie
100
AcDbLine
 10
199.1200619809642
 20
98.05604958079312
 30
0.0
 11
199.5200619809638
 21
97.90499543849364
 31
0.0
  0
LINE
  5
35C0
330
1F
100
AcDbEntity
  8
SOLBET_Emulsje_Folie
100
AcDbLine
 10
199.1200619809642
 20
97.0330242636901
 30
0.0
 11
199.5200619809638
 21
97.18407840598956
 31
0.0
  0
LINE
  5
35C1
330
1F
100
AcDbEntity
  8
SOLBET_Emulsje_Folie
100
AcDbLine
 10
199.1200619809642
 20
95.25080103913206
 30
0.0
 11
199.5200619809638
 21
95.40185518143152
 31
0.0
  0
LINE
  5
35C2
330
1F
100
AcDbEntity
  8
SOLBET_Emulsje_Folie
100
AcDbLine
 10
199.1200619809642
 20
96.27382635623508
 30
0.0
 11
199.5200619809638
 21
96.12277221393561
 31
0.0
  0
LINE
  5
35C3
330
1F
100
AcDbEntity
  8
SOLBET_Emulsje_Folie
100
AcDbLine
 10
199.1200619809642
 20
109.5085868355963
 30
0.0
 11
199.5200619809638
 21
109.6596409778958
 31
0.0
  0
LINE
  5
35C4
330
1F
100
AcDbEntity
  8
SOLBET_Emulsje_Folie
100
AcDbLine
 10
199.1200619809642
 20
110.5316121526993
 30
0.0
 11
199.5200619809638
 21
110.3805580103999
 31
0.0
  0
LINE
  5
35C5
330
1F
100
AcDbEntity
  8
SOLBET_Emulsje_Folie
100
AcDbLine
 10
199.1200619809642
 20
111.2908100601544
 30
0.0
 11
199.5200619809638
 21
111.4418642024538
 31
0.0
  0
LINE
  5
35C6
330
1F
100
AcDbEntity
  8
SOLBET_Emulsje_Folie
100
AcDbLine
 10
199.1200619809642
 20
112.3138353772574
 30
0.0
 11
199.5200619809638
 21
112.1627812349579
 31
0.0
  0
LINE
  5
35C7
330
1F
100
AcDbEntity
  8
SOLBET_Emulsje_Folie
100
AcDbLine
 10
199.1200619809642
 20
107.7263636110383
 30
0.0
 11
199.5200619809638
 21
107.8774177533378
 31
0.0
  0
LINE
  5
35C8
330
1F
100
AcDbEntity
  8
SOLBET_Emulsje_Folie
100
AcDbLine
 10
199.1200619809642
 20
108.7493889281413
 30
0.0
 11
199.5200619809638
 21
108.5983347858418
 31
0.0
  0
LINE
  5
35C9
330
1F
100
AcDbEntity
  8
SOLBET_Emulsje_Folie
100
AcDbLine
 10
199.0320140566491
 20
126.5575709471231
 30
0.0
 11
199.5200619809638
 21
127.23924344039
 31
0.0
  0
LINE
  5
35CA
330
1F
100
AcDbEntity
  8
SOLBET_Emulsje_Folie
100
AcDbLine
 10
199.0320140566491
 20
126.5575709471231
 30
0.0
 11
199.0320140566491
 21
125.4781073418598
 31
0.0
  0
LINE
  5
35CB
330
1F
100
AcDbEntity
  8
SOLBET_Emulsje_Folie
100
AcDbLine
 10
199.1200619809642
 20
123.4973484323964
 30
0.0
 11
199.5200619809638
 21
123.648402574694
 31
0.0
  0
LINE
  5
35CC
330
1F
100
AcDbEntity
  8
SOLBET_Emulsje_Folie
100
AcDbLine
 10
199.1200619809642
 20
124.5203737494976
 30
0.0
 11
199.5200619809638
 21
124.3693196071999
 31
0.0
  0
LINE
  5
35CD
330
1F
100
AcDbEntity
  8
SOLBET_Emulsje_Folie
100
AcDbLine
 10
199.1200619809642
 20
125.2795716569544
 30
0.0
 11
199.5200619809638
 21
125.4306257992521
 31
0.0
  0
LINE
  5
35CE
330
1F
100
AcDbEntity
  8
SOLBET_Emulsje_Folie
100
AcDbLine
 10
199.1200619809642
 20
119.9329019832803
 30
0.0
 11
199.5200619809638
 21
120.0839561255779
 31
0.0
  0
LINE
  5
35CF
330
1F
100
AcDbEntity
  8
SOLBET_Emulsje_Folie
100
AcDbLine
 10
199.1200619809642
 20
120.9559273003815
 30
0.0
 11
199.5200619809638
 21
120.8048731580838
 31
0.0
  0
LINE
  5
35D0
330
1F
100
AcDbEntity
  8
SOLBET_Emulsje_Folie
100
AcDbLine
 10
199.1200619809642
 20
121.7151252078365
 30
0.0
 11
199.5200619809638
 21
121.866179350136
 31
0.0
  0
LINE
  5
35D1
330
1F
100
AcDbEntity
  8
SOLBET_Emulsje_Folie
100
AcDbLine
 10
199.1200619809642
 20
122.7381505249395
 30
0.0
 11
199.5200619809638
 21
122.5870963826419
 31
0.0
  0
LINE
  5
35D2
330
1F
100
AcDbEntity
  8
SOLBET_Emulsje_Folie
100
AcDbLine
 10
199.1200619809642
 20
116.3684555341642
 30
0.0
 11
199.5200619809638
 21
116.5195096764619
 31
0.0
  0
LINE
  5
35D3
330
1F
100
AcDbEntity
  8
SOLBET_Emulsje_Folie
100
AcDbLine
 10
199.1200619809642
 20
117.3914808512654
 30
0.0
 11
199.5200619809638
 21
117.2404267089678
 31
0.0
  0
LINE
  5
35D4
330
1F
100
AcDbEntity
  8
SOLBET_Emulsje_Folie
100
AcDbLine
 10
199.1200619809642
 20
118.1506787587204
 30
0.0
 11
199.5200619809638
 21
118.3017329010199
 31
0.0
  0
LINE
  5
35D5
330
1F
100
AcDbEntity
  8
SOLBET_Emulsje_Folie
100
AcDbLine
 10
199.1200619809642
 20
119.1737040758235
 30
0.0
 11
199.5200619809638
 21
119.0226499335258
 31
0.0
  0
LINE
  5
35D6
330
1F
100
AcDbEntity
  8
SOLBET_Emulsje_Folie
100
AcDbLine
 10
199.5200619809638
 20
126.1773415214829
 30
0.0
 11
199.1200619809642
 21
126.1773415214829
 31
0.0
  0
LINE
  5
35D7
330
1F
100
AcDbEntity
  8
SOLBET_Emulsje_Folie
100
AcDbLine
 10
199.1200619809642
 20
126.1773415214829
 30
0.0
 11
199.1200619809642
 21
114.5773415214826
 31
0.0
  0
LINE
  5
35D8
330
1F
100
AcDbEntity
  8
SOLBET_Emulsje_Folie
100
AcDbLine
 10
199.5200619809638
 20
126.1773415214829
 30
0.0
 11
199.5200619809638
 21
114.5773415214826
 31
0.0
  0
LINE
  5
35D9
330
1F
100
AcDbEntity
  8
SOLBET_Emulsje_Folie
100
AcDbLine
 10
199.1200619809642
 20
113.0773415214826
 30
0.0
 11
199.1200619809642
 21
80.67734152148295
 31
0.0
  0
LINE
  5
35DA
330
1F
100
AcDbEntity
  8
SOLBET_Emulsje_Folie
100
AcDbLine
 10
199.5200619809638
 20
113.0773415214826
 30
0.0
 11
199.5200619809638
 21
80.67734152148295
 31
0.0
  0
LINE
  5
35DB
330
1F
100
AcDbEntity
  8
SOLBET_Emulsje_Folie
100
AcDbLine
 10
199.1200619809642
 20
115.6092576267074
 30
0.0
 11
199.5200619809638
 21
115.4582034844097
 31
0.0
  0
LINE
  5
35DC
330
1F
100
AcDbEntity
  8
SOLBET_Emulsje_Folie
100
AcDbLine
 10
199.1200619809642
 20
114.5862323096044
 30
0.0
 11
199.5200619809638
 21
114.7372864519038
 31
0.0
  0
LINE
  5
35E1
330
1F
100
AcDbEntity
  8
SOLBET_Tynki_Posadzki
100
AcDbLine
 10
199.4217847897398
 20
140.1751712858422
 30
0.0
 11
199.4217847897398
 21
126.5114763010679
 31
0.0
  0
LINE
  5
35E9
330
1F
100
AcDbEntity
  8
SOLBET_Wymiary_Opisy
 62
     1
100
AcDbLine
 10
144.2932958790006
 20
101.9293732855949
 30
0.0
 11
172.4881560157846
 21
101.9293732855949
 31
0.0
  0
LINE
  5
35EA
330
1F
100
AcDbEntity
  8
SOLBET_Wymiary_Opisy
100
AcDbLine
 10
172.4881560157846
 20
101.9293732855949
 30
0.0
 11
199.0320140566491
 21
125.6082166753331
 31
0.0
  0
LINE
  5
35EB
330
1F
100
AcDbEntity
  8
SOLBET_Emulsje_Folie
100
AcDbLine
 10
221.9535167274298
 20
140.2419166980216
 30
0.0
 11
221.9535167274298
 21
114.5773415214826
 31
0.0
  0
LINE
  5
35EC
330
1F
100
AcDbEntity
  8
SOLBET_Emulsje_Folie
100
AcDbLine
 10
221.9806599888507
 20
113.0773415214826
 30
0.0
 11
221.9806599888507
 21
80.67734152148295
 31
0.0
  0
LINE
  5
35ED
330
1F
100
AcDbEntity
  8
SOLBET_Emulsje_Folie
100
AcDbLine
 10
202.7077094023625
 20
140.2419166980216
 30
0.0
 11
202.7077094023625
 21
114.5773415214826
 31
0.0
  0
LINE
  5
35EE
330
1F
100
AcDbEntity
  8
SOLBET_Emulsje_Folie
100
AcDbLine
 10
202.7077094023625
 20
113.0773415214826
 30
0.0
 11
202.7077094023625
 21
80.67734152148295
 31
0.0
  0
LINE
  5
35EF
330
1F
100
AcDbEntity
  8
SOLBET_Emulsje_Folie
100
AcDbLine
 10
202.8176629125755
 20
140.2419166980216
 30
0.0
 11
221.9535167274298
 21
140.2419166980216
 31
0.0
  0
LINE
  5
35FA
330
1F
100
AcDbEntity
  8
SOLBET_Emulsje_Folie
100
AcDbLine
 10
220.3004058696697
 20
146.2746952993275
 30
0.0
 11
220.3004058696697
 21
143.5972277793444
 31
0.0
  0
LINE
  5
35FB
330
1F
100
AcDbEntity
  8
SOLBET_Emulsje_Folie
100
AcDbLine
 10
220.5504058696697
 20
143.3472277793444
 30
0.0
 11
275.1855898200028
 21
143.3472277793444
 31
0.0
  0
ARC
  5
35FC
330
1F
100
AcDbEntity
  8
SOLBET_Emulsje_Folie
100
AcDbCircle
 10
220.5504058696697
 20
143.5972277793444
 30
0.0
 40
0.25
100
AcDbArc
 50
180.0
 51
270.0
  0
ARC
  5
3605
330
1F
100
AcDbEntity
  8
SOLBET_Emulsje_Folie
100
AcDbCircle
 10
202.4577094023625
 20
80.67734152148295
 30
0.0
 40
0.25
100
AcDbArc
 50
270.0
 51
0.0
  0
LWPOLYLINE
  5
3606
330
1F
100
AcDbEntity
  8
SOLBET_Tynki_Posadzki
100
AcDbPolyline
 90
        5
 70
     1
 43
0.0
 10
220.3004058696697
 20
143.5972277793444
 42
0.0737237824442244
 10
220.3111590528824
 20
143.5246952993275
 10
275.1855898200028
 20
143.5246952993275
 10
275.1855898200028
 20
146.0246952993275
 10
220.3004058696697
 20
146.0246952993275
1001
ASO_SCHRAFF
1005
0
1070
     1
1002
{
1070
     1
1005
0
1002
}
1002
{
1070
     2
1005
0
1002
}
1002
{
1070
     4
1000
AR-CONC
1040
0.01
1040
0.0
1070
     0
1000
T__SCHR
1070
   256
1000
_bylayer
1040
50.0
1070
     1
1002
}
  0
INSERT
  5
3607
330
1F
100
AcDbEntity
  8
SOLBET_Tynki_Posadzki
100
AcDbBlockReference
  2
*X5
 10
-42.39194324612981
 20
-305.7419167471653
 30
0.0
 41
50.0
 42
50.0
 43
50.0
1001
ASO_SCHRAFF
1005
0
1070
     0
1005
0
1001
ACAD
1000
HATCH
1002
{
1070
    16
1000
AR-CONC
1040
0.025
1040
0.0
1002
}
  0
LWPOLYLINE
  5
3608
330
1F
100
AcDbEntity
  8
SOLBET_Beton
100
AcDbPolyline
 90
        4
 70
     1
 43
0.0
 10
192.241687380978
 20
56.26149617306146
 10
232.1294922590259
 20
56.26149617306146
 10
228.8855898200018
 20
59.76149617306146
 10
195.4855898200021
 20
59.76149617306146
1001
ASO_SCHRAFF
1005
3608
1070
     1
1002
{
1070
     1
1005
3608
1002
}
1002
{
1070
     2
1005
3609
1002
}
1002
{
1070
     4
1000
ANSI31
1040
0.1
1040
90.0
1070
     0
1000
T__SCHR
1070
   256
1000
VONLAYER
1040
50.0
1070
     1
1002
}
  0
HATCH
  5
360A
330
1F
100
AcDbEntity
  8
SOLBET_Beton
100
AcDbHatch
 10
0.0
 20
0.0
 30
0.0
210
0.0
220
0.0
230
1.0
  2
ANSI33
 70
     0
 71
     1
 91
        1
 92
        1
 93
        4
 72
     1
 10
222.0295469805805
 20
139.9773415214822
 11
275.1855898200028
 21
139.9773415214822
 72
     1
 10
275.1855898200028
 20
139.9773415214822
 11
275.1855898200028
 21
132.4773415214822
 72
     1
 10
275.1855898200028
 20
132.4773415214822
 11
222.0295469805805
 21
132.4773415214822
 72
     1
 10
222.0295469805805
 20
132.4773415214822
 11
222.0295469805805
 21
139.9773415214822
 97
        1
330
360B
 75
     0
 76
     1
 52
0.0
 41
0.45
 77
     0
 78
     2
 53
45.0
 43
-570.3684041569467
 44
-445.8570463304531
 45
-2.020557627240559
 46
2.020557627240559
 79
     0
 53
45.0
 43
-568.3478456569464
 44
-445.8570463304531
 45
-2.020557627240559
 46
2.020557627240559
 79
     2
 49
1.428749999999999
 49
-0.714375
 98
        1
 10
-218.7755191938995
 20
-398.7169167338761
1001
ACAD
1010
0.0
1020
0.0
1030
0.0
  0
LWPOLYLINE
  5
360B
102
{ACAD_REACTORS
330
360A
102
}
330
1F
100
AcDbEntity
  8
SOLBET_Beton
100
AcDbPolyline
 90
        4
 70
     1
 43
0.0
 10
222.0295469805805
 20
139.9773415214822
 10
275.1855898200028
 20
139.9773415214822
 10
275.1855898200028
 20
132.4773415214822
 10
222.0295469805805
 20
132.4773415214822
  0
LINE
  5
38D7
330
1F
100
AcDbEntity
  8
SOLBET_Izolacja
  6
BATTING
 48
0.12
100
AcDbLine
 10
220.1855898200029
 20
141.9013884657724
 30
0.0
 11
274.9438490858611
 21
141.9013884657724
 31
0.0
  0
LINE
  5
3A43
330
1F
100
AcDbEntity
  8
SOLBET_Izolacja
  6
BATTING
 48
0.049
100
AcDbLine
 10
219.6855898200029
 20
146.0246952993275
 30
0.0
 11
219.6855898200029
 21
140.6513884657725
 31
0.0
  0
LWPOLYLINE
  5
3B33
330
1F
100
AcDbEntity
  8
SOLBET_Emulsje_Folie
100
AcDbPolyline
 90
        4
 70
     1
 43
0.0
 10
199.2054787258093
 20
140.5973415214812
 10
228.2054787258094
 20
140.5973415214812
 10
228.2054787258094
 20
140.3573415214814
 10
199.2054787258093
 20
140.3573415214814
  0
LINE
  5
3B34
330
1F
100
AcDbEntity
  8
SOLBET_Emulsje_Folie
  6
DASHED2
370
    30
100
AcDbLine
 10
199.2054787258093
 20
140.4773415214822
 30
0.0
 11
228.2054787258094
 21
140.4773415214822
 31
0.0
  0
LINE
  5
3B49
330
1F
100
AcDbEntity
  8
SOLBET_Tynki_Posadzki
100
AcDbLine
 10
199.4217847897398
 20
140.1751712858422
 30
0.0
 11
199.5200619809638
 21
140.1751712858422
 31
0.0
  0
LINE
  5
3B4A
330
1F
100
AcDbEntity
  8
SOLBET_Zaprawy
100
AcDbLine
 10
199.5200619809638
 20
140.1751712858422
 30
0.0
 11
199.6855898200028
 21
140.1751712858422
 31
0.0
  0
HATCH
  5
3B6A
330
1F
100
AcDbEntity
  8
SOLBET_Grunt
100
AcDbHatch
 10
0.0
 20
0.0
 30
0.0
210
0.0
220
0.0
230
1.0
  2
AR-CONC
 70
     0
 71
     0
 91
        1
 92
        7
 72
     0
 73
     1
 93
        4
 10
178.5375268086645
 20
125.1773415214829
 10
179.5277842491068
 20
114.5773415214826
 10
199.1200619809642
 20
114.5773415214826
 10
199.1200619809642
 20
125.1773415214829
 97
        0
 75
     0
 76
     1
 52
0.0
 41
0.015
 77
     0
 78
    13
 53
50.0
 43
-570.5684041569475
 44
-445.8570463304531
 45
2.73277003494006
 46
-0.2390862830835463
 79
     2
 49
0.28575
 49
-3.14325
 53
355.0
 43
-570.5684041569475
 44
-445.8570463304531
 45
-0.5286423896350049
 46
2.865849643232699
 79
     2
 49
0.2286
 49
-2.514599999999999
 53
100.4509999999999
 43
-570.340674156947
 44
-445.8769700804532
 45
2.204137524989388
 46
2.626750317304378
 79
     2
 49
0.24285
 49
-2.67135
 53
46.1842
 43
-570.5684041569475
 44
-445.0950463304525
 45
4.066185613381948
 46
-0.6306349189909072
 79
     2
 49
0.4286250000000001
 49
-4.714875
 53
96.63559999999996
 43
-570.2295556569461
 44
-445.1475988304537
 45
3.561063516993557
 46
3.711383338350738
 79
     2
 49
0.3642749999999997
 49
-4.007024999999995
 53
351.184
 43
-570.5684041569475
 44
-445.0950463304525
 45
3.561069087209009
 46
3.711376767908964
 79
     2
 49
0.3429
 49
-3.7719
 53
21.0
 43
-570.1874041569462
 44
-445.2855463304531
 45
2.274223197530749
 46
-1.533982777751437
 79
     2
 49
0.28575
 49
-3.14325
 53
326.0
 43
-570.1874041569462
 44
-445.2855463304531
 45
0.9270304252147059
 46
2.762819491834789
 79
     2
 49
0.2286
 49
-2.514599999999999
 53
71.45140000000001
 43
-569.9978866569472
 44
-445.413377830453
 45
3.201247361551866
 46
1.228842865740861
 79
     2
 49
0.24285
 49
-2.67135
 53
37.5
 43
-570.5684041569475
 44
-445.8570463304531
 45
0.0463290487588773
 46
1.268325583097296
 79
     6
 49
0.0
 49
-2.48412
 49
0.0
 49
-2.5527
 49
0.0
 49
-2.524125
 53
7.5
 43
-570.5684041569475
 44
-445.8570463304531
 45
1.002294937654586
 46
1.502708622271792
 79
     6
 49
0.0
 49
-1.455419999999999
 49
0.0
 49
-2.42697
 49
0.0
 49
-0.9620250000000002
 53
327.5
 43
-571.4180341569463
 44
-445.8570463304531
 45
2.03385892750307
 46
-0.085931159890102
 79
     6
 49
0.0
 49
-0.9525000000000002
 49
0.0
 49
-2.971799999999999
 49
0.0
 49
-3.943349999999999
 53
317.5
 43
-571.7990341569475
 44
-445.8570463304531
 45
2.22193772079027
 46
0.3813973654999952
 79
     6
 49
0.0
 49
-1.238249999999999
 49
0.0
 49
-1.97358
 49
0.0
 49
-2.800349999999999
 47
0.491674213100389
 98
        1
 10
190.995152018435
 20
121.2652381745647
1001
ACAD
1010
0.0
1020
0.0
1030
0.0
  0
LINE
  5
3C11
330
1F
100
AcDbEntity
  8
SOLBET_Izolacja
  6
BATTING
 48
0.12
100
AcDbLine
 10
200.9355898200029
 20
112.8740891922589
 30
0.0
 11
200.9355898200029
 21
80.96019048916241
 31
0.0
  0
LINE
  5
3C12
330
1F
100
AcDbEntity
  8
SOLBET_Izolacja
100
AcDbLine
 10
200.9355898200029
 20
112.8740891922589
 30
0.0
 11
200.9355898200029
 21
113.0773415214826
 31
0.0
  0
LINE
  5
3C13
330
1F
100
AcDbEntity
  8
SOLBET_Izolacja
100
AcDbLine
 10
200.9355898200029
 20
80.96019048916241
 30
0.0
 11
200.9355898200029
 21
80.67734152148295
 31
0.0
  0
LINE
  5
3C14
330
1F
100
AcDbEntity
  8
SOLBET_Izolacja
  6
BATTING
 48
0.12
100
AcDbLine
 10
200.9355898200029
 20
140.1773415277584
 30
0.0
 11
200.9355898200029
 21
114.5773415214826
 31
0.0
  0
HATCH
  5
3C7F
330
1F
100
AcDbEntity
  8
SOLBET_Grunt
100
AcDbHatch
 10
0.0
 20
0.0
 30
0.0
210
0.0
220
0.0
230
1.0
  2
AR-CONC
 70
     0
 71
     0
 91
        2
 92
        7
 72
     0
 73
     1
 93
        9
 10
197.1243902652186
 20
80.42734152148296
 10
199.1200619809642
 20
80.67734152148295
 10
199.1200619809642
 20
86.38092589945699
 10
183.641411746179
 20
93.90870975528377
 10
187.1584337614367
 20
56.26149617306146
 10
192.241687380978
 20
56.26149617306146
 10
195.4855898200021
 20
59.76149617306146
 10
197.185589820001
 20
59.76149617306146
 10
197.1855898200028
 20
79.76149617306146
 97
        0
 92
        7
 72
     0
 73
     1
 93
        5
 10
199.1200619809642
 20
113.0773415214826
 10
183.7089552388861
 20
113.0773415214826
 10
181.9917937353639
 20
111.5666946393121
 10
183.641411746179
 20
93.90870975528377
 10
199.1200619809642
 20
86.38092589945699
 97
        0
 75
     0
 76
     1
 52
0.0
 41
0.05
 77
     0
 78
    13
 53
50.0
 43
-570.5684041569475
 44
-445.8570463304531
 45
9.1092334498002
 46
-0.7969542769451543
 79
     2
 49
0.9525000000000002
 49
-10.4775
 53
355.0
 43
-570.5684041569475
 44
-445.8570463304531
 45
-1.762141298783349
 46
9.552832144108998
 79
     2
 49
0.762
 49
-8.381999999999999
 53
100.4509999999999
 43
-569.8093041569463
 44
-445.9234588304534
 45
7.347125083297962
 46
8.755834391014593
 79
     2
 49
0.8095
 49
-8.9045
 53
46.1842
 43
-570.5684041569475
 44
-443.3170463304523
 45
13.5539520446065
 46
-2.102116396636357
 79
     2
 49
1.428749999999999
 49
-15.71625
 53
96.63559999999996
 43
-569.4389091569465
 44
-443.4922213304526
 45
11.87021172331186
 46
12.37127779450246
 79
     2
 49
1.214249999999998
 49
-13.35674999999999
 53
351.184
 43
-570.5684041569475
 44
-443.3170463304523
 45
11.87023029069669
 46
12.37125589302988
 79
     2
 49
1.143
 49
-12.573
 53
21.0
 43
-569.298404156947
 44
-443.9520463304525
 45
7.580743991769164
 46
-5.113275925838125
 79
     2
 49
0.9525000000000002
 49
-10.4775
 53
326.0
 43
-569.298404156947
 44
-443.9520463304525
 45
3.090101417382353
 46
9.209398306115962
 79
     2
 49
0.762
 49
-8.381999999999999
 53
71.45140000000001
 43
-568.6666791569459
 44
-444.3781513304529
 45
10.67082453850622
 46
4.096142885802872
 79
     2
 49
0.8095
 49
-8.9045
 53
37.5
 43
-570.5684041569475
 44
-445.8570463304531
 45
0.1544301625295909
 46
4.227751943657655
 79
     6
 49
0.0
 49
-8.2804
 49
0.0
 49
-8.509
 49
0.0
 49
-8.41375
 53
7.5
 43
-570.5684041569475
 44
-445.8570463304531
 45
3.340983125515287
 46
5.009028740905975
 79
     6
 49
0.0
 49
-4.851399999999999
 49
0.0
 49
-8.0899
 49
0.0
 49
-3.20675
 53
327.5
 43
-573.4005041569471
 44
-445.8570463304531
 45
6.779529758343568
 46
-0.2864371996336732
 79
     6
 49
0.0
 49
-3.175
 49
0.0
 49
-9.906
 49
0.0
 49
-13.1445
 53
317.5
 43
-574.6705041569476
 44
-445.8570463304531
 45
7.406459069300902
 46
1.27132455166665
 79
     6
 49
0.0
 49
-4.1275
 49
0.0
 49
-6.5786
 49
0.0
 49
-9.3345
 47
2.486849736187797
 98
        2
 10
192.397845660229
 20
80.14185717781401
 10
192.397845660229
 20
96.18203790502594
1001
ACAD
1010
0.0
1020
0.0
1030
0.0
  0
LEADER
  5
3DDA
330
1F
100
AcDbEntity
  8
SOLBET_Wymiary_Opisy
100
AcDbLeader
  3
Solbet$7
 73
     0
 74
     0
 75
     1
 40
3.25
 41
18.75
 76
     3
 10
261.82351119347
 20
136.5153498652071
 30
0.0
 10
283.5040235951783
 20
119.2231354672531
 30
0.0
 10
286.0040235951783
 20
119.2231354672531
 30
0.0
213
0.0
223
-0.2322806831707567
233
0.0
1001
ACAD
1000
DSTYLE
1002
{
1070
   147
1040
0.625
1070
    77
1070
     1
1002
}
  0
MTEXT
  5
3DDB
102
{ACAD_REACTORS
330
3DDA
102
}
330
1F
100
AcDbEntity
  8
SOLBET_Wymiary_Opisy
100
AcDbMText
 10
286.6290235951783
 20
123.3304161504238
 30
0.0
 40
2.5
 41
0.0
 71
     1
 72
     1
  1
Chudy beton
  7
Solbet_2_5
 73
     1
 44
1.0
1001
ACAD
1000
MTEXTBEGIN
1070
    73
1070
     1
1070
    44
1040
1.0
1070
    74
1070
     0
1000
MTEXTEND
  0
MTEXT
  5
3DDD
102
{ACAD_XDICTIONARY
360
4F28
102
}
330
1F
100
AcDbEntity
  8
SOLBET_Wymiary_Opisy
100
AcDbMText
 10
286.1167936436286
 20
115.0019796363722
 30
0.0
 40
2.5
 41
0.0
 71
     1
 72
     1
  1
Zag\U+0119szczony piasek
  7
Solbet_2_5
 73
     1
 44
1.0
1001
ACAD
1000
MTEXTBEGIN
1070
    73
1070
     1
1070
    44
1040
1.0
1070
    74
1070
     0
1000
MTEXTEND
  0
LEADER
  5
3E3D
330
1F
100
AcDbEntity
  8
SOLBET_Wymiary_Opisy
100
AcDbLeader
  3
Solbet$7
 73
     0
 75
     1
 40
2.501893939393939
 41
32.0
 76
     3
 10
211.0099440354789
 20
174.538415551915
 30
0.0
 10
179.2394298322579
 20
193.1163379548215
 30
0.0
 10
176.7394298322578
 20
193.1163379548215
 30
0.0
213
1.177601578005123
223
-0.1753245211093599
233
0.0
1001
ACAD
1000
DSTYLE
1002
{
1070
   147
1040
0.625
1070
    77
1070
     1
1002
}
  0
MTEXT
  5
3E3E
102
{ACAD_REACTORS
330
3E3D
102
}
330
1F
100
AcDbEntity
  8
SOLBET_Wymiary_Opisy
100
AcDbMText
 10
174.9368282542527
 20
196.4185564153249
 30
0.0
 40
2.5
 41
0.0
 71
     3
 72
     1
  1
Bloczki SOLBET Ideal
  7
Solbet_2_5
 73
     1
 44
1.0
1001
ACAD
1000
MTEXTBEGIN
1070
    73
1070
     1
1070
    44
1040
1.0
1070
    74
1070
     0
1000
MTEXTEND
  0
MTEXT
  5
3E40
102
{ACAD_XDICTIONARY
360
4F2A
102
}
330
1F
100
AcDbEntity
  8
SOLBET_Wymiary_Opisy
100
AcDbMText
 10
174.9368282542527
 20
203.6206469112494
 30
0.0
 40
2.5
 41
0.0
 71
     3
 72
     1
  1
Tynk wewn\U+0119trzny SOLBET
  7
Solbet_2_5
 73
     1
 44
1.0
1001
ACAD
1000
MTEXTBEGIN
1070
    73
1070
     1
1070
    44
1040
1.0
1070
    74
1070
     0
1000
MTEXTEND
  0
LEADER
  5
3E61
330
1F
100
AcDbEntity
  8
SOLBET_Wymiary_Opisy
100
AcDbLeader
  3
Solbet$7
 73
     0
 75
     1
 40
7.666666666666666
 41
52.75
 76
     3
 10
200.5003053843102
 20
130.1114502948294
 30
0.0
 10
192.5915307282575
 20
135.1949754897268
 30
0.0
 10
190.0915307282575
 20
135.1949754897268
 30
0.0
213
1.177601578005123
223
4.34859754619417
233
0.0
1001
ACAD
1000
DSTYLE
1002
{
1070
   147
1040
0.625
1070
    77
1070
     1
1002
}
  0
MTEXT
  5
3E62
102
{ACAD_XDICTIONARY
360
4F2C
102
}
102
{ACAD_REACTORS
330
3E61
102
}
330
1F
100
AcDbEntity
  8
SOLBET_Wymiary_Opisy
100
AcDbMText
 10
188.2889291502524
 20
139.1380446101993
 30
0.0
 40
2.5
 41
0.0
 71
     3
 72
     1
  1
Mocowanie mechaniczne styropianu\P(w cz\U+0119\U+015Bci naziemnej)
  7
Solbet_2_5
 73
     1
 44
1.0
1001
ACAD
1000
MTEXTBEGIN
1070
    73
1070
     1
1070
    44
1040
1.0
1070
    74
1070
     0
1000
MTEXTEND
  0
DIMENSION
  5
3E63
330
1F
100
AcDbEntity
  8
SOLBET_Wymiary_Opisy
100
AcDbDimension
  2
*D6
 10
130.5774809695413
 20
125.1751712858422
 30
0.0
 11
130.5774809695413
 21
132.9779202317386
 31
0.0
 70
   160
  1
Min. 30cm
 71
     5
 42
15.00000000000001
  3
Solbet
100
AcDbAlignedDimension
 13
199.4217847897398
 23
140.1751712858422
 33
0.0
 14
199.4217847897398
 24
125.1751712858422
 34
0.0
 50
90.0
100
AcDbRotatedDimension
  0
CIRCLE
  5
3E66
330
1F
100
AcDbEntity
  8
SOLBET_Wymiary_Opisy
100
AcDbCircle
 10
199.4669118212114
 20
140.4444823462581
 30
0.0
 40
5.102418751818163
  0
LEADER
  5
3E67
330
1F
100
AcDbEntity
  8
SOLBET_Wymiary_Opisy
100
AcDbLeader
  3
Solbet$7
 73
     0
 75
     1
 40
5.0
 41
4.5
 76
     3
 10
196.5981736673766
 20
144.6640816783801
 30
0.0
 10
194.0165198487648
 20
148.3900272474766
 30
0.0
 10
191.5165198487648
 20
148.3900272474766
 30
0.0
213
-0.8791749024171622
223
-0.1753245211093599
233
0.0
1001
ACAD
1000
DSTYLE
1002
{
1070
   341
1005
30D0
1070
   147
1040
0.625
1070
    77
1070
     1
1002
}
  0
MTEXT
  5
3E68
102
{ACAD_REACTORS
330
3E67
102
}
330
1F
100
AcDbEntity
  8
SOLBET_Wymiary_Opisy
100
AcDbMText
 10
191.7706947511815
 20
154.1903517685859
 30
0.0
 40
5.0
 41
0.0
 71
     3
 72
     1
  1
A
  7
Solbet_5
 73
     1
 44
1.0
1001
ACAD
1000
MTEXTBEGIN
1070
    73
1070
     1
1070
    44
1040
1.0
1070
    74
1070
     0
1000
MTEXTEND
  0
MTEXT
  5
3EA7
330
1F
100
AcDbEntity
  8
SOLBET_Wymiary_Opisy
100
AcDbMText
 10
77.18161711880566
 20
181.0325586129293
 30
0.0
 40
2.5
 41
0.0
 71
     3
 72
     1
  1
Izolacja z folii
  7
Solbet_2_5
 73
     1
 44
1.0
1001
ACAD
1000
MTEXTBEGIN
1070
    73
1070
     1
1070
    44
1040
1.0
1070
    74
1070
     0
1000
MTEXTEND
  0
MTEXT
  5
3EA9
102
{ACAD_XDICTIONARY
360
4F2E
102
}
330
1F
100
AcDbEntity
  8
SOLBET_Wymiary_Opisy
100
AcDbMText
 10
77.67268830368812
 20
188.0181222114588
 30
0.0
 40
2.5
 41
0.0
 71
     3
 72
     1
  1
Emulsja izoluj\U+0105ca
  7
Solbet_2_5
 73
     1
 44
1.0
1001
ACAD
1000
MTEXTBEGIN
1070
    73
1070
     1
1070
    44
1040
1.0
1070
    74
1070
     0
1000
MTEXTEND
  0
MTEXT
  5
3EAB
102
{ACAD_XDICTIONARY
360
4F30
102
}
330
1F
100
AcDbEntity
  8
SOLBET_Wymiary_Opisy
100
AcDbMText
 10
77.30438456638331
 20
173.5530755732306
 30
0.0
 40
2.5
 41
0.0
 71
     3
 72
     1
  1
Tynk coko\U+0142owy
  7
Solbet_2_5
 73
     1
 44
1.0
1001
ACAD
1000
MTEXTBEGIN
1070
    73
1070
     1
1070
    44
1040
1.0
1070
    74
1070
     0
1000
MTEXTEND
  0
LWPOLYLINE
  5
3EAC
330
1F
100
AcDbEntity
  8
SOLBET_Bloczki
100
AcDbPolyline
 90
        3
 70
     0
 43
0.0
 10
121.8267811733822
 20
168.1065854701264
 10
115.4522525430766
 20
168.1065854701264
 10
115.4522525430766
 20
152.5421866385368
  0
LINE
  5
3EAD
330
1F
100
AcDbEntity
  8
SOLBET_Izolacja
100
AcDbLine
 10
99.45225254307661
 20
144.1303348668152
 30
0.0
 11
99.45225254307661
 21
168.1065854701264
 31
0.0
  0
LINE
  5
3EAE
330
1F
100
AcDbEntity
  8
SOLBET_Izolacja
100
AcDbLine
 10
111.9522525430766
 20
149.2678887803176
 30
0.0
 11
111.9522525430766
 21
168.1065854701264
 31
0.0
  0
LINE
  5
3EAF
330
1F
100
AcDbEntity
  8
SOLBET_Izolacja
100
AcDbLine
 10
99.45225254307661
 20
168.1065854701264
 30
0.0
 11
111.9522525430766
 21
168.1065855328961
 31
0.0
  0
LINE
  5
3EB0
330
1F
100
AcDbEntity
  8
SOLBET_Zaprawy
100
AcDbLine
 10
91.95225254307661
 20
172.1065854701246
 30
0.0
 11
91.95225254307661
 21
194.5832931690638
 31
0.0
  0
LINE
  5
3EB1
330
1F
100
AcDbEntity
  8
SOLBET_Tynki_Posadzki
100
AcDbLine
 10
88.20225254307661
 20
172.1065854701246
 30
0.0
 11
88.20225254307661
 21
193.629101761855
 31
0.0
  0
LINE
  5
3EB2
330
1F
100
AcDbEntity
  8
SOLBET_Tynki_Posadzki
100
AcDbLine
 10
90.53564351041131
 20
172.1065854701264
 30
0.0
 11
90.53564351041131
 21
194.2937787818591
 31
0.0
  0
LINE
  5
3EB3
330
1F
100
AcDbEntity
  8
SOLBET_Tynki_Posadzki
100
AcDbLine
 10
90.53564351041131
 20
172.1065854701264
 30
0.0
 11
88.20225254307661
 21
172.1065854701246
 31
0.0
  0
LINE
  5
3EB4
330
1F
100
AcDbEntity
  8
SOLBET_Zaprawy
100
AcDbLine
 10
98.62461334788713
 20
168.1065854701264
 30
0.0
 11
98.62461334788713
 21
144.0426273469456
 31
0.0
  0
LINE
  5
3EB5
330
1F
100
AcDbEntity
  8
SOLBET_Tynki_Posadzki
100
AcDbLine
 10
96.12461334788713
 20
168.1065854701264
 30
0.0
 11
96.12461334788713
 21
143.9420448187065
 31
0.0
  0
LINE
  5
3EB6
330
1F
100
AcDbEntity
  8
SOLBET_Emulsje_Folie
100
AcDbLine
 10
114.5628504548785
 20
168.4294613528273
 30
0.0
 11
114.5628504548785
 21
151.5878655659126
 31
0.0
  0
LINE
  5
3EB7
330
1F
100
AcDbEntity
  8
SOLBET_Emulsje_Folie
100
AcDbLine
 10
115.1126180059382
 20
168.4294613528273
 30
0.0
 11
121.841796289138
 21
168.4294613528273
 31
0.0
  0
LINE
  5
3EB8
330
1F
100
AcDbEntity
  8
SOLBET_Izolacja
  6
BATTING
 48
0.6
100
AcDbLine
 10
105.7022525430766
 20
145.7169458697153
 30
0.0
 11
105.7022525430766
 21
168.1065855015113
 31
0.0
  0
LINE
  5
3EB9
330
1F
100
AcDbEntity
  8
SOLBET_Zaprawy
100
AcDbLine
 10
90.53564351041131
 20
172.1065854701264
 30
0.0
 11
91.95225254307661
 21
172.1065854701264
 31
0.0
  0
LINE
  5
3EBA
330
1F
100
AcDbEntity
  8
SOLBET_Zaprawy
100
AcDbLine
 10
90.53564351041131
 20
194.2937787818591
 30
0.0
 11
90.53564351041131
 21
172.1065854701264
 31
0.0
  0
MLINE
  5
3EBC
330
1F
100
AcDbEntity
  8
SOLBET_Emulsje_Folie
100
AcDbMline
  2
SOLBET_IZOLACJA
340
30EF
 40
100.0
 70
     0
 71
     1
 72
     2
 73
     2
 10
233.3399647742408
 20
168.6531407722013
 30
0.0
210
0.0
220
0.0
230
1.0
 11
121.8497961085304
 21
168.6531407722013
 31
0.0
 12
-1.0
 22
0.0
 32
0.0
 13
-6.123031769111886E-17
 23
-1.0
 33
0.0
 74
     2
 41
0.0
 41
0.0
 75
     0
 74
     2
 41
-1.6
 41
0.0
 75
     0
 11
95.02461334788677
 21
168.6531407722013
 31
0.0
 12
-1.0
 22
0.0
 32
0.0
 13
-2.220446049250313E-16
 23
-1.0
 33
0.0
 74
     2
 41
0.0
 41
0.0
 75
     0
 74
     2
 41
-1.6
 41
0.0
 75
     0
  0
LWPOLYLINE
  5
3EBD
330
1F
100
AcDbEntity
  8
SOLBET_Bloczki
100
AcDbPolyline
 90
        3
 70
     0
 43
0.0
 10
91.95225254307661
 20
194.5832931690638
 10
91.95225254307661
 20
172.1065854701264
 10
121.723978211523
 20
172.1065854701264
  0
ARC
  5
3EBF
330
1F
100
AcDbEntity
  8
SOLBET_Wymiary_Opisy
100
AcDbCircle
 10
96.35024850523587
 20
169.4531407722024
 30
0.0
 40
25.51209375909082
100
AcDbArc
 50
269.4932555950582
 51
108.6253000615503
  0
LINE
  5
3EC0
330
1F
100
AcDbEntity
  8
SOLBET_Tynki_Posadzki
100
AcDbLine
 10
96.12461334788713
 20
168.1065854701264
 30
0.0
 11
98.62461334788713
 21
168.1065854701264
 31
0.0
  0
LINE
  5
3EC1
330
1F
100
AcDbEntity
  8
SOLBET_Zaprawy
100
AcDbLine
 10
98.62461334788713
 20
168.1065854701264
 30
0.0
 11
99.45225254307661
 21
168.1065854701264
 31
0.0
  0
LINE
  5
3EC2
330
1F
100
AcDbEntity
  8
SOLBET_Emulsje_Folie
100
AcDbLine
 10
95.02461334788677
 20
170.2531407722017
 30
0.0
 11
95.02461334788677
 21
168.6531407722013
 31
0.0
  0
MTEXT
  5
3EC6
102
{ACAD_XDICTIONARY
360
4E17
102
}
330
1F
100
AcDbEntity
  8
SOLBET_Wymiary_Opisy
100
AcDbMText
 10
84.79896583326445
 20
220.744986341635
 30
0.0
 40
5.0
 41
30.77919768571883
 71
     1
 72
     5
  1
\pxqc;A\P(5 : 1)
  7
Solbet_5
 73
     1
 44
1.0
1001
ACAD
1000
MTEXTBEGIN
1070
    73
1070
     1
1070
    44
1040
1.0
1070
    74
1070
     0
1000
MTEXTEND
1000
ACAD_MTEXT_DEFINED_HEIGHT_BEGIN
1070
    46
1040
23.42535011036716
1000
ACAD_MTEXT_DEFINED_HEIGHT_END
  0
LINE
  5
3F41
330
1F
100
AcDbEntity
  8
SOLBET_Emulsje_Folie
100
AcDbLine
 10
116.7132000226593
 20
170.2531407722017
 30
0.0
 11
116.7132000226593
 21
168.6531407722013
 31
0.0
  0
LINE
  5
3F42
330
1F
100
AcDbEntity
  8
SOLBET_Emulsje_Folie
100
AcDbLine
 10
110.7579038292788
 20
170.2531407722017
 30
0.0
 11
110.7579038292788
 21
168.6531407722013
 31
0.0
  0
LINE
  5
3F43
330
1F
100
AcDbEntity
  8
SOLBET_Emulsje_Folie
100
AcDbLine
 10
103.3277842634234
 20
170.2531407722017
 30
0.0
 11
103.3277842634234
 21
168.6531407722013
 31
0.0
  0
LINE
  5
3F44
330
1F
100
AcDbEntity
  8
SOLBET_Emulsje_Folie
100
AcDbLine
 10
97.7054001559045
 20
170.2531407722017
 30
0.0
 11
97.7054001559045
 21
168.6531407722013
 31
0.0
  0
HATCH
  5
3FA8
330
1F
100
AcDbEntity
  8
SOLBET_Emulsje_Folie
100
AcDbHatch
 10
0.0
 20
0.0
 30
0.0
210
0.0
220
0.0
230
1.0
  2
SOLID
 70
     1
 71
     0
 91
        3
 92
        7
 72
     0
 73
     1
 93
        4
 10
97.7054001559045
 20
170.2531407722017
 10
95.02461334788677
 20
170.2531407722017
 10
95.02461334788677
 20
168.6531407722013
 10
97.7054001559045
 20
168.6531407722013
 97
        0
 92
        7
 72
     0
 73
     1
 93
        4
 10
110.7579038292788
 20
170.2531407722017
 10
103.3277842634234
 20
170.2531407722017
 10
103.3277842634215
 20
168.6531407722013
 10
110.7579038292788
 20
168.6531407722013
 97
        0
 92
        7
 72
     0
 73
     1
 93
        4
 10
121.8497961085322
 20
170.2531407722017
 10
116.7132000226575
 20
170.2531407722035
 10
116.7132000226593
 20
168.6531407722013
 10
121.8497961085286
 20
168.6531407722013
 97
        0
 75
     0
 76
     1
 47
0.0289272410488558
 98
        3
 10
96.60148245789969
 20
169.4932533450774
 10
106.9944349297548
 20
169.3486129338998
 10
117.8795595806477
 20
169.3775435854659
1001
ACAD
1010
0.0
1020
0.0
1030
0.0
  0
LEADER
  5
3FB7
330
1F
100
AcDbEntity
  8
SOLBET_Wymiary_Opisy
100
AcDbLeader
  3
Solbet$7
 73
     0
 74
     0
 75
     1
 40
3.5
 41
37.25
 76
     3
 10
262.8485163169145
 20
236.1915279151448
 30
0.0
 10
287.5500999370554
 20
245.3111326358188
 30
0.0
 10
290.0500999370553
 20
245.3111326358188
 30
0.0
213
1.177601578005123
223
-0.1753245211093599
233
0.0
1001
ACAD
1000
DSTYLE
1002
{
1070
   147
1040
0.625
1070
    77
1070
     1
1002
}
  0
MTEXT
  5
3FB8
102
{ACAD_XDICTIONARY
360
4F32
102
}
102
{ACAD_REACTORS
330
3FB7
102
}
330
1F
100
AcDbEntity
  8
SOLBET_Wymiary_Opisy
100
AcDbMText
 10
289.4974983590502
 20
249.6114571569282
 30
0.0
 40
2.5
 41
0.0
 71
     1
 72
     1
  1
Warstwa wyko\U+0144czeniowa
  7
Solbet_2_5
 73
     1
 44
1.0
1001
ACAD
1000
MTEXTBEGIN
1070
    73
1070
     1
1070
    44
1040
1.0
1070
    74
1070
     0
1000
MTEXTEND
  0
LEADER
  5
3FB9
330
1F
100
AcDbEntity
  8
SOLBET_Wymiary_Opisy
100
AcDbLeader
  3
Solbet$7
 73
     0
 74
     0
 75
     1
 40
3.25
 41
32.5
 76
     3
 10
263.4067848260212
 20
228.4254090987264
 30
0.0
 10
286.3724983590502
 20
239.0699261052281
 30
0.0
 10
288.8724983590502
 20
239.0699261052281
 30
0.0
213
0.0
223
-0.2322806831707567
233
0.0
1001
ACAD
1000
DSTYLE
1002
{
1070
   147
1040
0.625
1070
    77
1070
     1
1002
}
  0
MTEXT
  5
3FBA
102
{ACAD_REACTORS
330
3FB9
102
}
330
1F
100
AcDbEntity
  8
SOLBET_Wymiary_Opisy
100
AcDbMText
 10
289.4974983590502
 20
243.1772067883989
 30
0.0
 40
2.5
 41
0.0
 71
     1
 72
     1
  1
Wylewka jastrychowa
  7
Solbet_2_5
 73
     1
 44
1.0
1001
ACAD
1000
MTEXTBEGIN
1070
    73
1070
     1
1070
    44
1040
1.0
1070
    74
1070
     0
1000
MTEXTEND
  0
LEADER
  5
3FBB
330
1F
100
AcDbEntity
  8
SOLBET_Wymiary_Opisy
100
AcDbLeader
  3
Solbet$7
 73
     0
 74
     0
 75
     1
 40
3.25
 41
19.75
 76
     3
 10
265.4453336597209
 20
221.5317493990364
 30
0.0
 10
286.3724983590502
 20
232.8347690264504
 30
0.0
 10
288.8724983590502
 20
232.8347690264504
 30
0.0
213
0.0
223
-0.2322806831707567
233
0.0
1001
ACAD
1000
DSTYLE
1002
{
1070
   147
1040
0.625
1070
    77
1070
     1
1002
}
  0
MTEXT
  5
3FBC
102
{ACAD_REACTORS
330
3FBB
102
}
330
1F
100
AcDbEntity
  8
SOLBET_Wymiary_Opisy
100
AcDbMText
 10
289.4974983590502
 20
236.9420497096211
 30
0.0
 40
2.5
 41
0.0
 71
     1
 72
     1
  1
Hydroizolacja
  7
Solbet_2_5
 73
     1
 44
1.0
1001
ACAD
1000
MTEXTBEGIN
1070
    73
1070
     1
1070
    44
1040
1.0
1070
    74
1070
     0
1000
MTEXTEND
  0
LEADER
  5
3FBD
330
1F
100
AcDbEntity
  8
SOLBET_Wymiary_Opisy
100
AcDbLeader
  3
Solbet$7
 73
     0
 74
     0
 75
     1
 40
3.25
 41
36.5
 76
     3
 10
269.9308046246289
 20
214.2170099447734
 30
0.0
 10
286.3724983590502
 20
226.3628259075134
 30
0.0
 10
288.8724983590502
 20
226.3628259075134
 30
0.0
213
0.0
223
-0.2322806831707567
233
0.0
1001
ACAD
1000
DSTYLE
1002
{
1070
   147
1040
0.625
1070
    77
1070
     1
1002
}
  0
MTEXT
  5
3FBE
102
{ACAD_XDICTIONARY
360
4F34
102
}
102
{ACAD_REACTORS
330
3FBD
102
}
330
1F
100
AcDbEntity
  8
SOLBET_Wymiary_Opisy
100
AcDbMText
 10
289.4974983590502
 20
230.4701065906842
 30
0.0
 40
2.5
 41
0.0
 71
     1
 72
     1
  1
P\U+0142yty izolacyjne twarde
  7
Solbet_2_5
 73
     1
 44
1.0
1001
ACAD
1000
MTEXTBEGIN
1070
    73
1070
     1
1070
    44
1040
1.0
1070
    74
1070
     0
1000
MTEXTEND
  0
LEADER
  5
3FBF
330
1F
100
AcDbEntity
  8
SOLBET_Wymiary_Opisy
100
AcDbLeader
  3
Solbet$7
 73
     0
 74
     0
 75
     1
 40
3.25
 41
19.75
 76
     3
 10
273.176544406145
 20
205.7882706386657
 30
0.0
 10
286.3724983590502
 20
220.0487439422353
 30
0.0
 10
288.8724983590502
 20
220.0487439422353
 30
0.0
213
0.0
223
-0.2322806831707567
233
0.0
1001
ACAD
1000
DSTYLE
1002
{
1070
   147
1040
0.625
1070
    77
1070
     1
1002
}
  0
MTEXT
  5
3FC0
102
{ACAD_REACTORS
330
3FBF
102
}
330
1F
100
AcDbEntity
  8
SOLBET_Wymiary_Opisy
100
AcDbMText
 10
289.4974983590502
 20
224.1560246254061
 30
0.0
 40
2.5
 41
0.0
 71
     1
 72
     1
  1
Hydroizolacja
  7
Solbet_2_5
 73
     1
 44
1.0
1001
ACAD
1000
MTEXTBEGIN
1070
    73
1070
     1
1070
    44
1040
1.0
1070
    74
1070
     0
1000
MTEXTEND
  0
LINE
  5
3FC1
330
1F
100
AcDbEntity
  8
SOLBET_Wymiary_Opisy
100
AcDbLine
 10
275.4670749629287
 20
237.419086998952
 30
0.0
 11
275.4670749629069
 21
182.4546352921838
 31
0.0
  0
LINE
  5
3FC2
330
1F
100
AcDbEntity
  8
SOLBET_Izolacja
100
AcDbLine
 10
231.5807290233235
 20
208.052552831175
 30
0.0
 11
275.4670749629287
 21
208.052552831175
 31
0.0
  0
LINE
  5
3FC3
330
1F
100
AcDbEntity
  8
SOLBET_Izolacja
100
AcDbLine
 10
231.5807290233235
 20
220.552552831175
 30
0.0
 11
275.4670749629287
 21
220.552552831175
 31
0.0
  0
LINE
  5
3FC4
330
1F
100
AcDbEntity
  8
SOLBET_Tynki_Posadzki
100
AcDbLine
 10
240.1959218853746
 20
237.419086998952
 30
0.0
 11
275.4670749629287
 21
237.419086998952
 31
0.0
  0
LINE
  5
3FC5
330
1F
100
AcDbEntity
  8
SOLBET_Emulsje_Folie
100
AcDbLine
 10
232.0903529110648
 20
205.7882706386657
 30
0.0
 11
275.4670749629287
 21
205.7882706386657
 31
0.0
  0
LINE
  5
3FC6
330
1F
100
AcDbEntity
  8
SOLBET_Emulsje_Folie
100
AcDbLine
 10
231.7809905193637
 20
221.5317493990364
 30
0.0
 11
275.4670749629287
 21
221.5317493990364
 31
0.0
  0
HATCH
  5
3FC7
330
1F
100
AcDbEntity
  8
SOLBET_Tynki_Posadzki
100
AcDbHatch
 10
0.0
 20
0.0
 30
0.0
210
0.0
220
0.0
230
1.0
  2
AR-CONC
 70
     0
 71
     0
 91
        1
 92
        5
 93
        4
 72
     2
 10
264.6347307792814
 20
214.302552831175
 40
33.63970172404727
 50
142.2031821742316
 51
166.0379938227853
 73
     1
 72
     1
 10
231.9888825717964
 20
222.419086998952
 11
275.4670749629306
 21
222.419086998952
 72
     1
 10
275.4670749629287
 20
222.419086998952
 11
275.4670749629287
 21
234.9190869989501
 72
     1
 10
275.4670749629287
 20
234.919086998952
 11
238.053006775902
 21
234.919086998952
 97
        0
 75
     0
 76
     1
 52
0.0
 41
0.03
 77
     0
 78
    13
 53
50.0
 43
901.5629258996844
 44
137.170534052438
 45
5.46554006988012
 46
-0.4781725661670926
 79
     2
 49
0.5715
 49
-6.2865
 53
355.0
 43
901.5629258996844
 44
137.170534052438
 45
-1.057284779270009
 46
5.731699286465398
 79
     2
 49
0.4572
 49
-5.029199999999999
 53
100.451
 43
902.0183858996855
 44
137.1306865524378
 45
4.408275049978777
 46
5.253500634608755
 79
     2
 49
0.4857000000000001
 49
-5.342699999999999
 53
46.1842
 43
901.5629258996844
 44
138.6945340524375
 45
8.132371226763897
 46
-1.261269837981814
 79
     2
 49
0.8572499999999999
 49
-9.429749999999998
 53
96.63559999999996
 43
902.2406228996853
 44
138.5894290524369
 45
7.122127033987114
 46
7.422766676701476
 79
     2
 49
0.728549999999999
 49
-8.014049999999981
 53
351.184
 43
901.5629258996844
 44
138.6945340524375
 45
7.122138174418017
 46
7.422753535817929
 79
     2
 49
0.6858
 49
-7.5438
 53
21.0
 43
902.324925899685
 44
138.3135340524381
 45
4.548446395061498
 46
-3.067965555502874
 79
     2
 49
0.5715
 49
-6.2865
 53
326.0
 43
902.324925899685
 44
138.3135340524381
 45
1.854060850429411
 46
5.525638983669577
 79
     2
 49
0.4572
 49
-5.029199999999999
 53
71.45140000000001
 43
902.7039608996849
 44
138.0578710524382
 45
6.402494723103733
 46
2.457685731481723
 79
     2
 49
0.4857000000000001
 49
-5.342699999999999
 53
37.5
 43
901.5629258996844
 44
137.170534052438
 45
0.0926580975177545
 46
2.536651166194593
 79
     6
 49
0.0
 49
-4.968239999999999
 49
0.0
 49
-5.1054
 49
0.0
 49
-5.04825
 53
7.499999999999999
 43
901.5629258996844
 44
137.170534052438
 45
2.004589875309172
 46
3.005417244543585
 79
     6
 49
0.0
 49
-2.910839999999999
 49
0.0
 49
-4.853939999999999
 49
0.0
 49
-1.92405
 53
327.5
 43
899.8636658996849
 44
137.170534052438
 45
4.067717855006141
 46
-0.1718623197802037
 79
     6
 49
0.0
 49
-1.905
 49
0.0
 49
-5.943599999999999
 49
0.0
 49
-7.886699999999999
 53
317.5
 43
899.1016658996842
 44
137.170534052438
 45
4.443875441580541
 46
0.7627947309999904
 79
     6
 49
0.0
 49
-2.476499999999999
 49
0.0
 49
-3.947159999999999
 49
0.0
 49
-5.600699999999999
 47
0.0387476598051738
 98
        1
 10
254.9375193234729
 20
228.5166252965659
1001
ACAD
1010
0.0
1020
0.0
1030
0.0
  0
LWPOLYLINE
  5
3FC8
330
1F
100
AcDbEntity
  8
SOLBET_Tynki_Posadzki
100
AcDbPolyline
 90
        4
 70
     0
 43
0.0
 10
231.9888825717964
 20
222.419086998952
 10
275.4670749629287
 20
222.419086998952
 10
275.4670749629287
 20
234.919086998952
 10
238.053006775902
 20
234.919086998952
1001
ASO_SCHRAFF
1005
0
1070
     1
1002
{
1070
     1
1005
0
1002
}
1002
{
1070
     2
1005
0
1002
}
1002
{
1070
     4
1000
AR-CONC
1040
0.01
1040
0.0
1070
     0
1000
T__SCHR
1070
   256
1000
_bylayer
1040
50.0
1070
     1
1002
}
  0
HATCH
  5
3FC9
330
1F
100
AcDbEntity
  8
SOLBET_Beton
100
AcDbHatch
 10
0.0
 20
0.0
 30
0.0
210
0.0
220
0.0
230
1.0
  2
ANSI33
 70
     0
 71
     1
 91
        1
 92
        7
 72
     1
 73
     1
 93
        3
 10
232.3999573817987
 20
204.6823181097237
 42
0.425336155700464
 10
275.4670749629287
 20
182.4546352921928
 42
0.0
 10
275.4670749629287
 20
204.6823181097237
 42
0.0
 97
        2
330
3FCA
330
3FCC
 75
     0
 76
     1
 52
0.0
 41
3.75
 77
     0
 78
     2
 53
45.0
 43
-533.4455938815032
 44
-431.9480808900577
 45
-16.83798022700466
 46
16.83798022700466
 79
     0
 53
45.0
 43
-516.6076063815023
 44
-431.9480808900577
 45
-16.83798022700466
 46
16.83798022700466
 79
     2
 49
11.90625
 49
-5.953124999999999
 47
0.0587362888947614
 98
        1
 10
257.3027941569264
 20
194.1658261140195
1001
ACAD
1010
0.0
1020
0.0
1030
0.0
  0
LWPOLYLINE
  5
3FCA
102
{ACAD_REACTORS
330
3FC9
102
}
330
1F
100
AcDbEntity
  8
SOLBET_Beton
100
AcDbPolyline
 90
        3
 70
     0
 43
0.0
 10
232.3999573817993
 20
204.6823181097237
 10
275.4670749629287
 20
204.6823181097237
 10
275.4670749629287
 20
182.4546352921928
  0
LINE
  5
3FCB
330
1F
100
AcDbEntity
  8
SOLBET_Izolacja
  6
BATTING
 48
0.6
100
AcDbLine
 10
232.4624895526915
 20
214.2973611489446
 30
0.0
 11
275.1443795088227
 21
214.1807081355286
 31
0.0
  0
ARC
  5
3FCC
102
{ACAD_REACTORS
330
3FC9
102
}
330
1F
100
AcDbEntity
  8
SOLBET_Wymiary_Opisy
100
AcDbCircle
 10
264.6347307792814
 20
214.302552831175
 30
0.0
 40
33.6397017240473
100
AcDbArc
 50
136.592696874454
 51
288.7845676763595
  0
MTEXT
  5
3FCD
102
{ACAD_XDICTIONARY
360
4E19
102
}
330
1F
100
AcDbEntity
  8
SOLBET_Wymiary_Opisy
100
AcDbMText
 10
238.252242416725
 20
259.571665346685
 30
0.0
 40
5.0
 41
30.77919768571883
 71
     1
 72
     5
  1
\pxqc;B\P(5 : 1)
  7
Solbet_5
 73
     1
 44
1.0
1001
ACAD
1000
MTEXTBEGIN
1070
    73
1070
     1
1070
    44
1040
1.0
1070
    74
1070
     0
1000
MTEXTEND
1000
ACAD_MTEXT_DEFINED_HEIGHT_BEGIN
1070
    46
1040
23.42535011036716
1000
ACAD_MTEXT_DEFINED_HEIGHT_END
  0
CIRCLE
  5
3FCF
330
1F
100
AcDbEntity
  8
SOLBET_Wymiary_Opisy
100
AcDbCircle
 10
273.0191209832737
 20
141.9013884657724
 30
0.0
 40
6.72794034480946
  0
LEADER
  5
3FD0
330
1F
100
AcDbEntity
  8
SOLBET_Wymiary_Opisy
100
AcDbLeader
  3
Solbet$7
 73
     0
 74
     0
 75
     1
 40
5.0
 41
4.0
 76
     3
 10
276.6406946533898
 20
147.5714312729487
 30
0.0
 10
279.6118448542074
 20
151.5699180119936
 30
0.0
 10
282.1118448542074
 20
151.5699180119936
 30
0.0
213
0.8103787685154202
223
-0.1753245211093599
233
0.0
1001
ACAD
1000
DSTYLE
1002
{
1070
   341
1005
30D0
1070
   147
1040
0.625
1070
    77
1070
     1
1002
}
  0
MTEXT
  5
3FD1
102
{ACAD_REACTORS
330
3FD0
102
}
330
1F
100
AcDbEntity
  8
SOLBET_Wymiary_Opisy
100
AcDbMText
 10
285.9264660856916
 20
157.370242533103
 30
0.0
 40
5.0
 41
0.0
 71
     3
 72
     1
  1
B
  7
Solbet_5
 73
     1
 44
1.0
1001
ACAD
1000
MTEXTBEGIN
1070
    73
1070
     1
1070
    44
1040
1.0
1070
    74
1070
     0
1000
MTEXTEND
  0
LINE
  5
3FD2
330
1F
100
AcDbEntity
  8
SOLBET_Izolacja
100
AcDbLine
 10
274.9438490858611
 20
141.9013884657724
 30
0.0
 11
275.1855898200028
 21
141.9013884657724
 31
0.0
  0
LEADER
  5
3FE6
330
1F
100
AcDbEntity
  8
SOLBET_Wymiary_Opisy
100
AcDbLeader
  3
Solbet$7
 73
     0
 40
3.25
 41
35.5
 76
     2
 10
200.9355898200011
 20
95.69290136873496
 30
0.0
 10
174.5153492409463
 20
90.15223389301537
 30
0.0
213
1.177601578005123
223
-0.1753245211093599
233
0.0
1001
ACAD
1000
DSTYLE
1002
{
1070
   147
1040
0.625
1070
    77
1070
     1
1002
}
  0
MTEXT
  5
3FE7
102
{ACAD_REACTORS
330
3FE6
102
}
330
1F
100
AcDbEntity
  8
SOLBET_Wymiary_Opisy
100
AcDbMText
 10
172.7127476629411
 20
94.20255841412473
 30
0.0
 40
2.5
 41
0.0
 71
     3
 72
     1
  1
Styropian wodoodporny
  7
Solbet_2_5
 73
     1
 44
1.0
1001
ACAD
1000
MTEXTBEGIN
1070
    73
1070
     1
1070
    44
1040
1.0
1070
    74
1070
     0
1000
MTEXTEND
  0
LEADER
  5
3FE8
330
1F
100
AcDbEntity
  8
SOLBET_Wymiary_Opisy
100
AcDbLeader
  3
Solbet$7
 73
     0
 40
3.25
 41
19.75
 76
     2
 10
202.7077094023625
 20
85.82685627268256
 30
0.0
 10
174.5153492409463
 20
78.90487203893463
 30
0.0
213
1.177601578005123
223
-0.1753245211093599
233
0.0
1001
ACAD
1000
DSTYLE
1002
{
1070
   147
1040
0.625
1070
    77
1070
     1
1002
}
  0
MTEXT
  5
3FE9
102
{ACAD_REACTORS
330
3FE8
102
}
330
1F
100
AcDbEntity
  8
SOLBET_Wymiary_Opisy
100
AcDbMText
 10
172.7127476629411
 20
82.95519656004399
 30
0.0
 40
2.5
 41
0.0
 71
     3
 72
     1
  1
Hydroizolacja
  7
Solbet_2_5
 73
     1
 44
1.0
1001
ACAD
1000
MTEXTBEGIN
1070
    73
1070
     1
1070
    44
1040
1.0
1070
    74
1070
     0
1000
MTEXTEND
  0
LINE
  5
3FEE
330
1F
100
AcDbEntity
  8
SOLBET_Zaprawy
100
AcDbLine
 10
199.520061980962
 20
113.0773415214826
 30
0.0
 11
199.5200619809638
 21
80.67734152148295
 31
0.0
  0
LEADER
  5
3FFF
330
1F
100
AcDbEntity
  8
SOLBET_Wymiary_Opisy
100
AcDbLeader
  3
Solbet$7
 73
     0
 40
3.25
 41
45.75
 76
     2
 10
199.120061980966
 20
99.83827280535116
 30
0.0
 10
172.3127476629452
 20
96.10608472490458
 30
0.0
213
1.177601578005123
223
-0.1753245211093599
233
0.0
1001
ACAD
1000
DSTYLE
1002
{
1070
   147
1040
0.625
1070
    77
1070
     1
1002
}
  0
MTEXT
  5
4000
102
{ACAD_REACTORS
330
3FFF
102
}
330
1F
100
AcDbEntity
  8
SOLBET_Wymiary_Opisy
100
AcDbMText
 10
172.3127476629452
 20
99.60608472490457
 30
0.0
 40
2.5
 41
0.0
 71
     3
 72
     1
  1
Folia kubelkowa (np. DELTA-MS 500)
  7
Solbet_2_5
 73
     1
 44
1.0
1001
ACAD
1000
MTEXTBEGIN
1070
    73
1070
     1
1070
    44
1040
1.0
1070
    74
1070
     0
1000
MTEXTEND
  0
MTEXT
  5
4001
330
1F
100
AcDbEntity
  8
SOLBET_Wymiary_Opisy
100
AcDbMText
 10
172.0811330107262
 20
105.6095583596925
 30
0.0
 40
2.5
 41
0.0
 71
     3
 72
     1
  1
Profil zamykajacy
  7
Solbet_2_5
 73
     1
 44
1.0
1001
ACAD
1000
MTEXTBEGIN
1070
    73
1070
     1
1070
    44
1040
1.0
1070
    74
1070
     0
1000
MTEXTEND
  0
LINE
  5
4002
330
1F
100
AcDbEntity
  8
SOLBET_Wymiary_Opisy
100
AcDbLine
 10
125.9377476629452
 20
96.10608472490458
 30
0.0
 11
117.4074731521414
 21
96.10608472490458
 31
0.0
  0
LWPOLYLINE
  5
416B
330
1F
100
AcDbEntity
  8
SOLBET_Ramka_05
100
AcDbPolyline
 90
        4
 70
     1
 43
0.0
 10
0.0
 20
0.0
 10
334.3517740920906
 20
0.0
 10
334.3517740920906
 20
297.0
 10
0.0
 20
297.0
  0
LINE
  5
41D6
330
1F
100
AcDbEntity
  8
SOLBET_Bloczki
100
AcDbLine
 10
219.1855903830019
 20
183.0773415214808
 30
0.0
 11
219.1855903830019
 21
176.9773423380775
 31
0.0
  0
LINE
  5
41D8
330
1F
100
AcDbEntity
  8
SOLBET_Bloczki
100
AcDbLine
 10
198.1855903830001
 20
183.0773415214808
 30
0.0
 11
198.1855903830019
 21
176.9773423380775
 31
0.0
  0
LINE
  5
41D9
330
1F
100
AcDbEntity
  8
SOLBET_Bloczki
100
AcDbLine
 10
198.1855903830019
 20
176.9773423380775
 30
0.0
 11
219.1855903830019
 21
176.9773423380775
 31
0.0
  0
LWPOLYLINE
  5
41F5
330
1F
100
AcDbEntity
  8
SOLBET_Beton
100
AcDbPolyline
 90
        4
 70
     1
 43
0.0
 10
202.8855908504684
 20
80.67734168342941
 10
221.8855908504683
 20
80.67734168342941
 10
221.8855908504683
 20
87.6773416834294
 10
202.8855908504684
 20
87.6773416834294
  0
LWPOLYLINE
  5
41F6
330
1F
100
AcDbEntity
  8
SOLBET_Beton
100
AcDbPolyline
 90
        4
 70
     1
 43
0.0
 10
202.8855908504684
 20
88.17734168342941
 10
221.8855908504683
 20
88.17734168342941
 10
221.8855908504683
 20
95.1773416834294
 10
202.8855908504684
 20
95.1773416834294
  0
LWPOLYLINE
  5
41F7
330
1F
100
AcDbEntity
  8
SOLBET_Beton
100
AcDbPolyline
 90
        4
 70
     1
 43
0.0
 10
202.8855908504684
 20
95.67734168342941
 10
221.8855908504683
 20
95.67734168342941
 10
221.8855908504683
 20
102.6773416834294
 10
202.8855908504684
 20
102.6773416834294
  0
LWPOLYLINE
  5
41F8
330
1F
100
AcDbEntity
  8
SOLBET_Beton
100
AcDbPolyline
 90
        4
 70
     1
 43
0.0
 10
202.8855908504684
 20
103.1773416834294
 10
221.8855908504683
 20
103.1773416834294
 10
221.8855908504683
 20
110.1773416834294
 10
202.8855908504684
 20
110.1773416834294
  0
LWPOLYLINE
  5
41F9
330
1F
100
AcDbEntity
  8
SOLBET_Beton
100
AcDbPolyline
 90
        3
 70
     0
 43
0.0
 10
202.8855908504684
 20
110.6773416834294
 10
221.8855908504683
 20
110.6773416834294
 10
221.8855908504683
 20
113.077341683429
  0
LWPOLYLINE
  5
420D
330
1F
100
AcDbEntity
  8
SOLBET_Beton
100
AcDbPolyline
 90
        4
 70
     1
 43
0.0
 10
202.8855898200017
 20
118.1773415214829
 10
221.8855898200018
 20
118.1773415214829
 10
221.8855898200018
 20
125.1773415214829
 10
202.8855898200017
 20
125.1773415214829
  0
LWPOLYLINE
  5
420E
330
1F
100
AcDbEntity
  8
SOLBET_Beton
100
AcDbPolyline
 90
        4
 70
     1
 43
0.0
 10
202.8855898200017
 20
125.6773415214829
 10
221.8855898200018
 20
125.6773415214829
 10
221.8855898200018
 20
132.6773415214829
 10
202.8855898200017
 20
132.6773415214829
  0
LWPOLYLINE
  5
420F
330
1F
100
AcDbEntity
  8
SOLBET_Beton
100
AcDbPolyline
 90
        4
 70
     1
 43
0.0
 10
202.8855898200017
 20
133.1773415214829
 10
221.8855898200018
 20
133.1773415214829
 10
221.8855898200018
 20
140.1773415214829
 10
202.8855898200017
 20
140.1773415214829
  0
LWPOLYLINE
  5
4210
330
1F
100
AcDbEntity
  8
SOLBET_Beton
100
AcDbPolyline
 90
        4
 70
     0
 43
0.0
 10
221.8855898200018
 20
114.5773415214826
 10
221.8855898200018
 20
117.6773415214829
 10
202.8855898200017
 20
117.6773415214829
 10
202.8855898200017
 20
114.5773415214826
  0
LINE
  5
4212
330
1F
100
AcDbEntity
  8
SOLBET_Izolacja
100
AcDbLine
 10
232.4624895526915
 20
214.2973611489446
 30
0.0
 11
230.9950290552344
 21
214.302552831175
 31
0.0
  0
MTEXT
  5
430F
102
{ACAD_XDICTIONARY
360
4310
102
}
330
1F
100
AcDbEntity
  8
SOLBET_Wymiary_Opisy @ 1
100
AcDbMText
 10
19.18160602970238
 20
284.2431567083076
 30
0.0
 40
5.0
 41
124.2624847080697
 71
     1
 72
     5
  1
{\LDETAL 2\P}Posadowienie na {\fISOCPEUR|b1|i0|c238|p34;\U+0142}awie fundamentowej w gruntach nieprzepuszczaj\U+0105cych wody
  7
Solbet_5
 73
     1
 44
1.0
1001
AcadAnnotative
1000
AnnotativeData
1002
{
1070
     1
1070
     0
1002
}
1001
ACAD
1000
MTEXTBEGIN
1070
    73
1070
     1
1070
    44
1040
1.0
1070
    74
1070
     0
1000
MTEXTEND
  0
MTEXT
  5
431E
102
{ACAD_XDICTIONARY
360
4F37
102
}
330
1F
100
AcDbEntity
  8
SOLBET_Wymiary_Opisy
100
AcDbMText
 10
13.90598307859
 20
31.4524828497797
 30
0.0
 40
2.5
 41
106.5971338885356
 71
     1
 72
     5
  1
{\LUWAGA:\P}Systemy hydroizolacji stosowa\U+0107 wg zalece\U+0144 producent\U+00F3w.\PStyropian wodoodporny wg zalece\U+0144 producent\U+00F3w.
  7
Solbet_2_5
 73
     1
 44
1.0
1001
ACAD
1000
MTEXTBEGIN
1070
    73
1070
     1
1070
    44
1040
1.0
1070
    74
1070
     0
1000
MTEXTEND
  0
LWPOLYLINE
  5
439B
330
1F
100
AcDbEntity
  8
SOLBET_Wymiary_Opisy
100
AcDbPolyline
 90
        3
 70
     0
 43
0.0
 10
90.53830317798565
 20
186.2164892636247
 10
77.67268830368812
 20
190.4014779587815
 10
27.95171584263881
 20
190.4014779587815
1001
ACAD
1000
DSTYLE
1002
{
1070
   147
1040
0.625
1070
    77
1070
     1
1002
}
  0
TEXT
  5
439C
330
1F
100
AcDbEntity
  8
SOLBET_Wymiary_Opisy
100
AcDbText
 10
27.82894700048564
 20
195.7769153036461
 30
0.0
 40
2.5
  1
Siatka z klejem SOLBET Gabit T
  7
Solbet_2_5
100
AcDbText
  0
TEXT
  5
439D
330
1F
100
AcDbEntity
  8
SOLBET_Wymiary_Opisy
100
AcDbText
 10
52.99635324452902
 20
191.4948787022567
 30
0.0
 40
2.5
  1
jeżeli wymagane
  7
Solbet_2_5
100
AcDbText
  0
INSERT
  5
43A0
330
1F
100
AcDbEntity
  8
SOLBET_Wymiary_Opisy
100
AcDbBlockReference
  2
_DotSmall
 10
90.53830317798565
 20
186.2164892636247
 30
0.0
 41
2.499999999999195
 42
2.5
 43
2.5
 50
323.192595210197
1001
ACAD
1000
DSTYLE
1002
{
1070
   147
1040
0.625
1070
    77
1070
     1
1002
}
  0
INSERT
  5
43A8
330
1F
100
AcDbEntity
  8
SOLBET_Wymiary_Opisy
100
AcDbBlockReference
  2
_DotSmall
 10
115.4332776002029
 20
168.4294613528273
 30
0.0
 41
2.500000000000913
 42
2.5
 43
2.5
 50
337.1762252800122
1001
ACAD
1000
DSTYLE
1002
{
1070
   147
1040
0.625
1070
    77
1070
     1
1002
}
  0
LWPOLYLINE
  5
43A9
330
1F
100
AcDbEntity
  8
SOLBET_Wymiary_Opisy
100
AcDbPolyline
 90
        3
 70
     0
 43
0.0
 10
115.4332776002029
 20
168.4294613528273
 10
78.33117101173593
 20
184.0438698544312
 10
52.62804950722238
 20
184.0438698544312
1001
ACAD
1000
DSTYLE
1002
{
1070
   147
1040
0.625
1070
    77
1070
     1
1002
}
  0
INSERT
  5
43AA
330
1F
100
AcDbEntity
  8
SOLBET_Wymiary_Opisy
100
AcDbBlockReference
  2
_DotSmall
 10
99.67467891428896
 20
169.4024417333221
 30
0.0
 41
2.499999999999475
 42
2.5
 43
2.5
 50
340.9550558529286
1001
ACAD
1000
DSTYLE
1002
{
1070
   147
1040
0.625
1070
    77
1070
     1
1002
}
  0
LWPOLYLINE
  5
43AB
330
1F
100
AcDbEntity
  8
SOLBET_Wymiary_Opisy
100
AcDbPolyline
 90
        3
 70
     0
 43
0.0
 10
99.67467891428896
 20
169.4024417333221
 10
77.71733098469849
 20
176.9822340918199
 10
55.94278174839928
 20
176.9822340918199
1001
ACAD
1000
DSTYLE
1002
{
1070
   147
1040
0.625
1070
    77
1070
     1
1002
}
  0
INSERT
  5
43AC
330
1F
100
AcDbEntity
  8
SOLBET_Wymiary_Opisy
100
AcDbBlockReference
  2
_DotSmall
 10
96.12461334788713
 20
161.6217138406064
 30
0.0
 41
2.499999999999914
 42
2.5
 43
2.5
 50
338.491864084254
1001
ACAD
1000
DSTYLE
1002
{
1070
   147
1040
0.625
1070
    77
1070
     1
1002
}
  0
LWPOLYLINE
  5
43AD
330
1F
100
AcDbEntity
  8
SOLBET_Wymiary_Opisy
100
AcDbPolyline
 90
        3
 70
     0
 43
0.0
 10
96.12461334788713
 20
161.6217138406064
 10
77.71733098469849
 20
169.5027510521213
 10
55.45171056351683
 20
169.5027510521213
1001
ACAD
1000
DSTYLE
1002
{
1070
   147
1040
0.625
1070
    77
1070
     1
1002
}
  0
INSERT
  5
43AE
330
1F
100
AcDbEntity
  8
SOLBET_Wymiary_Opisy
100
AcDbBlockReference
  2
_DotSmall
 10
199.5104547270057
 20
129.6098553685024
 30
0.0
 41
2.50000000000017
 42
2.5
 43
2.5
 50
37.37401229653733
1001
ACAD
1000
DSTYLE
1002
{
1070
   147
1040
0.625
1070
    77
1070
     1
1002
}
  0
LWPOLYLINE
  5
43C4
330
1F
100
AcDbEntity
  8
SOLBET_Wymiary_Opisy
100
AcDbPolyline
 90
        3
 70
     0
 43
0.0
 10
199.5104547270057
 20
129.6098553685024
 10
172.0811330107262
 20
107.1381836431374
 10
122.6606011862132
 20
107.1381836431374
1001
ACAD
1000
DSTYLE
1002
{
1070
   147
1040
0.625
1070
    77
1070
     1
1002
}
  0
TEXT
  5
43C5
330
1F
100
AcDbEntity
  8
SOLBET_Wymiary_Opisy
100
AcDbText
 10
121.8781861939078
 20
112.5197133064121
 30
0.0
 40
2.5
  1
Siatka z klejem SOLBET Gabit T
  7
Solbet_2_5
100
AcDbText
  0
TEXT
  5
43C6
330
1F
100
AcDbEntity
  8
SOLBET_Wymiary_Opisy
100
AcDbText
 10
147.0455924379512
 20
108.2376767050227
 30
0.0
 40
2.5
  1
jeżeli wymagane
  7
Solbet_2_5
100
AcDbText
  0
INSERT
  5
4408
330
1F
100
AcDbEntity
  8
SOLBET_Wymiary_Opisy
100
AcDbBlockReference
  2
_DotSmall
 10
88.2407532414145
 20
193.0535087895623
 30
0.0
 41
2.5000000000003
 42
2.5
 43
2.5
 50
317.9551095300366
1001
ACAD
1000
DSTYLE
1002
{
1070
   147
1040
0.625
1070
    77
1070
     1
1002
}
  0
TEXT
  5
440A
330
1F
100
AcDbEntity
  8
SOLBET_Wymiary_Opisy
100
AcDbText
 10
37.84313896617096
 20
201.5711021570696
 30
0.0
 40
2.5
  1
Tynk zewnętrzny SOLBET 
  7
Solbet_2_5
100
AcDbText
  0
LINE
  5
4411
330
1F
100
AcDbEntity
  8
SOLBET_Wymiary_Opisy
100
AcDbLine
 10
88.2407532414145
 20
193.0535087895623
 30
0.0
 11
78.09087554539655
 21
200.2714983998085
 31
0.0
1001
ACAD
1000
DSTYLE
1002
{
1070
   147
1040
0.625
1070
    77
1070
     1
1002
}
  0
LINE
  5
4412
330
1F
100
AcDbEntity
  8
SOLBET_Wymiary_Opisy
100
AcDbLine
 10
78.09087554539655
 20
200.2714983998085
 30
0.0
 11
38.19592540796657
 21
200.286326384672
 31
0.0
1001
ACAD
1000
DSTYLE
1002
{
1070
   147
1040
0.625
1070
    77
1070
     1
1002
}
  0
INSERT
  5
4452
330
1F
100
AcDbEntity
  8
SOLBET_Wymiary_Opisy
100
AcDbBlockReference
  2
_DotSmall
 10
219.6855898200029
 20
176.7360945776909
 30
0.0
 41
2.499999999999151
 42
2.5
 43
2.5
 50
330.5527255851322
1001
ACAD
1000
DSTYLE
1002
{
1070
   147
1040
0.625
1070
    77
1070
     1
1002
}
  0
LWPOLYLINE
  5
4453
330
1F
100
AcDbEntity
  8
SOLBET_Wymiary_Opisy
100
AcDbPolyline
 90
        3
 70
     0
 43
0.0
 10
219.6855898200029
 20
176.7360945776909
 10
179.2394298322579
 20
199.5703223901401
 10
135.4283436832247
 20
199.5703223901401
1001
ACAD
1000
DSTYLE
1002
{
1070
   147
1040
0.625
1070
    77
1070
     1
1002
}
  0
INSERT
  5
4467
330
1F
100
AcDbEntity
  8
SOLBET_Wymiary_Opisy
100
AcDbBlockReference
  2
_DotSmall
 10
271.8416478185336
 20
118.734993551403
 30
0.0
 41
2.500000000000285
 42
2.5
 43
2.5
 50
146.8831625320308
1001
ACAD
1000
DSTYLE
1002
{
1070
   147
1040
0.625
1070
    77
1070
     1
1002
}
  0
LWPOLYLINE
  5
4468
330
1F
100
AcDbEntity
  8
SOLBET_Wymiary_Opisy
100
AcDbPolyline
 90
        3
 70
     0
 43
0.0
 10
271.8416478185336
 20
118.734993551403
 10
283.8609132057336
 20
110.8946989532014
 10
317.2359132057336
 20
110.8946989532014
1001
ACAD
1000
DSTYLE
1002
{
1070
   147
1040
0.625
1070
    77
1070
     1
1002
}
  0
LINE
  5
4488
330
1F
100
AcDbEntity
  8
SOLBET_Zaprawy
100
AcDbLine
 10
202.1855898200028
 20
140.1773415214829
 30
0.0
 11
202.3855898200036
 21
140.1773415214829
 31
0.0
  0
LINE
  5
4489
330
1F
100
AcDbEntity
  8
SOLBET_Zaprawy
100
AcDbLine
 10
202.3855898200036
 20
140.1773415214829
 30
0.0
 11
202.3855898200036
 21
114.5773415214826
 31
0.0
  0
MTEXT
  5
448B
330
1F
100
AcDbEntity
  8
SOLBET_Wymiary_Opisy
100
AcDbMText
 10
172.7127476629411
 20
88.20988333318018
 30
0.0
 40
2.5
 41
0.0
 71
     3
 72
     1
  1
Klej SOLBET Gabit T-1
  7
Solbet_2_5
 73
     1
 44
1.0
1001
ACAD
1000
MTEXTBEGIN
1070
    73
1070
     1
1070
    44
1040
1.0
1070
    74
1070
     0
1000
MTEXTEND
  0
INSERT
  5
448C
330
1F
100
AcDbEntity
  8
SOLBET_Wymiary_Opisy
100
AcDbBlockReference
  2
_DotSmall
 10
202.3855898200036
 20
91.00245400688436
 30
0.0
 41
2.499999999999074
 42
2.5
 43
2.5
 50
13.79477962965131
1001
ACAD
1000
DSTYLE
1002
{
1070
   147
1040
0.625
1070
    77
1070
     1
1002
}
  0
LWPOLYLINE
  5
448D
330
1F
100
AcDbEntity
  8
SOLBET_Wymiary_Opisy
100
AcDbPolyline
 90
        3
 70
     0
 43
0.0
 10
202.3855898200036
 20
91.00245400688436
 10
174.5153492409463
 20
84.15955881207082
 10
142.5788507134639
 20
84.15955881207082
1001
ACAD
1000
DSTYLE
1002
{
1070
   147
1040
0.625
1070
    77
1070
     1
1002
}
  0
LINE
  5
44B1
330
1F
100
AcDbEntity
  8
SOLBET_Zaprawy
100
AcDbLine
 10
111.9522525430766
 20
168.1065854701264
 30
0.0
 11
112.9522525430766
 21
168.1065854701264
 31
0.0
  0
LINE
  5
44B2
330
1F
100
AcDbEntity
  8
SOLBET_Zaprawy
100
AcDbLine
 10
112.9522525430766
 20
168.1065854701264
 30
0.0
 11
112.9522525430748
 21
150.0820181950203
 31
0.0
  0
LINE
  5
44C6
330
1F
100
AcDbEntity
  8
SOLBET_Zaprawy
100
AcDbLine
 10
202.3855898200018
 20
113.0773415214826
 30
0.0
 11
202.3855898200036
 21
80.67734152148295
 31
0.0
  0
DIMENSION
  5
4A12
330
1F
100
AcDbEntity
  8
SOLBET_Wymiary_Opisy
100
AcDbDimension
  2
*D8
 10
115.4522525430766
 20
141.8866215952384
 30
0.0
 11
68.32725254307661
 21
141.8866215952384
 31
0.0
 70
   160
  1
max. 1/3 szeokości bloczka
 71
     5
 42
23.5
  3
Solbet
100
AcDbAlignedDimension
 13
91.95225254307661
 23
172.1065854701264
 33
0.0
 14
115.4522525430766
 24
152.5421866385364
 34
0.0
100
AcDbRotatedDimension
  0
POINT
  5
4B09
330
1F
100
AcDbEntity
  8
SOLBET_Zaprawy
100
AcDbPoint
 10
0.0
 20
0.0
 30
0.0
  0
POINT
  5
4B0A
330
1F
100
AcDbEntity
  8
SOLBET_Zaprawy
100
AcDbPoint
 10
0.0
 20
0.0
 30
0.0
  0
POINT
  5
4B0B
330
1F
100
AcDbEntity
  8
SOLBET_Zaprawy
100
AcDbPoint
 10
0.0
 20
0.0
 30
0.0
  0
POINT
  5
4B0C
330
1F
100
AcDbEntity
  8
SOLBET_Zaprawy
100
AcDbPoint
 10
0.0
 20
0.0
 30
0.0
  0
HATCH
  5
4BF6
330
1F
100
AcDbEntity
  8
SOLBET_Beton
100
AcDbHatch
 10
0.0
 20
0.0
 30
0.0
210
0.0
220
0.0
230
1.0
  2
ANSI31
 70
     0
 71
     1
 91
        1
 92
        7
 72
     0
 73
     1
 93
        4
 10
195.4855905314283
 20
59.76149617306145
 10
192.2416880924039
 20
56.26149617306147
 10
232.1294929704527
 20
56.26149617306146
 10
228.8855905314283
 20
59.76149617306145
 97
        1
330
4BF7
 75
     0
 76
     1
 52
90.0
 41
0.5
 77
     0
 78
     1
 53
135.0
 43
113.4030567625418
 44
12.65126172152671
 45
-1.122532015133644
 46
-1.122532015133643
 79
     0
 47
0.1037609677745876
 98
        1
 10
221.2630846966954
 20
58.2925087067106
1001
ACAD
1010
0.0
1020
0.0
1030
0.0
  0
LWPOLYLINE
  5
4BF7
102
{ACAD_REACTORS
330
4BF6
102
}
330
1F
100
AcDbEntity
  8
SOLBET_Beton
100
AcDbPolyline
 90
        4
 70
     1
 43
0.0
 10
192.2416880924039
 20
56.26149617306146
 10
232.1294929704527
 20
56.26149617306146
 10
228.8855905314283
 20
59.76149617306146
 10
195.4855905314283
 20
59.76149617306146
1001
ASO_SCHRAFF
1005
0
1070
     1
1002
{
1070
     1
1005
0
1002
}
1002
{
1070
     2
1005
0
1002
}
1002
{
1070
     4
1000
ANSI31
1040
0.1
1040
90.0
1070
     0
1000
T__SCHR
1070
   256
1000
VONLAYER
1040
50.0
1070
     1
1002
}
  0
HATCH
  5
4BF8
330
1F
100
AcDbEntity
  8
SOLBET_Beton
100
AcDbHatch
 10
0.0
 20
0.0
 30
0.0
210
0.0
220
0.0
230
1.0
  2
ANSI33
 70
     0
 71
     0
 91
        1
 92
        1
 93
        5
 72
     1
 10
199.3855901066452
 20
79.76149648233745
 11
197.1855901066453
 21
77.56149648233749
 72
     1
 10
197.1855901066453
 20
77.56149648233749
 11
197.1855901066457
 21
59.76149648234036
 72
     1
 10
197.1855901066457
 20
59.76149648234036
 11
227.1855901066452
 21
59.76149648234041
 72
     1
 10
227.1855901066452
 20
59.76149648234041
 11
227.1855901066452
 21
79.7614964823374
 72
     1
 10
227.1855901066452
 20
79.7614964823374
 11
199.3855901066452
 21
79.76149648233745
 97
        0
 75
     0
 76
     1
 52
0.0
 41
0.75
 77
     0
 78
     2
 53
45.0
 43
-1708.727717068416
 44
335.3694419495692
 45
-3.367596045400931
 46
3.367596045400932
 79
     0
 53
45.0
 43
-1705.360119568416
 44
335.3694419495692
 45
-3.367596045400931
 46
3.367596045400932
 79
     2
 49
2.381249999999999
 49
-1.190624999999999
 98
        1
 10
207.5276264479877
 20
69.34461065469776
1001
ACAD
1010
0.0
1020
0.0
1030
0.0
  0
LINE
  5
4BFA
330
1F
100
AcDbEntity
  8
SOLBET_Beton
100
AcDbLine
 10
227.1855901066452
 20
59.76149648234036
 30
0.0
 11
227.1855901066452
 21
79.76149648233743
 31
0.0
1001
ASO_SCHRAFF
1005
0
1070
     1
1002
{
1070
     1
1005
0
1002
}
1002
{
1070
     2
1005
0
1002
}
1002
{
1070
     4
1000
BRASS
1040
0.2
1040
45.0
1070
     0
1000
T__SCHR
1070
   256
1000
VONLAYER
1040
50.0
1070
     1
1002
}
  0
LINE
  5
4BFB
330
1F
100
AcDbEntity
  8
SOLBET_Beton
100
AcDbLine
 10
197.1855901066452
 20
77.56149648233741
 30
0.0
 11
197.1855901066452
 21
59.76149648234036
 31
0.0
1001
ASO_SCHRAFF
1005
0
1070
     1
1002
{
1070
     1
1005
0
1002
}
1002
{
1070
     2
1005
0
1002
}
1002
{
1070
     4
1000
BRASS
1040
0.2
1040
45.0
1070
     0
1000
T__SCHR
1070
   256
1000
VONLAYER
1040
50.0
1070
     1
1002
}
  0
LINE
  5
4BFC
330
1F
100
AcDbEntity
  8
SOLBET_Emulsje_Folie
100
AcDbLine
 10
199.3382400244776
 20
80.01113124826824
 30
0.0
 11
197.037097682596
 21
77.7099889063866
 31
0.0
1001
ASO_SCHRAFF
1005
0
1070
     1
1002
{
1070
     1
1005
0
1002
}
1002
{
1070
     2
1005
0
1002
}
1002
{
1070
     4
1000
BRASS
1040
0.2
1040
45.0
1070
     0
1000
T__SCHR
1070
   256
1000
VONLAYER
1040
50.0
1070
     1
1002
}
  0
LINE
  5
4BFD
330
1F
100
AcDbEntity
  8
SOLBET_Emulsje_Folie
  6
DASHED2
370
    30
100
AcDbLine
 10
199.3097476004285
 20
80.13113124826828
 30
0.0
 11
198.3617817303771
 21
79.18316537821687
 31
0.0
1001
ASO_SCHRAFF
1005
0
1070
     1
1002
{
1070
     1
1005
0
1002
}
1002
{
1070
     2
1005
0
1002
}
1002
{
1070
     4
1000
BRASS
1040
0.2
1040
45.0
1070
     0
1000
T__SCHR
1070
   256
1000
VONLAYER
1040
50.0
1070
     1
1002
}
  0
LINE
  5
4BFE
330
1F
100
AcDbEntity
  8
SOLBET_Emulsje_Folie
100
AcDbLine
 10
199.2812551763793
 20
80.25113124826825
 30
0.0
 11
196.827097682596
 21
77.79697375448495
 31
0.0
1001
ASO_SCHRAFF
1005
0
1070
     1
1002
{
1070
     1
1005
0
1002
}
1002
{
1070
     2
1005
0
1002
}
1002
{
1070
     4
1000
BRASS
1040
0.2
1040
45.0
1070
     0
1000
T__SCHR
1070
   256
1000
VONLAYER
1040
50.0
1070
     1
1002
}
  0
LINE
  5
4BFF
330
1F
100
AcDbEntity
  8
SOLBET_Emulsje_Folie
100
AcDbLine
 10
199.2029073176454
 20
80.42734183076147
 30
0.0
 11
196.647097682596
 21
77.8715321957121
 31
0.0
1001
ASO_SCHRAFF
1005
0
1070
     1
1002
{
1070
     1
1005
0
1002
}
1002
{
1070
     2
1005
0
1002
}
1002
{
1070
     4
1000
BRASS
1040
0.2
1040
45.0
1070
     0
1000
T__SCHR
1070
   256
1000
VONLAYER
1040
50.0
1070
     1
1002
}
  0
LINE
  5
4C01
330
1F
100
AcDbEntity
  8
SOLBET_Emulsje_Folie
100
AcDbLine
 10
202.4573161605071
 20
80.42734183076147
 30
0.0
 11
199.2029073176454
 21
80.42734183076147
 31
0.0
  0
LWPOLYLINE
  5
4C02
330
1F
100
AcDbEntity
  8
SOLBET_Emulsje_Folie
100
AcDbPolyline
 90
        2
 70
     0
 43
0.0
 10
227.1855901066452
 20
80.01113124826815
 10
199.3382400244776
 20
80.01113124826824
  0
LWPOLYLINE
  5
4C03
330
1F
100
AcDbEntity
  8
SOLBET_Emulsje_Folie
100
AcDbPolyline
 90
        2
 70
     0
 43
0.0
 10
199.2812551763793
 20
80.25113124826825
 10
227.1855901066452
 20
80.25113124826814
  0
LINE
  5
4C04
330
1F
100
AcDbEntity
  8
SOLBET_Emulsje_Folie
  6
DASHED2
370
    30
100
AcDbLine
 10
199.3097476004285
 20
80.13113124826825
 30
0.0
 11
227.1855901066452
 21
80.13113124826816
 31
0.0
  0
LINE
  5
4C05
330
1F
100
AcDbEntity
  8
SOLBET_Emulsje_Folie
100
AcDbLine
 10
197.037097682596
 20
77.7099889063866
 30
0.0
 11
197.037097682596
 21
75.00998890638659
 31
0.0
  0
LINE
  5
4C06
330
1F
100
AcDbEntity
  8
SOLBET_Emulsje_Folie
100
AcDbLine
 10
196.827097682596
 20
75.00998890638659
 30
0.0
 11
196.827097682596
 21
77.79697375448495
 31
0.0
  0
LINE
  5
4C07
330
1F
100
AcDbEntity
  8
SOLBET_Emulsje_Folie
100
AcDbLine
 10
196.647097682596
 20
75.00998890638659
 30
0.0
 11
196.647097682596
 21
77.87153219571209
 31
0.0
  0
LINE
  5
4C08
330
1F
100
AcDbEntity
  8
SOLBET_Emulsje_Folie
  6
DASHED2
370
    30
100
AcDbLine
 10
196.932097682596
 20
75.00998890638659
 30
0.0
 11
196.932097682596
 21
76.15810105911532
 31
0.0
  0
LINE
  5
4C09
330
1F
100
AcDbEntity
  8
SOLBET_Emulsje_Folie
  6
DASHED2
370
    30
100
AcDbLine
 10
196.932097682596
 20
76.75640642456642
 30
0.0
 11
196.932097682596
 21
77.7534813304358
 31
0.0
  0
LINE
  5
4C0A
330
1F
100
AcDbEntity
  8
SOLBET_Emulsje_Folie
  6
DASHED2
370
    30
100
AcDbLine
 10
196.932097682596
 20
77.7534813304358
 30
0.0
 11
197.7659522588466
 21
78.58733590668633
 31
0.0
  0
CIRCLE
  5
4C0B
330
1F
100
AcDbEntity
  8
SOLBET_Wymiary_Opisy
100
AcDbCircle
 10
200.5334726821297
 20
79.32821003216145
 30
0.0
 40
6.72794034480946
  0
LINE
  5
4C0C
330
1F
100
AcDbEntity
  8
SOLBET_Emulsje_Folie
100
AcDbLine
 10
196.827097682596
 20
75.00998890638659
 30
0.0
 11
197.037097682596
 21
75.00998890638659
 31
0.0
  0
LEADER
  5
4C0D
330
1F
100
AcDbEntity
  8
SOLBET_Wymiary_Opisy
100
AcDbLeader
  3
Solbet$7
 73
     0
 75
     1
 40
5.0
 41
3.5
 76
     3
 10
194.4884820883664
 20
76.37469179036449
 30
0.0
 10
175.1745513540106
 20
69.62011684898985
 30
0.0
 10
172.6745513540106
 20
69.62011684898985
 30
0.0
340
4C0E
213
-0.8791749024171622
223
-0.1753245211093599
233
0.0
1001
ACAD
1000
DSTYLE
1002
{
1070
   341
1005
30D0
1070
   147
1040
0.625
1070
    77
1070
     1
1002
}
  0
MTEXT
  5
4C0E
102
{ACAD_REACTORS
330
4C0D
102
}
330
1F
100
AcDbEntity
  8
SOLBET_Wymiary_Opisy
100
AcDbMText
 10
172.9287262564278
 20
75.42044137009921
 30
0.0
 40
5.0
 41
0.0
 71
     3
 72
     1
  1
C
  7
Solbet_5
 73
     1
 44
1.0
1001
ACAD
1000
MTEXTBEGIN
1070
    73
1070
     1
1070
    44
1040
1.0
1070
    74
1070
     0
1000
MTEXTEND
  0
LINE
  5
4C1B
330
1F
100
AcDbEntity
  8
SOLBET_Beton
100
AcDbLine
 10
197.1855901066452
 20
77.56149648233741
 30
0.0
 11
199.3885254989632
 21
79.76149617306146
 31
0.0
  0
LINE
  5
4C1C
330
1F
100
AcDbEntity
  8
SOLBET_Beton
100
AcDbLine
 10
199.3885254989632
 20
79.76149617306146
 30
0.0
 11
227.1855901066452
 21
79.76149648233743
 31
0.0
  0
LINE
  5
4C1D
330
1F
100
AcDbEntity
  8
SOLBET_Emulsje_Folie
100
AcDbLine
 10
227.1855901066452
 20
80.25113124826814
 30
0.0
 11
227.1855901066452
 21
80.01113124826815
 31
0.0
  0
LEADER
  5
4C28
330
1F
100
AcDbEntity
  8
SOLBET_Wymiary_Opisy
100
AcDbLeader
  3
Solbet$7
 73
     0
 74
     0
 75
     1
 40
2.501893939393939
 41
33.5
 76
     3
 10
216.4922410693755
 20
94.51860492701507
 30
0.0
 10
232.3267228972158
 20
108.3492013225136
 30
0.0
 10
234.8267228972158
 20
108.3492013225136
 30
0.0
213
1.177601578005123
223
-0.1753245211093599
233
0.0
1001
ACAD
1000
DSTYLE
1002
{
1070
   147
1040
0.625
1070
    77
1070
     1
1002
}
  0
MTEXT
  5
4C29
102
{ACAD_REACTORS
330
4C28
102
}
330
1F
100
AcDbEntity
  8
SOLBET_Wymiary_Opisy
100
AcDbMText
 10
267.3300508896946
 20
111.5120542156211
 30
0.0
 40
2.5
 41
0.0
 71
     3
 72
     1
  1
Bloczki fundamentowe
  7
Solbet_2_5
 73
     1
 44
1.0
1001
ACAD
1000
MTEXTBEGIN
1070
    73
1070
     1
1070
    44
1040
1.0
1070
    74
1070
     0
1000
MTEXTEND
  0
LEADER
  5
4C2A
330
1F
100
AcDbEntity
  8
SOLBET_Wymiary_Opisy
100
AcDbLeader
  3
Solbet$7
 73
     0
 74
     0
 75
     1
 40
3.25
 41
19.75
 76
     3
 10
222.1404627937139
 20
90.72072343709931
 30
0.0
 10
232.3071662857223
 20
99.50434822153454
 30
0.0
 10
234.8071662857224
 20
99.50434822153454
 30
0.0
213
1.177601578005123
223
-0.1753245211093599
233
0.0
1001
ACAD
1000
DSTYLE
1002
{
1070
   147
1040
0.625
1070
    77
1070
     1
1002
}
  0
MTEXT
  5
4C2B
102
{ACAD_REACTORS
330
4C2A
102
}
330
1F
100
AcDbEntity
  8
SOLBET_Wymiary_Opisy
100
AcDbMText
 10
253.4846695170988
 20
103.3732632870079
 30
0.0
 40
2.5
 41
0.0
 71
     3
 72
     1
  1
Hydroizolacja
  7
Solbet_2_5
 73
     1
 44
1.0
1001
ACAD
1000
MTEXTBEGIN
1070
    73
1070
     1
1070
    44
1040
1.0
1070
    74
1070
     0
1000
MTEXTEND
  0
LEADER
  5
4C34
330
1F
100
AcDbEntity
  8
SOLBET_Wymiary_Opisy
100
AcDbLeader
  3
Solbet$7
 73
     0
 74
     0
 75
     1
 40
7.416666666666666
 41
27.5
 76
     3
 10
221.9108481759806
 20
80.32358054995766
 30
0.0
 10
230.9777791142235
 20
87.65339107662748
 30
0.0
 10
233.4777791142235
 20
87.65339107662748
 30
0.0
213
0.625
223
0.625
233
0.0
1001
ACAD
1000
DSTYLE
1002
{
1070
   147
1040
0.625
1070
    77
1070
     1
1002
}
  0
MTEXT
  5
4C35
102
{ACAD_XDICTIONARY
360
4E1E
102
}
102
{ACAD_REACTORS
330
4C34
102
}
330
1F
100
AcDbEntity
  8
SOLBET_Wymiary_Opisy
100
AcDbMText
 10
233.4777791142235
 20
95.7283266028187
 30
0.0
 40
2.5
 41
0.0
 71
     1
 72
     1
  1
\pxql;Emulsja izolazyjna\Plub izolacja z folii
  7
Solbet_2_5
 73
     1
 44
1.0
1001
ACAD
1000
MTEXTBEGIN
1070
    73
1070
     1
1070
    44
1040
1.0
1070
    74
1070
     0
1000
MTEXTEND
  0
LWPOLYLINE
  5
4C62
330
1F
100
AcDbEntity
  8
SOLBET_Beton
100
AcDbPolyline
 90
        3
 70
     0
 43
0.0
 10
77.87536921226115
 20
104.1502742236964
 10
77.87536921226115
 20
79.02369926831614
 10
100.0712020535245
 20
79.02369926831614
  0
HATCH
  5
4C63
330
1F
100
AcDbEntity
  8
SOLBET_Beton
100
AcDbHatch
 10
0.0
 20
0.0
 30
0.0
210
0.0
220
0.0
230
1.0
  2
ANSI33
 70
     0
 71
     0
 91
        1
 92
        1
 93
        4
 72
     2
 10
67.11478208968424
 20
72.27804027531636
 40
33.6397017240473
 50
240.1580723290472
 51
363.692464015495
 73
     1
 72
     1
 10
100.6846510704415
 20
74.44447252619602
 11
61.37536921226149
 21
74.44447252619609
 72
     1
 10
61.37536921226161
 20
74.44447252619602
 11
50.37536921226195
 21
63.44447252619622
 72
     1
 10
50.3753692122616
 20
63.4444725261963
 11
50.37536921226203
 21
43.09891094282786
 97
        0
 75
     0
 76
     1
 52
0.0
 41
3.75
 77
     0
 78
     2
 53
45.0
 43
-9479.191166663047
 44
1352.484199862355
 45
-16.83798022700466
 46
16.83798022700466
 79
     0
 53
45.0
 43
-9462.353179163049
 44
1352.484199862355
 45
-16.83798022700466
 46
16.83798022700466
 79
     2
 49
11.90625
 49
-5.953124999999999
 98
        1
 10
102.0855509189734
 20
22.36004338799762
1001
ACAD
1010
0.0
1020
0.0
1030
0.0
  0
LINE
  5
4C64
330
1F
100
AcDbEntity
  8
SOLBET_Beton
100
AcDbLine
 10
100.6846510704415
 20
74.44447252619591
 30
0.0
 11
61.37536921226161
 21
74.44447252619591
 31
0.0
1001
ASO_SCHRAFF
1005
0
1070
     1
1002
{
1070
     1
1005
0
1002
}
1002
{
1070
     2
1005
0
1002
}
1002
{
1070
     4
1000
BRASS
1040
0.2
1040
45.0
1070
     0
1000
T__SCHR
1070
   256
1000
VONLAYER
1040
50.0
1070
     1
1002
}
  0
LINE
  5
4C65
330
1F
100
AcDbEntity
  8
SOLBET_Beton
100
AcDbLine
 10
50.37536921226115
 20
63.44447252619591
 30
0.0
 11
50.37536921226115
 21
43.09891094282824
 31
0.0
1001
ASO_SCHRAFF
1005
0
1070
     1
1002
{
1070
     1
1005
0
1002
}
1002
{
1070
     2
1005
0
1002
}
1002
{
1070
     4
1000
BRASS
1040
0.2
1040
45.0
1070
     0
1000
T__SCHR
1070
   256
1000
VONLAYER
1040
50.0
1070
     1
1002
}
  0
LINE
  5
4C66
330
1F
100
AcDbEntity
  8
SOLBET_Beton
100
AcDbLine
 10
61.37536921226161
 20
74.44447252619591
 30
0.0
 11
50.37536921226115
 21
63.44447252619591
 31
0.0
1001
ASO_SCHRAFF
1005
0
1070
     1
1002
{
1070
     1
1005
0
1002
}
1002
{
1070
     2
1005
0
1002
}
1002
{
1070
     4
1000
BRASS
1040
0.2
1040
45.0
1070
     0
1000
T__SCHR
1070
   256
1000
VONLAYER
1040
50.0
1070
     1
1002
}
  0
LINE
  5
4C67
330
1F
100
AcDbEntity
  8
SOLBET_Emulsje_Folie
100
AcDbLine
 10
61.13861880142372
 20
75.69264635585
 30
0.0
 11
49.63290709201533
 21
64.18693464644184
 31
0.0
1001
ASO_SCHRAFF
1005
0
1070
     1
1002
{
1070
     1
1005
0
1002
}
1002
{
1070
     2
1005
0
1002
}
1002
{
1070
     4
1000
BRASS
1040
0.2
1040
45.0
1070
     0
1000
T__SCHR
1070
   256
1000
VONLAYER
1040
50.0
1070
     1
1002
}
  0
LINE
  5
4C68
330
1F
100
AcDbEntity
  8
SOLBET_Emulsje_Folie
  6
DASHED2
370
    30
100
AcDbLine
 10
60.99615668117826
 20
76.29264635585025
 30
0.0
 11
56.25632733092084
 21
71.55281700559317
 31
0.0
1001
ASO_SCHRAFF
1005
0
1070
     1
1002
{
1070
     1
1005
0
1002
}
1002
{
1070
     2
1005
0
1002
}
1002
{
1070
     4
1000
BRASS
1040
0.2
1040
45.0
1070
     0
1000
T__SCHR
1070
   256
1000
VONLAYER
1040
50.0
1070
     1
1002
}
  0
LINE
  5
4C69
330
1F
100
AcDbEntity
  8
SOLBET_Emulsje_Folie
100
AcDbLine
 10
60.85369456093189
 20
76.89264635585004
 30
0.0
 11
48.5829070920156
 21
64.62185888693364
 31
0.0
1001
ASO_SCHRAFF
1005
0
1070
     1
1002
{
1070
     1
1005
0
1002
}
1002
{
1070
     2
1005
0
1002
}
1002
{
1070
     4
1000
BRASS
1040
0.2
1040
45.0
1070
     0
1000
T__SCHR
1070
   256
1000
VONLAYER
1040
50.0
1070
     1
1002
}
  0
LINE
  5
4C6A
330
1F
100
AcDbEntity
  8
SOLBET_Emulsje_Folie
100
AcDbLine
 10
60.46195526726228
 20
77.77369926831614
 30
0.0
 11
47.68290709201551
 21
64.99465109306931
 31
0.0
1001
ASO_SCHRAFF
1005
0
1070
     1
1002
{
1070
     1
1005
0
1002
}
1002
{
1070
     2
1005
0
1002
}
1002
{
1070
     4
1000
BRASS
1040
0.2
1040
45.0
1070
     0
1000
T__SCHR
1070
   256
1000
VONLAYER
1040
50.0
1070
     1
1002
}
  0
LINE
  5
4C6B
330
1F
100
AcDbEntity
  8
SOLBET_Izolacja
  6
Continuous
100
AcDbLine
 10
75.37536921226115
 20
79.02369926831614
 30
0.0
 11
75.37536921226115
 21
104.8877356506668
 31
0.0
  0
LINE
  5
4C6C
330
1F
100
AcDbEntity
  8
SOLBET_Emulsje_Folie
100
AcDbLine
 10
76.98596712413314
 20
104.4368530347842
 30
0.0
 11
76.98596712413314
 21
79.02369926831614
 31
0.0
  0
LINE
  5
4C6D
330
1F
100
AcDbEntity
  8
SOLBET_Emulsje_Folie
100
AcDbLine
 10
75.73596712401945
 20
77.77369926831614
 30
0.0
 11
60.46195526726228
 21
77.77369926831614
 31
0.0
  0
ARC
  5
4C6E
330
1F
100
AcDbEntity
  8
SOLBET_Emulsje_Folie
100
AcDbCircle
 10
75.73596712401945
 20
79.02369926831614
 30
0.0
 40
1.25
100
AcDbArc
 50
270.0
 51
0.0
  0
LINE
  5
4C6F
330
1F
100
AcDbEntity
  8
SOLBET_Izolacja
  6
Continuous
100
AcDbLine
 10
70.37536921226115
 20
79.02369926831614
 30
0.0
 11
70.37536921226115
 21
105.7593500420942
 31
0.0
  0
LINE
  5
4C70
330
1F
100
AcDbEntity
  8
SOLBET_Emulsje_Folie
100
AcDbLine
 10
67.54773001700892
 20
79.02369926831614
 30
0.0
 11
69.54773001712533
 21
79.02369926831614
 31
0.0
  0
LINE
  5
4C71
330
1F
100
AcDbEntity
  8
SOLBET_Emulsje_Folie
100
AcDbLine
 10
67.54773001700892
 20
85.71719445976077
 30
0.0
 11
69.54773001712533
 21
84.96192374826524
 31
0.0
  0
LINE
  5
4C72
330
1F
100
AcDbEntity
  8
SOLBET_Emulsje_Folie
100
AcDbLine
 10
67.54773001700892
 20
80.60206787424567
 30
0.0
 11
69.54773001712533
 21
81.35733858574122
 31
0.0
  0
LINE
  5
4C73
330
1F
100
AcDbEntity
  8
SOLBET_Emulsje_Folie
100
AcDbLine
 10
67.54773001700892
 20
89.51318399703769
 30
0.0
 11
69.54773001712533
 21
90.26845470853322
 31
0.0
  0
LINE
  5
4C74
330
1F
100
AcDbEntity
  8
SOLBET_Emulsje_Folie
100
AcDbLine
 10
67.54773001700892
 20
94.62831058253824
 30
0.0
 11
69.54773001712533
 21
93.87303987104269
 31
0.0
  0
LINE
  5
4C77
330
1F
100
AcDbEntity
  8
SOLBET_Emulsje_Folie
100
AcDbLine
 10
67.54773001700937
 20
105.9149558321131
 30
0.0
 11
67.54773001700892
 21
79.02369926831614
 31
0.0
  0
LINE
  5
4C78
330
1F
100
AcDbEntity
  8
SOLBET_Emulsje_Folie
100
AcDbLine
 10
69.54773001712533
 20
105.829646741553
 30
0.0
 11
69.54773001712533
 21
79.02369926831614
 31
0.0
  0
HATCH
  5
4C79
330
1F
100
AcDbEntity
  8
SOLBET_Grunt
100
AcDbHatch
 10
0.0
 20
0.0
 30
0.0
210
0.0
220
0.0
230
1.0
  2
AR-CONC
 70
     0
 71
     0
 91
        1
 92
        1
 93
        5
 72
     2
 10
67.11478208968424
 20
72.27804027531613
 40
33.6397017240473
 50
89.26257450035045
 51
240.1580723290458
 73
     1
 72
     1
 10
50.37536921226115
 20
43.09891094282824
 11
50.37536921226115
 21
81.43518620162385
 72
     1
 10
50.37536921226115
 20
81.43518620162387
 11
62.87536921226342
 21
79.02369926831602
 72
     1
 10
62.87536921226342
 20
79.02369926831602
 11
67.54773001700664
 21
79.02369926831616
 72
     1
 10
67.54773001700664
 20
79.02369926831614
 11
67.54773001700664
 21
105.9149558321131
 97
        0
 75
     0
 76
     1
 52
0.0
 41
0.25
 77
     0
 78
    13
 53
50.0
 43
-9479.191166663047
 44
1352.484199862355
 45
45.546167249001
 46
-3.984771384725771
 79
     2
 49
4.762500000000001
 49
-52.3875
 53
355.0
 43
-9479.191166663047
 44
1352.484199862355
 45
-8.810706493916747
 46
47.76416072054499
 79
     2
 49
3.81
 49
-41.91000000000001
 53
100.4509999999999
 43
-9475.395666663047
 44
1352.152137362355
 45
36.73562541648981
 46
43.77917195507295
 79
     2
 49
4.0475
 49
-44.52249999999999
 53
46.1842
 43
-9479.191166663047
 44
1365.184199862355
 45
67.76976022303248
 46
-10.51058198318179
 79
     2
 49
7.14375
 49
-78.58125000000001
 53
96.63559999999995
 43
-9473.543691663046
 44
1364.308324862355
 45
59.35105861655928
 46
61.8563889725123
 79
     2
 49
6.071249999999988
 49
-66.78374999999987
 53
351.184
 43
-9479.191166663047
 44
1365.184199862355
 45
59.35115145348348
 46
61.85627946514942
 79
     2
 49
5.714999999999999
 49
-62.865
 53
21.0
 43
-9472.84116666305
 44
1362.009199862356
 45
37.90371995884583
 46
-25.56637962919062
 79
     2
 49
4.762500000000001
 49
-52.3875
 53
326.0
 43
-9472.84116666305
 44
1362.009199862356
 45
15.45050708691177
 46
46.0469915305798
 79
     2
 49
3.809999999999998
 49
-41.90999999999998
 53
71.45140000000001
 43
-9469.682541663049
 44
1359.878674862355
 45
53.35412269253112
 46
20.48071442901436
 79
     2
 49
4.0475
 49
-44.5225
 53
37.49999999999999
 43
-9479.191166663047
 44
1352.484199862355
 45
0.7721508126479543
 46
21.13875971828828
 79
     6
 49
0.0
 49
-41.402
 49
0.0
 49
-42.545
 49
0.0
 49
-42.06875
 53
7.499999999999999
 43
-9479.191166663047
 44
1352.484199862355
 45
16.70491562757644
 46
25.04514370452988
 79
     6
 49
0.0
 49
-24.25699999999999
 49
0.0
 49
-40.44949999999999
 49
0.0
 49
-16.03375
 53
327.5
 43
-9493.35166666305
 44
1352.484199862355
 45
33.89764879171784
 46
-1.432185998168366
 79
     6
 49
0.0
 49
-15.875
 49
0.0
 49
-49.53
 49
0.0
 49
-65.7225
 53
317.5
 43
-9499.701666663048
 44
1352.484199862355
 45
37.03229534650451
 46
6.356622758333254
 79
     6
 49
0.0
 49
-20.6375
 49
0.0
 49
-32.893
 49
0.0
 49
-46.6725
 98
        4
 10
9.223067141638466
 20
87.00985814205456
 10
26.6957776465008
 20
174.2995963856258
 10
-22.27676548188333
 20
236.7894065836019
 10
-135.433342483788
 20
2062.632235939464
1001
ACAD
1010
0.0
1020
0.0
1030
0.0
  0
LINE
  5
4C7A
330
1F
100
AcDbEntity
  8
SOLBET_Izolacja
  6
BATTING
 48
0.24
100
AcDbLine
 10
72.8753692122616
 20
105.4208399169587
 30
0.0
 11
72.87536921226115
 21
79.02369926831614
 31
0.0
  0
LWPOLYLINE
  5
4C7B
330
1F
100
AcDbEntity
  8
SOLBET_Emulsje_Folie
100
AcDbPolyline
 90
        2
 70
     0
 43
0.0
 10
100.5807348984369
 20
75.69264635585
 10
61.13861880142372
 20
75.69264635585
  0
LWPOLYLINE
  5
4C7C
330
1F
100
AcDbEntity
  8
SOLBET_Emulsje_Folie
100
AcDbPolyline
 90
        2
 70
     0
 43
0.0
 10
60.85369456093189
 20
76.89264635585004
 10
100.4364708644805
 20
76.89264635585004
  0
LINE
  5
4C7D
330
1F
100
AcDbEntity
  8
SOLBET_Emulsje_Folie
  6
DASHED2
370
    30
100
AcDbLine
 10
60.99615668117781
 20
76.29264635585013
 30
0.0
 11
100.5140705566712
 21
76.29264635585013
 31
0.0
  0
LINE
  5
4C7E
330
1F
100
AcDbEntity
  8
SOLBET_Izolacja
100
AcDbLine
 10
70.37536921226115
 20
79.02369926831614
 30
0.0
 11
75.37536921226115
 21
79.02369926831614
 31
0.0
  0
LINE
  5
4C7F
330
1F
100
AcDbEntity
  8
SOLBET_Emulsje_Folie
100
AcDbLine
 10
49.63290709201533
 20
64.18693464644184
 30
0.0
 11
49.63290709201533
 21
50.68693464644184
 31
0.0
  0
LINE
  5
4C80
330
1F
100
AcDbEntity
  8
SOLBET_Emulsje_Folie
100
AcDbLine
 10
49.63290709201533
 20
50.68693464644184
 30
0.0
 11
48.5829070920156
 21
50.68693464644184
 31
0.0
  0
LINE
  5
4C81
330
1F
100
AcDbEntity
  8
SOLBET_Emulsje_Folie
100
AcDbLine
 10
48.5829070920156
 20
50.68693464644184
 30
0.0
 11
48.5829070920156
 21
64.62185888693364
 31
0.0
  0
LINE
  5
4C82
330
1F
100
AcDbEntity
  8
SOLBET_Emulsje_Folie
100
AcDbLine
 10
47.68290709201551
 20
50.68693464644184
 30
0.0
 11
47.68290709201551
 21
64.99465109306931
 31
0.0
  0
LINE
  5
4C83
330
1F
100
AcDbEntity
  8
SOLBET_Emulsje_Folie
  6
DASHED2
370
    30
100
AcDbLine
 10
49.10790709201569
 20
50.68693464644184
 30
0.0
 11
49.10790709201569
 21
56.4274954100855
 31
0.0
  0
LINE
  5
4C84
330
1F
100
AcDbEntity
  8
SOLBET_Emulsje_Folie
  6
DASHED2
370
    30
100
AcDbLine
 10
49.10790709201569
 20
59.41902223734098
 30
0.0
 11
49.10790709201478
 21
64.4043967666878
 31
0.0
  0
LINE
  5
4C85
330
1F
100
AcDbEntity
  8
SOLBET_Emulsje_Folie
  6
DASHED2
370
    30
100
AcDbLine
 10
49.10790709201478
 20
64.4043967666878
 30
0.0
 11
53.27717997326795
 21
68.57366964794045
 31
0.0
  0
CIRCLE
  5
4C86
330
1F
100
AcDbEntity
  8
SOLBET_Wymiary_Opisy
100
AcDbCircle
 10
67.11478208968424
 20
72.27804027531613
 30
0.0
 40
33.6397017240473
  0
MTEXT
  5
4C87
102
{ACAD_XDICTIONARY
360
4E20
102
}
330
1F
100
AcDbEntity
  8
SOLBET_Wymiary_Opisy
100
AcDbMText
 10
55.20825081166049
 20
124.1795607895155
 30
0.0
 40
5.0
 41
30.77919768571883
 71
     1
 72
     5
  1
\pxqc;C\P(5 : 1)
  7
Solbet_5
 73
     1
 44
1.0
1001
ACAD
1000
MTEXTBEGIN
1070
    73
1070
     1
1070
    44
1040
1.0
1070
    74
1070
     0
1000
MTEXTEND
1000
ACAD_MTEXT_DEFINED_HEIGHT_BEGIN
1070
    46
1040
23.42535011036716
1000
ACAD_MTEXT_DEFINED_HEIGHT_END
  0
LINE
  5
4CE1
330
1F
100
AcDbEntity
  8
SOLBET_Emulsje_Folie
100
AcDbLine
 10
67.54773001700917
 20
98.42430011981505
 30
0.0
 11
69.54773001712559
 21
99.17957083131058
 31
0.0
  0
LINE
  5
4CE2
330
1F
100
AcDbEntity
  8
SOLBET_Emulsje_Folie
100
AcDbLine
 10
67.54773001700917
 20
103.5394267053156
 30
0.0
 11
69.54773001712559
 21
102.78415599382
 31
0.0
  0
LINE
  5
4D72
330
1F
100
AcDbEntity
  8
SOLBET_Zaprawy
100
AcDbLine
 10
76.15333202671874
 20
104.6807276194023
 30
0.0
 11
76.15333202671874
 21
79.02369926831614
 31
0.0
  0
INSERT
  5
4E89
330
1F
100
AcDbEntity
  8
SOLBET_Bloczki
100
AcDbBlockReference
  2
SOLBET_Bloczek_Ideal_420x240x590_P+W_KG400_PRA
 10
198.1855902422526
 20
164.977342133929
 30
0.0
  0
INSERT
  5
4E8A
330
1F
100
AcDbEntity
  8
SOLBET_Bloczki
100
AcDbBlockReference
  2
SOLBET_Bloczek_Ideal_420x240x590_P+W_KG400_PRA
 10
198.1855902422526
 20
152.9773421339289
 30
0.0
  0
INSERT
  5
4E8B
330
1F
100
AcDbEntity
  8
SOLBET_Bloczki
100
AcDbBlockReference
  2
SOLBET_Bloczek_Ideal_420x240x590_P+W_KG400_PRA
 10
198.1855902422526
 20
140.9773421339288
 30
0.0
  0
MTEXT
  5
4ED9
102
{ACAD_XDICTIONARY
360
4EDA
102
}
330
1F
100
AcDbEntity
  8
SOLBET_Wymiary_Opisy
100
AcDbMText
 10
301.2542633255823
 20
7.273150535415538
 30
0.0
 40
5.0
 41
0.0
 71
     1
 72
     5
  1
Skala 1:20
  7
Solbet_5
 73
     1
 44
1.0
1001
ACAD
1000
MTEXTBEGIN
1070
    73
1070
     1
1070
    44
1040
1.0
1070
    74
1070
     0
1000
MTEXTEND
1000
ACAD_MTEXT_DEFINED_HEIGHT_BEGIN
1070
    46
1040
5.395147572682731
1000
ACAD_MTEXT_DEFINED_HEIGHT_END
  0
LWPOLYLINE
  5
4EDC
330
1F
100
AcDbEntity
  8
SOLBET_Ramka_05
100
AcDbPolyline
 90
        4
 70
     1
 43
0.0
 10
298.2355972046685
 20
9.804221198935465
 10
334.3517740920906
 20
9.804221198935465
 10
334.3517740920906
 20
0.0
 10
298.2355972046685
 20
0.0
  0
ENDSEC
  0
SECTION
  2
OBJECTS
  0
DICTIONARY
  5
C
330
0
100
AcDbDictionary
281
     1
  3
ACAD_COLOR
350
6B
  3
ACAD_GROUP
350
D
  3
ACAD_LAYOUT
350
1A
  3
ACAD_MATERIAL
350
6A
  3
ACAD_MLEADERSTYLE
350
12D
  3
ACAD_MLINESTYLE
350
17
  3
ACAD_PLOTSETTINGS
350
19
  3
ACAD_PLOTSTYLENAME
350
E
  3
ACAD_SCALELIST
350
10C
  3
ACAD_TABLESTYLE
350
7E
  3
ACAD_VISUALSTYLE
350
EF
  3
ACDB_RECOMPOSE_DATA
350
15D
  3
AcDbVariableDictionary
350
5E
  3
DWGPROPS
350
4F1B
  0
DICTIONARY
  5
3096
330
8
100
AcDbDictionary
280
     1
281
     1
  0
DICTIONARY
  5
421A
330
2
100
AcDbDictionary
280
     1
281
     1
  3
ACAD_LAYERFILTERS
360
42A9
  3
ACLYDICTIONARY
360
42A8
  0
DICTIONARY
  5
13C
330
10
100
AcDbDictionary
280
     1
281
     1
  3
ADSK_XREC_LAYER_RECONCILED
360
2BD7
  0
DICTIONARY
  5
1D1E
330
1D1D
100
AcDbDictionary
280
     1
281
     1
  3
ADSK_XREC_LAYER_RECONCILED
360
2BDA
  0
DICTIONARY
  5
4E1C
330
4E1B
100
AcDbDictionary
280
     1
281
     1
  3
ASDK_XREC_ANNO_SCALE_INFO
360
4E1D
  0
DICTIONARY
  5
308A
330
1F
100
AcDbDictionary
280
     1
281
     1
  3
ACAD_SORTENTS
360
308B
  0
DICTIONARY
  5
41BF
330
41B3
100
AcDbDictionary
280
     1
281
     1
  3
ACAD_SORTENTS
360
41C0
  0
DICTIONARY
  5
4E75
330
4E69
100
AcDbDictionary
280
     1
281
     1
  3
ACAD_SORTENTS
360
4E76
  0
DICTIONARY
  5
4E85
330
4E79
100
AcDbDictionary
280
     1
281
     1
  3
ACAD_SORTENTS
360
4E86
  0
DICTIONARY
  5
4F39
330
4B2E
100
AcDbDictionary
280
     1
281
     1
  3
ACAD_MTEXT_RT
360
4F3A
  0
DICTIONARY
  5
4F28
330
3DDD
100
AcDbDictionary
280
     1
281
     1
  3
ACAD_MTEXT_RT
360
4F29
  0
DICTIONARY
  5
4F2A
330
3E40
100
AcDbDictionary
280
     1
281
     1
  3
ACAD_MTEXT_RT
360
4F2B
  0
DICTIONARY
  5
4F2C
330
3E62
100
AcDbDictionary
280
     1
281
     1
  3
ACAD_MTEXT_RT
360
4F2D
  0
DICTIONARY
  5
4F2E
330
3EA9
100
AcDbDictionary
280
     1
281
     1
  3
ACAD_MTEXT_RT
360
4F2F
  0
DICTIONARY
  5
4F30
330
3EAB
100
AcDbDictionary
280
     1
281
     1
  3
ACAD_MTEXT_RT
360
4F31
  0
DICTIONARY
  5
4E17
330
3EC6
100
AcDbDictionary
280
     1
281
     1
  3
ACAD_MTEXT_2008_RT
360
4E18
  0
DICTIONARY
  5
4F32
330
3FB8
100
AcDbDictionary
280
     1
281
     1
  3
ACAD_MTEXT_RT
360
4F33
  0
DICTIONARY
  5
4F34
330
3FBE
100
AcDbDictionary
280
     1
281
     1
  3
ACAD_MTEXT_RT
360
4F35
  0
DICTIONARY
  5
4E19
330
3FCD
100
AcDbDictionary
280
     1
281
     1
  3
ACAD_MTEXT_2008_RT
360
4E1A
  0
DICTIONARY
  5
4310
330
430F
100
AcDbDictionary
280
     1
281
     1
  3
ACAD_MTEXT_RT
360
4F36
  3
AcDbContextDataManager
360
4311
  0
DICTIONARY
  5
4F37
330
431E
100
AcDbDictionary
280
     1
281
     1
  3
ACAD_MTEXT_RT
360
4F38
  0
DICTIONARY
  5
4E1E
330
4C35
100
AcDbDictionary
280
     1
281
     1
  3
ACAD_MTEXT_2008_RT
360
4E1F
  0
DICTIONARY
  5
4E20
330
4C87
100
AcDbDictionary
280
     1
281
     1
  3
ACAD_MTEXT_2008_RT
360
4E21
  0
DICTIONARY
  5
4EDA
330
4ED9
100
AcDbDictionary
280
     1
281
     1
  3
ACAD_MTEXT_2008_RT
360
4EDB
  0
DICTIONARY
  5
6B
102
{ACAD_REACTORS
330
C
102
}
330
C
100
AcDbDictionary
281
     1
  0
DICTIONARY
  5
D
102
{ACAD_REACTORS
330
C
102
}
330
C
100
AcDbDictionary
281
     1
  0
DICTIONARY
  5
1A
102
{ACAD_REACTORS
330
C
102
}
330
C
100
AcDbDictionary
281
     1
  3
Arkusz1
350
D3
  3
Arkusz2
350
D7
  3
Model
350
22
  0
DICTIONARY
  5
6A
102
{ACAD_REACTORS
330
C
102
}
330
C
100
AcDbDictionary
281
     1
  3
ByBlock
350
ED
  3
ByLayer
350
EC
  3
Global
350
EE
  0
DICTIONARY
  5
12D
102
{ACAD_REACTORS
330
C
102
}
330
C
100
AcDbDictionary
281
     1
  3
Standard
350
12E
  0
DICTIONARY
  5
17
102
{ACAD_REACTORS
330
C
102
}
330
C
100
AcDbDictionary
281
     1
  3
SOLBET_IZOLACJA
350
30EF
  3
Standard
350
18
  0
DICTIONARY
  5
19
102
{ACAD_REACTORS
330
C
102
}
330
C
100
AcDbDictionary
281
     1
  0
ACDBDICTIONARYWDFLT
  5
E
102
{ACAD_REACTORS
330
C
102
}
330
C
100
AcDbDictionary
281
     1
  3
Normal
350
F
100
AcDbDictionaryWithDefault
340
F
  0
DICTIONARY
  5
10C
102
{ACAD_REACTORS
330
C
102
}
330
C
100
AcDbDictionary
281
     1
  3
A0
350
10D
  3
A1
350
188
  3
A2
350
189
  3
A3
350
18A
  3
A4
350
18B
  3
A5
350
18C
  3
A6
350
18D
  3
A7
350
18E
  3
A8
350
18F
  3
A9
350
190
  3
B0
350
191
  3
B1
350
192
  3
B2
350
193
  3
B3
350
194
  3
B4
350
195
  3
B5
350
196
  3
B6
350
197
  3
B7
350
198
  3
B8
350
199
  3
B9
350
19A
  3
C0
350
19B
  3
C1
350
19C
  3
C2
350
19D
  3
C3
350
19E
  3
C4
350
19F
  3
C5
350
1A0
  3
C6
350
1A1
  3
C7
350
1A2
  3
C8
350
1A3
  3
C9
350
1A4
  3
D0
350
1A5
  3
D1
350
1A6
  3
D2
350
1A7
  0
DICTIONARY
  5
7E
102
{ACAD_REACTORS
330
C
102
}
330
C
100
AcDbDictionary
281
     1
  3
Standard
350
7F
  0
DICTIONARY
  5
EF
102
{ACAD_REACTORS
330
C
102
}
330
C
100
AcDbDictionary
281
     1
  3
2dWireframe
350
F5
  3
3D Hidden
350
F7
  3
3dWireframe
350
F6
  3
Basic
350
F4
  3
Brighten
350
FB
  3
ColorChange
350
FF
  3
Conceptual
350
F8
  3
Dim
350
FA
  3
Facepattern
350
FE
  3
Flat
350
F0
  3
FlatWithEdges
350
F1
  3
Gouraud
350
F2
  3
GouraudWithEdges
350
F3
  3
Linepattern
350
FD
  3
Realistic
350
F9
  3
Thicken
350
FC
  0
XRECORD
  5
15D
102
{ACAD_REACTORS
330
C
102
}
330
C
100
AcDbXrecord
280
     1
 90
        1
330
7F
330
3EC6
330
3FCD
330
430F
330
4C35
330
4C87
  0
DICTIONARY
  5
5E
102
{ACAD_REACTORS
330
C
102
}
330
C
100
AcDbDictionary
281
     1
  3
CANNOSCALE
350
146
  3
CMLEADERSTYLE
350
145
  3
CTABLESTYLE
350
84
  3
DIMASSOC
350
5F
  3
HIDETEXT
350
63
  3
INDEXCTL
350
30B5
  3
LIGHTINGUNITS
350
30B3
  3
MSLTSCALE
350
30B2
  3
PSOLHEIGHT
350
4F1A
  3
PSOLWIDTH
350
4F19
  3
SORTENTS
350
30B4
  0
XRECORD
  5
4F1B
102
{ACAD_REACTORS
330
C
102
}
330
C
100
AcDbXrecord
280
     1
  1
DWGPROPS COOKIE
  2

  3

  4

  6

  7

  8
Olus
  9

300
=
301
=
302
=
303
=
304
=
305
=
306
=
307
=
308
=
309
=
 40
0.3059704513888889
 41
2454725.418526782
 42
2454848.833644838
  1

 90
        0
  0
DICTIONARY
  5
42A9
102
{ACAD_REACTORS
330
421A
102
}
330
421A
100
AcDbDictionary
281
     1
  0
DICTIONARY
  5
42A8
102
{ACAD_REACTORS
330
421A
102
}
330
421A
100
AcDbDictionary
281
     1
1001
ACAD
1000
<All
  0
XRECORD
  5
2BD7
102
{ACAD_REACTORS
330
13C
102
}
330
13C
100
AcDbXrecord
280
     1
290
     1
  0
XRECORD
  5
2BDA
102
{ACAD_REACTORS
330
1D1E
102
}
330
1D1E
100
AcDbXrecord
280
     1
290
     1
  0
XRECORD
  5
4E1D
102
{ACAD_REACTORS
330
4E1C
102
}
330
4E1C
100
AcDbXrecord
280
     1
 70
     1
340
10D
340
30D7
 70
    -1
  0
SORTENTSTABLE
  5
308B
102
{ACAD_REACTORS
330
308A
102
}
330
308A
100
AcDbSortentsTable
330
1F
331
3FCB
  5
3FEC
331
3DDD
  5
3E3F
331
3EB4
  5
3F43
331
34FD
  5
3500
331
35CB
  5
35D0
331
43A0
  5
4411
331
3E3D
  5
3E61
331
3EBC
  5
3FBB
331
35D3
  5
35D8
331
43A8
  5
3EB5
331
358C
  5
35A5
331
350D
  5
3511
331
35DB
  5
35E4
331
3F44
  5
3FC5
331
35A4
  5
35A9
331
4408
  5
4467
331
35AC
  5
35B1
331
3515
  5
3518
331
35B4
  5
35B9
331
35EF
  5
35F9
331
351D
  5
3522
331
3FBC
  5
3FCB
331
35BC
  5
35C1
331
3525
  5
3528
331
3FC4
  5
3FE5
331
416B
  5
4212
331
3EAD
  5
3EBF
331
35C4
  5
35C9
331
3607
  5
37BF
331
34F6
  5
34F9
331
4468
  5
3E3E
331
3FCC
  5
3FEE
331
3EB5
  5
3F44
331
34FE
  5
3501
331
35CC
  5
35D1
331
4212
  5
43AF
331
4488
  5
448B
331
3EBD
  5
3FBC
331
3E3E
  5
3E62
331
38D7
  5
3B63
331
35D4
  5
35D9
331
43A9
  5
3EB6
331
35DC
  5
35E5
331
35A5
  5
35AA
331
3E66
  5
3EA2
331
35AD
  5
35B2
331
3516
  5
3519
331
4411
  5
4468
331
35B5
  5
35BA
331
3FBD
  5
3FCC
331
35BD
  5
35C2
331
3526
  5
352A
331
3FC5
  5
3FE6
331
3EAE
  5
3EC0
331
3C7F
  5
34F3
331
35C5
  5
35CA
331
34F7
  5
34FA
331
3608
  5
37C1
331
3FCD
  5
4001
331
3EB6
  5
3F45
331
354E
  5
358D
331
34FF
  5
3502
331
35CD
  5
35D2
331
4489
  5
448C
331
3507
  5
350A
331
35D5
  5
35DA
331
43AA
  5
3EB2
331
3EC6
  5
3FC1
331
44B1
  5
468E
331
35A6
  5
35AB
331
35E1
  5
35E9
331
440A
  5
4489
331
3E67
  5
3EAA
331
35AE
  5
35B3
331
35E9
  5
35EE
331
3517
  5
351A
331
4412
  5
4488
331
35B6
  5
35BB
331
4452
  5
3E63
331
3FBE
  5
3FCD
331
3EA7
  5
3EB4
331
35BE
  5
35C3
331
3527
  5
352B
331
3FC6
  5
3FE7
331
3EAF
  5
3EC1
331
35C6
  5
35CB
331
34F8
  5
34FB
331
439B
  5
43C6
331
3EB7
  5
3F98
331
35CE
  5
35D3
331
3500
  5
3503
331
3EBF
  5
3FBD
331
3E40
  5
3E67
331
3508
  5
350B
331
35D6
  5
35DB
331
43AB
  5
3EB3
331
3FE6
  5
41D6
331
44B2
  5
468F
331
35A7
  5
35AC
331
3B49
  5
3BFA
331
3FEE
  5
3529
331
3E68
  5
3EAC
331
35EA
  5
35EF
331
35AF
  5
35B4
331
3FB7
  5
3FC6
331
3C11
  5
3C13
331
35FA
  5
35FF
331
3520
  5
3523
331
35B7
  5
35BC
331
4453
  5
3E66
331
41F5
  5
439F
331
3FBF
  5
3FCF
331
35BF
  5
35C4
331
3528
  5
352C
331
3FC7
  5
3FE8
331
35C7
  5
35CC
331
34F9
  5
34FC
331
3EB0
  5
3EC2
331
360A
  5
37C2
331
420D
  5
43AA
331
439C
  5
4407
331
35CF
  5
35D4
331
3FCF
  5
4002
331
3501
  5
3504
331
3EB8
  5
3FB7
331
35D7
  5
35DC
331
448B
  5
44C6
331
3509
  5
350C
331
3EC0
  5
3FBE
331
43AC
  5
3EB8
331
3FE7
  5
41D8
331
43C4
  5
4412
331
35A8
  5
35AD
331
3FA8
  5
3FBA
331
3E61
  5
3E68
331
3B4A
  5
3BFB
331
35B0
  5
35B5
331
41D6
  5
439C
331
3B6A
  5
34F8
331
35EB
  5
35F0
331
3FFF
  5
420D
331
35B8
  5
35BD
331
3521
  5
3524
331
3FB8
  5
3FC7
331
3C12
  5
3C14
331
35FB
  5
3600
331
41F6
  5
43A0
331
35C0
  5
35C5
331
3FC0
  5
3FD0
331
3529
  5
352D
331
34F2
  5
34F4
331
3EA9
  5
3EB7
331
35C8
  5
35CD
331
3FC8
  5
3FE9
331
3549
  5
354D
331
34FA
  5
34FD
331
3DDA
  5
3DDB
331
360B
  5
3B4A
331
3EB1
  5
3EC6
331
420E
  5
43AB
331
439D
  5
440A
331
35D0
  5
35D5
331
3FD0
  5
416B
331
3551
  5
35A3
331
3EB9
  5
3FB8
331
35D8
  5
35DD
331
448C
  5
44B1
331
3EC1
  5
3FBF
331
3A43
  5
3B90
331
43AD
  5
3EB9
331
35A1
  5
35A6
331
3F41
  5
3FC2
331
3B33
  5
3BD5
331
43C5
  5
4452
331
35A9
  5
35AE
331
3FE8
  5
41D9
331
3512
  5
3515
331
3E62
  5
3E8E
331
35B1
  5
35B6
331
351A
  5
351D
331
24F6
  5
24F6
331
35EC
  5
35F1
331
4000
  5
420E
331
35B9
  5
35BE
331
3522
  5
3525
331
3FB9
  5
3FC8
331
3C13
  5
3C6C
331
35FC
  5
3605
331
41F7
  5
43A7
331
35C1
  5
35C6
331
352A
  5
352E
331
3FC1
  5
3FD1
331
431E
  5
43C5
331
35C9
  5
35CE
331
3FC9
  5
3FEA
331
354A
  5
354F
331
3DDB
  5
3DDC
331
3EB2
  5
3F41
331
420F
  5
43AC
331
35D1
  5
35D6
331
3FD1
  5
41C3
331
3EBA
  5
3FB9
331
35D9
  5
35E2
331
448D
  5
44B2
331
3EC2
  5
3FC0
331
43AE
  5
41C9
331
35A2
  5
35A7
331
3F42
  5
3FC3
331
3B34
  5
3BE0
331
43C6
  5
4453
331
35AA
  5
35AF
331
3FE9
  5
41F5
331
3513
  5
3516
331
3E63
  5
3E8F
331
35B2
  5
35B7
331
351B
  5
3520
331
41D8
  5
439D
331
35ED
  5
35F2
331
430F
  5
43C4
331
4001
  5
420F
331
35BA
  5
35BF
331
3FBA
  5
3FC9
331
3C14
  5
3D77
331
41F8
  5
43A8
331
35C2
  5
35C7
331
3FC2
  5
3FD2
331
3EAB
  5
3EBA
331
3605
  5
360A
331
35CA
  5
35CF
331
3FCA
  5
3FEB
331
3EB3
  5
3F42
331
4210
  5
43AE
331
35D2
  5
35D7
331
3FD2
  5
41C6
331
358B
  5
35A4
331
35DA
  5
35E3
331
3F43
  5
3FC4
331
35AB
  5
35B0
331
35B3
  5
35B8
331
351C
  5
3521
331
41D9
  5
439E
331
35EE
  5
35F4
331
4002
  5
4210
331
35BB
  5
35C0
331
3FBB
  5
3FCA
331
41F9
  5
43A9
331
35C3
  5
35C8
331
3FC3
  5
3FD3
331
3EAC
  5
3EBD
331
3606
  5
360B
331
4467
  5
3DDE
331
44C6
  5
448D
  0
SORTENTSTABLE
  5
41C0
102
{ACAD_REACTORS
330
41BF
102
}
330
41BF
100
AcDbSortentsTable
330
41B3
  0
SORTENTSTABLE
  5
4E76
102
{ACAD_REACTORS
330
4E75
102
}
330
4E75
100
AcDbSortentsTable
330
4E69
  0
SORTENTSTABLE
  5
4E86
102
{ACAD_REACTORS
330
4E85
102
}
330
4E85
100
AcDbSortentsTable
330
4E79
  0
XRECORD
  5
4F3A
102
{ACAD_REACTORS
330
4F39
102
}
330
4F39
100
AcDbXrecord
280
     1
 40
45905.0
  1
max. 1/3 szeokości bloczka
  0
XRECORD
  5
4F29
102
{ACAD_REACTORS
330
4F28
102
}
330
4F28
100
AcDbXrecord
280
     1
 40
28851.0
  1
Zagęszczony piasek
  0
XRECORD
  5
4F2B
102
{ACAD_REACTORS
330
4F2A
102
}
330
4F2A
100
AcDbXrecord
280
     1
 40
33358.0
  1
Tynk wewnętrzny SOLBET
  0
XRECORD
  5
4F2D
102
{ACAD_REACTORS
330
4F2C
102
}
330
4F2C
100
AcDbXrecord
280
     1
 40
190037.0
  1
Mocowanie mechaniczne styropianu\P(w części naziemnej)
  0
XRECORD
  5
4F2F
102
{ACAD_REACTORS
330
4F2E
102
}
330
4F2E
100
AcDbXrecord
280
     1
 40
22651.0
  1
Emulsja izolująca
  0
XRECORD
  5
4F31
102
{ACAD_REACTORS
330
4F30
102
}
330
4F30
100
AcDbXrecord
280
     1
 40
16059.0
  1
Tynk cokołowy
  0
XRECORD
  5
4E18
102
{ACAD_REACTORS
330
4E17
102
}
330
4E17
100
AcDbXrecord
280
     1
 40
24693.0
  1
\pxqc;A\P(5 : 1)
  0
XRECORD
  5
4F33
102
{ACAD_REACTORS
330
4F32
102
}
330
4F32
100
AcDbXrecord
280
     1
 40
34960.0
  1
Warstwa wykończeniowa
  0
XRECORD
  5
4F35
102
{ACAD_REACTORS
330
4F34
102
}
330
4F34
100
AcDbXrecord
280
     1
 40
42625.0
  1
Płyty izolacyjne twarde
  0
XRECORD
  5
4E1A
102
{ACAD_REACTORS
330
4E19
102
}
330
4E19
100
AcDbXrecord
280
     1
 40
24757.0
  1
\pxqc;B\P(5 : 1)
  0
XRECORD
  5
4F36
102
{ACAD_REACTORS
330
4310
102
}
330
4310
100
AcDbXrecord
280
     1
 40
725381.0
  1
{\LDETAL 2\P}Posadowienie na {\fISOCPEUR|b1|i0|c238|p34;ł}awie fundamentowej w gruntach nieprzepuszczających wody
  0
DICTIONARY
  5
4311
102
{ACAD_REACTORS
330
4310
102
}
330
4310
100
AcDbDictionary
281
     1
  3
ACDB_ANNOTATIONSCALES
350
4312
  0
XRECORD
  5
4F38
102
{ACAD_REACTORS
330
4F37
102
}
330
4F37
100
AcDbXrecord
280
     1
 40
901167.0
  1
{\LUWAGA:\P}Systemy hydroizolacji stosować wg zaleceń producentów.\PStyropian wodoodporny wg zaleceń producentów.
  0
XRECORD
  5
4E1F
102
{ACAD_REACTORS
330
4E1E
102
}
330
4E1E
100
AcDbXrecord
280
     1
 40
79699.0
  1
\pxql;Emulsja izolazyjna\Plub izolacja z folii
  0
XRECORD
  5
4E21
102
{ACAD_REACTORS
330
4E20
102
}
330
4E20
100
AcDbXrecord
280
     1
 40
24748.0
  1
\pxqc;C\P(5 : 1)
  0
XRECORD
  5
4EDB
102
{ACAD_REACTORS
330
4EDA
102
}
330
4EDA
100
AcDbXrecord
280
     1
 40
24748.0
  1
\pxqc;C\P(5 : 1)
  0
LAYOUT
  5
D3
102
{ACAD_XDICTIONARY
360
4F1F
102
}
102
{ACAD_REACTORS
330
1A
102
}
330
1A
100
AcDbPlotSettings
  1

  2
C:\Documents and Settings\basas\Application Data\Autodesk\AutoCAD 2005\R16.1\enu\plotters\Default Windows System Printer.pc3
  4

  6

 40
0.0
 41
0.0
 42
0.0
 43
0.0
 44
0.0
 45
0.0
 46
0.0
 47
0.0
 48
0.0
 49
0.0
140
0.0
141
0.0
142
1.0
143
1.0
 70
   688
 72
     0
 73
     0
 74
     5
  7

 75
    16
147
1.0
148
0.0
149
0.0
100
AcDbLayout
  1
Arkusz1
 70
     1
 71
     1
 10
0.0
 20
0.0
 11
12.0
 21
9.0
 12
0.0
 22
0.0
 32
0.0
 14
0.0
 24
0.0
 34
0.0
 15
0.0
 25
0.0
 35
0.0
146
0.0
 13
0.0
 23
0.0
 33
0.0
 16
1.0
 26
0.0
 36
0.0
 17
0.0
 27
1.0
 37
0.0
 76
     0
330
D2
  0
LAYOUT
  5
D7
102
{ACAD_XDICTIONARY
360
4F21
102
}
102
{ACAD_REACTORS
330
1A
102
}
330
1A
100
AcDbPlotSettings
  1

  2
C:\Documents and Settings\basas\Application Data\Autodesk\AutoCAD 2005\R16.1\enu\plotters\Default Windows System Printer.pc3
  4

  6

 40
0.0
 41
0.0
 42
0.0
 43
0.0
 44
0.0
 45
0.0
 46
0.0
 47
0.0
 48
0.0
 49
0.0
140
0.0
141
0.0
142
1.0
143
1.0
 70
   688
 72
     0
 73
     0
 74
     5
  7

 75
    16
147
1.0
148
0.0
149
0.0
100
AcDbLayout
  1
Arkusz2
 70
     1
 71
     2
 10
0.0
 20
0.0
 11
12.0
 21
9.0
 12
0.0
 22
0.0
 32
0.0
 14
0.0
 24
0.0
 34
0.0
 15
0.0
 25
0.0
 35
0.0
146
0.0
 13
0.0
 23
0.0
 33
0.0
 16
1.0
 26
0.0
 36
0.0
 17
0.0
 27
1.0
 37
0.0
 76
     0
330
D6
  0
LAYOUT
  5
22
102
{ACAD_XDICTIONARY
360
4F1C
102
}
102
{ACAD_REACTORS
330
1A
102
}
330
1A
100
AcDbPlotSettings
  1

  2
none_device
  4
ISO_A4_(210.00_x_297.00_MM)
  6

 40
7.5
 41
20.0
 42
7.5
 43
20.0
 44
210.0
 45
297.0
 46
11.54999923706054
 47
-13.65000009536743
 48
0.0
 49
0.0
140
0.0
141
0.0
142
1.0
143
8.704084754739808
 70
 11952
 72
     1
 73
     0
 74
     0
  7

 75
     0
147
0.1148885871608098
148
0.0
149
0.0
100
AcDbLayout
  1
Model
 70
     1
 71
     0
 10
0.0
 20
0.0
 11
12.0
 21
9.0
 12
0.0
 22
0.0
 32
0.0
 14
0.0
 24
0.0
 34
0.0
 15
0.0
 25
0.0
 35
0.0
146
0.0
 13
0.0
 23
0.0
 33
0.0
 16
1.0
 26
0.0
 36
0.0
 17
0.0
 27
1.0
 37
0.0
 76
     0
330
1F
331
EA
1001
ACAD_PSEXT
1000
None
1000
None
1000
Not applicable
1000
The layout will not be plotted unless a new plotter configuration name is selected.
1070
     0
  0
MATERIAL
  5
ED
102
{ACAD_XDICTIONARY
360
4F25
102
}
102
{ACAD_REACTORS
330
6A
102
}
330
6A
100
AcDbMaterial
  1
ByBlock
 73
     2
 78
     2
172
     2
176
     2
270
     2
274
     2
  0
MATERIAL
  5
EC
102
{ACAD_XDICTIONARY
360
4F23
102
}
102
{ACAD_REACTORS
330
6A
102
}
330
6A
100
AcDbMaterial
  1
ByLayer
 73
     2
 78
     2
172
     2
176
     2
270
     2
274
     2
  0
MATERIAL
  5
EE
102
{ACAD_XDICTIONARY
360
173
102
}
102
{ACAD_REACTORS
330
6A
102
}
330
6A
100
AcDbMaterial
  1
Global
 73
     2
 43
0.0007999999797903
 43
0.0
 43
0.0
 43
0.0
 43
0.0
 43
0.0007999999797903
 43
0.0
 43
0.0
 43
0.0
 43
0.0
 43
1.0
 43
0.0
 43
0.0
 43
0.0
 43
0.0
 43
1.0
 78
     2
172
     2
 49
0.0007999999797903
 49
0.0
 49
0.0
 49
0.0
 49
0.0
 49
0.0007999999797903
 49
0.0
 49
0.0
 49
0.0
 49
0.0
 49
1.0
 49
0.0
 49
0.0
 49
0.0
 49
0.0
 49
1.0
176
     2
142
0.0007999999797903
142
0.0
142
0.0
142
0.0
142
0.0
142
0.0007999999797903
142
0.0
142
0.0
142
0.0
142
0.0
142
1.0
142
0.0
142
0.0
142
0.0
142
0.0
142
1.0
270
     2
144
0.0007999999797903
144
0.0
144
0.0
144
0.0
144
0.0
144
0.0007999999797903
144
0.0
144
0.0
144
0.0
144
0.0
144
1.0
144
0.0
144
0.0
144
0.0
144
0.0
144
1.0
274
     2
1001
ACAD
1070
    -1
1070
     3
1070
     0
1000

1071
        0
1070
     0
  0
ACAD_PROXY_OBJECT
  5
12E
102
{ACAD_REACTORS
330
12D
102
}
330
12D
100
AcDbProxyObject
 90
      499
 91
      508
 95
       23
 70
     0
 93
      618
310
40901902A4063FBFFFFFE0000000000000020400000000000020404254DD185B99185C99000000000000000104090140501A0000000000000410000000000000004102576400000000000003903F
340
14
340
0
340
11
340
0
 94
        0
1001
ACAD_MLEADERVER
1070
     2
1001
ACAD
1000
AcRTDxfName
1000
MLEADERSTYLE
1000
AcRTDxfName
1000
MLEADERSTYLE
  0
MLINESTYLE
  5
30EF
102
{ACAD_REACTORS
330
17
102
}
330
17
100
AcDbMlineStyle
  2
SOLBET_IZOLACJA
 70
   272
  3

 62
   256
 51
90.0
 52
90.0
 71
     2
 49
0.008
 62
   256
  6
BYLAYER
 49
-0.008
 62
   256
  6
BYLAYER
  0
MLINESTYLE
  5
18
102
{ACAD_REACTORS
330
17
102
}
330
17
100
AcDbMlineStyle
  2
STANDARD
 70
     0
  3

 62
   256
 51
90.0
 52
90.0
 71
     2
 49
0.5
 62
   256
  6
BYLAYER
 49
-0.5
 62
   256
  6
BYLAYER
  0
ACDBPLACEHOLDER
  5
F
102
{ACAD_REACTORS
330
E
102
}
330
E
  0
ACAD_PROXY_OBJECT
  5
10D
102
{ACAD_REACTORS
330
10C
102
}
330
10C
100
AcDbProxyObject
 90
      499
 91
      507
 95
       23
 70
     0
 93
       49
310
904313A31005FF
 94
        0
1001
ACAD
1000
AcRTDxfName
1000
SCALE
1000
AcRTDxfName
1000
SCALE
  0
ACAD_PROXY_OBJECT
  5
188
102
{ACAD_REACTORS
330
10C
102
}
330
10C
100
AcDbProxyObject
 90
      499
 91
      507
 95
       23
 70
     0
 93
      113
310
904313A3200400000000000000407F
 94
        0
1001
ACAD
1000
AcRTDxfName
1000
SCALE
1000
AcRTDxfName
1000
SCALE
  0
ACAD_PROXY_OBJECT
  5
189
102
{ACAD_REACTORS
330
10C
102
}
330
10C
100
AcDbProxyObject
 90
      499
 91
      507
 95
       23
 70
     0
 93
      113
310
904313A3400400000000000010407F
 94
        0
1001
ACAD
1000
AcRTDxfName
1000
SCALE
1000
AcRTDxfName
1000
SCALE
  0
ACAD_PROXY_OBJECT
  5
18A
102
{ACAD_REACTORS
330
10C
102
}
330
10C
100
AcDbProxyObject
 90
      499
 91
      507
 95
       23
 70
     0
 93
      113
310
904313A3500400000000000014407F
 94
        0
1001
ACAD
1000
AcRTDxfName
1000
SCALE
1000
AcRTDxfName
1000
SCALE
  0
ACAD_PROXY_OBJECT
  5
18B
102
{ACAD_REACTORS
330
10C
102
}
330
10C
100
AcDbProxyObject
 90
      499
 91
      507
 95
       23
 70
     0
 93
      113
310
904313A3800400000000000020407F
 94
        0
1001
ACAD
1000
AcRTDxfName
1000
SCALE
1000
AcRTDxfName
1000
SCALE
  0
ACAD_PROXY_OBJECT
  5
18C
102
{ACAD_REACTORS
330
10C
102
}
330
10C
100
AcDbProxyObject
 90
      499
 91
      507
 95
       23
 70
     0
 93
      121
310
905313A313000400000000000024407F
 94
        0
1001
ACAD
1000
AcRTDxfName
1000
SCALE
1000
AcRTDxfName
1000
SCALE
  0
ACAD_PROXY_OBJECT
  5
18D
102
{ACAD_REACTORS
330
10C
102
}
330
10C
100
AcDbProxyObject
 90
      499
 91
      507
 95
       23
 70
     0
 93
      121
310
905313A313600400000000000030407F
 94
        0
1001
ACAD
1000
AcRTDxfName
1000
SCALE
1000
AcRTDxfName
1000
SCALE
  0
ACAD_PROXY_OBJECT
  5
18E
102
{ACAD_REACTORS
330
10C
102
}
330
10C
100
AcDbProxyObject
 90
      499
 91
      507
 95
       23
 70
     0
 93
      121
310
905313A323000400000000000034407F
 94
        0
1001
ACAD
1000
AcRTDxfName
1000
SCALE
1000
AcRTDxfName
1000
SCALE
  0
ACAD_PROXY_OBJECT
  5
18F
102
{ACAD_REACTORS
330
10C
102
}
330
10C
100
AcDbProxyObject
 90
      499
 91
      507
 95
       23
 70
     0
 93
      121
310
905313A33300040000000000003E407F
 94
        0
1001
ACAD
1000
AcRTDxfName
1000
SCALE
1000
AcRTDxfName
1000
SCALE
  0
ACAD_PROXY_OBJECT
  5
190
102
{ACAD_REACTORS
330
10C
102
}
330
10C
100
AcDbProxyObject
 90
      499
 91
      507
 95
       23
 70
     0
 93
      121
310
905313A343000400000000000044407F
 94
        0
1001
ACAD
1000
AcRTDxfName
1000
SCALE
1000
AcRTDxfName
1000
SCALE
  0
ACAD_PROXY_OBJECT
  5
191
102
{ACAD_REACTORS
330
10C
102
}
330
10C
100
AcDbProxyObject
 90
      499
 91
      507
 95
       23
 70
     0
 93
      121
310
905313A353000400000000000049407F
 94
        0
1001
ACAD
1000
AcRTDxfName
1000
SCALE
1000
AcRTDxfName
1000
SCALE
  0
ACAD_PROXY_OBJECT
  5
192
102
{ACAD_REACTORS
330
10C
102
}
330
10C
100
AcDbProxyObject
 90
      499
 91
      507
 95
       23
 70
     0
 93
      129
310
906313A31303000400000000000059407F
 94
        0
1001
ACAD
1000
AcRTDxfName
1000
SCALE
1000
AcRTDxfName
1000
SCALE
  0
ACAD_PROXY_OBJECT
  5
193
102
{ACAD_REACTORS
330
10C
102
}
330
10C
100
AcDbProxyObject
 90
      499
 91
      507
 95
       23
 70
     0
 93
      113
310
904323A3100000000000000001017F
 94
        0
1001
ACAD
1000
AcRTDxfName
1000
SCALE
1000
AcRTDxfName
1000
SCALE
  0
ACAD_PROXY_OBJECT
  5
194
102
{ACAD_REACTORS
330
10C
102
}
330
10C
100
AcDbProxyObject
 90
      499
 91
      507
 95
       23
 70
     0
 93
      113
310
904343A3100000000000000041017F
 94
        0
1001
ACAD
1000
AcRTDxfName
1000
SCALE
1000
AcRTDxfName
1000
SCALE
  0
ACAD_PROXY_OBJECT
  5
195
102
{ACAD_REACTORS
330
10C
102
}
330
10C
100
AcDbProxyObject
 90
      499
 91
      507
 95
       23
 70
     0
 93
      113
310
904383A3100000000000000081017F
 94
        0
1001
ACAD
1000
AcRTDxfName
1000
SCALE
1000
AcRTDxfName
1000
SCALE
  0
ACAD_PROXY_OBJECT
  5
196
102
{ACAD_REACTORS
330
10C
102
}
330
10C
100
AcDbProxyObject
 90
      499
 91
      507
 95
       23
 70
     0
 93
      121
310
90531303A3100000000000000091017F
 94
        0
1001
ACAD
1000
AcRTDxfName
1000
SCALE
1000
AcRTDxfName
1000
SCALE
  0
ACAD_PROXY_OBJECT
  5
197
102
{ACAD_REACTORS
330
10C
102
}
330
10C
100
AcDbProxyObject
 90
      499
 91
      507
 95
       23
 70
     0
 93
      129
310
9063130303A3100000000000000165017F
 94
        0
1001
ACAD
1000
AcRTDxfName
1000
SCALE
1000
AcRTDxfName
1000
SCALE
  0
ACAD_PROXY_OBJECT
  5
198
102
{ACAD_REACTORS
330
10C
102
}
330
10C
100
AcDbProxyObject
 90
      499
 91
      507
 95
       23
 70
     0
 93
      265
310
90F312F31323822203D2031272D302200000000000000200FC00000000000028407F
 94
        0
1001
ACAD
1000
AcRTDxfName
1000
SCALE
1000
AcRTDxfName
1000
SCALE
  0
ACAD_PROXY_OBJECT
  5
199
102
{ACAD_REACTORS
330
10C
102
}
330
10C
100
AcDbProxyObject
 90
      499
 91
      507
 95
       23
 70
     0
 93
      257
310
90E312F363422203D2031272D302200000000000000240FC00000000000028407F
 94
        0
1001
ACAD
1000
AcRTDxfName
1000
SCALE
1000
AcRTDxfName
1000
SCALE
  0
ACAD_PROXY_OBJECT
  5
19A
102
{ACAD_REACTORS
330
10C
102
}
330
10C
100
AcDbProxyObject
 90
      499
 91
      507
 95
       23
 70
     0
 93
      257
310
90E312F333222203D2031272D302200000000000000280FC00000000000028407F
 94
        0
1001
ACAD
1000
AcRTDxfName
1000
SCALE
1000
AcRTDxfName
1000
SCALE
  0
ACAD_PROXY_OBJECT
  5
19B
102
{ACAD_REACTORS
330
10C
102
}
330
10C
100
AcDbProxyObject
 90
      499
 91
      507
 95
       23
 70
     0
 93
      257
310
90E312F313622203D2031272D3022000000000000002C0FC00000000000028407F
 94
        0
1001
ACAD
1000
AcRTDxfName
1000
SCALE
1000
AcRTDxfName
1000
SCALE
  0
ACAD_PROXY_OBJECT
  5
19C
102
{ACAD_REACTORS
330
10C
102
}
330
10C
100
AcDbProxyObject
 90
      499
 91
      507
 95
       23
 70
     0
 93
      257
310
90E332F333222203D2031272D3022000000000000002E0FC00000000000028407F
 94
        0
1001
ACAD
1000
AcRTDxfName
1000
SCALE
1000
AcRTDxfName
1000
SCALE
  0
ACAD_PROXY_OBJECT
  5
19D
102
{ACAD_REACTORS
330
10C
102
}
330
10C
100
AcDbProxyObject
 90
      499
 91
      507
 95
       23
 70
     0
 93
      249
310
90D312F3822203D2031272D302200000000000000300FC00000000000028407F
 94
        0
1001
ACAD
1000
AcRTDxfName
1000
SCALE
1000
AcRTDxfName
1000
SCALE
  0
ACAD_PROXY_OBJECT
  5
19E
102
{ACAD_REACTORS
330
10C
102
}
330
10C
100
AcDbProxyObject
 90
      499
 91
      507
 95
       23
 70
     0
 93
      257
310
90E332F313622203D2031272D302200000000000000320FC00000000000028407F
 94
        0
1001
ACAD
1000
AcRTDxfName
1000
SCALE
1000
AcRTDxfName
1000
SCALE
  0
ACAD_PROXY_OBJECT
  5
19F
102
{ACAD_REACTORS
330
10C
102
}
330
10C
100
AcDbProxyObject
 90
      499
 91
      507
 95
       23
 70
     0
 93
      249
310
90D312F3422203D2031272D302200000000000000340FC00000000000028407F
 94
        0
1001
ACAD
1000
AcRTDxfName
1000
SCALE
1000
AcRTDxfName
1000
SCALE
  0
ACAD_PROXY_OBJECT
  5
1A0
102
{ACAD_REACTORS
330
10C
102
}
330
10C
100
AcDbProxyObject
 90
      499
 91
      507
 95
       23
 70
     0
 93
      249
310
90D332F3822203D2031272D302200000000000000360FC00000000000028407F
 94
        0
1001
ACAD
1000
AcRTDxfName
1000
SCALE
1000
AcRTDxfName
1000
SCALE
  0
ACAD_PROXY_OBJECT
  5
1A1
102
{ACAD_REACTORS
330
10C
102
}
330
10C
100
AcDbProxyObject
 90
      499
 91
      507
 95
       23
 70
     0
 93
      249
310
90D312F3222203D2031272D302200000000000000380FC00000000000028407F
 94
        0
1001
ACAD
1000
AcRTDxfName
1000
SCALE
1000
AcRTDxfName
1000
SCALE
  0
ACAD_PROXY_OBJECT
  5
1A2
102
{ACAD_REACTORS
330
10C
102
}
330
10C
100
AcDbProxyObject
 90
      499
 91
      507
 95
       23
 70
     0
 93
      249
310
90D332F3422203D2031272D3022000000000000003A0FC00000000000028407F
 94
        0
1001
ACAD
1000
AcRTDxfName
1000
SCALE
1000
AcRTDxfName
1000
SCALE
  0
ACAD_PROXY_OBJECT
  5
1A3
102
{ACAD_REACTORS
330
10C
102
}
330
10C
100
AcDbProxyObject
 90
      499
 91
      507
 95
       23
 70
     0
 93
      169
310
90B3122203D2031272D302200400000000000028407F
 94
        0
1001
ACAD
1000
AcRTDxfName
1000
SCALE
1000
AcRTDxfName
1000
SCALE
  0
ACAD_PROXY_OBJECT
  5
1A4
102
{ACAD_REACTORS
330
10C
102
}
330
10C
100
AcDbProxyObject
 90
      499
 91
      507
 95
       23
 70
     0
 93
      265
310
90F312D312F3222203D2031272D3022000000000000003E0FC00000000000028407F
 94
        0
1001
ACAD
1000
AcRTDxfName
1000
SCALE
1000
AcRTDxfName
1000
SCALE
  0
ACAD_PROXY_OBJECT
  5
1A5
102
{ACAD_REACTORS
330
10C
102
}
330
10C
100
AcDbProxyObject
 90
      499
 91
      507
 95
       23
 70
     0
 93
      233
310
90B3322203D2031272D3022000000000000000210000000000000028407F
 94
        0
1001
ACAD
1000
AcRTDxfName
1000
SCALE
1000
AcRTDxfName
1000
SCALE
  0
ACAD_PROXY_OBJECT
  5
1A6
102
{ACAD_REACTORS
330
10C
102
}
330
10C
100
AcDbProxyObject
 90
      499
 91
      507
 95
       23
 70
     0
 93
      233
310
90B3622203D2031272D3022000000000000000610000000000000028407F
 94
        0
1001
ACAD
1000
AcRTDxfName
1000
SCALE
1000
AcRTDxfName
1000
SCALE
  0
ACAD_PROXY_OBJECT
  5
1A7
102
{ACAD_REACTORS
330
10C
102
}
330
10C
100
AcDbProxyObject
 90
      499
 91
      507
 95
       23
 70
     0
 93
      257
310
90E31272D3022203D2031272D3022000000000000000A10000000000000028407F
 94
        0
1001
ACAD
1000
AcRTDxfName
1000
SCALE
1000
AcRTDxfName
1000
SCALE
  0
TABLESTYLE
  5
7F
102
{ACAD_XDICTIONARY
360
162
102
}
102
{ACAD_REACTORS
330
7E
102
}
330
7E
100
AcDbTableStyle
  3
Standard
 70
     0
 71
     0
 40
1.5
 41
1.5
280
     0
281
     0
  7
Standard
140
4.5
170
     2
 62
     0
 63
     7
283
     0
274
    -2
284
     1
 64
     0
275
    -2
285
     1
 65
     0
276
    -2
286
     1
 66
     0
277
    -2
287
     1
 67
     0
278
    -2
288
     1
 68
     0
279
    -2
289
     1
 69
     0
  7
Standard
140
6.0
170
     5
 62
     0
 63
     7
283
     0
274
    -2
284
     1
 64
     0
275
    -2
285
     1
 65
     0
276
    -2
286
     1
 66
     0
277
    -2
287
     1
 67
     0
278
    -2
288
     1
 68
     0
279
    -2
289
     1
 69
     0
  7
Standard
140
4.5
170
     5
 62
     0
 63
     7
283
     0
274
    -2
284
     1
 64
     0
275
    -2
285
     1
 65
     0
276
    -2
286
     1
 66
     0
277
    -2
287
     1
 67
     0
278
    -2
288
     1
 68
     0
279
    -2
289
     1
 69
     0
  0
VISUALSTYLE
  5
F5
102
{ACAD_REACTORS
330
EF
102
}
330
EF
100
AcDbVisualStyle
  2
2dWireframe
 70
     4
 71
     0
 72
     2
 73
     1
 90
        0
 40
-0.6
 41
-30.0
 62
     5
 63
     7
 74
     1
 91
        4
 64
     7
 65
   257
 75
     1
175
     1
 42
1.0
 92
        0
 66
   257
 43
1.0
 76
     1
 77
     6
 78
     2
 67
     7
 79
     5
170
     0
171
     0
290
     0
174
     0
 93
        1
 44
0.0
173
     0
291
     0
 45
0.0
1001
ACAD
1000
AcDbSavedByObjectVersion
1070
     0
  0
VISUALSTYLE
  5
F7
102
{ACAD_REACTORS
330
EF
102
}
330
EF
100
AcDbVisualStyle
  2
3D Hidden
 70
     6
 71
     1
 72
     2
 73
     2
 90
        0
 40
-0.6
 41
-30.0
 62
     5
 63
     7
 74
     2
 91
        2
 64
     7
 65
   257
 75
     2
175
     1
 42
40.0
 92
        0
 66
   257
 43
1.0
 76
     1
 77
     6
 78
     2
 67
     7
 79
     3
170
     0
171
     0
290
     0
174
     0
 93
        1
 44
0.0
173
     0
291
     0
 45
0.0
1001
ACAD
1000
AcDbSavedByObjectVersion
1070
     0
  0
VISUALSTYLE
  5
F6
102
{ACAD_REACTORS
330
EF
102
}
330
EF
100
AcDbVisualStyle
  2
3dWireframe
 70
     5
 71
     0
 72
     2
 73
     1
 90
        0
 40
-0.6
 41
-30.0
 62
     5
 63
     7
 74
     1
 91
        4
 64
     7
 65
   257
 75
     1
175
     1
 42
1.0
 92
        0
 66
   257
 43
1.0
 76
     1
 77
     6
 78
     2
 67
     7
 79
     5
170
     0
171
     0
290
     0
174
     0
 93
        1
 44
0.0
173
     0
291
     0
 45
0.0
1001
ACAD
1000
AcDbSavedByObjectVersion
1070
     0
  0
VISUALSTYLE
  5
F4
102
{ACAD_REACTORS
330
EF
102
}
330
EF
100
AcDbVisualStyle
  2
Basic
 70
     7
 71
     1
 72
     0
 73
     1
 90
        0
 40
-0.6
 41
-30.0
 62
     5
 63
     7
 74
     0
 91
        4
 64
     7
 65
   257
 75
     1
175
     1
 42
1.0
 92
        8
 66
     7
 43
1.0
 76
     1
 77
     6
 78
     2
 67
     7
 79
     5
170
     0
171
     0
290
     0
174
     0
 93
        1
 44
0.0
173
     0
291
     1
 45
0.0
1001
ACAD
1000
AcDbSavedByObjectVersion
1070
     0
  0
VISUALSTYLE
  5
FB
102
{ACAD_REACTORS
330
EF
102
}
330
EF
100
AcDbVisualStyle
  2
Brighten
 70
    12
 71
     2
 72
     2
 73
     1
 90
        0
 40
-0.6
 41
-30.0
 62
     5
 63
     7
 74
     1
 91
        4
 64
     7
 65
   257
 75
     1
175
     1
 42
1.0
 92
        8
 66
     7
 43
1.0
 76
     1
 77
     6
 78
     2
 67
     7
 79
     5
170
     0
171
     0
290
     0
174
     0
 93
        1
 44
50.0
173
     0
291
     1
 45
0.0
1001
ACAD
1000
AcDbSavedByObjectVersion
1070
     0
  0
VISUALSTYLE
  5
FF
102
{ACAD_REACTORS
330
EF
102
}
330
EF
100
AcDbVisualStyle
  2
ColorChange
 70
    16
 71
     2
 72
     2
 73
     3
 90
        0
 40
-0.6
 41
-30.0
 62
     5
 63
     8
 74
     1
 91
        4
 64
     7
 65
   257
 75
     1
175
     1
 42
1.0
 92
        8
 66
     8
 43
1.0
 76
     1
 77
     6
 78
     2
 67
     7
 79
     5
170
     0
171
     0
290
     0
174
     0
 93
        1
 44
0.0
173
     0
291
     1
 45
0.0
1001
ACAD
1000
AcDbSavedByObjectVersion
1070
     0
  0
VISUALSTYLE
  5
F8
102
{ACAD_REACTORS
330
EF
102
}
330
EF
100
AcDbVisualStyle
  2
Conceptual
 70
     9
 71
     3
 72
     2
 73
     1
 90
        0
 40
-0.6
 41
-30.0
 62
     5
 63
     7
 74
     2
 91
        2
 64
     7
 65
   257
 75
     1
175
     1
 42
40.0
 92
        8
 66
     7
 43
1.0
 76
     1
 77
     6
 78
     2
 67
     7
 79
     3
170
     0
171
     0
290
     0
174
     0
 93
        1
 44
0.0
173
     0
291
     0
 45
0.0
1001
ACAD
1000
AcDbSavedByObjectVersion
1070
     0
  0
VISUALSTYLE
  5
FA
102
{ACAD_REACTORS
330
EF
102
}
330
EF
100
AcDbVisualStyle
  2
Dim
 70
    11
 71
     2
 72
     2
 73
     1
 90
        0
 40
-0.6
 41
-30.0
 62
     5
 63
     7
 74
     1
 91
        4
 64
     7
 65
   257
 75
     1
175
     1
 42
1.0
 92
        8
 66
     7
 43
1.0
 76
     1
 77
     6
 78
     2
 67
     7
 79
     5
170
     0
171
     0
290
     0
174
     0
 93
        1
 44
-50.0
173
     0
291
     1
 45
0.0
1001
ACAD
1000
AcDbSavedByObjectVersion
1070
     0
  0
VISUALSTYLE
  5
FE
102
{ACAD_REACTORS
330
EF
102
}
330
EF
100
AcDbVisualStyle
  2
Facepattern
 70
    15
 71
     2
 72
     2
 73
     1
 90
        0
 40
-0.6
 41
-30.0
 62
     5
 63
     7
 74
     1
 91
        4
 64
     7
 65
   257
 75
     1
175
     1
 42
1.0
 92
        8
 66
     7
 43
1.0
 76
     1
 77
     6
 78
     2
 67
     7
 79
     5
170
     0
171
     0
290
     0
174
     0
 93
        1
 44
0.0
173
     0
291
     1
 45
0.0
1001
ACAD
1000
AcDbSavedByObjectVersion
1070
     0
  0
VISUALSTYLE
  5
F0
102
{ACAD_REACTORS
330
EF
102
}
330
EF
100
AcDbVisualStyle
  2
Flat
 70
     0
 71
     2
 72
     1
 73
     1
 90
        2
 40
-0.6
 41
30.0
 62
     5
 63
     7
 74
     0
 91
        4
 64
     7
 65
   257
 75
     1
175
     1
 42
1.0
 92
        8
 66
     7
 43
1.0
 76
     1
 77
     6
 78
     2
 67
     7
 79
     5
170
     0
171
     0
290
     0
174
     0
 93
        1
 44
0.0
173
     0
291
     1
 45
0.0
1001
ACAD
1000
AcDbSavedByObjectVersion
1070
     0
  0
VISUALSTYLE
  5
F1
102
{ACAD_REACTORS
330
EF
102
}
330
EF
100
AcDbVisualStyle
  2
FlatWithEdges
 70
     1
 71
     2
 72
     1
 73
     1
 90
        2
 40
-0.6
 41
30.0
 62
     5
 63
     7
 74
     1
 91
        4
 64
     7
 65
   257
 75
     1
175
     1
 42
1.0
 92
        0
 66
   257
 43
1.0
 76
     1
 77
     6
 78
     2
 67
     7
 79
     5
170
     0
171
     0
290
     0
174
     0
 93
        1
 44
0.0
173
     0
291
     1
 45
0.0
1001
ACAD
1000
AcDbSavedByObjectVersion
1070
     0
  0
VISUALSTYLE
  5
F2
102
{ACAD_REACTORS
330
EF
102
}
330
EF
100
AcDbVisualStyle
  2
Gouraud
 70
     2
 71
     2
 72
     2
 73
     1
 90
        2
 40
-0.6
 41
30.0
 62
     5
 63
     7
 74
     0
 91
        4
 64
     7
 65
   257
 75
     1
175
     1
 42
1.0
 92
        0
 66
     7
 43
1.0
 76
     1
 77
     6
 78
     2
 67
     7
 79
     5
170
     0
171
     0
290
     0
174
     0
 93
        1
 44
0.0
173
     0
291
     1
 45
0.0
1001
ACAD
1000
AcDbSavedByObjectVersion
1070
     0
  0
VISUALSTYLE
  5
F3
102
{ACAD_REACTORS
330
EF
102
}
330
EF
100
AcDbVisualStyle
  2
GouraudWithEdges
 70
     3
 71
     2
 72
     2
 73
     1
 90
        2
 40
-0.6
 41
30.0
 62
     5
 63
     7
 74
     1
 91
        4
 64
     7
 65
   257
 75
     1
175
     1
 42
1.0
 92
        0
 66
   257
 43
1.0
 76
     1
 77
     6
 78
     2
 67
     7
 79
     5
170
     0
171
     0
290
     0
174
     0
 93
        1
 44
0.0
173
     0
291
     1
 45
0.0
1001
ACAD
1000
AcDbSavedByObjectVersion
1070
     0
  0
VISUALSTYLE
  5
FD
102
{ACAD_REACTORS
330
EF
102
}
330
EF
100
AcDbVisualStyle
  2
Linepattern
 70
    14
 71
     2
 72
     2
 73
     1
 90
        0
 40
-0.6
 41
-30.0
 62
     5
 63
     7
 74
     1
 91
        4
 64
     7
 65
   257
 75
     7
175
     7
 42
1.0
 92
        8
 66
     7
 43
1.0
 76
     1
 77
     6
 78
     2
 67
     7
 79
     5
170
     0
171
     0
290
     0
174
     0
 93
        1
 44
0.0
173
     0
291
     1
 45
0.0
1001
ACAD
1000
AcDbSavedByObjectVersion
1070
     0
  0
VISUALSTYLE
  5
F9
102
{ACAD_REACTORS
330
EF
102
}
330
EF
100
AcDbVisualStyle
  2
Realistic
 70
     8
 71
     2
 72
     2
 73
     1
 90
        0
 40
-0.6
 41
-30.0
 62
     5
 63
     7
 74
     1
 91
        0
 64
     7
 65
   257
 75
     1
175
     1
 42
1.0
 92
        8
 66
     8
 43
1.0
 76
     1
 77
     6
 78
     2
 67
     7
 79
     5
170
     0
171
     0
290
     0
174
     0
 93
       13
 44
0.0
173
     0
291
     0
 45
0.0
1001
ACAD
1000
AcDbSavedByObjectVersion
1070
     0
  0
VISUALSTYLE
  5
FC
102
{ACAD_REACTORS
330
EF
102
}
330
EF
100
AcDbVisualStyle
  2
Thicken
 70
    13
 71
     2
 72
     2
 73
     1
 90
        0
 40
-0.6
 41
-30.0
 62
     5
 63
     7
 74
     1
 91
        4
 64
     7
 65
   257
 75
     1
175
     1
 42
1.0
 92
       12
 66
     7
 43
1.0
 76
     1
 77
     6
 78
     2
 67
     7
 79
     5
170
     0
171
     0
290
     0
174
     0
 93
        1
 44
0.0
173
     0
291
     1
 45
0.0
1001
ACAD
1000
AcDbSavedByObjectVersion
1070
     0
  0
DICTIONARYVAR
  5
146
102
{ACAD_REACTORS
330
5E
102
}
330
5E
100
DictionaryVariables
280
     0
  1
1:1
  0
DICTIONARYVAR
  5
145
102
{ACAD_REACTORS
330
5E
102
}
330
5E
100
DictionaryVariables
280
     0
  1
STANDARD
  0
DICTIONARYVAR
  5
84
102
{ACAD_REACTORS
330
5E
102
}
330
5E
100
DictionaryVariables
280
     0
  1
STANDARD
  0
DICTIONARYVAR
  5
5F
102
{ACAD_REACTORS
330
5E
102
}
330
5E
100
DictionaryVariables
280
     0
  1
2
  0
DICTIONARYVAR
  5
63
102
{ACAD_REACTORS
330
5E
102
}
330
5E
100
DictionaryVariables
280
     0
  1
1
  0
DICTIONARYVAR
  5
30B5
102
{ACAD_REACTORS
330
5E
102
}
330
5E
100
DictionaryVariables
280
     0
  1
0
  0
DICTIONARYVAR
  5
30B3
102
{ACAD_REACTORS
330
5E
102
}
330
5E
100
DictionaryVariables
280
     0
  1
2
  0
DICTIONARYVAR
  5
30B2
102
{ACAD_REACTORS
330
5E
102
}
330
5E
100
DictionaryVariables
280
     0
  1
1
  0
DICTIONARYVAR
  5
4F1A
102
{ACAD_REACTORS
330
5E
102
}
330
5E
100
DictionaryVariables
280
     0
  1
80.000000
  0
DICTIONARYVAR
  5
4F19
102
{ACAD_REACTORS
330
5E
102
}
330
5E
100
DictionaryVariables
280
     0
  1
5.000000
  0
DICTIONARYVAR
  5
30B4
102
{ACAD_REACTORS
330
5E
102
}
330
5E
100
DictionaryVariables
280
     0
  1
127
  0
DICTIONARY
  5
4312
102
{ACAD_REACTORS
330
4311
102
}
330
4311
100
AcDbDictionary
281
     1
  0
DICTIONARY
  5
4F1F
330
D3
100
AcDbDictionary
280
     1
281
     1
  3
ACAD_XREC_ROUNDTRIP
360
4F20
  0
DICTIONARY
  5
4F21
330
D7
100
AcDbDictionary
280
     1
281
     1
  3
ACAD_XREC_ROUNDTRIP
360
4F22
  0
DICTIONARY
  5
4F1C
330
22
100
AcDbDictionary
280
     1
281
     1
  3
ACAD_XREC_ROUNDTRIP
360
4F1D
  0
DICTIONARY
  5
4F25
330
ED
100
AcDbDictionary
280
     1
281
     1
  3
ACAD_XREC_ROUNDTRIP
360
4F26
  0
DICTIONARY
  5
4F23
330
EC
100
AcDbDictionary
280
     1
281
     1
  3
ACAD_XREC_ROUNDTRIP
360
4F24
  0
DICTIONARY
  5
173
330
EE
100
AcDbDictionary
280
     1
281
     1
  3
ACAD_XREC_ROUNDTRIP
360
4F27
  3
BUMPTILE
360
175
  3
DIFFUSETILE
360
174
  3
OPACITYTILE
360
176
  3
REFLECTIONTILE
360
177
  0
DICTIONARY
  5
162
330
7F
100
AcDbDictionary
280
     1
281
     1
  3
ACAD_ROUNDTRIP_2008_TABLESTYLE_CELLSTYLEMAP
360
4E16
  3
ACAD_XREC_ROUNDTRIP
360
4F1E
  0
XRECORD
  5
4F20
102
{ACAD_REACTORS
330
4F1F
102
}
330
4F1F
100
AcDbXrecord
280
     1
102
SHADEPLOT
 70
     0
102
SHADEPLOTRESLEVEL
 70
     2
102
SHADEPLOTCUSTOMDPI
 70
   300
  0
XRECORD
  5
4F22
102
{ACAD_REACTORS
330
4F21
102
}
330
4F21
100
AcDbXrecord
280
     1
102
SHADEPLOT
 70
     0
102
SHADEPLOTRESLEVEL
 70
     2
102
SHADEPLOTCUSTOMDPI
 70
   300
  0
XRECORD
  5
4F1D
102
{ACAD_REACTORS
330
4F1C
102
}
330
4F1C
100
AcDbXrecord
280
     1
102
SHADEPLOT
 70
     0
102
SHADEPLOTRESLEVEL
 70
     2
102
SHADEPLOTCUSTOMDPI
 70
   300
  0
XRECORD
  5
4F26
102
{ACAD_REACTORS
330
4F25
102
}
330
4F25
100
AcDbXrecord
280
     1
102
MATERIAL
148
0.0
149
0.0
149
0.0
 93
        0
 94
       63
282
     0
 72
     1
 77
     1
171
     1
175
     1
179
     1
273
     0
  0
XRECORD
  5
4F24
102
{ACAD_REACTORS
330
4F23
102
}
330
4F23
100
AcDbXrecord
280
     1
102
MATERIAL
148
0.0
149
0.0
149
0.0
 93
        0
 94
       63
282
     0
 72
     1
 77
     1
171
     1
175
     1
179
     1
273
     0
  0
XRECORD
  5
4F27
102
{ACAD_REACTORS
330
173
102
}
330
173
100
AcDbXrecord
280
     1
102
MATERIAL
148
0.0
149
0.0
149
0.0
 93
        0
 94
       63
282
     0
 72
     1
 77
     1
171
     1
175
     1
179
     1
273
     0
  0
XRECORD
  5
175
102
{ACAD_REACTORS
330
173
102
}
330
173
100
AcDbXrecord
280
     1
270
     1
271
     1
  0
XRECORD
  5
174
102
{ACAD_REACTORS
330
173
102
}
330
173
100
AcDbXrecord
280
     1
270
     1
271
     1
  0
XRECORD
  5
176
102
{ACAD_REACTORS
330
173
102
}
330
173
100
AcDbXrecord
280
     1
270
     1
271
     1
  0
XRECORD
  5
177
102
{ACAD_REACTORS
330
173
102
}
330
173
100
AcDbXrecord
280
     1
270
     1
271
     1
  0
ACAD_PROXY_OBJECT
  5
4E16
102
{ACAD_REACTORS
330
162
102
}
330
162
100
AcDbProxyObject
 90
      499
 91
      509
 95
       23
 70
     0
 93
     5304
310
40D054060020000020000003200101A000080002A5058000000C10000000000000006101010000000000003E0FC000000000000F83F0000000000003E0FC000000000000F83F02B5E8DC0F42B1CFC0AD7A3703D0AC73F419019018000000C1003FBFFFFFE0000000000003C8FD029018000000C1003FBFFFFFE00000000000
310
03C8FD049018000000C1003FBFFFFFE0000000000003C8FD089018000000C1003FBFFFFFE0000000000003C8FD109018000000C1003FBFFFFFE0000000000003C8FD209018000000C1003FBFFFFFE0000000000003C8FD01405075F5449544C450041501A8000000C800406800020000A94160000003040000000000000012
310
40404000000000000F83F0000000000003E0FC000000000000F83F0000000000003E0FC0AD7A3703D0AC73F02B5E8DC0F42B1CFD0640640600000030400FEFFFFFF8000000000000F23F40A40600000030400FEFFFFFF8000000000000F23F41240600000030400FEFFFFFF8000000000000F23F42240600000030400FEFFF
310
FFF8000000000000F23F44240600000030400FEFFFFFF8000000000000F23F48240600000030400FEFFFFFF8000000000000F23F409014217D2115051115480105406A0000003200101A000080002A5028000000C10000000000000004901010000000000003E0FC000000000000F83F0000000000003E0FC000000000000F
310
83F02B5E8DC0F42B1CFC0AD7A3703D0AC73F419019018000000C1003FBFFFFFE0000000000003C8FD029018000000C1003FBFFFFFE0000000000003C8FD049018000000C1003FBFFFFFE0000000000003C8FD089018000000C1003FBFFFFFE0000000000003C8FD109018000000C1003FBFFFFFE0000000000003C8FD20901
310
8000000C1003FBFFFFFE0000000000003C8FD03409065F444154410000
340
11
340
14
340
14
340
14
340
14
340
14
340
14
340
11
340
14
340
14
340
14
340
14
340
14
340
14
340
11
340
14
340
14
340
14
340
14
340
14
340
14
 94
        0
1001
ACAD
1000
AcRTDxfName
1000
CELLSTYLEMAP
1000
AcRTDxfName
1000
CELLSTYLEMAP
  0
XRECORD
  5
4F1E
102
{ACAD_REACTORS
330
162
102
}
330
162
100
AcDbXrecord
280
     1
102
ACAD_ROUNDTRIP_PRE2007_TABLESTYLE
 90
      512
 91
        0
  1

 92
      512
 93
        0
  2

 94
      512
 95
        0
  3

  0
ENDSEC
  0
EOF
