  0
SECTION
  2
HEADER
  9
$ACADVER
  1
AC1015
  9
$ACADMAINTVER
 70
    20
  9
$DWGCODEPAGE
  3
ANSI_1250
  9
$INSBASE
 10
0.0
 20
0.0
 30
0.0
  9
$EXTMIN
 10
-0.0050982220222977
 20
-0.004528679247187
 30
-0.0000000000112498
  9
$EXTMAX
 10
334.3568769852378
 20
297.0045328285427
 30
0.0000000000002956
  9
$LIMMIN
 10
0.0
 20
0.0
  9
$LIMMAX
 10
334.35177409209
 20
297.0
  9
$ORTHOMODE
 70
     0
  9
$REGENMODE
 70
     1
  9
$FILLMODE
 70
     1
  9
$QTEXTMODE
 70
     0
  9
$MIRRTEXT
 70
     0
  9
$LTSCALE
 40
1.0
  9
$ATTMODE
 70
     2
  9
$TEXTSIZE
 40
2.5
  9
$TRACEWID
 40
1.0
  9
$TEXTSTYLE
  7
Standard
  9
$CLAYER
  8
SOLBET_Bloczki
  9
$CELTYPE
  6
ByLayer
  9
$CECOLOR
 62
   256
  9
$CELTSCALE
 40
1.0
  9
$DISPSILH
 70
     0
  9
$DIMSCALE
 40
1.0
  9
$DIMASZ
 40
2.5
  9
$DIMEXO
 40
0.0
  9
$DIMDLI
 40
3.75
  9
$DIMRND
 40
0.0
  9
$DIMDLE
 40
0.0
  9
$DIMEXE
 40
1.25
  9
$DIMTP
 40
0.0
  9
$DIMTM
 40
0.0
  9
$DIMTXT
 40
2.5
  9
$DIMCEN
 40
2.5
  9
$DIMTSZ
 40
0.0
  9
$DIMTOL
 70
     0
  9
$DIMLIM
 70
     0
  9
$DIMTIH
 70
     0
  9
$DIMTOH
 70
     0
  9
$DIMSE1
 70
     0
  9
$DIMSE2
 70
     0
  9
$DIMTAD
 70
     1
  9
$DIMZIN
 70
     8
  9
$DIMBLK
  1

  9
$DIMASO
 70
     1
  9
$DIMSHO
 70
     1
  9
$DIMPOST
  1

  9
$DIMAPOST
  1

  9
$DIMALT
 70
     0
  9
$DIMALTD
 70
     3
  9
$DIMALTF
 40
0.03937007874016
  9
$DIMLFAC
 40
1.0
  9
$DIMTOFL
 70
     1
  9
$DIMTVP
 40
0.0
  9
$DIMTIX
 70
     0
  9
$DIMSOXD
 70
     0
  9
$DIMSAH
 70
     0
  9
$DIMBLK1
  1

  9
$DIMBLK2
  1

  9
$DIMSTYLE
  2
Solbet
  9
$DIMCLRD
 70
     0
  9
$DIMCLRE
 70
     0
  9
$DIMCLRT
 70
     0
  9
$DIMTFAC
 40
1.0
  9
$DIMGAP
 40
0.625
  9
$DIMJUST
 70
     0
  9
$DIMSD1
 70
     0
  9
$DIMSD2
 70
     0
  9
$DIMTOLJ
 70
     0
  9
$DIMTZIN
 70
     8
  9
$DIMALTZ
 70
     0
  9
$DIMALTTZ
 70
     0
  9
$DIMUPT
 70
     0
  9
$DIMDEC
 70
     2
  9
$DIMTDEC
 70
     2
  9
$DIMALTU
 70
     2
  9
$DIMALTTD
 70
     3
  9
$DIMTXSTY
  7
Solbet_2_5
  9
$DIMAUNIT
 70
     0
  9
$DIMADEC
 70
     0
  9
$DIMALTRND
 40
0.0
  9
$DIMAZIN
 70
     0
  9
$DIMDSEP
 70
    44
  9
$DIMATFIT
 70
     3
  9
$DIMFRAC
 70
     0
  9
$DIMLDRBLK
  1

  9
$DIMLUNIT
 70
     2
  9
$DIMLWD
 70
    -2
  9
$DIMLWE
 70
    -2
  9
$DIMTMOVE
 70
     0
  9
$LUNITS
 70
     2
  9
$LUPREC
 70
     4
  9
$SKETCHINC
 40
1.0
  9
$FILLETRAD
 40
0.0
  9
$AUNITS
 70
     0
  9
$AUPREC
 70
     0
  9
$MENU
  1
.
  9
$ELEVATION
 40
0.0
  9
$PELEVATION
 40
0.0
  9
$THICKNESS
 40
0.0
  9
$LIMCHECK
 70
     0
  9
$CHAMFERA
 40
0.0
  9
$CHAMFERB
 40
0.0
  9
$CHAMFERC
 40
0.0
  9
$CHAMFERD
 40
0.0
  9
$SKPOLY
 70
     0
  9
$TDCREATE
 40
2454690.075573148
  9
$TDUCREATE
 40
2454690.033906482
  9
$TDUPDATE
 40
2454848.836904028
  9
$TDUUPDATE
 40
2454848.795237361
  9
$TDINDWG
 40
0.8013241088
  9
$TDUSRTIMER
 40
0.8013195833
  9
$USRTIMER
 70
     1
  9
$ANGBASE
 50
0.0
  9
$ANGDIR
 70
     0
  9
$PDMODE
 70
     0
  9
$PDSIZE
 40
0.0
  9
$PLINEWID
 40
0.0
  9
$SPLFRAME
 70
     0
  9
$SPLINETYPE
 70
     6
  9
$SPLINESEGS
 70
     8
  9
$HANDSEED
  5
6BC6
  9
$SURFTAB1
 70
     6
  9
$SURFTAB2
 70
     6
  9
$SURFTYPE
 70
     6
  9
$SURFU
 70
     6
  9
$SURFV
 70
     6
  9
$UCSBASE
  2

  9
$UCSNAME
  2

  9
$UCSORG
 10
0.0
 20
0.0
 30
0.0
  9
$UCSXDIR
 10
1.0
 20
0.0
 30
0.0
  9
$UCSYDIR
 10
0.0
 20
1.0
 30
0.0
  9
$UCSORTHOREF
  2

  9
$UCSORTHOVIEW
 70
     0
  9
$UCSORGTOP
 10
0.0
 20
0.0
 30
0.0
  9
$UCSORGBOTTOM
 10
0.0
 20
0.0
 30
0.0
  9
$UCSORGLEFT
 10
0.0
 20
0.0
 30
0.0
  9
$UCSORGRIGHT
 10
0.0
 20
0.0
 30
0.0
  9
$UCSORGFRONT
 10
0.0
 20
0.0
 30
0.0
  9
$UCSORGBACK
 10
0.0
 20
0.0
 30
0.0
  9
$PUCSBASE
  2

  9
$PUCSNAME
  2

  9
$PUCSORG
 10
0.0
 20
0.0
 30
0.0
  9
$PUCSXDIR
 10
1.0
 20
0.0
 30
0.0
  9
$PUCSYDIR
 10
0.0
 20
1.0
 30
0.0
  9
$PUCSORTHOREF
  2

  9
$PUCSORTHOVIEW
 70
     0
  9
$PUCSORGTOP
 10
0.0
 20
0.0
 30
0.0
  9
$PUCSORGBOTTOM
 10
0.0
 20
0.0
 30
0.0
  9
$PUCSORGLEFT
 10
0.0
 20
0.0
 30
0.0
  9
$PUCSORGRIGHT
 10
0.0
 20
0.0
 30
0.0
  9
$PUCSORGFRONT
 10
0.0
 20
0.0
 30
0.0
  9
$PUCSORGBACK
 10
0.0
 20
0.0
 30
0.0
  9
$USERI1
 70
     0
  9
$USERI2
 70
     0
  9
$USERI3
 70
     0
  9
$USERI4
 70
     0
  9
$USERI5
 70
     0
  9
$USERR1
 40
0.0
  9
$USERR2
 40
0.0
  9
$USERR3
 40
0.0
  9
$USERR4
 40
0.0
  9
$USERR5
 40
0.0
  9
$WORLDVIEW
 70
     1
  9
$SHADEDGE
 70
     3
  9
$SHADEDIF
 70
    70
  9
$TILEMODE
 70
     1
  9
$MAXACTVP
 70
    64
  9
$PINSBASE
 10
0.0
 20
0.0
 30
0.0
  9
$PLIMCHECK
 70
     0
  9
$PEXTMIN
 10
0.0
 20
0.0
 30
0.0
  9
$PEXTMAX
 10
0.0
 20
0.0
 30
0.0
  9
$PLIMMIN
 10
0.0
 20
0.0
  9
$PLIMMAX
 10
12.0
 20
9.0
  9
$UNITMODE
 70
     0
  9
$VISRETAIN
 70
     1
  9
$PLINEGEN
 70
     0
  9
$PSLTSCALE
 70
     1
  9
$TREEDEPTH
 70
  3020
  9
$CMLSTYLE
  2
SOLBET_IZOLACJA
  9
$CMLJUST
 70
     0
  9
$CMLSCALE
 40
20.0
  9
$PROXYGRAPHICS
 70
     1
  9
$MEASUREMENT
 70
     1
  9
$CELWEIGHT
370
    -1
  9
$ENDCAPS
280
     0
  9
$JOINSTYLE
280
     0
  9
$LWDISPLAY
290
     1
  9
$INSUNITS
 70
     4
  9
$HYPERLINKBASE
  1

  9
$STYLESHEET
  1

  9
$XEDIT
290
     1
  9
$CEPSNTYPE
380
     0
  9
$PSTYLEMODE
290
     1
  9
$FINGERPRINTGUID
  2
{6B12AB33-8E39-428E-8E85-461C8D99A3CB}
  9
$VERSIONGUID
  2
{5232F607-20DF-4BA9-B7DC-6651ECBDFD7F}
  9
$EXTNAMES
290
     1
  9
$PSVPSCALE
 40
0.0
  9
$OLESTARTUP
290
     0
  0
ENDSEC
  0
SECTION
  2
CLASSES
  0
CLASS
  1
ACDBDICTIONARYWDFLT
  2
AcDbDictionaryWithDefault
  3
ObjectDBX Classes
 90
        0
280
     0
281
     0
  0
CLASS
  1
ACDBPLACEHOLDER
  2
AcDbPlaceHolder
  3
ObjectDBX Classes
 90
        0
280
     0
281
     0
  0
CLASS
  1
LAYOUT
  2
AcDbLayout
  3
ObjectDBX Classes
 90
        0
280
     0
281
     0
  0
CLASS
  1
DICTIONARYVAR
  2
AcDbDictionaryVar
  3
ObjectDBX Classes
 90
        0
280
     0
281
     0
  0
CLASS
  1
TABLESTYLE
  2
AcDbTableStyle
  3
ObjectDBX Classes
 90
     4095
280
     0
281
     0
  0
CLASS
  1
MATERIAL
  2
AcDbMaterial
  3
ObjectDBX Classes
 90
     1024
280
     0
281
     0
  0
CLASS
  1
VISUALSTYLE
  2
AcDbVisualStyle
  3
ObjectDBX Classes
 90
     4095
280
     0
281
     0
  0
CLASS
  1
SCALE
  2
AcDbScale
  3
ObjectDBX Classes
 90
     1153
280
     0
281
     0
  0
CLASS
  1
MLEADERSTYLE
  2
AcDbMLeaderStyle
  3
ACDB_MLEADERSTYLE_CLASS
 90
     4095
280
     0
281
     0
  0
CLASS
  1
CELLSTYLEMAP
  2
AcDbCellStyleMap
  3
ObjectDBX Classes
 90
     1152
280
     0
281
     0
  0
CLASS
  1
DIMASSOC
  2
AcDbDimAssoc
  3
"AcDbDimAssoc|Product Desc:     AcDim ARX App For Dimension|Company:          Autodesk, Inc.|WEB Address:      www.autodesk.com"
 90
    32768
280
     0
281
     0
  0
CLASS
  1
SORTENTSTABLE
  2
AcDbSortentsTable
  3
ObjectDBX Classes
 90
        0
280
     0
281
     0
  0
CLASS
  1
MULTILEADER
  2
AcDbMLeader
  3
ACDB_MLEADER_CLASS
 90
    33793
280
     0
281
     1
  0
CLASS
  1
ACDB_MTEXTOBJECTCONTEXTDATA_CLASS
  2
AcDbMTextObjectContextData
  3
ObjectDBX Classes
 90
    33921
280
     0
281
     0
  0
CLASS
  1
PLOTSETTINGS
  2
AcDbPlotSettings
  3
ObjectDBX Classes
 90
        0
280
     0
281
     0
  0
ENDSEC
  0
SECTION
  2
TABLES
  0
TABLE
  2
VPORT
  5
8
102
{ACAD_XDICTIONARY
360
443
102
}
330
0
100
AcDbSymbolTable
 70
     1
  0
VPORT
  5
EA
330
8
100
AcDbSymbolTableRecord
100
AcDbViewportTableRecord
  2
*Active
 70
     0
 10
0.0
 20
0.0
 11
1.0
 21
1.0
 12
167.1758893816077
 22
148.5000020746477
 13
0.0
 23
0.0
 14
10.0
 24
10.0
 15
10.0
 25
10.0
 16
0.0
 26
0.0
 36
1.0
 17
0.0
 27
0.0
 37
0.0
 40
300.3091621912098
 41
1.74582560296846
 42
50.0
 43
0.0
 44
0.0
 50
0.0
 51
0.0
 71
     0
 72
  1000
 73
     1
 74
     3
 75
     0
 76
     0
 77
     0
 78
     0
281
     0
 65
     1
110
0.0
120
0.0
130
0.0
111
1.0
121
0.0
131
0.0
112
0.0
122
1.0
132
0.0
 79
     0
146
0.0
  0
ENDTAB
  0
TABLE
  2
LTYPE
  5
5
330
0
100
AcDbSymbolTable
 70
     3
  0
LTYPE
  5
14
330
5
100
AcDbSymbolTableRecord
100
AcDbLinetypeTableRecord
  2
ByBlock
 70
     0
  3

 72
    65
 73
     0
 40
0.0
  0
LTYPE
  5
15
330
5
100
AcDbSymbolTableRecord
100
AcDbLinetypeTableRecord
  2
ByLayer
 70
     0
  3

 72
    65
 73
     0
 40
0.0
  0
LTYPE
  5
16
330
5
100
AcDbSymbolTableRecord
100
AcDbLinetypeTableRecord
  2
Continuous
 70
     0
  3
Solid line
 72
    65
 73
     0
 40
0.0
  0
LTYPE
  5
973
330
5
100
AcDbSymbolTableRecord
100
AcDbLinetypeTableRecord
  2
DASHED2
 70
     0
  3
Dashed (.5x) _ _ _ _ _ _ _ _ _ _ _ _ _ _ _ _ _
 72
    65
 73
     2
 40
9.524999999999998
 49
6.349999999999999
 74
     0
 49
-3.174999999999999
 74
     0
  0
LTYPE
  5
982
330
5
100
AcDbSymbolTableRecord
100
AcDbLinetypeTableRecord
  2
BATTING
 70
     0
  3
Batting SSSSSSSSSSSSSSSSSSSSSSSSSSSSSSSSSSSSSSSSSSSSSSS
 72
    65
 73
     4
 40
10.16254
 49
0.00254
 74
     0
 49
-2.54
 74
     4
 75
   134
340
7E7
 46
2.54
 50
0.0
 44
-2.54
 45
0.0
 49
-5.08
 74
     4
 75
   134
340
7E7
 46
2.54
 50
180.0
 44
2.54
 45
0.0
 49
-2.54
 74
     0
  0
ENDTAB
  0
TABLE
  2
LAYER
  5
2
102
{ACAD_XDICTIONARY
360
3E5
102
}
330
0
100
AcDbSymbolTable
 70
    12
  0
LAYER
  5
10
102
{ACAD_XDICTIONARY
360
13C
102
}
330
2
100
AcDbSymbolTableRecord
100
AcDbLayerTableRecord
  2
0
 70
     0
 62
     7
  6
Continuous
370
    -3
390
F
  0
LAYER
  5
2BB
330
2
100
AcDbSymbolTableRecord
100
AcDbLayerTableRecord
  2
DEFPOINTS
 70
     0
 62
     7
  6
Continuous
290
     0
370
    -3
390
F
  0
LAYER
  5
3DD
102
{ACAD_XDICTIONARY
360
403
102
}
330
2
100
AcDbSymbolTableRecord
100
AcDbLayerTableRecord
  2
SOLBET_Bloczki
 70
     0
 62
   140
  6
Continuous
370
    -3
390
F
1001
AcAecLayerStandard
1000

1000

  0
LAYER
  5
3DF
102
{ACAD_XDICTIONARY
360
405
102
}
330
2
100
AcDbSymbolTableRecord
100
AcDbLayerTableRecord
  2
SOLBET_Wymiary_Opisy
 70
     0
 62
     1
  6
Continuous
370
    -3
390
F
1001
AcAecLayerStandard
1000

1000

  0
LAYER
  5
3E0
102
{ACAD_XDICTIONARY
360
407
102
}
330
2
100
AcDbSymbolTableRecord
100
AcDbLayerTableRecord
  2
SOLBET_Beton
 70
     0
 62
     9
  6
Continuous
370
    -3
390
F
1001
AcAecLayerStandard
1000

1000

  0
LAYER
  5
3E1
102
{ACAD_XDICTIONARY
360
409
102
}
330
2
100
AcDbSymbolTableRecord
100
AcDbLayerTableRecord
  2
SOLBET_Izolacja
 70
     0
 62
    40
  6
Continuous
370
    -3
390
F
1001
AcAecLayerStandard
1000

1000

  0
LAYER
  5
3E2
102
{ACAD_XDICTIONARY
360
40B
102
}
330
2
100
AcDbSymbolTableRecord
100
AcDbLayerTableRecord
  2
SOLBET_Zbrojenie_Konstrukcja
 70
     0
 62
     7
  6
Continuous
370
    -3
390
F
1001
AcAecLayerStandard
1000

1000

  0
LAYER
  5
3E3
102
{ACAD_XDICTIONARY
360
40D
102
}
330
2
100
AcDbSymbolTableRecord
100
AcDbLayerTableRecord
  2
SOLBET_Grunt
 70
     0
 62
    42
  6
Continuous
370
    -3
390
F
1001
AcAecLayerStandard
1000

1000

  0
LAYER
  5
3E4
102
{ACAD_XDICTIONARY
360
40F
102
}
330
2
100
AcDbSymbolTableRecord
100
AcDbLayerTableRecord
  2
SOLBET_Tynki_Posadzki
 70
     0
 62
     3
  6
Continuous
370
    -3
390
F
1001
AcAecLayerStandard
1000

1000

  0
LAYER
  5
3E8
102
{ACAD_XDICTIONARY
360
411
102
}
330
2
100
AcDbSymbolTableRecord
100
AcDbLayerTableRecord
  2
SOLBET_Ramka_05
 70
     0
 62
     2
  6
Continuous
370
    -3
390
F
1001
AcAecLayerStandard
1000

1000

  0
LAYER
  5
472
330
2
100
AcDbSymbolTableRecord
100
AcDbLayerTableRecord
  2
SOLBET_Zaprawy
 70
     0
 62
     4
  6
Continuous
370
    -3
390
F
1001
AcAecLayerStandard
1000

1000

  0
LAYER
  5
4E2
330
2
100
AcDbSymbolTableRecord
100
AcDbLayerTableRecord
  2
SOLBET_Emulsje_Folie
 70
     0
 62
     6
  6
Continuous
370
    -3
390
F
1001
AcAecLayerStandard
1000

1000

  0
ENDTAB
  0
TABLE
  2
STYLE
  5
3
330
0
100
AcDbSymbolTable
 70
     5
  0
STYLE
  5
11
330
3
100
AcDbSymbolTableRecord
100
AcDbTextStyleTableRecord
  2
Standard
 70
     0
 40
0.0
 41
1.0
 50
0.0
 71
     0
 42
2.5
  3
txt.shx
  4

  0
STYLE
  5
7D7
330
3
100
AcDbSymbolTableRecord
100
AcDbTextStyleTableRecord
  2
Solbet_5
 70
     0
 40
5.0
 41
1.0
 50
0.0
 71
     0
 42
5.0
  3
isocpeur.ttf
  4

1001
ACAD
1000
ISOCPEUR
1071
       34
  0
STYLE
  5
7D9
330
3
100
AcDbSymbolTableRecord
100
AcDbTextStyleTableRecord
  2
Solbet_2_5
 70
     0
 40
2.5
 41
1.0
 50
0.0
 71
     0
 42
2.5
  3
isocpeur.ttf
  4

1001
ACAD
1000
ISOCPEUR
1071
       34
  0
STYLE
  5
7E7
330
3
100
AcDbSymbolTableRecord
100
AcDbTextStyleTableRecord
  2

 70
     1
 40
0.0
 41
1.0
 50
0.0
 71
     0
 42
2.5
  3
ltypeshp.shx
  4

  0
STYLE
  5
2A72
330
3
100
AcDbSymbolTableRecord
100
AcDbTextStyleTableRecord
  2
Solbet_1
 70
     0
 40
1.0
 41
1.0
 50
0.0
 71
     0
 42
2.5
  3
isocpeur.ttf
  4

1001
ACAD
1000
ISOCPEUR
1071
       34
  0
ENDTAB
  0
TABLE
  2
VIEW
  5
6
330
0
100
AcDbSymbolTable
 70
     0
  0
ENDTAB
  0
TABLE
  2
UCS
  5
7
330
0
100
AcDbSymbolTable
 70
     0
  0
ENDTAB
  0
TABLE
  2
APPID
  5
9
330
0
100
AcDbSymbolTable
 70
    13
  0
APPID
  5
12
330
9
100
AcDbSymbolTableRecord
100
AcDbRegAppTableRecord
  2
ACAD
 70
     0
  0
APPID
  5
9E
330
9
100
AcDbSymbolTableRecord
100
AcDbRegAppTableRecord
  2
ACAD_PSEXT
 70
     0
  0
APPID
  5
133
330
9
100
AcDbSymbolTableRecord
100
AcDbRegAppTableRecord
  2
AcadAnnoPO
 70
     0
  0
APPID
  5
134
330
9
100
AcDbSymbolTableRecord
100
AcDbRegAppTableRecord
  2
AcadAnnotative
 70
     0
  0
APPID
  5
135
330
9
100
AcDbSymbolTableRecord
100
AcDbRegAppTableRecord
  2
ACAD_DSTYLE_DIMJAG
 70
     0
  0
APPID
  5
136
330
9
100
AcDbSymbolTableRecord
100
AcDbRegAppTableRecord
  2
ACAD_DSTYLE_DIMTALN
 70
     0
  0
APPID
  5
165
330
9
100
AcDbSymbolTableRecord
100
AcDbRegAppTableRecord
  2
ACAD_MLEADERVER
 70
     0
  0
APPID
  5
2C4
330
9
100
AcDbSymbolTableRecord
100
AcDbRegAppTableRecord
  2
ASO_SCHRAFF
 70
     0
  0
APPID
  5
3DE
330
9
100
AcDbSymbolTableRecord
100
AcDbRegAppTableRecord
  2
AcAecLayerStandard
 70
     0
  0
APPID
  5
7DE
330
9
100
AcDbSymbolTableRecord
100
AcDbRegAppTableRecord
  2
ACAD_EXEMPT_FROM_CAD_STANDARDS
 70
     0
  0
APPID
  5
948
330
9
100
AcDbSymbolTableRecord
100
AcDbRegAppTableRecord
  2
ACAD_DSTYLE_DIMBREAK
 70
     0
  0
APPID
  5
1D0A
330
9
100
AcDbSymbolTableRecord
100
AcDbRegAppTableRecord
  2
AcadAnnotativeDecomposition
 70
     0
  0
APPID
  5
2A73
330
9
100
AcDbSymbolTableRecord
100
AcDbRegAppTableRecord
  2
AcDbAttr
 70
     0
  0
ENDTAB
  0
TABLE
  2
DIMSTYLE
  5
A
330
0
100
AcDbSymbolTable
 70
     3
100
AcDbDimStyleTable
 71
     1
340
949
  0
DIMSTYLE
105
4DDB
330
A
100
AcDbSymbolTableRecord
100
AcDbDimStyleTableRecord
  2
Standard
 70
     0
340
11
  0
DIMSTYLE
105
949
102
{ACAD_REACTORS
330
5D92
330
65DA
102
}
330
A
100
AcDbSymbolTableRecord
100
AcDbDimStyleTableRecord
  2
Solbet
 70
     0
 41
2.5
 42
0.0
 43
3.75
 44
1.25
 73
     0
 74
     0
 77
     1
 78
     8
140
2.5
141
2.5
143
0.03937007874016
147
0.625
171
     3
172
     1
271
     2
272
     2
274
     3
278
    44
283
     0
284
     8
340
7D9
1001
ACAD_DSTYLE_DIMBREAK
1070
   391
1040
3.75
1001
ACAD_DSTYLE_DIMJAG
1070
   388
1040
1.5
1001
ACAD_DSTYLE_DIMTALN
1070
   392
1070
     0
  0
DIMSTYLE
105
954
330
A
100
AcDbSymbolTableRecord
100
AcDbDimStyleTableRecord
  2
Solbet$7
 70
     0
 41
2.5
 42
0.0
 43
3.75
 44
1.25
 73
     0
 74
     0
 77
     1
 78
     8
140
2.5
141
2.5
143
0.03937007874016
147
0.625
171
     3
172
     1
271
     2
272
     2
274
     3
278
    44
283
     0
284
     8
340
7D9
341
958
1001
ACAD_DSTYLE_DIMBREAK
1070
   391
1040
3.75
1001
ACAD_DSTYLE_DIMJAG
1070
   388
1040
1.5
1001
ACAD_DSTYLE_DIMTALN
1070
   392
1070
     0
  0
ENDTAB
  0
TABLE
  2
BLOCK_RECORD
  5
1
330
0
100
AcDbSymbolTable
 70
    12
  0
BLOCK_RECORD
  5
1F
102
{ACAD_XDICTIONARY
360
4A3
102
}
330
1
100
AcDbSymbolTableRecord
100
AcDbBlockTableRecord
  2
*Model_Space
340
22
  0
BLOCK_RECORD
  5
D2
330
1
100
AcDbSymbolTableRecord
100
AcDbBlockTableRecord
  2
*Paper_Space
340
D3
  0
BLOCK_RECORD
  5
D6
330
1
100
AcDbSymbolTableRecord
100
AcDbBlockTableRecord
  2
*Paper_Space0
340
D7
  0
BLOCK_RECORD
  5
958
330
1
100
AcDbSymbolTableRecord
100
AcDbBlockTableRecord
  2
_DotSmall
340
0
102
{BLKREFS
331
6453
331
6456
331
65DB
102
}
  0
BLOCK_RECORD
  5
1EF2
330
1
100
AcDbSymbolTableRecord
100
AcDbBlockTableRecord
  2
_None
340
0
  0
BLOCK_RECORD
  5
2A74
102
{ACAD_XDICTIONARY
360
2A80
102
}
330
1
100
AcDbSymbolTableRecord
100
AcDbBlockTableRecord
  2
SOLBET_Bloczek_Ideal_420x240x590_P+W_PRA
340
0
1001
ACAD
1000
DesignCenter Data
1002
{
1070
     1
1070
     4
1002
}
  0
BLOCK_RECORD
  5
2AB5
102
{ACAD_XDICTIONARY
360
2ABF
102
}
330
1
100
AcDbSymbolTableRecord
100
AcDbBlockTableRecord
  2
SOLBET_Plytka_60x240x590_brak_PRA
340
0
102
{BLKREFS
331
5911
102
}
1001
ACAD
1000
DesignCenter Data
1002
{
1070
     1
1070
     4
1002
}
  0
BLOCK_RECORD
  5
2B3C
102
{ACAD_XDICTIONARY
360
2B47
102
}
330
1
100
AcDbSymbolTableRecord
100
AcDbBlockTableRecord
  2
SOLBET_Bloczek_OPTIMAL_300x240x590_brak_PRA
340
0
1001
ACAD
1000
DesignCenter Data
1002
{
1070
     1
1070
     4
1002
}
  0
BLOCK_RECORD
  5
5D94
330
1
100
AcDbSymbolTableRecord
100
AcDbBlockTableRecord
  2
*D6
340
0
  0
BLOCK_RECORD
  5
65E0
330
1
100
AcDbSymbolTableRecord
100
AcDbBlockTableRecord
  2
*D7
340
0
  0
BLOCK_RECORD
  5
6A8E
102
{ACAD_XDICTIONARY
360
6A9A
102
}
330
1
100
AcDbSymbolTableRecord
100
AcDbBlockTableRecord
  2
SOLBET_Bloczek_Ideal_420x240x590_P+W_KG400_GOR
340
0
1001
ACAD
1000
DesignCenter Data
1002
{
1070
     1
1070
     4
1002
}
  0
BLOCK_RECORD
  5
6A9E
102
{ACAD_XDICTIONARY
360
6AAA
102
}
330
1
100
AcDbSymbolTableRecord
100
AcDbBlockTableRecord
  2
SOLBET_Bloczek_Ideal_420x240x590_P+W_KG400_PRA
340
0
102
{BLKREFS
331
6AAE
331
6AAF
331
6AB0
102
}
1001
ACAD
1000
DesignCenter Data
1002
{
1070
     1
1070
     4
1002
}
  0
BLOCK_RECORD
  5
6AB1
102
{ACAD_XDICTIONARY
360
6ABD
102
}
330
1
100
AcDbSymbolTableRecord
100
AcDbBlockTableRecord
  2
SOLBET_Bloczek_Optimal_300x240x590_P+W_KG400_PRA
340
0
102
{BLKREFS
331
6AC1
331
6AC2
331
6AC3
331
6AC4
331
6AC5
102
}
1001
ACAD
1000
DesignCenter Data
1002
{
1070
     1
1070
     4
1002
}
  0
ENDTAB
  0
ENDSEC
  0
SECTION
  2
BLOCKS
  0
BLOCK
  5
20
330
1F
100
AcDbEntity
  8
0
100
AcDbBlockBegin
  2
*Model_Space
 70
     0
 10
0.0
 20
0.0
 30
0.0
  3
*Model_Space
  1

  0
ENDBLK
  5
21
330
1F
100
AcDbEntity
  8
0
100
AcDbBlockEnd
  0
BLOCK
  5
D4
330
D2
100
AcDbEntity
 67
     1
  8
0
100
AcDbBlockBegin
  2
*Paper_Space
 70
     0
 10
0.0
 20
0.0
 30
0.0
  3
*Paper_Space
  1

  0
ENDBLK
  5
D5
330
D2
100
AcDbEntity
 67
     1
  8
0
100
AcDbBlockEnd
  0
BLOCK
  5
D8
330
D6
100
AcDbEntity
 67
     1
  8
0
100
AcDbBlockBegin
  2
*Paper_Space0
 70
     0
 10
0.0
 20
0.0
 30
0.0
  3
*Paper_Space0
  1

  0
ENDBLK
  5
D9
330
D6
100
AcDbEntity
 67
     1
  8
0
100
AcDbBlockEnd
  0
BLOCK
  5
95A
330
958
100
AcDbEntity
  8
0
100
AcDbBlockBegin
  2
_DotSmall
 70
     0
 10
0.0
 20
0.0
 30
0.0
  3
_DotSmall
  1

  0
LWPOLYLINE
  5
959
330
958
100
AcDbEntity
  8
0
  6
ByBlock
 62
     0
100
AcDbPolyline
 90
        2
 70
     1
 43
0.5
 10
-0.0625
 20
0.0
 42
1.0
 10
0.0625
 20
0.0
 42
1.0
  0
ENDBLK
  5
95B
330
958
100
AcDbEntity
  8
0
100
AcDbBlockEnd
  0
BLOCK
  5
1EF3
330
1EF2
100
AcDbEntity
  8
0
100
AcDbBlockBegin
  2
_None
 70
     0
 10
0.0
 20
0.0
 30
0.0
  3
_None
  1

  0
ENDBLK
  5
1EF4
330
1EF2
100
AcDbEntity
  8
0
100
AcDbBlockEnd
  0
BLOCK
  5
2A82
330
2A74
100
AcDbEntity
  8
0
100
AcDbBlockBegin
  2
SOLBET_Bloczek_Ideal_420x240x590_P+W_PRA
 70
     2
 10
0.0
 20
0.0
 30
0.0
  3
SOLBET_Bloczek_Ideal_420x240x590_P+W_PRA
  1

  0
ATTDEF
  5
2A75
330
2A74
100
AcDbEntity
  8
SOLBET_Wymiary_Opisy
100
AcDbText
 10
-0.0000000703746536
 20
6.303237281370451
 30
0.0
 40
0.9913121336814832
  1
420x240x590
  7
Solbet_1
100
AcDbAttributeDefinition
  3

  2
WYMIARY
 70
     3
1001
AcDbAttr
1070
     0
1070
     1
  0
ATTDEF
  5
2A76
330
2A74
100
AcDbEntity
  8
SOLBET_Wymiary_Opisy
100
AcDbText
 10
-0.0000000703746536
 20
4.790717873654354
 30
0.0
 40
0.9913121336814832
  1
400
  7
Solbet_1
100
AcDbAttributeDefinition
  3

  2
KLASA_GĘSTOŚCI
 70
     9
1001
AcDbAttr
1070
     0
1070
     1
  0
ATTDEF
  5
2A77
330
2A74
100
AcDbEntity
  8
SOLBET_Wymiary_Opisy
100
AcDbText
 10
-0.0000000703746536
 20
3.269569038442127
 30
0.0
 40
0.9913121336814832
  1
Pióra+Wpusty
  7
Solbet_1
100
AcDbAttributeDefinition
  3

  2
PROFILOWANIE
 70
     3
1001
AcDbAttr
1070
     0
1070
     1
  0
ATTDEF
  5
2A78
330
2A74
100
AcDbEntity
  8
SOLBET_Wymiary_Opisy
100
AcDbText
 10
-0.0000000703746536
 20
0.2448646291013483
 30
0.0
 40
0.9913121336814832
  1
SOLBET
  7
Solbet_1
100
AcDbAttributeDefinition
  3

  2
FIRMA
 70
     3
1001
AcDbAttr
1070
     0
1070
     1
  0
ATTDEF
  5
2A79
330
2A74
100
AcDbEntity
  8
SOLBET_Wymiary_Opisy
100
AcDbText
 10
-0.0000000703746536
 20
9.333547279718283
 30
0.0
 40
0.9913121336814832
  1
Bloczek
  7
Solbet_1
100
AcDbAttributeDefinition
  3
Nazwa
  2
NAZWA
 70
     3
1001
AcDbAttr
1070
     0
1070
     1
  0
ATTDEF
  5
2A7A
330
2A74
100
AcDbEntity
  8
SOLBET_Wymiary_Opisy
100
AcDbText
 10
-0.0000000703746536
 20
7.794499099484078
 30
0.0
 40
0.9913121336814832
  1
SOLBET IDEAL
  7
Solbet_1
100
AcDbAttributeDefinition
  3

  2
SYSTEM
 70
     3
1001
AcDbAttr
1070
     0
1070
     1
  0
ATTDEF
  5
2A7B
330
2A74
100
AcDbEntity
  8
SOLBET_Wymiary_Opisy
100
AcDbText
 10
-0.0000000703746536
 20
1.74418138862846
 30
0.0
 40
0.9913121336814832
  1
Prawo
  7
Solbet_1
100
AcDbAttributeDefinition
  3

  2
WIDOK
 70
    11
1001
AcDbAttr
1070
     0
1070
     1
  0
LINE
  5
2A7C
330
2A74
100
AcDbEntity
  8
SOLBET_Bloczki
100
AcDbLine
 10
21.00000014074931
 20
12.00000020414847
 30
0.0
 11
21.00000014074931
 21
0.000000204148364
 31
0.0
  0
LINE
  5
2A7D
330
2A74
100
AcDbEntity
  8
SOLBET_Bloczki
100
AcDbLine
 10
21.00000014074931
 20
12.00000020414847
 30
0.0
 11
0.0000001407493072
 21
12.00000020414847
 31
0.0
  0
LINE
  5
2A7E
330
2A74
100
AcDbEntity
  8
SOLBET_Bloczki
100
AcDbLine
 10
0.0000001407493072
 20
12.00000020414847
 30
0.0
 11
0.0000001407493072
 21
0.000000204148364
 31
0.0
  0
LINE
  5
2A7F
330
2A74
100
AcDbEntity
  8
SOLBET_Bloczki
100
AcDbLine
 10
0.0000001407493072
 20
0.000000204148364
 30
0.0
 11
21.00000014074931
 21
0.000000204148364
 31
0.0
  0
ENDBLK
  5
2A83
330
2A74
100
AcDbEntity
  8
0
100
AcDbBlockEnd
  0
BLOCK
  5
2AC1
330
2AB5
100
AcDbEntity
  8
0
100
AcDbBlockBegin
  2
SOLBET_Plytka_60x240x590_brak_PRA
 70
     2
 10
0.0
 20
0.0
 30
0.0
  3
SOLBET_Plytka_60x240x590_brak_PRA
  1

  0
ATTDEF
  5
2AB6
330
2AB5
100
AcDbEntity
  8
SOLBET_Wymiary_Opisy
100
AcDbText
 10
0.0000000428741699
 20
4.865619229844077
 30
0.0
 40
1.006810973315101
  1
60x240x590
  7
Solbet_1
100
AcDbAttributeDefinition
  3

  2
WYMIARY
 70
     3
1001
AcDbAttr
1070
     0
1070
     1
  0
ATTDEF
  5
2AB7
330
2AB5
100
AcDbEntity
  8
SOLBET_Wymiary_Opisy
100
AcDbText
 10
0.0000000428741699
 20
3.329452077944857
 30
0.0
 40
1.006810973315101
  1
600
  7
Solbet_1
100
AcDbAttributeDefinition
  3

  2
KLASA_GĘSTOŚCI
 70
     3
1001
AcDbAttr
1070
     0
1070
     1
  0
ATTDEF
  5
2AB8
330
2AB5
100
AcDbEntity
  8
SOLBET_Wymiary_Opisy
100
AcDbText
 10
0.0000000428741699
 20
0.2486930628063702
 30
0.0
 40
1.006810973315101
  1
SOLBET
  7
Solbet_1
100
AcDbAttributeDefinition
  3

  2
FIRMA
 70
     3
1001
AcDbAttr
1070
     0
1070
     1
  0
ATTDEF
  5
2AB9
330
2AB5
100
AcDbEntity
  8
SOLBET_Wymiary_Opisy
100
AcDbText
 10
0.0000000428741699
 20
6.498884010242274
 30
0.0
 40
1.006810973315101
  1
Płytka
  7
Solbet_1
100
AcDbAttributeDefinition
  3
Nazwa
  2
NAZWA
 70
     3
1001
AcDbAttr
1070
     0
1070
     1
  0
ATTDEF
  5
2ABA
330
2AB5
100
AcDbEntity
  8
SOLBET_Wymiary_Opisy
100
AcDbText
 10
0.0000000428741699
 20
1.771451147448315
 30
0.0
 40
1.006810973315101
  1
Prawo
  7
Solbet_1
100
AcDbAttributeDefinition
  3

  2
WIDOK
 70
    11
1001
AcDbAttr
1070
     0
1070
     1
  0
LINE
  5
2ABB
330
2AB5
100
AcDbEntity
  8
SOLBET_Bloczki
100
AcDbLine
 10
2.99999991809318
 20
12.00000009173755
 30
0.0
 11
2.999999918093408
 21
0.0000000917375473
 31
0.0
  0
LINE
  5
2ABC
330
2AB5
100
AcDbEntity
  8
SOLBET_Bloczki
100
AcDbLine
 10
2.999999918093408
 20
0.0000000917375473
 30
0.0
 11
-0.0000000819065917
 21
0.0000000917375473
 31
0.0
  0
LINE
  5
2ABD
330
2AB5
100
AcDbEntity
  8
SOLBET_Bloczki
100
AcDbLine
 10
-0.0000000819065917
 20
0.0000000917375473
 30
0.0
 11
-0.0000000819065917
 21
12.00000009173755
 31
0.0
  0
LINE
  5
2ABE
330
2AB5
100
AcDbEntity
  8
SOLBET_Bloczki
100
AcDbLine
 10
-0.0000000819065917
 20
12.00000009173755
 30
0.0
 11
2.99999991809318
 21
12.00000009173755
 31
0.0
  0
ENDBLK
  5
2AC2
330
2AB5
100
AcDbEntity
  8
0
100
AcDbBlockEnd
  0
BLOCK
  5
2B49
330
2B3C
100
AcDbEntity
  8
0
100
AcDbBlockBegin
  2
SOLBET_Bloczek_OPTIMAL_300x240x590_brak_PRA
 70
     2
 10
0.0
 20
0.0
 30
0.0
  3
SOLBET_Bloczek_OPTIMAL_300x240x590_brak_PRA
  1

  0
ATTDEF
  5
2B3D
330
2B3C
100
AcDbEntity
  8
SOLBET_Wymiary_Opisy
100
AcDbText
 10
0.0000001990099463
 20
4.780674541991947
 30
0.0
 40
0.9913121336814832
  1
300x240x590
  7
Solbet_1
100
AcDbAttributeDefinition
  3

  2
WYMIARY
 70
     3
1001
AcDbAttr
1070
     0
1070
     1
  0
ATTDEF
  5
2B3E
330
2B3C
100
AcDbEntity
  8
SOLBET_Wymiary_Opisy
100
AcDbText
 10
0.0000001990099463
 20
3.268155134275851
 30
0.0
 40
0.9913121336814832
  1
400, 500, 600
  7
Solbet_1
100
AcDbAttributeDefinition
  3

  2
KLASA_GĘSTOŚCI
 70
     9
1001
AcDbAttr
1070
     0
1070
     1
  0
ATTDEF
  5
2B3F
330
2B3C
100
AcDbEntity
  8
SOLBET_Wymiary_Opisy
100
AcDbText
 10
-0.0000001413868631
 20
0.2448647126985201
 30
0.0
 40
0.9913121336814832
  1
SOLBET
  7
Solbet_1
100
AcDbAttributeDefinition
  3

  2
FIRMA
 70
     3
1001
AcDbAttr
1070
     0
1070
     1
  0
ATTDEF
  5
2B40
330
2B3C
100
AcDbEntity
  8
SOLBET_Wymiary_Opisy
100
AcDbText
 10
0.0000001990099463
 20
7.810984540339779
 30
0.0
 40
0.9913121336814832
  1
Bloczek
  7
Solbet_1
100
AcDbAttributeDefinition
  3
Nazwa
  2
NAZWA
 70
     3
1001
AcDbAttr
1070
     0
1070
     1
  0
ATTDEF
  5
2B41
330
2B3C
100
AcDbEntity
  8
SOLBET_Wymiary_Opisy
100
AcDbText
 10
0.0000001990099463
 20
6.271936360105574
 30
0.0
 40
0.9913121336814832
  1
SOLBET OPTIMAL
  7
Solbet_1
100
AcDbAttributeDefinition
  3

  2
SYSTEM
 70
     3
1001
AcDbAttr
1070
     0
1070
     1
  0
ATTDEF
  5
2B42
330
2B3C
100
AcDbEntity
  8
SOLBET_Wymiary_Opisy
100
AcDbText
 10
-0.0000001413868631
 20
1.744181472225632
 30
0.0
 40
0.9913121336814832
  1
Prawo
  7
Solbet_1
100
AcDbAttributeDefinition
  3

  2
WIDOK
 70
    11
1001
AcDbAttr
1070
     0
1070
     1
  0
LINE
  5
2B43
330
2B3C
100
AcDbEntity
  8
SOLBET_Bloczki
100
AcDbLine
 10
15.00000028277372
 20
12.00000003695402
 30
0.0
 11
15.00000028277372
 21
0.0000000369539066
 31
0.0
  0
LINE
  5
2B44
330
2B3C
100
AcDbEntity
  8
SOLBET_Bloczki
100
AcDbLine
 10
15.00000028277372
 20
12.00000003695402
 30
0.0
 11
0.0000002827737262
 21
12.00000003695402
 31
0.0
  0
LINE
  5
2B45
330
2B3C
100
AcDbEntity
  8
SOLBET_Bloczki
100
AcDbLine
 10
0.0000002827737262
 20
12.00000003695402
 30
0.0
 11
0.0000002827737262
 21
0.0000000369540203
 31
0.0
  0
LINE
  5
2B46
330
2B3C
100
AcDbEntity
  8
SOLBET_Bloczki
100
AcDbLine
 10
0.0000002827737262
 20
0.0000000369540203
 30
0.0
 11
15.00000028277372
 21
0.0000000369539066
 31
0.0
  0
ENDBLK
  5
2B4A
330
2B3C
100
AcDbEntity
  8
0
100
AcDbBlockEnd
  0
BLOCK
  5
5D95
330
5D94
100
AcDbEntity
  8
0
100
AcDbBlockBegin
  2
*D6
 70
     1
 10
0.0
 20
0.0
 30
0.0
  3
*D6
  1

  0
LINE
  5
661B
330
5D94
100
AcDbEntity
  8
SOLBET_Wymiary_Opisy
 62
     0
370
    -2
100
AcDbLine
 10
98.09971727498691
 20
163.2155569846695
 30
0.0
 11
85.09285372912641
 21
163.2155569846695
 31
0.0
  0
LINE
  5
661C
330
5D94
100
AcDbEntity
  8
SOLBET_Wymiary_Opisy
 62
     0
370
    -2
100
AcDbLine
 10
98.80799446621132
 20
148.0636002453528
 30
0.0
 11
85.09285372912639
 21
148.0636002453528
 31
0.0
  0
LINE
  5
661D
330
5D94
100
AcDbEntity
  8
SOLBET_Wymiary_Opisy
 62
     0
370
    -2
100
AcDbLine
 10
86.34285372912641
 20
160.7155569846695
 30
0.0
 11
86.34285372912639
 21
150.5636002453528
 31
0.0
  0
SOLID
  5
661E
330
5D94
100
AcDbEntity
  8
SOLBET_Wymiary_Opisy
 62
     0
100
AcDbTrace
 10
85.92618706245973
 20
160.7155569846695
 30
0.0
 11
86.75952039579307
 21
160.7155569846695
 31
0.0
 12
86.34285372912641
 22
163.2155569846695
 32
0.0
 13
86.34285372912641
 23
163.2155569846695
 33
0.0
  0
SOLID
  5
661F
330
5D94
100
AcDbEntity
  8
SOLBET_Wymiary_Opisy
 62
     0
100
AcDbTrace
 10
85.92618706245971
 20
150.5636002453528
 30
0.0
 11
86.75952039579305
 21
150.5636002453528
 31
0.0
 12
86.34285372912639
 22
148.0636002453528
 32
0.0
 13
86.34285372912639
 23
148.0636002453528
 33
0.0
  0
MTEXT
  5
6620
330
5D94
100
AcDbEntity
  8
SOLBET_Wymiary_Opisy
 62
     0
100
AcDbMText
 10
84.4669067594294
 20
155.6395786150112
 30
0.0
 40
2.5
 41
0.0
 71
     5
 72
     1
  1
Min. 30cm
  7
Solbet_2_5
 11
0.0000000000000001
 21
1.0
 31
0.0
 73
     1
 44
1.0
1001
ACAD
1000
MTEXTBEGIN
1070
    73
1070
     1
1070
    44
1040
1.0
1070
    74
1070
     0
1000
MTEXTEND
  0
POINT
  5
6621
330
5D94
100
AcDbEntity
  8
DEFPOINTS
 62
     0
100
AcDbPoint
 10
98.09971727498691
 20
163.2155569846695
 30
0.0
  0
POINT
  5
6622
330
5D94
100
AcDbEntity
  8
DEFPOINTS
 62
     0
100
AcDbPoint
 10
98.80799446621132
 20
148.0636002453528
 30
0.0
  0
POINT
  5
6623
330
5D94
100
AcDbEntity
  8
DEFPOINTS
 62
     0
100
AcDbPoint
 10
86.34285372912639
 20
148.0636002453528
 30
0.0
  0
ENDBLK
  5
5D96
330
5D94
100
AcDbEntity
  8
0
100
AcDbBlockEnd
  0
BLOCK
  5
65EC
330
65E0
100
AcDbEntity
  8
0
100
AcDbBlockBegin
  2
*D7
 70
     1
 10
0.0
 20
0.0
 30
0.0
  3
*D7
  1

  0
LINE
  5
6624
330
65E0
100
AcDbEntity
  8
SOLBET_Wymiary_Opisy
 62
     0
370
    -2
100
AcDbLine
 10
93.47394535169973
 20
163.8636003577635
 30
0.0
 11
93.47394535169973
 21
170.695696430404
 31
0.0
  0
LINE
  5
6625
330
65E0
100
AcDbEntity
  8
SOLBET_Wymiary_Opisy
 62
     0
370
    -2
100
AcDbLine
 10
99.45668286319591
 20
163.0636002453528
 30
0.0
 11
99.45668286319591
 21
170.695696430404
 31
0.0
  0
LINE
  5
6626
330
65E0
100
AcDbEntity
  8
SOLBET_Wymiary_Opisy
 62
     0
370
    -2
100
AcDbLine
 10
101.9566828631959
 20
169.445696430404
 30
0.0
 11
104.4566828631959
 21
169.445696430404
 31
0.0
  0
LINE
  5
6627
330
65E0
100
AcDbEntity
  8
SOLBET_Wymiary_Opisy
 62
     0
370
    -2
100
AcDbLine
 10
90.97394535169973
 20
169.445696430404
 30
0.0
 11
40.41389128536866
 21
169.445696430404
 31
0.0
  0
LINE
  5
6628
330
65E0
100
AcDbEntity
  8
SOLBET_Wymiary_Opisy
 62
     0
370
    -2
100
AcDbLine
 10
99.45668286319591
 20
169.445696430404
 30
0.0
 11
93.47394535169973
 21
169.445696430404
 31
0.0
  0
SOLID
  5
6629
330
65E0
100
AcDbEntity
  8
SOLBET_Wymiary_Opisy
 62
     0
100
AcDbTrace
 10
101.9566828631959
 20
169.8623630970707
 30
0.0
 11
101.9566828631959
 21
169.0290297637374
 31
0.0
 12
99.45668286319591
 22
169.445696430404
 32
0.0
 13
99.45668286319591
 23
169.445696430404
 33
0.0
  0
SOLID
  5
662A
330
65E0
100
AcDbEntity
  8
SOLBET_Wymiary_Opisy
 62
     0
100
AcDbTrace
 10
90.97394535169973
 20
169.8623630970707
 30
0.0
 11
90.97394535169973
 21
169.0290297637374
 31
0.0
 12
93.47394535169973
 22
169.445696430404
 32
0.0
 13
93.47394535169973
 23
169.445696430404
 33
0.0
  0
MTEXT
  5
662B
102
{ACAD_XDICTIONARY
360
6BC4
102
}
330
65E0
100
AcDbEntity
  8
SOLBET_Wymiary_Opisy
 62
     0
100
AcDbMText
 10
61.53889128536866
 20
171.446643400101
 30
0.0
 40
2.5
 41
0.0
 71
     5
 72
     1
  1
max. 1/3 szeoko\U+015Bci bloczka
  7
Solbet_2_5
 73
     1
 44
1.0
1001
ACAD
1000
MTEXTBEGIN
1070
    73
1070
     1
1070
    44
1040
1.0
1070
    74
1070
     0
1000
MTEXTEND
  0
POINT
  5
662C
330
65E0
100
AcDbEntity
  8
DEFPOINTS
 62
     0
100
AcDbPoint
 10
93.47394535169973
 20
163.8636003577635
 30
0.0
  0
POINT
  5
662D
330
65E0
100
AcDbEntity
  8
DEFPOINTS
 62
     0
100
AcDbPoint
 10
99.45668286319591
 20
163.0636002453528
 30
0.0
  0
POINT
  5
662E
330
65E0
100
AcDbEntity
  8
DEFPOINTS
 62
     0
100
AcDbPoint
 10
99.45668286319591
 20
169.445696430404
 30
0.0
  0
ENDBLK
  5
65ED
330
65E0
100
AcDbEntity
  8
0
100
AcDbBlockEnd
  0
BLOCK
  5
6A9C
330
6A8E
100
AcDbEntity
  8
0
100
AcDbBlockBegin
  2
SOLBET_Bloczek_Ideal_420x240x590_P+W_KG400_GOR
 70
     2
 10
0.0
 20
0.0
 30
0.0
  3
SOLBET_Bloczek_Ideal_420x240x590_P+W_KG400_GOR
  1

  0
ATTDEF
  5
6A8F
330
6A8E
100
AcDbEntity
  8
SOLBET_Wymiary_Opisy
100
AcDbText
 10
0.0000000363686468
 20
6.303237354177662
 30
0.0
 40
0.9913121336814832
  1
420x240x590
  7
Solbet_1
100
AcDbAttributeDefinition
  3

  2
WYMIARY
 70
    11
1001
AcDbAttr
1070
     0
1070
     1
  0
ATTDEF
  5
6A90
330
6A8E
100
AcDbEntity
  8
SOLBET_Wymiary_Opisy
100
AcDbText
 10
0.0000000363686468
 20
4.790717946461565
 30
0.0
 40
0.9913121336814832
  1
400
  7
Solbet_1
100
AcDbAttributeDefinition
  3

  2
KLASA_GĘSTOŚCI
 70
    11
1001
AcDbAttr
1070
     0
1070
     1
  0
ATTDEF
  5
6A91
330
6A8E
100
AcDbEntity
  8
SOLBET_Wymiary_Opisy
100
AcDbText
 10
0.0000000363686468
 20
3.269569111249338
 30
0.0
 40
0.9913121336814832
  1
Pióra+Wpusty
  7
Solbet_1
100
AcDbAttributeDefinition
  3

  2
PROFILOWANIE
 70
    11
1001
AcDbAttr
1070
     0
1070
     1
  0
ATTDEF
  5
6A92
330
6A8E
100
AcDbEntity
  8
SOLBET_Wymiary_Opisy
100
AcDbText
 10
0.0000000363686468
 20
0.2448647019085592
 30
0.0
 40
0.9913121336814832
  1
SOLBET
  7
Solbet_1
100
AcDbAttributeDefinition
  3

  2
FIRMA
 70
    11
1001
AcDbAttr
1070
     0
1070
     1
  0
ATTDEF
  5
6A93
330
6A8E
100
AcDbEntity
  8
SOLBET_Wymiary_Opisy
100
AcDbText
 10
0.0000000363686468
 20
9.333547352525494
 30
0.0
 40
0.9913121336814832
  1
Bloczek
  7
Solbet_1
100
AcDbAttributeDefinition
  3
Nazwa
  2
NAZWA
 70
    11
1001
AcDbAttr
1070
     0
1070
     1
  0
ATTDEF
  5
6A94
330
6A8E
100
AcDbEntity
  8
SOLBET_Wymiary_Opisy
100
AcDbText
 10
0.0000000363686468
 20
7.794499172291289
 30
0.0
 40
0.9913121336814832
  1
SOLBET Ideal
  7
Solbet_1
100
AcDbAttributeDefinition
  3

  2
SYSTEM
 70
    11
1001
AcDbAttr
1070
     0
1070
     1
  0
ATTDEF
  5
6A95
330
6A8E
100
AcDbEntity
  8
SOLBET_Wymiary_Opisy
100
AcDbText
 10
0.0000000363686468
 20
1.744181461435671
 30
0.0
 40
0.9913121336814832
  1
Góra
  7
Solbet_1
100
AcDbAttributeDefinition
  3

  2
WIDOK
 70
    11
1001
AcDbAttr
1070
     0
1070
     1
  0
LINE
  5
6A96
330
6A8E
100
AcDbEntity
  8
SOLBET_Bloczki
100
AcDbLine
 10
-0.0000001473426892
 20
0.0000000920231287
 30
0.0
 11
29.49999992726271
 21
0.0000000585339421
 31
0.0
  0
LINE
  5
6A97
330
6A8E
100
AcDbEntity
  8
SOLBET_Bloczki
100
AcDbLine
 10
29.49999992726271
 20
0.0000000585339421
 30
0.0
 11
29.49999985265754
 21
21.00000009202324
 31
0.0
  0
LINE
  5
6A98
330
6A8E
100
AcDbEntity
  8
SOLBET_Bloczki
100
AcDbLine
 10
29.49999985265754
 20
21.00000009202324
 30
0.0
 11
-0.0000001473426892
 21
21.00000009202324
 31
0.0
  0
LINE
  5
6A99
330
6A8E
100
AcDbEntity
  8
SOLBET_Bloczki
100
AcDbLine
 10
-0.0000001473426892
 20
21.00000009202324
 30
0.0
 11
-0.0000000727372935
 21
0.0000000585339421
 31
0.0
  0
ENDBLK
  5
6A9D
330
6A8E
100
AcDbEntity
  8
0
100
AcDbBlockEnd
  0
BLOCK
  5
6AAC
330
6A9E
100
AcDbEntity
  8
0
100
AcDbBlockBegin
  2
SOLBET_Bloczek_Ideal_420x240x590_P+W_KG400_PRA
 70
     2
 10
0.0
 20
0.0
 30
0.0
  3
SOLBET_Bloczek_Ideal_420x240x590_P+W_KG400_PRA
  1

  0
ATTDEF
  5
6A9F
330
6A9E
100
AcDbEntity
  8
SOLBET_Wymiary_Opisy
100
AcDbText
 10
-0.0000000703746536
 20
6.303237281370451
 30
0.0
 40
0.9913121336814832
  1
420x240x590
  7
Solbet_1
100
AcDbAttributeDefinition
  3

  2
WYMIARY
 70
    11
1001
AcDbAttr
1070
     0
1070
     1
  0
ATTDEF
  5
6AA0
330
6A9E
100
AcDbEntity
  8
SOLBET_Wymiary_Opisy
100
AcDbText
 10
-0.0000000703746536
 20
4.790717873654354
 30
0.0
 40
0.9913121336814832
  1
400
  7
Solbet_1
100
AcDbAttributeDefinition
  3

  2
KLASA_GĘSTOŚCI
 70
    11
1001
AcDbAttr
1070
     0
1070
     1
  0
ATTDEF
  5
6AA1
330
6A9E
100
AcDbEntity
  8
SOLBET_Wymiary_Opisy
100
AcDbText
 10
-0.0000000703746536
 20
3.269569038442127
 30
0.0
 40
0.9913121336814832
  1
Pióra+Wpusty
  7
Solbet_1
100
AcDbAttributeDefinition
  3

  2
PROFILOWANIE
 70
    11
1001
AcDbAttr
1070
     0
1070
     1
  0
ATTDEF
  5
6AA2
330
6A9E
100
AcDbEntity
  8
SOLBET_Wymiary_Opisy
100
AcDbText
 10
-0.0000000703746536
 20
0.2448646291013483
 30
0.0
 40
0.9913121336814832
  1
SOLBET
  7
Solbet_1
100
AcDbAttributeDefinition
  3

  2
FIRMA
 70
    11
1001
AcDbAttr
1070
     0
1070
     1
  0
ATTDEF
  5
6AA3
330
6A9E
100
AcDbEntity
  8
SOLBET_Wymiary_Opisy
100
AcDbText
 10
-0.0000000703746536
 20
9.333547279718283
 30
0.0
 40
0.9913121336814832
  1
Bloczek
  7
Solbet_1
100
AcDbAttributeDefinition
  3
Nazwa
  2
NAZWA
 70
    11
1001
AcDbAttr
1070
     0
1070
     1
  0
ATTDEF
  5
6AA4
330
6A9E
100
AcDbEntity
  8
SOLBET_Wymiary_Opisy
100
AcDbText
 10
-0.0000000703746536
 20
7.794499099484078
 30
0.0
 40
0.9913121336814832
  1
SOLBET Ideal
  7
Solbet_1
100
AcDbAttributeDefinition
  3

  2
SYSTEM
 70
    11
1001
AcDbAttr
1070
     0
1070
     1
  0
ATTDEF
  5
6AA5
330
6A9E
100
AcDbEntity
  8
SOLBET_Wymiary_Opisy
100
AcDbText
 10
-0.0000000703746536
 20
1.74418138862846
 30
0.0
 40
0.9913121336814832
  1
Prawo
  7
Solbet_1
100
AcDbAttributeDefinition
  3

  2
WIDOK
 70
    11
1001
AcDbAttr
1070
     0
1070
     1
  0
LINE
  5
6AA6
330
6A9E
100
AcDbEntity
  8
SOLBET_Bloczki
100
AcDbLine
 10
21.00000014074931
 20
12.00000020414847
 30
0.0
 11
21.00000014074931
 21
0.000000204148364
 31
0.0
  0
LINE
  5
6AA7
330
6A9E
100
AcDbEntity
  8
SOLBET_Bloczki
100
AcDbLine
 10
21.00000014074931
 20
12.00000020414847
 30
0.0
 11
0.0000001407493072
 21
12.00000020414847
 31
0.0
  0
LINE
  5
6AA8
330
6A9E
100
AcDbEntity
  8
SOLBET_Bloczki
100
AcDbLine
 10
0.0000001407493072
 20
12.00000020414847
 30
0.0
 11
0.0000001407493072
 21
0.000000204148364
 31
0.0
  0
LINE
  5
6AA9
330
6A9E
100
AcDbEntity
  8
SOLBET_Bloczki
100
AcDbLine
 10
0.0000001407493072
 20
0.000000204148364
 30
0.0
 11
21.00000014074931
 21
0.000000204148364
 31
0.0
  0
ENDBLK
  5
6AAD
330
6A9E
100
AcDbEntity
  8
0
100
AcDbBlockEnd
  0
BLOCK
  5
6ABF
330
6AB1
100
AcDbEntity
  8
0
100
AcDbBlockBegin
  2
SOLBET_Bloczek_Optimal_300x240x590_P+W_KG400_PRA
 70
     2
 10
0.0
 20
0.0
 30
0.0
  3
SOLBET_Bloczek_Optimal_300x240x590_P+W_KG400_PRA
  1

  0
ATTDEF
  5
6AB2
330
6AB1
100
AcDbEntity
  8
SOLBET_Wymiary_Opisy
100
AcDbText
 10
-0.0000001413868631
 20
6.303237364967623
 30
0.0
 40
0.9913121336814832
  1
300x240x590
  7
Solbet_1
100
AcDbAttributeDefinition
  3

  2
WYMIARY
 70
    11
1001
AcDbAttr
1070
     0
1070
     1
  0
ATTDEF
  5
6AB3
330
6AB1
100
AcDbEntity
  8
SOLBET_Wymiary_Opisy
100
AcDbText
 10
-0.0000001413868631
 20
4.790717957251525
 30
0.0
 40
0.9913121336814832
  1
400
  7
Solbet_1
100
AcDbAttributeDefinition
  3

  2
KLASA_GĘSTOŚCI
 70
    11
1001
AcDbAttr
1070
     0
1070
     1
  0
ATTDEF
  5
6AB4
330
6AB1
100
AcDbEntity
  8
SOLBET_Wymiary_Opisy
100
AcDbText
 10
-0.0000001413868631
 20
3.269569122039299
 30
0.0
 40
0.9913121336814832
  1
Pióra+Wpusty
  7
Solbet_1
100
AcDbAttributeDefinition
  3

  2
PROFILOWANIE
 70
    11
1001
AcDbAttr
1070
     0
1070
     1
  0
ATTDEF
  5
6AB5
330
6AB1
100
AcDbEntity
  8
SOLBET_Wymiary_Opisy
100
AcDbText
 10
-0.0000001413868631
 20
0.2448647126985201
 30
0.0
 40
0.9913121336814832
  1
SOLBET
  7
Solbet_1
100
AcDbAttributeDefinition
  3

  2
FIRMA
 70
    11
1001
AcDbAttr
1070
     0
1070
     1
  0
ATTDEF
  5
6AB6
330
6AB1
100
AcDbEntity
  8
SOLBET_Wymiary_Opisy
100
AcDbText
 10
-0.0000001413868631
 20
9.333547363315455
 30
0.0
 40
0.9913121336814832
  1
Bloczek
  7
Solbet_1
100
AcDbAttributeDefinition
  3
Nazwa
  2
NAZWA
 70
    11
1001
AcDbAttr
1070
     0
1070
     1
  0
ATTDEF
  5
6AB7
330
6AB1
100
AcDbEntity
  8
SOLBET_Wymiary_Opisy
100
AcDbText
 10
-0.0000001413868631
 20
7.79449918308125
 30
0.0
 40
0.9913121336814832
  1
SOLBET Optimal
  7
Solbet_1
100
AcDbAttributeDefinition
  3

  2
SYSTEM
 70
    11
1001
AcDbAttr
1070
     0
1070
     1
  0
ATTDEF
  5
6AB8
330
6AB1
100
AcDbEntity
  8
SOLBET_Wymiary_Opisy
100
AcDbText
 10
-0.0000001413868631
 20
1.744181472225632
 30
0.0
 40
0.9913121336814832
  1
Prawo
  7
Solbet_1
100
AcDbAttributeDefinition
  3

  2
WIDOK
 70
    11
1001
AcDbAttr
1070
     0
1070
     1
  0
LINE
  5
6AB9
330
6AB1
100
AcDbEntity
  8
SOLBET_Bloczki
100
AcDbLine
 10
15.00000028277372
 20
12.00000003695402
 30
0.0
 11
15.00000028277372
 21
0.0000000369539066
 31
0.0
  0
LINE
  5
6ABA
330
6AB1
100
AcDbEntity
  8
SOLBET_Bloczki
100
AcDbLine
 10
15.00000028277372
 20
12.00000003695402
 30
0.0
 11
0.0000002827737262
 21
12.00000003695402
 31
0.0
  0
LINE
  5
6ABB
330
6AB1
100
AcDbEntity
  8
SOLBET_Bloczki
100
AcDbLine
 10
0.0000002827737262
 20
12.00000003695402
 30
0.0
 11
0.0000002827737262
 21
0.0000000369540203
 31
0.0
  0
LINE
  5
6ABC
330
6AB1
100
AcDbEntity
  8
SOLBET_Bloczki
100
AcDbLine
 10
0.0000002827737262
 20
0.0000000369540203
 30
0.0
 11
15.00000028277372
 21
0.0000000369539066
 31
0.0
  0
ENDBLK
  5
6AC0
330
6AB1
100
AcDbEntity
  8
0
100
AcDbBlockEnd
  0
ENDSEC
  0
SECTION
  2
ENTITIES
  0
ARC
  5
5878
330
1F
100
AcDbEntity
  8
SOLBET_Tynki_Posadzki
100
AcDbCircle
 10
114.9739452109504
 20
169.4109539314607
 30
0.0
 40
1.5000521396288
100
AcDbArc
 50
0.0
 51
90.0
  0
LINE
  5
5879
330
1F
100
AcDbEntity
  8
SOLBET_Izolacja
  6
Continuous
100
AcDbLine
 10
115.4739452109506
 20
168.9109539314607
 30
0.0
 11
114.4739452109506
 21
168.9109539314607
 31
0.0
  0
LINE
  5
587A
330
1F
100
AcDbEntity
  8
SOLBET_Izolacja
  6
Continuous
100
AcDbLine
 10
114.4739453516997
 20
168.9109539314607
 30
0.0
 11
114.4739452109506
 21
163.5376470979056
 31
0.0
  0
LINE
  5
587B
330
1F
100
AcDbEntity
  8
SOLBET_Izolacja
  6
Continuous
100
AcDbLine
 10
115.4739452109506
 20
163.5376470979056
 30
0.0
 11
114.4739452109506
 21
163.5376470979056
 31
0.0
  0
LINE
  5
587C
330
1F
100
AcDbEntity
  8
SOLBET_Tynki_Posadzki
100
AcDbLine
 10
115.7720114021403
 20
169.4109539314607
 30
0.0
 11
172.5319319540184
 21
169.4109539314607
 31
0.0
  0
LINE
  5
587F
330
1F
100
AcDbEntity
  8
SOLBET_Izolacja
  6
Continuous
100
AcDbLine
 10
115.4739452109506
 20
163.5376470979056
 30
0.0
 11
115.4739452109506
 21
168.9109539314607
 31
0.0
  0
LINE
  5
5880
330
1F
100
AcDbEntity
  8
SOLBET_Izolacja
  6
Continuous
100
AcDbLine
 10
115.4739452109506
 20
166.0376470979056
 30
0.0
 11
172.5319319540183
 21
166.0376470979054
 31
0.0
  0
LINE
  5
5881
330
1F
100
AcDbEntity
  8
SOLBET_Tynki_Posadzki
100
AcDbLine
 10
114.9739452109504
 20
168.9109539314607
 30
0.0
 11
114.9739452109504
 21
205.9636001536152
 31
0.0
  0
LINE
  5
5882
330
1F
100
AcDbEntity
  8
SOLBET_Izolacja
  6
Continuous
100
AcDbLine
 10
115.4739452109506
 20
163.5376470979056
 30
0.0
 11
172.5319319540184
 21
163.5376470979056
 31
0.0
  0
LINE
  5
588A
330
1F
100
AcDbEntity
  8
SOLBET_Emulsje_Folie
100
AcDbLine
 10
99.40601830352262
 20
163.1281753301554
 30
0.0
 11
118.5418721183781
 21
163.1281753301554
 31
0.0
  0
LINE
  5
588C
330
1F
100
AcDbEntity
  8
SOLBET_Tynki_Posadzki
100
AcDbLine
 10
114.9728666868553
 20
150.5636001536152
 30
0.0
 11
114.4739452109502
 21
151.0636001536153
 31
0.0
  0
LINE
  5
588D
330
1F
100
AcDbEntity
  8
SOLBET_Tynki_Posadzki
100
AcDbLine
 10
114.9728666868553
 20
150.5636001536152
 30
0.0
 11
172.5319319540184
 21
150.5636001536154
 31
0.0
  0
LINE
  5
588E
330
1F
100
AcDbEntity
  8
SOLBET_Tynki_Posadzki
100
AcDbLine
 10
114.9728666868554
 20
116.6379798429303
 30
0.0
 11
114.9728666868553
 21
150.5636001536152
 31
0.0
  0
LINE
  5
588F
330
1F
100
AcDbEntity
  8
SOLBET_Izolacja
  6
Continuous
100
AcDbLine
 10
114.4566822976485
 20
79.38712045007048
 30
0.0
 11
114.4566822976485
 21
73.73764721422708
 31
0.0
  0
LINE
  5
5891
330
1F
100
AcDbEntity
  8
SOLBET_Zaprawy
100
AcDbLine
 10
93.19062340441723
 20
163.8636001536151
 30
0.0
 11
93.19062340441723
 21
205.963600153615
 31
0.0
  0
LINE
  5
5892
330
1F
100
AcDbEntity
  8
SOLBET_Tynki_Posadzki
100
AcDbLine
 10
92.72394521095042
 20
163.8636001536151
 30
0.0
 11
92.72394521095042
 21
205.963600153615
 31
0.0
  0
LINE
  5
5893
330
1F
100
AcDbEntity
  8
SOLBET_Zaprawy
100
AcDbLine
 10
93.47394521095043
 20
163.8636001536151
 30
0.0
 11
93.47394521095043
 21
205.963600153615
 31
0.0
  0
LINE
  5
5894
330
1F
100
AcDbEntity
  8
SOLBET_Wymiary_Opisy
100
AcDbLine
 10
90.83676178770565
 20
205.963600153615
 30
0.0
 11
119.4739452109504
 21
205.963600153615
 31
0.0
  0
LINE
  5
5897
330
1F
100
AcDbEntity
  8
SOLBET_Zbrojenie_Konstrukcja
100
AcDbLine
 10
171.9739452109504
 20
159.5636001536153
 30
0.0
 11
172.4728666868557
 21
158.6281223862933
 31
0.0
  0
LINE
  5
5898
330
1F
100
AcDbEntity
  8
SOLBET_Zbrojenie_Konstrukcja
100
AcDbLine
 10
168.5072785442835
 20
153.0636001536152
 30
0.0
 11
171.9739452109504
 21
159.5636001536153
 31
0.0
  0
LINE
  5
5899
330
1F
100
AcDbEntity
  8
SOLBET_Zbrojenie_Konstrukcja
100
AcDbLine
 10
144.5072785442836
 20
153.0636001536152
 30
0.0
 11
147.9739452109504
 21
159.5636001536153
 31
0.0
  0
LINE
  5
589A
330
1F
100
AcDbEntity
  8
SOLBET_Zbrojenie_Konstrukcja
100
AcDbLine
 10
152.5072785442835
 20
153.0636001536152
 30
0.0
 11
155.9739452109503
 21
159.5636001536153
 31
0.0
  0
LINE
  5
589B
330
1F
100
AcDbEntity
  8
SOLBET_Zbrojenie_Konstrukcja
100
AcDbLine
 10
160.5072785442835
 20
153.0636001536152
 30
0.0
 11
163.9739452109503
 21
159.5636001536153
 31
0.0
  0
LINE
  5
589C
330
1F
100
AcDbEntity
  8
SOLBET_Zbrojenie_Konstrukcja
100
AcDbLine
 10
136.5072785442836
 20
153.0636001536152
 30
0.0
 11
139.9739452109504
 21
159.5636001536153
 31
0.0
  0
LINE
  5
589D
330
1F
100
AcDbEntity
  8
SOLBET_Zbrojenie_Konstrukcja
100
AcDbLine
 10
128.5072785442836
 20
153.0636001536152
 30
0.0
 11
131.9739452109504
 21
159.5636001536153
 31
0.0
  0
LINE
  5
589E
330
1F
100
AcDbEntity
  8
SOLBET_Zbrojenie_Konstrukcja
100
AcDbLine
 10
120.5072785442836
 20
153.0636001536152
 30
0.0
 11
123.9739452109504
 21
159.5636001536153
 31
0.0
  0
LINE
  5
589F
330
1F
100
AcDbEntity
  8
SOLBET_Zbrojenie_Konstrukcja
100
AcDbLine
 10
112.5072785442838
 20
153.0636001536152
 30
0.0
 11
115.9739452109504
 21
159.5636001536153
 31
0.0
  0
LINE
  5
58A0
330
1F
100
AcDbEntity
  8
SOLBET_Zbrojenie_Konstrukcja
100
AcDbLine
 10
115.9739452109504
 20
159.5636001536153
 30
0.0
 11
119.440611877617
 21
153.0636001536152
 31
0.0
  0
LINE
  5
58A1
330
1F
100
AcDbEntity
  8
SOLBET_Zbrojenie_Konstrukcja
100
AcDbLine
 10
123.9739452109504
 20
159.5636001536153
 30
0.0
 11
127.440611877617
 21
153.0636001536152
 31
0.0
  0
LINE
  5
58A2
330
1F
100
AcDbEntity
  8
SOLBET_Zbrojenie_Konstrukcja
100
AcDbLine
 10
131.9739452109504
 20
159.5636001536153
 30
0.0
 11
135.4406118776172
 21
153.0636001536152
 31
0.0
  0
LINE
  5
58A3
330
1F
100
AcDbEntity
  8
SOLBET_Zbrojenie_Konstrukcja
100
AcDbLine
 10
139.9739452109504
 20
159.5636001536153
 30
0.0
 11
143.4406118776172
 21
153.0636001536152
 31
0.0
  0
LINE
  5
58A4
330
1F
100
AcDbEntity
  8
SOLBET_Zbrojenie_Konstrukcja
  6
Continuous
100
AcDbLine
 10
172.5319319540184
 20
159.5636001536155
 30
0.0
 11
110.4739452109504
 21
159.5636001536152
 31
0.0
  0
LINE
  5
58A5
330
1F
100
AcDbEntity
  8
SOLBET_Zbrojenie_Konstrukcja
100
AcDbLine
 10
163.9739452109503
 20
159.5636001536153
 30
0.0
 11
167.4406118776171
 21
153.0636001536152
 31
0.0
  0
LINE
  5
58A6
330
1F
100
AcDbEntity
  8
SOLBET_Zbrojenie_Konstrukcja
100
AcDbLine
 10
155.9739452109503
 20
159.5636001536153
 30
0.0
 11
159.4406118776171
 21
153.0636001536152
 31
0.0
  0
LINE
  5
58A7
330
1F
100
AcDbEntity
  8
SOLBET_Zbrojenie_Konstrukcja
100
AcDbLine
 10
147.9739452109504
 20
159.5636001536153
 30
0.0
 11
151.440611877617
 21
153.0636001536152
 31
0.0
  0
LINE
  5
58AC
330
1F
100
AcDbEntity
  8
SOLBET_Izolacja
  6
Continuous
100
AcDbLine
 10
115.4728666868555
 20
79.38712045007048
 30
0.0
 11
114.4566822976485
 21
79.38712045007048
 31
0.0
  0
LINE
  5
58AE
330
1F
100
AcDbEntity
  8
SOLBET_Tynki_Posadzki
100
AcDbLine
 10
115.5876827365231
 20
76.88712045007048
 30
0.0
 11
172.5319319540183
 21
76.88712045007048
 31
0.0
  0
LINE
  5
58AF
330
1F
100
AcDbEntity
  8
SOLBET_Izolacja
  6
Continuous
100
AcDbLine
 10
115.4728666868555
 20
73.73764721422708
 30
0.0
 11
115.4728666868555
 21
79.38712045007048
 31
0.0
  0
LINE
  5
58B0
330
1F
100
AcDbEntity
  8
SOLBET_Izolacja
  6
Continuous
100
AcDbLine
 10
115.4728666868555
 20
76.23764721422708
 30
0.0
 11
172.5319319540184
 21
76.23764721422697
 31
0.0
  0
LINE
  5
58B1
330
1F
100
AcDbEntity
  8
SOLBET_Tynki_Posadzki
100
AcDbLine
 10
114.9728666868554
 20
79.38712045007048
 30
0.0
 11
114.9728666868554
 21
115.1379798429301
 31
0.0
  0
LINE
  5
58B2
330
1F
100
AcDbEntity
  8
SOLBET_Izolacja
  6
Continuous
100
AcDbLine
 10
114.4566822976485
 20
73.73764721422708
 30
0.0
 11
172.5319319540183
 21
73.73764721422708
 31
0.0
  0
HATCH
  5
58B5
330
1F
100
AcDbEntity
  8
SOLBET_Tynki_Posadzki
100
AcDbHatch
 10
0.0
 20
0.0
 30
0.0
210
0.0
220
0.0
230
1.0
  2
AR-CONC
 70
     0
 71
     0
 91
        1
 92
        7
 72
     1
 73
     1
 93
        4
 10
226.3126033010061
 20
255.7179438740157
 42
0.0488663163436413
 10
221.5529835095423
 20
248.2179438740157
 42
0.0
 10
262.2111576410623
 20
248.2179438740157
 42
0.0
 10
262.2111576410623
 20
255.7179438740157
 42
0.0
 97
        0
 75
     0
 76
     1
 52
0.0
 41
0.033
 77
     0
 78
    13
 53
50.0
 43
10.71470111043959
 44
42.75894509496459
 45
6.012094076868132
 46
-0.525989822783802
 79
     2
 49
0.6286500000000001
 49
-6.91515
 53
355.0
 43
10.71470111043959
 44
42.75894509496459
 45
-1.16301325719701
 46
6.304869215111938
 79
     2
 49
0.5029200000000001
 49
-5.532119999999999
 53
100.451
 43
11.21570711043959
 44
42.71511284496458
 45
4.849102554976655
 46
5.778850698069631
 79
     2
 49
0.5342700000000001
 49
-5.87697
 53
46.1842
 43
10.71470111043959
 44
44.43534509496458
 45
8.945608349440288
 46
-1.387396821779995
 79
     2
 49
0.942975
 49
-10.372725
 53
96.63559999999998
 43
11.46016781043959
 44
44.31972959496458
 45
7.834339737385826
 46
8.165043344371625
 79
     2
 49
0.8014049999999997
 49
-8.815454999999996
 53
351.184
 43
10.71470111043959
 44
44.43534509496458
 45
7.834351991859819
 46
8.165028889399723
 79
     2
 49
0.7543800000000001
 49
-8.29818
 53
21.0
 43
11.55290111043959
 44
44.01624509496459
 45
5.003291034567648
 46
-3.374762111053162
 79
     2
 49
0.6286500000000001
 49
-6.91515
 53
326.0
 43
11.55290111043959
 44
44.01624509496459
 45
2.039466935472353
 46
6.078202882036536
 79
     2
 49
0.5029200000000001
 49
-5.532119999999999
 53
71.45140000000001
 43
11.96983961043959
 44
43.73501579496458
 45
7.042744195414107
 46
2.703454304629895
 79
     2
 49
0.5342700000000001
 49
-5.87697
 53
37.5
 43
10.71470111043959
 44
42.75894509496459
 45
0.10192390726953
 46
2.790316282814052
 79
     6
 49
0.0
 49
-5.465064
 49
0.0
 49
-5.61594
 49
0.0
 49
-5.553075
 53
7.499999999999999
 43
10.71470111043959
 44
42.75894509496459
 45
2.205048862840089
 46
3.305958968997944
 79
     6
 49
0.0
 49
-3.201923999999999
 49
0.0
 49
-5.339334
 49
0.0
 49
-2.116455
 53
327.5
 43
8.845515110439592
 44
42.75894509496459
 45
4.474489640506755
 46
-0.1890485517582243
 79
     6
 49
0.0
 49
-2.095499999999999
 49
0.0
 49
-6.53796
 49
0.0
 49
-8.675369999999999
 53
317.5
 43
8.007315110439591
 44
42.75894509496459
 45
4.888262985738595
 46
0.8390742040999896
 79
     6
 49
0.0
 49
-2.724149999999999
 49
0.0
 49
-4.341876
 49
0.0
 49
-6.16077
 47
0.2285671334967344
 98
        5
 10
246.2199642171541
 20
252.8096958719107
 10
245.191888889031
 20
154.578002984452
 10
142.6817348575413
 20
121.0939593195552
 10
172.6062851158
 20
120.8036509917904
 10
152.0495356618628
 20
210.3324332655112
1001
ACAD
1010
0.0
1020
0.0
1030
0.0
  0
LINE
  5
58B6
330
1F
100
AcDbEntity
  8
SOLBET_Wymiary_Opisy
 62
     1
100
AcDbLine
 10
172.5319319540184
 20
169.4109539314607
 30
0.0
 11
172.5319319540184
 21
57.04567201941336
 31
0.0
  0
LINE
  5
58B7
330
1F
100
AcDbEntity
  8
SOLBET_Emulsje_Folie
100
AcDbLine
 10
115.5887612606179
 20
169.1609539314606
 30
0.0
 11
115.5887612606179
 21
166.4834864114776
 31
0.0
  0
LINE
  5
58B8
330
1F
100
AcDbEntity
  8
SOLBET_Emulsje_Folie
100
AcDbLine
 10
115.8387612606179
 20
166.2334864114776
 30
0.0
 11
172.5319319540184
 21
166.2334864114775
 31
0.0
  0
ARC
  5
58B9
330
1F
100
AcDbEntity
  8
SOLBET_Emulsje_Folie
100
AcDbCircle
 10
115.8387612606179
 20
166.4834864114776
 30
0.0
 40
0.25
100
AcDbArc
 50
180.0
 51
270.0
  0
LINE
  5
58BA
330
1F
100
AcDbEntity
  8
SOLBET_Emulsje_Folie
100
AcDbLine
 10
115.5876827365231
 20
79.36095404778223
 30
0.0
 11
115.5876827365231
 21
76.68348652779923
 31
0.0
  0
LINE
  5
58BB
330
1F
100
AcDbEntity
  8
SOLBET_Emulsje_Folie
100
AcDbLine
 10
115.8376827365229
 20
76.43348652779912
 30
0.0
 11
172.5319319540185
 21
76.43348652779912
 31
0.0
  0
ARC
  5
58BC
330
1F
100
AcDbEntity
  8
SOLBET_Emulsje_Folie
100
AcDbCircle
 10
115.8376827365229
 20
76.68348652779923
 30
0.0
 40
0.25
100
AcDbArc
 50
180.0
 51
270.0
  0
LWPOLYLINE
  5
58C2
330
1F
100
AcDbEntity
  8
SOLBET_Zbrojenie_Konstrukcja
  6
Continuous
100
AcDbPolyline
 90
        2
 70
     1
 43
0.3
 10
106.3932387020563
 20
161.9883531040774
 42
1.0
 10
106.6932387020563
 20
161.9883531040774
 42
1.0
  0
LWPOLYLINE
  5
58C3
330
1F
100
AcDbEntity
  8
SOLBET_Zbrojenie_Konstrukcja
  6
Continuous
100
AcDbPolyline
 90
        2
 70
     1
 43
0.3
 10
109.282251371166
 20
161.9667334289961
 42
1.0
 10
109.5822513711659
 20
161.9667334289961
 42
1.0
  0
LWPOLYLINE
  5
58C4
330
1F
100
AcDbEntity
  8
SOLBET_Zbrojenie_Konstrukcja
  6
Continuous
100
AcDbPolyline
 90
        2
 70
     1
 43
0.3
 10
109.282251371166
 20
152.1298215539351
 42
1.0
 10
109.5822513711659
 20
152.1298215539351
 42
1.0
  0
LWPOLYLINE
  5
58C5
330
1F
100
AcDbEntity
  8
SOLBET_Zbrojenie_Konstrukcja
  6
Continuous
100
AcDbPolyline
 90
        2
 70
     1
 43
0.3
 10
106.3932387020563
 20
152.1298215539351
 42
1.0
 10
106.6932387020563
 20
152.1298215539351
 42
1.0
  0
LINE
  5
58C6
330
1F
100
AcDbEntity
  8
SOLBET_Zbrojenie_Konstrukcja
  6
Continuous
100
AcDbLine
 10
108.8381587733235
 20
160.899386591242
 30
0.0
 11
107.4239452109504
 21
162.3136001536152
 31
0.0
  0
LINE
  5
58C7
330
1F
100
AcDbEntity
  8
SOLBET_Zbrojenie_Konstrukcja
  6
Continuous
100
AcDbLine
 10
107.6381587733234
 20
159.6993865912421
 30
0.0
 11
106.2239452109504
 21
161.1136001536153
 31
0.0
  0
LWPOLYLINE
  5
58C8
330
1F
100
AcDbEntity
  8
SOLBET_Zbrojenie_Konstrukcja
  6
Continuous
100
AcDbPolyline
 90
        5
 70
     0
 43
0.0
 10
109.7239452109504
 20
151.8136001536152
 10
109.7239452109504
 20
162.3136001536152
 10
106.2239452109504
 20
162.3136001536152
 10
106.2239452109504
 20
151.8136001536152
 10
109.7239452109504
 20
151.8136001536152
  0
LINE
  5
58EC
330
1F
100
AcDbEntity
  8
SOLBET_Tynki_Posadzki
100
AcDbLine
 10
114.9731469686242
 20
79.61037493856342
 30
0.0
 11
172.5322122357873
 21
79.61037493856342
 31
0.0
  0
ARC
  5
58F2
330
1F
100
AcDbEntity
  8
SOLBET_Tynki_Posadzki
100
AcDbCircle
 10
115.8387612606176
 20
166.4834864114777
 30
0.0
 40
0.2499999999996362
100
AcDbArc
 50
180.0
 51
196.8657343061036
1001
ASO_SCHRAFF
1005
0
1070
     1
1002
{
1070
     1
1005
0
1002
}
1002
{
1070
     2
1005
0
1002
}
1002
{
1070
     4
1000
AR-CONC
1040
0.01
1040
0.0
1070
     0
1000
T__SCHR
1070
   256
1000
_bylayer
1040
50.0
1070
     1
1002
}
  0
LINE
  5
58F3
330
1F
100
AcDbEntity
  8
SOLBET_Tynki_Posadzki
100
AcDbLine
 10
115.5995144438312
 20
166.4109539314607
 30
0.0
 11
172.5319319540183
 21
166.4109539314607
 31
0.0
1001
ASO_SCHRAFF
1005
0
1070
     1
1002
{
1070
     1
1005
0
1002
}
1002
{
1070
     2
1005
0
1002
}
1002
{
1070
     4
1000
AR-CONC
1040
0.01
1040
0.0
1070
     0
1000
T__SCHR
1070
   256
1000
_bylayer
1040
50.0
1070
     1
1002
}
  0
LINE
  5
58F4
330
1F
100
AcDbEntity
  8
SOLBET_Tynki_Posadzki
100
AcDbLine
 10
172.5319319540183
 20
168.9109539314607
 30
0.0
 11
115.5887612606179
 21
168.9109539314606
 31
0.0
1001
ASO_SCHRAFF
1005
0
1070
     1
1002
{
1070
     1
1005
0
1002
}
1002
{
1070
     2
1005
0
1002
}
1002
{
1070
     4
1000
AR-CONC
1040
0.01
1040
0.0
1070
     0
1000
T__SCHR
1070
   256
1000
_bylayer
1040
50.0
1070
     1
1002
}
  0
LINE
  5
58F5
330
1F
100
AcDbEntity
  8
SOLBET_Tynki_Posadzki
100
AcDbLine
 10
115.5887612606179
 20
168.9109539314606
 30
0.0
 11
115.5887612606179
 21
166.4834864114776
 31
0.0
1001
ASO_SCHRAFF
1005
0
1070
     1
1002
{
1070
     1
1005
0
1002
}
1002
{
1070
     2
1005
0
1002
}
1002
{
1070
     4
1000
AR-CONC
1040
0.01
1040
0.0
1070
     0
1000
T__SCHR
1070
   256
1000
_bylayer
1040
50.0
1070
     1
1002
}
  0
HATCH
  5
58F6
330
1F
100
AcDbEntity
  8
SOLBET_Beton
100
AcDbHatch
 10
0.0
 20
0.0
 30
0.0
210
0.0
220
0.0
230
1.0
  2
ANSI33
 70
     0
 71
     0
 91
        1
 92
        1
 93
        6
 72
     1
 10
105.4739452109503
 20
163.0636001536152
 11
172.4728666868557
 21
163.0636001536152
 72
     1
 10
172.4728666868558
 20
163.0636001536152
 11
172.4728666868558
 21
153.0636001536152
 72
     1
 10
172.4728666868558
 20
153.0636001536152
 11
110.4739452109505
 21
153.0636001536152
 72
     1
 10
110.4739452109505
 20
153.0636001536152
 11
110.4739452109506
 21
151.0636001536154
 72
     1
 10
110.4739452109506
 20
151.0636001536153
 11
105.4739452109503
 21
151.0636001536153
 72
     1
 10
105.4739452109503
 20
151.0636001536153
 11
105.4739452109503
 21
163.0636001536151
 97
        0
 75
     0
 76
     1
 52
0.0
 41
0.75
 77
     0
 78
     2
 53
45.0
 43
316.0724066439061
 44
0.0
 45
-3.367596045400931
 46
3.367596045400932
 79
     0
 53
45.0
 43
319.4400041439061
 44
0.0
 45
-3.367596045400931
 46
3.367596045400932
 79
     2
 49
2.381249999999999
 49
-1.190624999999999
 98
        1
 10
-475.3943163886593
 20
-397.932740887523
1001
ACAD
1010
0.0
1020
0.0
1030
0.0
  0
LINE
  5
58F7
330
1F
100
AcDbEntity
  8
SOLBET_Beton
100
AcDbLine
 10
105.4739452109503
 20
163.0636001536152
 30
0.0
 11
172.5319319540184
 21
163.0636001536152
 31
0.0
  0
LINE
  5
58F8
330
1F
100
AcDbEntity
  8
SOLBET_Emulsje_Folie
100
AcDbLine
 10
110.4739452109506
 20
151.0636001536153
 30
0.0
 11
105.4739452109503
 21
151.0636001536153
 31
0.0
  0
LINE
  5
58F9
330
1F
100
AcDbEntity
  8
SOLBET_Emulsje_Folie
100
AcDbLine
 10
105.4739452109503
 20
151.0636001536153
 30
0.0
 11
105.4739452109503
 21
163.0636001536152
 31
0.0
  0
HATCH
  5
58FA
330
1F
100
AcDbEntity
  8
SOLBET_Beton
100
AcDbHatch
 10
0.0
 20
0.0
 30
0.0
210
0.0
220
0.0
230
1.0
  2
ANSI37
 70
     0
 71
     0
 91
        1
 92
        1
 93
        4
 72
     1
 10
110.4739452109504
 20
153.0636001536152
 11
172.4728666868558
 21
153.0636001536152
 72
     1
 10
172.4728666868558
 20
153.0636001536152
 11
172.4728666868557
 21
151.0636001536154
 72
     1
 10
172.4728666868557
 20
151.0636001536153
 11
110.4739452109506
 21
151.0636001536125
 72
     1
 10
110.4739452109506
 20
151.0636001536125
 11
110.4739452109505
 21
153.0636001536152
 97
        0
 75
     0
 76
     1
 52
0.0
 41
1.0
 77
     0
 78
     2
 53
45.0
 43
-475.3943163886593
 44
-397.932740887523
 45
-2.245064030267287
 46
2.245064030267288
 79
     0
 53
135.0
 43
-475.3943163886593
 44
-397.932740887523
 45
-2.245064030267288
 46
-2.245064030267287
 79
     0
 98
        1
 10
-475.3943163886593
 20
-397.932740887523
1001
ACAD
1010
0.0
1020
0.0
1030
0.0
  0
LINE
  5
58FB
330
1F
100
AcDbEntity
  8
SOLBET_Beton
100
AcDbLine
 10
110.4739452109504
 20
153.0636001536152
 30
0.0
 11
172.5319319540184
 21
153.0636001536152
 31
0.0
  0
LINE
  5
58FC
330
1F
100
AcDbEntity
  8
SOLBET_Beton
100
AcDbLine
 10
172.5319319540184
 20
151.0636001536153
 30
0.0
 11
110.4739452109506
 21
151.0636001536125
 31
0.0
  0
LINE
  5
58FD
330
1F
100
AcDbEntity
  8
SOLBET_Beton
100
AcDbLine
 10
110.4739452109506
 20
151.0636001536125
 30
0.0
 11
110.4739452109504
 21
153.0636001536152
 31
0.0
  0
LWPOLYLINE
  5
58FF
330
1F
100
AcDbEntity
  8
SOLBET_Tynki_Posadzki
100
AcDbPolyline
 90
        5
 70
     0
 43
0.0
 10
115.5876827365231
 20
79.38712045007048
 10
115.5876827365231
 20
76.88712045007048
 10
172.5319319540183
 20
76.88712045007048
 10
172.5319319540185
 20
79.38712045007048
 10
115.5876827365231
 20
79.38712045007048
  0
LWPOLYLINE
  5
5900
330
1F
100
AcDbEntity
  8
SOLBET_Beton
100
AcDbPolyline
 90
        6
 70
     0
 43
0.0
 10
172.5319319540184
 20
57.04567201941336
 10
172.5319319540184
 20
60.54567201941336
 10
92.77286668685565
 20
60.54567201941347
 10
89.52896424783114
 20
57.04567201941336
 10
172.5319319540184
 20
57.04567201941336
 10
172.5319319540184
 20
60.54567201941336
  0
LINE
  5
5903
330
1F
100
AcDbEntity
  8
SOLBET_Wymiary_Opisy
  6
BATTING
100
AcDbLine
 10
172.5319319540184
 20
166.0376470979054
 30
0.0
 11
172.5319319540184
 21
163.5376470979056
 31
0.0
  0
LINE
  5
5904
330
1F
100
AcDbEntity
  8
SOLBET_Izolacja
  6
BATTING
 48
0.12
100
AcDbLine
 10
172.5319319540184
 20
164.7876470979055
 30
0.0
 11
115.4739452109506
 21
164.7876470979055
 31
0.0
  0
LINE
  5
590E
330
1F
100
AcDbEntity
  8
SOLBET_Bloczki
100
AcDbLine
 10
114.4739457739476
 20
205.963600153615
 30
0.0
 11
114.4739457739476
 21
199.8636009702089
 31
0.0
  0
LINE
  5
590F
330
1F
100
AcDbEntity
  8
SOLBET_Bloczki
100
AcDbLine
 10
93.47394577394766
 20
205.963600153615
 30
0.0
 11
93.47394577394766
 21
199.8636009702089
 31
0.0
  0
LINE
  5
5910
330
1F
100
AcDbEntity
  8
SOLBET_Bloczki
100
AcDbLine
 10
93.47394577394766
 20
199.8636009702089
 30
0.0
 11
114.4739457739476
 21
199.8636009702089
 31
0.0
  0
INSERT
  5
5911
330
1F
100
AcDbEntity
  8
SOLBET_Bloczki
100
AcDbBlockReference
  2
SOLBET_Plytka_60x240x590_brak_PRA
 10
99.4566829451025
 20
151.0636001536153
 30
0.0
  0
LINE
  5
591B
330
1F
100
AcDbEntity
  8
SOLBET_Bloczki
100
AcDbLine
 10
114.4566828631959
 20
122.0636004177527
 30
0.0
 11
114.4566828631959
 21
116.6379798429303
 31
0.0
  0
LINE
  5
591C
330
1F
100
AcDbEntity
  8
SOLBET_Bloczki
100
AcDbLine
 10
114.4566828631959
 20
115.1379798429301
 30
0.0
 11
114.4566828631959
 21
110.0636004177526
 31
0.0
  0
LINE
  5
591D
330
1F
100
AcDbEntity
  8
SOLBET_Bloczki
100
AcDbLine
 10
114.4566828631959
 20
122.0636004177527
 30
0.0
 11
99.45668286319596
 21
122.0636004177527
 31
0.0
  0
LINE
  5
591E
330
1F
100
AcDbEntity
  8
SOLBET_Bloczki
100
AcDbLine
 10
99.45668286319596
 20
122.0636004177527
 30
0.0
 11
99.45668286319596
 21
116.6379798429303
 31
0.0
  0
LINE
  5
591F
330
1F
100
AcDbEntity
  8
SOLBET_Bloczki
100
AcDbLine
 10
99.45668286319596
 20
115.1379798429301
 30
0.0
 11
99.45668286319596
 21
110.0636004177527
 31
0.0
  0
LINE
  5
5927
330
1F
100
AcDbEntity
  8
SOLBET_Bloczki
100
AcDbLine
 10
114.4566828631959
 20
151.0636001536153
 30
0.0
 11
114.4566828631959
 21
146.0636005286146
 31
0.0
  0
LINE
  5
5928
330
1F
100
AcDbEntity
  8
SOLBET_Bloczki
100
AcDbLine
 10
99.45668286319596
 20
150.2275767936343
 30
0.0
 11
99.45668286319596
 21
146.0636005286147
 31
0.0
  0
LINE
  5
5929
330
1F
100
AcDbEntity
  8
SOLBET_Bloczki
100
AcDbLine
 10
99.45668286319596
 20
146.0636005286147
 30
0.0
 11
114.4566828631959
 21
146.0636005286146
 31
0.0
  0
LINE
  5
592A
330
1F
100
AcDbEntity
  8
SOLBET_Izolacja
  6
BATTING
 48
0.12
100
AcDbLine
 10
115.4728666868556
 20
74.9876472167456
 30
0.0
 11
172.5319319540184
 21
74.9876472167456
 31
0.0
  0
LINE
  5
592B
330
1F
100
AcDbEntity
  8
SOLBET_Tynki_Posadzki
100
AcDbLine
 10
92.72394521095042
 20
163.8636001536151
 30
0.0
 11
93.19062340441723
 21
163.8636001536151
 31
0.0
  0
LINE
  5
592C
330
1F
100
AcDbEntity
  8
SOLBET_Zaprawy
100
AcDbLine
 10
93.19062340441723
 20
163.8636001536151
 30
0.0
 11
93.47394535169973
 21
163.8636001536151
 31
0.0
  0
LINE
  5
5931
330
1F
100
AcDbEntity
  8
SOLBET_Izolacja
  6
BATTING
 48
0.049
100
AcDbLine
 10
114.9665572485901
 20
79.31078494159578
 30
0.0
 11
114.9665572485901
 21
73.83515235789594
 31
0.0
  0
LINE
  5
5932
330
1F
100
AcDbEntity
  8
SOLBET_Izolacja
100
AcDbLine
 10
114.9665572485901
 20
73.83515235789594
 30
0.0
 11
114.9665572485901
 21
73.73764721422708
 31
0.0
  0
LINE
  5
5933
330
1F
100
AcDbEntity
  8
SOLBET_Izolacja
100
AcDbLine
 10
114.9665572485901
 20
79.38712045007048
 30
0.0
 11
114.9665572485901
 21
79.31078494159578
 31
0.0
  0
LINE
  5
5934
330
1F
100
AcDbEntity
  8
SOLBET_Tynki_Posadzki
100
AcDbLine
 10
227.855684842518
 20
257.2054293556568
 30
0.0
 11
262.5303156221723
 21
257.2054293556567
 31
0.0
  0
LINE
  5
5935
330
1F
100
AcDbEntity
  8
SOLBET_Beton
100
AcDbLine
 10
226.6317612821163
 20
255.7054293556567
 30
0.0
 11
262.3531198206844
 21
255.7054293556567
 31
0.0
  0
LINE
  5
5936
330
1F
100
AcDbEntity
  8
SOLBET_Beton
100
AcDbLine
 10
221.8721414906525
 20
248.2054293556567
 30
0.0
 11
262.3531198206844
 21
248.2054293556567
 31
0.0
  0
LINE
  5
5937
330
1F
100
AcDbEntity
  8
SOLBET_Izolacja
  6
Continuous
100
AcDbLine
 10
221.3254147849186
 20
247.0855088549906
 30
0.0
 11
262.5303156221723
 21
247.0855088549906
 31
0.0
  0
LINE
  5
5938
330
1F
100
AcDbEntity
  8
SOLBET_Izolacja
  6
Continuous
100
AcDbLine
 10
218.5652617099918
 20
239.5855088549912
 30
0.0
 11
262.5303156221723
 21
239.5855088549912
 31
0.0
  0
LINE
  5
5939
330
1F
100
AcDbEntity
  8
SOLBET_Tynki_Posadzki
100
AcDbLine
 10
225.8415788281681
 20
200.6633680221206
 30
0.0
 11
262.5303156221723
 21
200.6633680221207
 31
0.0
  0
LINE
  5
593A
330
1F
100
AcDbEntity
  8
SOLBET_Zbrojenie_Konstrukcja
100
AcDbLine
 10
260.8563553929687
 20
227.6633680221203
 30
0.0
 11
262.3531198206844
 21
224.8569347201542
 31
0.0
  0
LINE
  5
593B
330
1F
100
AcDbEntity
  8
SOLBET_Zbrojenie_Konstrukcja
100
AcDbLine
 10
250.4563553929677
 20
208.16336802212
 30
0.0
 11
260.8563553929687
 21
227.6633680221203
 31
0.0
  0
LINE
  5
593C
330
1F
100
AcDbEntity
  8
SOLBET_Zbrojenie_Konstrukcja
100
AcDbLine
 10
226.4563553929677
 20
208.16336802212
 30
0.0
 11
236.856355392968
 21
227.6633680221203
 31
0.0
  0
LINE
  5
593D
330
1F
100
AcDbEntity
  8
SOLBET_Zbrojenie_Konstrukcja
  6
Continuous
100
AcDbLine
 10
262.5303156221723
 20
227.663368022121
 30
0.0
 11
216.9774517436001
 21
227.6633680221207
 31
0.0
  0
LINE
  5
593E
330
1F
100
AcDbEntity
  8
SOLBET_Zbrojenie_Konstrukcja
100
AcDbLine
 10
236.856355392968
 20
227.6633680221203
 30
0.0
 11
247.2563553929688
 21
208.16336802212
 31
0.0
  0
LINE
  5
593F
330
1F
100
AcDbEntity
  8
SOLBET_Zbrojenie_Konstrukcja
100
AcDbLine
 10
218.0170165668612
 20
217.9871283210708
 30
0.0
 11
223.2563553929688
 21
208.16336802212
 31
0.0
  0
LINE
  5
594E
330
1F
100
AcDbEntity
  8
SOLBET_Tynki_Posadzki
100
AcDbLine
 10
262.2663587107693
 20
248.2474253309446
 30
0.0
 11
262.2663587107693
 21
248.2474253309446
 31
0.0
1001
ACAD
1010
0.0
1020
0.0
1030
0.0
  0
LINE
  5
594F
330
1F
100
AcDbEntity
  8
SOLBET_Tynki_Posadzki
100
AcDbLine
 10
225.2254992898845
 20
248.2814422015981
 30
0.0
 11
225.2254992898845
 21
248.2814422015981
 31
0.0
1001
ACAD
1010
0.0
1020
0.0
1030
0.0
  0
LINE
  5
5957
330
1F
100
AcDbEntity
  8
SOLBET_Wymiary_Opisy
 62
     1
100
AcDbLine
 10
262.5303156221723
 20
257.2054293556567
 30
0.0
 11
262.5303156221723
 21
182.1105041435487
 31
0.0
  0
LINE
  5
5958
330
1F
100
AcDbEntity
  8
SOLBET_Emulsje_Folie
100
AcDbLine
 10
221.6074984744689
 20
247.6730267957071
 30
0.0
 11
262.5303156221723
 21
247.673026795707
 31
0.0
  0
LINE
  5
5959
330
1F
100
AcDbEntity
  8
SOLBET_Tynki_Posadzki
100
AcDbLine
 10
221.8721414906525
 20
248.2054293556566
 30
0.0
 11
262.5303156221723
 21
248.2054293556567
 31
0.0
1001
ASO_SCHRAFF
1005
0
1070
     1
1002
{
1070
     1
1005
0
1002
}
1002
{
1070
     2
1005
0
1002
}
1002
{
1070
     4
1000
AR-CONC
1040
0.01
1040
0.0
1070
     0
1000
T__SCHR
1070
   256
1000
_bylayer
1040
50.0
1070
     1
1002
}
  0
LINE
  5
595A
330
1F
100
AcDbEntity
  8
SOLBET_Tynki_Posadzki
100
AcDbLine
 10
262.5303156221723
 20
255.7054293556567
 30
0.0
 11
226.6317612821163
 21
255.7054293556567
 31
0.0
1001
ASO_SCHRAFF
1005
0
1070
     1
1002
{
1070
     1
1005
0
1002
}
1002
{
1070
     2
1005
0
1002
}
1002
{
1070
     4
1000
AR-CONC
1040
0.01
1040
0.0
1070
     0
1000
T__SCHR
1070
   256
1000
_bylayer
1040
50.0
1070
     1
1002
}
  0
LINE
  5
595B
330
1F
100
AcDbEntity
  8
SOLBET_Beton
100
AcDbLine
 10
217.2455488124683
 20
222.7284614849699
 30
0.0
 11
232.6804553496181
 21
238.1633680221198
 31
0.0
1001
ACAD
1010
0.0
1020
0.0
1030
0.0
  0
LINE
  5
595C
330
1F
100
AcDbEntity
  8
SOLBET_Beton
100
AcDbLine
 10
222.8860316220237
 20
208.1633680221199
 30
0.0
 11
252.8860316220236
 21
238.1633680221199
 31
0.0
1001
ACAD
1010
0.0
1020
0.0
1030
0.0
  0
LINE
  5
595D
330
1F
100
AcDbEntity
  8
SOLBET_Beton
100
AcDbLine
 10
243.0916078944294
 20
208.1633680221199
 30
0.0
 11
262.3531198206844
 21
227.4248799483751
 31
0.0
1001
ACAD
1010
0.0
1020
0.0
1030
0.0
  0
LINE
  5
595E
330
1F
100
AcDbEntity
  8
SOLBET_Beton
100
AcDbLine
 10
218.3207016541012
 20
233.9063980990087
 30
0.0
 11
222.5776715772124
 21
238.1633680221198
 31
0.0
1001
ACAD
1010
0.0
1020
0.0
1030
0.0
  0
LINE
  5
595F
330
1F
100
AcDbEntity
  8
SOLBET_Beton
100
AcDbLine
 10
220.8463986881522
 20
216.2265188606538
 30
0.0
 11
225.8977927562535
 21
221.2779129287552
 31
0.0
1001
ACAD
1010
0.0
1020
0.0
1030
0.0
  0
LINE
  5
5960
330
1F
100
AcDbEntity
  8
SOLBET_Beton
100
AcDbLine
 10
228.4234897903041
 20
223.8036099628059
 30
0.0
 11
233.4748838584058
 21
228.8550040309073
 31
0.0
1001
ACAD
1010
0.0
1020
0.0
1030
0.0
  0
LINE
  5
5961
330
1F
100
AcDbEntity
  8
SOLBET_Beton
100
AcDbLine
 10
236.0005808924561
 20
231.380701064958
 30
0.0
 11
241.0519749605576
 21
236.4320951330594
 31
0.0
1001
ACAD
1010
0.0
1020
0.0
1030
0.0
  0
LINE
  5
5962
330
1F
100
AcDbEntity
  8
SOLBET_Beton
100
AcDbLine
 10
232.9888241220235
 20
208.1633680221199
 30
0.0
 11
236.0005808924561
 21
211.1751247925523
 31
0.0
1001
ACAD
1010
0.0
1020
0.0
1030
0.0
  0
LINE
  5
5963
330
1F
100
AcDbEntity
  8
SOLBET_Beton
100
AcDbLine
 10
238.5262779265068
 20
213.700821826603
 30
0.0
 11
243.5776719946082
 21
218.7522158947043
 31
0.0
1001
ACAD
1010
0.0
1020
0.0
1030
0.0
  0
LINE
  5
5964
330
1F
100
AcDbEntity
  8
SOLBET_Beton
100
AcDbLine
 10
246.1033690286588
 20
221.2779129287551
 30
0.0
 11
251.15476309676
 21
226.3293069968565
 31
0.0
1001
ACAD
1010
0.0
1020
0.0
1030
0.0
  0
LINE
  5
5965
330
1F
100
AcDbEntity
  8
SOLBET_Beton
100
AcDbLine
 10
253.6804601308111
 20
228.8550040309072
 30
0.0
 11
258.731854198912
 21
233.9063980990086
 31
0.0
1001
ACAD
1010
0.0
1020
0.0
1030
0.0
  0
LINE
  5
5966
330
1F
100
AcDbEntity
  8
SOLBET_Beton
100
AcDbLine
 10
261.2575512329629
 20
236.4320951330592
 30
0.0
 11
262.3531198206844
 21
237.5276637207807
 31
0.0
1001
ACAD
1010
0.0
1020
0.0
1030
0.0
  0
LINE
  5
5967
330
1F
100
AcDbEntity
  8
SOLBET_Beton
100
AcDbLine
 10
253.1944003944293
 20
208.1633680221199
 30
0.0
 11
253.6804601308111
 21
208.6494277585019
 31
0.0
1001
ACAD
1010
0.0
1020
0.0
1030
0.0
  0
LINE
  5
5968
330
1F
100
AcDbEntity
  8
SOLBET_Beton
100
AcDbLine
 10
256.2061571648617
 20
211.1751247925525
 30
0.0
 11
261.2575512329631
 21
216.2265188606539
 31
0.0
1001
ACAD
1010
0.0
1020
0.0
1030
0.0
  0
LINE
  5
5969
330
1F
100
AcDbEntity
  8
SOLBET_Beton
100
AcDbLine
 10
218.2040998177556
 20
238.1633680221201
 30
0.0
 11
262.5303156221723
 21
238.16336802212
 31
0.0
  0
LINE
  5
596A
330
1F
100
AcDbEntity
  8
SOLBET_Beton
100
AcDbLine
 10
223.5714017470343
 20
204.0568766011299
 30
0.0
 11
227.6778931680246
 21
208.16336802212
 31
0.0
1001
ACAD
1010
0.0
1020
0.0
1030
0.0
  0
LINE
  5
596B
330
1F
100
AcDbEntity
  8
SOLBET_Beton
100
AcDbLine
 10
235.1482773496275
 20
202.1633680221187
 30
0.0
 11
241.1482773496282
 21
208.1633680221198
 31
0.0
1001
ACAD
1010
0.0
1020
0.0
1030
0.0
  0
LINE
  5
596C
330
1F
100
AcDbEntity
  8
SOLBET_Beton
100
AcDbLine
 10
248.618661531232
 20
202.1633680221198
 30
0.0
 11
254.6186615312324
 21
208.1633680221201
 31
0.0
1001
ACAD
1010
0.0
1020
0.0
1030
0.0
  0
LINE
  5
596D
330
1F
100
AcDbEntity
  8
SOLBET_Bloczki
100
AcDbLine
 10
262.0890457128364
 20
202.1633680221206
 30
0.0
 11
262.3531198206838
 21
202.4274421299678
 31
0.0
1001
ACAD
1010
0.0
1020
0.0
1030
0.0
  0
LINE
  5
596E
330
1F
100
AcDbEntity
  8
SOLBET_Beton
100
AcDbLine
 10
227.9439714141101
 20
202.1633680221187
 30
0.0
 11
221.9439714141088
 21
208.1633680221199
 31
0.0
1001
ACAD
1010
0.0
1020
0.0
1030
0.0
  0
LINE
  5
596F
330
1F
100
AcDbEntity
  8
SOLBET_Beton
100
AcDbLine
 10
241.4143555957132
 20
202.1633680221191
 30
0.0
 11
235.4143555957126
 21
208.1633680221197
 31
0.0
1001
ACAD
1010
0.0
1020
0.0
1030
0.0
  0
LINE
  5
5970
330
1F
100
AcDbEntity
  8
SOLBET_Beton
100
AcDbLine
 10
254.8847397773165
 20
202.16336802212
 30
0.0
 11
248.8847397773168
 21
208.1633680221198
 31
0.0
1001
ACAD
1010
0.0
1020
0.0
1030
0.0
  0
LINE
  5
5971
330
1F
100
AcDbEntity
  8
SOLBET_Beton
100
AcDbLine
 10
221.362204084968
 20
208.16336802212
 30
0.0
 11
262.5303156221723
 21
208.16336802212
 31
0.0
  0
LINE
  5
5972
330
1F
100
AcDbEntity
  8
SOLBET_Beton
100
AcDbLine
 10
262.5303156221723
 20
202.1633680221203
 30
0.0
 11
224.7836150042426
 21
202.1633680221187
 31
0.0
  0
LINE
  5
5973
330
1F
100
AcDbEntity
  8
SOLBET_Izolacja
  6
BATTING
 48
0.355
100
AcDbLine
 10
261.6283484371943
 20
243.3355088549909
 30
0.0
 11
220.8505196178714
 21
243.3355088549908
 31
0.0
  0
ARC
  5
5974
330
1F
100
AcDbEntity
  8
SOLBET_Wymiary_Opisy
100
AcDbCircle
 10
262.5303156221723
 20
227.663368022121
 30
0.0
 40
45.55286387857234
100
AcDbArc
 50
139.5696959978361
 51
270.0
  0
MTEXT
  5
5975
102
{ACAD_XDICTIONARY
360
6A40
102
}
330
1F
100
AcDbEntity
  8
SOLBET_Wymiary_Opisy
100
AcDbMText
 10
228.6722493410759
 20
278.2722778713899
 30
0.0
 40
5.0
 41
30.77919768571883
 71
     1
 72
     5
  1
\pxqc;A\P(3 : 1)
  7
Solbet_5
 73
     1
 44
1.0
1001
ACAD
1000
MTEXTBEGIN
1070
    73
1070
     1
1070
    44
1040
1.0
1070
    74
1070
     0
1000
MTEXTEND
1000
ACAD_MTEXT_DEFINED_HEIGHT_BEGIN
1070
    46
1040
23.42535011036716
1000
ACAD_MTEXT_DEFINED_HEIGHT_END
  0
LEADER
  5
5976
330
1F
100
AcDbEntity
  8
SOLBET_Wymiary_Opisy
100
AcDbLeader
  3
Solbet$7
 73
     0
 74
     0
 75
     1
 40
3.5
 41
37.25
 76
     3
 10
259.1320320224459
 20
256.6441437241179
 30
0.0
 10
283.8336156425876
 20
268.3960871918876
 30
0.0
 10
286.3336156425876
 20
268.3960871918876
 30
0.0
340
5977
213
1.177601578005123
223
-0.1753245211093599
233
0.0
1001
ACAD
1000
DSTYLE
1002
{
1070
   147
1040
0.625
1070
    77
1070
     1
1002
}
  0
MTEXT
  5
5977
102
{ACAD_XDICTIONARY
360
6BA8
102
}
102
{ACAD_REACTORS
330
5976
102
}
330
1F
100
AcDbEntity
  8
SOLBET_Wymiary_Opisy
100
AcDbMText
 10
285.7810140645824
 20
272.696411712997
 30
0.0
 40
2.5
 41
0.0
 71
     1
 72
     1
  1
Warstwa wyko\U+0144czeniowa
  7
Solbet_2_5
 73
     1
 44
1.0
1001
ACAD
1000
MTEXTBEGIN
1070
    73
1070
     1
1070
    44
1040
1.0
1070
    74
1070
     0
1000
MTEXTEND
  0
LEADER
  5
5978
330
1F
100
AcDbEntity
  8
SOLBET_Wymiary_Opisy
100
AcDbLeader
  3
Solbet$7
 73
     0
 74
     0
 75
     1
 40
3.25
 41
32.5
 76
     3
 10
259.690300531553
 20
251.5103636547943
 30
0.0
 10
282.6560140645824
 20
262.1548806612969
 30
0.0
 10
285.1560140645824
 20
262.1548806612969
 30
0.0
340
5979
213
0.0
223
-0.2322806831707567
233
0.0
1001
ACAD
1000
DSTYLE
1002
{
1070
   147
1040
0.625
1070
    77
1070
     1
1002
}
  0
MTEXT
  5
5979
102
{ACAD_REACTORS
330
5978
102
}
330
1F
100
AcDbEntity
  8
SOLBET_Wymiary_Opisy
100
AcDbMText
 10
285.7810140645824
 20
266.2621613444676
 30
0.0
 40
2.5
 41
0.0
 71
     1
 72
     1
  1
Wylewka jastrychowa
  7
Solbet_2_5
 73
     1
 44
1.0
1001
ACAD
1000
MTEXTBEGIN
1070
    73
1070
     1
1070
    44
1040
1.0
1070
    74
1070
     0
1000
MTEXTEND
  0
LEADER
  5
597A
330
1F
100
AcDbEntity
  8
SOLBET_Wymiary_Opisy
100
AcDbLeader
  3
Solbet$7
 73
     0
 74
     0
 75
     1
 40
3.25
 41
19.75
 76
     3
 10
261.7288493652523
 20
247.673026795707
 30
0.0
 10
282.6560140645824
 20
255.9197235825191
 30
0.0
 10
285.1560140645824
 20
255.9197235825191
 30
0.0
340
597B
213
0.0
223
-0.2322806831707567
233
0.0
1001
ACAD
1000
DSTYLE
1002
{
1070
   147
1040
0.625
1070
    77
1070
     1
1002
}
  0
MTEXT
  5
597B
102
{ACAD_REACTORS
330
597A
102
}
330
1F
100
AcDbEntity
  8
SOLBET_Wymiary_Opisy
100
AcDbMText
 10
285.7810140645824
 20
260.0270042656898
 30
0.0
 40
2.5
 41
0.0
 71
     1
 72
     1
  1
Hydroizolacja
  7
Solbet_2_5
 73
     1
 44
1.0
1001
ACAD
1000
MTEXTBEGIN
1070
    73
1070
     1
1070
    44
1040
1.0
1070
    74
1070
     0
1000
MTEXTEND
  0
LEADER
  5
597C
330
1F
100
AcDbEntity
  8
SOLBET_Wymiary_Opisy
100
AcDbLeader
  3
Solbet$7
 73
     0
 74
     0
 75
     1
 40
3.25
 41
36.5
 76
     3
 10
259.206973475109
 20
240.4969352941045
 30
0.0
 10
282.6560140645824
 20
249.4477804635822
 30
0.0
 10
285.1560140645824
 20
249.4477804635822
 30
0.0
340
597D
213
0.0
223
-0.2322806831707567
233
0.0
1001
ACAD
1000
DSTYLE
1002
{
1070
   147
1040
0.625
1070
    77
1070
     1
1002
}
  0
MTEXT
  5
597D
102
{ACAD_XDICTIONARY
360
6BAA
102
}
102
{ACAD_REACTORS
330
597C
102
}
330
1F
100
AcDbEntity
  8
SOLBET_Wymiary_Opisy
100
AcDbMText
 10
285.7810140645824
 20
253.555061146753
 30
0.0
 40
2.5
 41
0.0
 71
     1
 72
     1
  1
P\U+0142yty izolacyjne twarde
  7
Solbet_2_5
 73
     1
 44
1.0
1001
ACAD
1000
MTEXTBEGIN
1070
    73
1070
     1
1070
    44
1040
1.0
1070
    74
1070
     0
1000
MTEXTEND
  0
LEADER
  5
597E
330
1F
100
AcDbEntity
  8
SOLBET_Wymiary_Opisy
100
AcDbLeader
  3
Solbet$7
 73
     0
 74
     0
 75
     1
 40
2.501893939393939
 41
30.25
 76
     3
 10
258.0405583669893
 20
233.2151022670859
 30
0.0
 10
282.6560140645824
 20
243.8818045589102
 30
0.0
 10
285.1560140645824
 20
243.8818045589102
 30
0.0
340
597F
213
0.0
223
-0.2322806831707567
233
0.0
1001
ACAD
1000
DSTYLE
1002
{
1070
   147
1040
0.625
1070
    77
1070
     1
1002
}
  0
MTEXT
  5
597F
102
{ACAD_REACTORS
330
597E
102
}
330
1F
100
AcDbEntity
  8
SOLBET_Wymiary_Opisy
100
AcDbMText
 10
285.7810140645824
 20
247.2409791814749
 30
0.0
 40
2.5
 41
0.0
 71
     1
 72
     1
  1
Warstwa nadbetonu
  7
Solbet_2_5
 73
     1
 44
1.0
1001
ACAD
1000
MTEXTBEGIN
1070
    73
1070
     1
1070
    44
1040
1.0
1070
    74
1070
     0
1000
MTEXTEND
  0
LEADER
  5
5980
330
1F
100
AcDbEntity
  8
SOLBET_Wymiary_Opisy
100
AcDbLeader
  3
Solbet$7
 73
     0
 74
     0
 75
     1
 40
3.25
 41
20.25
 76
     3
 10
258.802336102136
 20
204.9630885637098
 30
0.0
 10
279.7295008014662
 20
213.2097853505219
 30
0.0
 10
282.2295008014662
 20
213.2097853505219
 30
0.0
340
5981
213
0.0
223
-0.2322806831707567
233
0.0
1001
ACAD
1000
DSTYLE
1002
{
1070
   147
1040
0.625
1070
    77
1070
     1
1002
}
  0
MTEXT
  5
5981
102
{ACAD_REACTORS
330
5980
102
}
330
1F
100
AcDbEntity
  8
SOLBET_Wymiary_Opisy
100
AcDbMText
 10
282.8545008014662
 20
217.3170660336927
 30
0.0
 40
2.5
 41
0.0
 71
     1
 72
     1
  1
Strop Terivia
  7
Solbet_2_5
 73
     1
 44
1.0
1001
ACAD
1000
MTEXTBEGIN
1070
    73
1070
     1
1070
    44
1040
1.0
1070
    74
1070
     0
1000
MTEXTEND
  0
LEADER
  5
5982
330
1F
100
AcDbEntity
  8
SOLBET_Wymiary_Opisy
100
AcDbLeader
  3
Solbet$7
 73
     0
 74
     0
 40
3.25
 41
20.25
 76
     2
 10
258.8335676378151
 20
201.4119179207088
 30
0.0
 10
282.2607323371453
 20
195.553366685604
 30
0.0
340
5983
213
0.0
223
-0.2322806831707567
233
0.0
1001
ACAD
1000
DSTYLE
1002
{
1070
   147
1040
0.625
1070
    77
1070
     1
1002
}
  0
MTEXT
  5
5983
102
{ACAD_REACTORS
330
5982
102
}
330
1F
100
AcDbEntity
  8
SOLBET_Wymiary_Opisy
100
AcDbMText
 10
282.8857323371453
 20
199.6606473687747
 30
0.0
 40
2.5
 41
0.0
 71
     1
 72
     1
  1
Tynk SOLBET
  7
Solbet_2_5
 73
     1
 44
1.0
1001
ACAD
1000
MTEXTBEGIN
1070
    73
1070
     1
1070
    44
1040
1.0
1070
    74
1070
     0
1000
MTEXTEND
  0
LINE
  5
5984
330
1F
100
AcDbEntity
  8
SOLBET_Wymiary_Opisy
100
AcDbLine
 10
172.5319319540184
 20
169.4109539314607
 30
0.0
 11
172.5319319540184
 21
150.1679098137018
 31
0.0
  0
CIRCLE
  5
5985
330
1F
100
AcDbEntity
  8
SOLBET_Wymiary_Opisy
100
AcDbCircle
 10
173.1765308727757
 20
159.1835482705388
 30
0.0
 40
15.69136702507563
  0
LEADER
  5
5986
330
1F
100
AcDbEntity
  8
SOLBET_Wymiary_Opisy
100
AcDbLeader
  3
Solbet$7
 73
     0
 74
     0
 75
     1
 40
5.0
 41
3.5
 76
     3
 10
179.2567077289444
 20
173.6490399149088
 30
0.0
 10
182.7278579297609
 20
177.6475266539528
 30
0.0
 10
185.2278579297609
 20
177.6475266539528
 30
0.0
340
5987
213
0.8103787685154202
223
-0.1753245211093599
233
0.0
1001
ACAD
1000
DSTYLE
1002
{
1070
   341
1005
1EF2
1070
   147
1040
0.625
1070
    77
1070
     1
1002
}
  0
MTEXT
  5
5987
102
{ACAD_REACTORS
330
5986
102
}
330
1F
100
AcDbEntity
  8
SOLBET_Wymiary_Opisy
100
AcDbMText
 10
188.5424791612455
 20
183.4478511750622
 30
0.0
 40
5.0
 41
0.0
 71
     3
 72
     1
  1
A
  7
Solbet_5
 73
     1
 44
1.0
1001
ACAD
1000
MTEXTBEGIN
1070
    73
1070
     1
1070
    44
1040
1.0
1070
    74
1070
     0
1000
MTEXTEND
  0
LEADER
  5
598C
330
1F
100
AcDbEntity
  8
SOLBET_Wymiary_Opisy
100
AcDbLeader
  3
Solbet$7
 73
     0
 40
3.25
 41
19.25
 76
     2
 10
99.26453137697059
 20
108.1784798597073
 30
0.0
 10
73.40662511119081
 20
101.2564956259588
 30
0.0
340
598D
213
1.177601578005123
223
-0.1753245211093599
233
0.0
1001
ACAD
1000
DSTYLE
1002
{
1070
   147
1040
0.625
1070
    77
1070
     1
1002
}
  0
MTEXT
  5
598D
102
{ACAD_REACTORS
330
598C
102
}
330
1F
100
AcDbEntity
  8
SOLBET_Wymiary_Opisy
100
AcDbMText
 10
71.60402353318568
 20
105.3068201470682
 30
0.0
 40
2.5
 41
0.0
 71
     3
 72
     1
  1
Hydroizolacja
  7
Solbet_2_5
 73
     1
 44
1.0
1001
ACAD
1000
MTEXTBEGIN
1070
    73
1070
     1
1070
    44
1040
1.0
1070
    74
1070
     0
1000
MTEXTEND
  0
LEADER
  5
598E
330
1F
100
AcDbEntity
  8
SOLBET_Wymiary_Opisy
100
AcDbLeader
  3
Solbet$7
 73
     0
 75
     1
 40
3.25
 41
49.5
 76
     3
 10
108.8286562270525
 20
104.3926676703766
 30
0.0
 10
73.52732016395362
 20
92.27736936830661
 30
0.0
 10
71.02732016395362
 20
92.27736936830661
 30
0.0
340
598F
213
1.177601578005123
223
-0.1753245211093599
233
0.0
1001
ACAD
1000
DSTYLE
1002
{
1070
   147
1040
0.625
1070
    77
1070
     1
1002
}
  0
MTEXT
  5
598F
102
{ACAD_REACTORS
330
598E
102
}
330
1F
100
AcDbEntity
  8
SOLBET_Wymiary_Opisy
100
AcDbMText
 10
69.2247185859485
 20
96.32769388941596
 30
0.0
 40
2.5
 41
0.0
 71
     3
 72
     1
  1
Bloczki SOLBET bez profilowania
  7
Solbet_2_5
 73
     1
 44
1.0
1001
ACAD
1000
MTEXTBEGIN
1070
    73
1070
     1
1070
    44
1040
1.0
1070
    74
1070
     0
1000
MTEXTEND
  0
LEADER
  5
5990
330
1F
100
AcDbEntity
  8
SOLBET_Wymiary_Opisy
100
AcDbLeader
  3
Solbet$7
 73
     0
 75
     1
 40
3.25
 41
19.75
 76
     3
 10
114.9728666868554
 20
96.85431401164848
 30
0.0
 10
73.84368954274953
 20
83.77147258217338
 30
0.0
 10
71.34368954274953
 20
83.77147258217338
 30
0.0
340
5991
213
1.177601578005123
223
-0.1753245211093599
233
0.0
1001
ACAD
1000
DSTYLE
1002
{
1070
   147
1040
0.625
1070
    77
1070
     1
1002
}
  0
MTEXT
  5
5991
102
{ACAD_REACTORS
330
5990
102
}
330
1F
100
AcDbEntity
  8
SOLBET_Wymiary_Opisy
100
AcDbMText
 10
69.5410879647444
 20
87.82179710328273
 30
0.0
 40
2.5
 41
0.0
 71
     3
 72
     1
  1
Tynk SOLBET
  7
Solbet_2_5
 73
     1
 44
1.0
1001
ACAD
1000
MTEXTBEGIN
1070
    73
1070
     1
1070
    44
1040
1.0
1070
    74
1070
     0
1000
MTEXTEND
  0
LEADER
  5
5992
330
1F
100
AcDbEntity
  8
SOLBET_Wymiary_Opisy
100
AcDbLeader
  3
Solbet$7
 73
     0
 40
3.5
 41
55.25
 76
     2
 10
98.80799446621137
 20
112.7534600445322
 30
0.0
 10
74.00328172619509
 20
107.7811184431749
 30
0.0
340
5993
213
1.177601578005123
223
-0.1753245211093599
233
0.0
1001
ACAD
1000
DSTYLE
1002
{
1070
   147
1040
0.625
1070
    77
1070
     1
1002
}
  0
MTEXT
  5
5993
102
{ACAD_REACTORS
330
5992
102
}
330
1F
100
AcDbEntity
  8
SOLBET_Wymiary_Opisy
100
AcDbMText
 10
72.20068014818997
 20
112.0814429642843
 30
0.0
 40
2.5
 41
0.0
 71
     3
 72
     1
  1
Folia kubelkowa (np. DELTA-MS 500)
  7
Solbet_2_5
 73
     1
 44
1.0
1001
ACAD
1000
MTEXTBEGIN
1070
    73
1070
     1
1070
    44
1040
1.0
1070
    74
1070
     0
1000
MTEXTEND
  0
LEADER
  5
5995
330
1F
100
AcDbEntity
  8
SOLBET_Wymiary_Opisy
100
AcDbLeader
  3
Solbet$7
 73
     0
 74
     0
 75
     1
 40
3.5
 41
37.25
 76
     3
 10
265.3198717646668
 20
146.766248626399
 30
0.0
 10
283.8039166514245
 20
159.5219898294696
 30
0.0
 10
286.3039166514245
 20
159.5219898294696
 30
0.0
340
5996
213
1.177601578005123
223
-0.1753245211093599
233
0.0
1001
ACAD
1000
DSTYLE
1002
{
1070
   147
1040
0.625
1070
    77
1070
     1
1002
}
  0
MTEXT
  5
5996
102
{ACAD_XDICTIONARY
360
6BAC
102
}
102
{ACAD_REACTORS
330
5995
102
}
330
1F
100
AcDbEntity
  8
SOLBET_Wymiary_Opisy
100
AcDbMText
 10
285.7513150734194
 20
163.822314350579
 30
0.0
 40
2.5
 41
0.0
 71
     1
 72
     1
  1
Warstwa wyko\U+0144czeniowa
  7
Solbet_2_5
 73
     1
 44
1.0
1001
ACAD
1000
MTEXTBEGIN
1070
    73
1070
     1
1070
    44
1040
1.0
1070
    74
1070
     0
1000
MTEXTEND
  0
LEADER
  5
5997
330
1F
100
AcDbEntity
  8
SOLBET_Wymiary_Opisy
100
AcDbLeader
  3
Solbet$7
 73
     0
 74
     0
 75
     1
 40
3.25
 41
32.5
 76
     3
 10
266.7433265467978
 20
142.4733893166698
 30
0.0
 10
282.5746478759429
 20
151.4295011645176
 30
0.0
 10
285.0746478759429
 20
151.4295011645176
 30
0.0
340
5998
213
0.0
223
-0.2322806831707567
233
0.0
1001
ACAD
1000
DSTYLE
1002
{
1070
   147
1040
0.625
1070
    77
1070
     1
1002
}
  0
MTEXT
  5
5998
102
{ACAD_REACTORS
330
5997
102
}
330
1F
100
AcDbEntity
  8
SOLBET_Wymiary_Opisy
100
AcDbMText
 10
285.6996478759429
 20
155.5367818476883
 30
0.0
 40
2.5
 41
0.0
 71
     1
 72
     1
  1
Wylewka jastrychowa
  7
Solbet_2_5
 73
     1
 44
1.0
1001
ACAD
1000
MTEXTBEGIN
1070
    73
1070
     1
1070
    44
1040
1.0
1070
    74
1070
     0
1000
MTEXTEND
  0
LEADER
  5
5999
330
1F
100
AcDbEntity
  8
SOLBET_Wymiary_Opisy
100
AcDbLeader
  3
Solbet$7
 73
     0
 74
     0
 75
     1
 40
3.25
 41
19.75
 76
     3
 10
266.8576963999517
 20
137.63652106047
 30
0.0
 10
282.9594462233071
 20
143.1083555136542
 30
0.0
 10
285.4594462233072
 20
143.1083555136542
 30
0.0
340
599A
213
0.0
223
-0.2322806831707567
233
0.0
1001
ACAD
1000
DSTYLE
1002
{
1070
   147
1040
0.625
1070
    77
1070
     1
1002
}
  0
MTEXT
  5
599A
102
{ACAD_REACTORS
330
5999
102
}
330
1F
100
AcDbEntity
  8
SOLBET_Wymiary_Opisy
100
AcDbMText
 10
286.0844462233071
 20
147.2156361968249
 30
0.0
 40
2.5
 41
0.0
 71
     1
 72
     1
  1
Hydroizolacja
  7
Solbet_2_5
 73
     1
 44
1.0
1001
ACAD
1000
MTEXTBEGIN
1070
    73
1070
     1
1070
    44
1040
1.0
1070
    74
1070
     0
1000
MTEXTEND
  0
LEADER
  5
599B
330
1F
100
AcDbEntity
  8
SOLBET_Wymiary_Opisy
100
AcDbLeader
  3
Solbet$7
 73
     0
 74
     0
 75
     1
 40
3.25
 41
36.5
 76
     3
 10
263.6026037242254
 20
133.2990031273094
 30
0.0
 10
283.3908907363657
 20
121.3556361417196
 30
0.0
 10
285.8908907363657
 20
121.3556361417196
 30
0.0
340
599C
213
0.0
223
-0.2322806831707567
233
0.0
1001
ACAD
1000
DSTYLE
1002
{
1070
   147
1040
0.625
1070
    77
1070
     1
1002
}
  0
MTEXT
  5
599C
102
{ACAD_XDICTIONARY
360
6BAE
102
}
102
{ACAD_REACTORS
330
599B
102
}
330
1F
100
AcDbEntity
  8
SOLBET_Wymiary_Opisy
100
AcDbMText
 10
286.5158907363657
 20
125.4629168248903
 30
0.0
 40
2.5
 41
0.0
 71
     1
 72
     1
  1
P\U+0142yty izolacyjne twarde
  7
Solbet_2_5
 73
     1
 44
1.0
1001
ACAD
1000
MTEXTBEGIN
1070
    73
1070
     1
1070
    44
1040
1.0
1070
    74
1070
     0
1000
MTEXTEND
  0
LEADER
  5
599D
330
1F
100
AcDbEntity
  8
SOLBET_Wymiary_Opisy
100
AcDbLeader
  3
Solbet$7
 73
     0
 74
     0
 75
     1
 40
3.25
 41
19.75
 76
     3
 10
264.5629217902115
 20
128.0002810130455
 30
0.0
 10
284.4167161460609
 20
104.2216638837732
 30
0.0
 10
286.9167161460609
 20
104.2216638837732
 30
0.0
340
599E
213
0.0
223
-0.2322806831707567
233
0.0
1001
ACAD
1000
DSTYLE
1002
{
1070
   147
1040
0.625
1070
    77
1070
     1
1002
}
  0
MTEXT
  5
599E
102
{ACAD_REACTORS
330
599D
102
}
330
1F
100
AcDbEntity
  8
SOLBET_Wymiary_Opisy
100
AcDbMText
 10
287.5417161460609
 20
108.328944566944
 30
0.0
 40
2.5
 41
0.0
 71
     1
 72
     1
  1
Hydroizolacja
  7
Solbet_2_5
 73
     1
 44
1.0
1001
ACAD
1000
MTEXTBEGIN
1070
    73
1070
     1
1070
    44
1040
1.0
1070
    74
1070
     0
1000
MTEXTEND
  0
LEADER
  5
599F
330
1F
100
AcDbEntity
  8
SOLBET_Wymiary_Opisy
100
AcDbLeader
  3
Solbet$7
 73
     0
 74
     0
 75
     1
 40
3.25
 41
25.25
 76
     3
 10
258.2628317068245
 20
95.39078802034312
 30
0.0
 10
283.563268326368
 20
85.74266834537942
 30
0.0
 10
286.063268326368
 20
85.74266834537942
 30
0.0
340
59A0
213
0.0
223
-0.2322806831707567
233
0.0
1001
ACAD
1000
DSTYLE
1002
{
1070
   147
1040
0.625
1070
    77
1070
     1
1002
}
  0
MTEXT
  5
59A0
102
{ACAD_XDICTIONARY
360
6BB0
102
}
102
{ACAD_REACTORS
330
599F
102
}
330
1F
100
AcDbEntity
  8
SOLBET_Wymiary_Opisy
100
AcDbMText
 10
286.688268326368
 20
89.84994902855019
 30
0.0
 40
2.5
 41
0.0
 71
     1
 72
     1
  1
P\U+0142yta \U+017Celbetowa
  7
Solbet_2_5
 73
     1
 44
1.0
1001
ACAD
1000
MTEXTBEGIN
1070
    73
1070
     1
1070
    44
1040
1.0
1070
    74
1070
     0
1000
MTEXTEND
  0
LEADER
  5
59A1
330
1F
100
AcDbEntity
  8
SOLBET_Wymiary_Opisy
100
AcDbLeader
  3
Solbet$7
 73
     0
 74
     0
 75
     1
 40
3.25
 41
18.75
 76
     3
 10
261.1407305187486
 20
83.20239025115901
 30
0.0
 10
282.6913543451665
 20
68.55602924727846
 30
0.0
 10
285.1913543451665
 20
68.55602924727846
 30
0.0
340
59A2
213
0.0
223
-0.2322806831707567
233
0.0
1001
ACAD
1000
DSTYLE
1002
{
1070
   147
1040
0.625
1070
    77
1070
     1
1002
}
  0
MTEXT
  5
59A2
102
{ACAD_REACTORS
330
59A1
102
}
330
1F
100
AcDbEntity
  8
SOLBET_Wymiary_Opisy
100
AcDbMText
 10
285.8163543451665
 20
72.66330993044921
 30
0.0
 40
2.5
 41
0.0
 71
     1
 72
     1
  1
Chudy beton
  7
Solbet_2_5
 73
     1
 44
1.0
1001
ACAD
1000
MTEXTBEGIN
1070
    73
1070
     1
1070
    44
1040
1.0
1070
    74
1070
     0
1000
MTEXTEND
  0
LINE
  5
59A3
330
1F
100
AcDbEntity
  8
SOLBET_Izolacja
  6
Continuous
100
AcDbLine
 10
219.0670299391972
 20
137.0490031197536
 30
0.0
 11
268.0581267644444
 21
137.0490031197535
 31
0.0
  0
LINE
  5
59A4
330
1F
100
AcDbEntity
  8
SOLBET_Izolacja
  6
Continuous
100
AcDbLine
 10
216.0735249042514
 20
129.5490031197539
 30
0.0
 11
268.0581267644441
 21
129.5490031197539
 31
0.0
  0
LINE
  5
59A5
330
1F
100
AcDbEntity
  8
SOLBET_Wymiary_Opisy
 62
     1
100
AcDbLine
 10
268.0581267644444
 20
147.1671874711333
 30
0.0
 11
268.0581267644444
 21
44.91034373517051
 31
0.0
  0
LINE
  5
59A6
330
1F
100
AcDbEntity
  8
SOLBET_Emulsje_Folie
100
AcDbLine
 10
219.3485649063789
 20
137.6365210604699
 30
0.0
 11
268.0581267644448
 21
137.63652106047
 31
0.0
  0
LINE
  5
59A7
330
1F
100
AcDbEntity
  8
SOLBET_Emulsje_Folie
100
AcDbLine
 10
215.5856403798629
 20
128.0002810130455
 30
0.0
 11
268.0581267644444
 21
128.0002810130455
 31
0.0
  0
LINE
  5
59A8
330
1F
100
AcDbEntity
  8
SOLBET_Tynki_Posadzki
100
AcDbLine
 10
225.0256583846183
 20
147.1671874711333
 30
0.0
 11
268.0581267644448
 21
147.1671874711333
 31
0.0
  0
LINE
  5
59B1
330
1F
100
AcDbEntity
  8
SOLBET_Beton
100
AcDbLine
 10
267.8404274161986
 20
89.97307753531272
 30
0.0
 11
268.0581267644444
 21
89.75537818706694
 31
0.0
1001
ACAD
1010
0.0
1020
0.0
1030
0.0
  0
LINE
  5
59B2
330
1F
100
AcDbEntity
  8
SOLBET_Beton
100
AcDbLine
 10
261.1052353253967
 20
89.97307753531266
 30
0.0
 11
268.0581267644445
 21
83.02018609626498
 31
0.0
1001
ACAD
1010
0.0
1020
0.0
1030
0.0
  0
LINE
  5
59B3
330
1F
100
AcDbEntity
  8
SOLBET_Beton
100
AcDbLine
 10
254.370043234595
 20
89.9730775353127
 30
0.0
 11
264.8700432345949
 21
79.47307753531275
 31
0.0
1001
ACAD
1010
0.0
1020
0.0
1030
0.0
  0
LINE
  5
59B4
330
1F
100
AcDbEntity
  8
SOLBET_Beton
100
AcDbLine
 10
247.6348511437931
 20
89.9730775353127
 30
0.0
 11
258.1348511437929
 21
79.47307753531269
 31
0.0
1001
ACAD
1010
0.0
1020
0.0
1030
0.0
  0
LINE
  5
59B5
330
1F
100
AcDbEntity
  8
SOLBET_Beton
100
AcDbLine
 10
240.8996590529912
 20
89.97307753531272
 30
0.0
 11
251.3996590529912
 21
79.47307753531273
 31
0.0
1001
ACAD
1010
0.0
1020
0.0
1030
0.0
  0
LINE
  5
59B6
330
1F
100
AcDbEntity
  8
SOLBET_Beton
100
AcDbLine
 10
234.1644669621892
 20
89.97307753531272
 30
0.0
 11
244.6644669621893
 21
79.47307753531273
 31
0.0
1001
ACAD
1010
0.0
1020
0.0
1030
0.0
  0
LINE
  5
59B7
330
1F
100
AcDbEntity
  8
SOLBET_Beton
100
AcDbLine
 10
227.4292748713874
 20
89.9730775353127
 30
0.0
 11
237.9292748713874
 21
79.47307753531264
 31
0.0
1001
ACAD
1010
0.0
1020
0.0
1030
0.0
  0
LINE
  5
59B8
330
1F
100
AcDbEntity
  8
SOLBET_Beton
100
AcDbLine
 10
220.6940827805854
 20
89.97307753531281
 30
0.0
 11
231.1940827805855
 21
79.47307753531275
 31
0.0
1001
ACAD
1010
0.0
1020
0.0
1030
0.0
  0
LINE
  5
59B9
330
1F
100
AcDbEntity
  8
SOLBET_Beton
100
AcDbLine
 10
216.6204257356184
 20
87.31154248947808
 30
0.0
 11
224.4588906897837
 21
79.47307753531269
 31
0.0
1001
ACAD
1010
0.0
1020
0.0
1030
0.0
  0
LWPOLYLINE
  5
59BA
330
1F
100
AcDbEntity
  8
SOLBET_Tynki_Posadzki
100
AcDbPolyline
 90
        4
 70
     0
 43
0.0
 10
220.0288733665036
 20
138.9974228272841
 10
268.0581267644441
 20
138.9974228272841
 10
268.0581267644448
 20
146.4974228272841
 10
224.5512643064826
 20
146.4974228272841
  0
HATCH
  5
59BD
330
1F
100
AcDbEntity
  8
SOLBET_Beton
100
AcDbHatch
 10
0.0
 20
0.0
 30
0.0
210
0.0
220
0.0
230
1.0
  2
ANSI33
 70
     0
 71
     0
 91
        1
 92
        5
 93
        4
 72
     2
 10
277.8807881247571
 20
109.2270274597955
 40
65.06243525670422
 50
163.7135873445601
 51
197.2133342424559
 73
     1
 72
     1
 10
215.7325307570857
 20
89.97307753531304
 11
268.0581267644445
 21
89.97307753531304
 72
     1
 10
268.0581267644444
 20
89.97307753531304
 11
268.0581267644444
 21
127.473077535313
 72
     1
 10
268.0581267644444
 20
127.473077535313
 11
215.4291897611081
 21
127.473077535313
 97
        0
 75
     0
 76
     1
 52
0.0
 41
2.25
 77
     0
 78
     2
 53
45.0
 43
698.6795508341074
 44
-91.66393852292738
 45
-10.10278813620279
 46
10.1027881362028
 79
     0
 53
45.0
 43
708.7823433341072
 44
-91.66393852292738
 45
-10.10278813620279
 46
10.1027881362028
 79
     2
 49
7.143749999999998
 49
-3.571874999999999
 47
0.0
 98
        1
 10
240.8890669895553
 20
108.7402223412346
1001
ACAD
1010
0.0
1020
0.0
1030
0.0
  0
LINE
  5
59BF
330
1F
100
AcDbEntity
  8
SOLBET_Izolacja
  6
BATTING
 48
0.36
100
AcDbLine
 10
217.4352715913083
 20
133.2990031273094
 30
0.0
 11
268.0581267644444
 21
133.2990031273094
 31
0.0
  0
ARC
  5
59C0
330
1F
100
AcDbEntity
  8
SOLBET_Wymiary_Opisy
100
AcDbCircle
 10
277.8807881247573
 20
109.2270274597956
 30
0.0
 40
65.06243525670424
100
AcDbArc
 50
144.3286798264496
 51
261.3166910899329
  0
MTEXT
  5
59C1
102
{ACAD_XDICTIONARY
360
6A42
102
}
330
1F
100
AcDbEntity
  8
SOLBET_Wymiary_Opisy
100
AcDbMText
 10
234.103620426087
 20
166.2035927386707
 30
0.0
 40
5.0
 41
30.77919768571883
 71
     1
 72
     5
  1
\pxqc;B\P(3 : 1)
  7
Solbet_5
 73
     1
 44
1.0
1001
ACAD
1000
MTEXTBEGIN
1070
    73
1070
     1
1070
    44
1040
1.0
1070
    74
1070
     0
1000
MTEXTEND
1000
ACAD_MTEXT_DEFINED_HEIGHT_BEGIN
1070
    46
1040
23.42535011036716
1000
ACAD_MTEXT_DEFINED_HEIGHT_END
  0
CIRCLE
  5
59C2
330
1F
100
AcDbEntity
  8
SOLBET_Wymiary_Opisy
100
AcDbCircle
 10
169.6367512353658
 20
66.40692663673019
 30
0.0
 40
15.40272322612611
  0
LEADER
  5
59C3
330
1F
100
AcDbEntity
  8
SOLBET_Wymiary_Opisy
100
AcDbLeader
  3
Solbet$7
 73
     0
 74
     0
 75
     1
 40
5.0
 41
3.0
 76
     3
 10
178.4367369339483
 20
78.93185453225038
 30
0.0
 10
182.4078871347648
 20
82.93034127129434
 30
0.0
 10
184.9078871347648
 20
82.93034127129434
 30
0.0
340
59C4
213
0.8103787685154202
223
-0.1753245211093599
233
0.0
1001
ACAD
1000
DSTYLE
1002
{
1070
   341
1005
1EF2
1070
   147
1040
0.625
1070
    77
1070
     1
1002
}
  0
MTEXT
  5
59C4
102
{ACAD_REACTORS
330
59C3
102
}
330
1F
100
AcDbEntity
  8
SOLBET_Wymiary_Opisy
100
AcDbMText
 10
187.7225083662493
 20
88.7306657924037
 30
0.0
 40
5.0
 41
0.0
 71
     3
 72
     1
  1
B
  7
Solbet_5
 73
     1
 44
1.0
1001
ACAD
1000
MTEXTBEGIN
1070
    73
1070
     1
1070
    44
1040
1.0
1070
    74
1070
     0
1000
MTEXTEND
  0
LEADER
  5
59CA
330
1F
100
AcDbEntity
  8
SOLBET_Wymiary_Opisy
100
AcDbLeader
  3
Solbet$7
 73
     0
 75
     1
 40
3.25
 41
38.75
 76
     3
 10
92.72394521095042
 20
201.7745530908314
 30
0.0
 10
71.38091853320748
 20
220.87775720258
 30
0.0
 10
68.88091853320748
 20
220.87775720258
 30
0.0
340
59CB
213
1.177601578005123
223
-0.1753245211093599
233
0.0
1001
ACAD
1000
DSTYLE
1002
{
1070
   147
1040
0.625
1070
    77
1070
     1
1002
}
  0
MTEXT
  5
59CB
102
{ACAD_XDICTIONARY
360
6BB2
102
}
102
{ACAD_REACTORS
330
59CA
102
}
330
1F
100
AcDbEntity
  8
SOLBET_Wymiary_Opisy
100
AcDbMText
 10
67.07831695520235
 20
224.9280817236894
 30
0.0
 40
2.5
 41
0.0
 71
     3
 72
     1
  1
Tynk zewn\U+0119trzny SOLBET
  7
Solbet_2_5
 73
     1
 44
1.0
1001
ACAD
1000
MTEXTBEGIN
1070
    73
1070
     1
1070
    44
1040
1.0
1070
    74
1070
     0
1000
MTEXTEND
  0
LEADER
  5
59CC
330
1F
100
AcDbEntity
  8
SOLBET_Wymiary_Opisy
100
AcDbLeader
  3
Solbet$7
 73
     0
 74
     0
 75
     1
 40
3.25
 41
27.25
 76
     3
 10
108.1310519921369
 20
160.8993865912419
 30
0.0
 10
124.6562997665628
 20
173.6497060809188
 30
0.0
 10
127.1562997665628
 20
173.6497060809188
 30
0.0
340
59CD
213
0.0
223
-0.2322806831707567
233
0.0
1001
ACAD
1000
DSTYLE
1002
{
1070
   147
1040
0.625
1070
    77
1070
     1
1002
}
  0
MTEXT
  5
59CD
102
{ACAD_XDICTIONARY
360
6BB4
102
}
102
{ACAD_REACTORS
330
59CC
102
}
330
1F
100
AcDbEntity
  8
SOLBET_Wymiary_Opisy
100
AcDbMText
 10
127.7812997665628
 20
177.7569867640895
 30
0.0
 40
2.5
 41
0.0
 71
     1
 72
     1
  1
Wieniec \U+017Celbetowy
  7
Solbet_2_5
 73
     1
 44
1.0
1001
ACAD
1000
MTEXTBEGIN
1070
    73
1070
     1
1070
    44
1040
1.0
1070
    74
1070
     0
1000
MTEXTEND
  0
LEADER
  5
59CE
330
1F
100
AcDbEntity
  8
SOLBET_Wymiary_Opisy
100
AcDbLeader
  3
Solbet$7
 73
     0
 74
     0
 75
     1
 40
3.25
 41
32.0
 76
     3
 10
103.9739452193875
 20
161.343086331462
 30
0.0
 10
124.6562997665628
 20
179.8331687949007
 30
0.0
 10
127.1562997665628
 20
179.8331687949007
 30
0.0
340
59CF
213
0.0
223
-0.2322806831707567
233
0.0
1001
ACAD
1000
DSTYLE
1002
{
1070
   147
1040
0.625
1070
    77
1070
     1
1002
}
  0
MTEXT
  5
59CF
102
{ACAD_XDICTIONARY
360
6BB6
102
}
102
{ACAD_REACTORS
330
59CE
102
}
330
1F
100
AcDbEntity
  8
SOLBET_Wymiary_Opisy
100
AcDbMText
 10
127.7812997665628
 20
183.9404494780715
 30
0.0
 40
2.5
 41
0.0
 71
     1
 72
     1
  1
Warstwa docieplaj\U+0105ca
  7
Solbet_2_5
 73
     1
 44
1.0
1001
ACAD
1000
MTEXTBEGIN
1070
    73
1070
     1
1070
    44
1040
1.0
1070
    74
1070
     0
1000
MTEXTEND
  0
LINE
  5
59D0
330
1F
100
AcDbEntity
  8
SOLBET_Wymiary_Opisy
100
AcDbLine
 10
155.5312997665628
 20
179.8331687949007
 30
0.0
 11
160.2812997665628
 21
179.8331687949007
 31
0.0
  0
LINE
  5
59D2
330
1F
100
AcDbEntity
  8
SOLBET_Emulsje_Folie
  6
DASHED2
370
    30
100
AcDbLine
 10
98.09971727498698
 20
163.3355569846694
 30
0.0
 11
119.8770458324511
 21
163.3355569846694
 31
0.0
  0
LINE
  5
59D3
330
1F
100
AcDbEntity
  8
SOLBET_Emulsje_Folie
100
AcDbLine
 10
122.7931906775881
 20
163.4555569846693
 30
0.0
 11
122.7931906775881
 21
163.2155569846695
 31
0.0
  0
LEADER
  5
59D8
330
1F
100
AcDbEntity
  8
SOLBET_Wymiary_Opisy
100
AcDbLeader
  3
Solbet$7
 73
     0
 75
     1
 40
3.25
 41
39.25
 76
     3
 10
114.9739452109504
 20
173.5698168169838
 30
0.0
 10
71.304185561552
 20
191.0191093212452
 30
0.0
 10
68.804185561552
 20
191.0191093212452
 30
0.0
340
59D9
213
0.0
223
-0.2322806831707567
233
0.0
1001
ACAD
1000
DSTYLE
1002
{
1070
   147
1040
0.625
1070
    77
1070
     1
1002
}
  0
MTEXT
  5
59D9
102
{ACAD_XDICTIONARY
360
6BB8
102
}
102
{ACAD_REACTORS
330
59D8
102
}
330
1F
100
AcDbEntity
  8
SOLBET_Wymiary_Opisy
100
AcDbMText
 10
68.179185561552
 20
195.1263900044159
 30
0.0
 40
2.5
 41
0.0
 71
     3
 72
     1
  1
Tynk wewn\U+0119trzny SOLBET
  7
Solbet_2_5
 73
     1
 44
1.0
1001
ACAD
1000
MTEXTBEGIN
1070
    73
1070
     1
1070
    44
1040
1.0
1070
    74
1070
     0
1000
MTEXTEND
  0
LWPOLYLINE
  5
59DA
330
1F
100
AcDbEntity
  8
SOLBET_Ramka_05
100
AcDbPolyline
 90
        4
 70
     1
 43
0.0
 10
0.0
 20
0.0
 10
334.35177409209
 20
0.0
 10
334.35177409209
 20
297.0
 10
0.0
 20
297.0
  0
LEADER
  5
59DD
330
1F
100
AcDbEntity
  8
SOLBET_Wymiary_Opisy
100
AcDbLeader
  3
Solbet$7
 73
     0
 75
     1
 40
3.25
 41
26.25
 76
     3
 10
98.71994654189713
 20
149.4438295792563
 30
0.0
 10
68.36050126799523
 20
130.1916678720954
 30
0.0
 10
65.86050126799523
 20
130.1916678720954
 30
0.0
340
59DE
213
1.177601578005123
223
-0.1753245211093599
233
0.0
1001
ACAD
1000
DSTYLE
1002
{
1070
   147
1040
0.625
1070
    77
1070
     1
1002
}
  0
MTEXT
  5
59DE
102
{ACAD_XDICTIONARY
360
6BBA
102
}
102
{ACAD_REACTORS
330
59DD
102
}
330
1F
100
AcDbEntity
  8
SOLBET_Wymiary_Opisy
100
AcDbMText
 10
64.05789968999011
 20
134.2419923932048
 30
0.0
 40
2.5
 41
0.0
 71
     3
 72
     1
  1
Profil zamykaj\U+0105cy
  7
Solbet_2_5
 73
     1
 44
1.0
1001
ACAD
1000
MTEXTBEGIN
1070
    73
1070
     1
1070
    44
1040
1.0
1070
    74
1070
     0
1000
MTEXTEND
  0
LINE
  5
59DF
330
1F
100
AcDbEntity
  8
SOLBET_Izolacja
  6
BATTING
 48
0.049
100
AcDbLine
 10
114.9739452109504
 20
168.9109539314607
 30
0.0
 11
114.9739452109504
 21
163.5355569846695
 31
0.0
  0
LINE
  5
59E0
330
1F
100
AcDbEntity
  8
SOLBET_Izolacja
100
AcDbLine
 10
102.4566828631958
 20
163.0636002453528
 30
0.0
 11
105.4739452109503
 21
163.0636001536152
 31
0.0
  0
LINE
  5
59E1
330
1F
100
AcDbEntity
  8
SOLBET_Izolacja
100
AcDbLine
 10
105.4739452109503
 20
163.0636001536152
 30
0.0
 11
105.4739452109503
 21
151.0636001536153
 31
0.0
  0
LINE
  5
59E2
330
1F
100
AcDbEntity
  8
SOLBET_Izolacja
100
AcDbLine
 10
105.4739452109503
 20
151.0636001536153
 30
0.0
 11
102.4566828631958
 21
151.0636001389037
 31
0.0
  0
LINE
  5
59E3
330
1F
100
AcDbEntity
  8
SOLBET_Izolacja
100
AcDbLine
 10
102.4566828631958
 20
151.0636002453528
 30
0.0
 11
102.4566828631958
 21
163.0636002453528
 31
0.0
  0
LINE
  5
59E4
330
1F
100
AcDbEntity
  8
SOLBET_Izolacja
  6
BATTING
 48
0.148
100
AcDbLine
 10
103.9653140370731
 20
163.0636001462594
 30
0.0
 11
103.9653140959194
 21
151.0636001462595
 31
0.0
  0
MTEXT
  5
59E7
330
1F
100
AcDbEntity
  8
SOLBET_Wymiary_Opisy
100
AcDbMText
 10
132.3408558034728
 20
106.3132323873565
 30
0.0
 40
3.5
 41
0.0
 71
     1
 72
     1
  1
Piwnica
  7
Solbet_2_5
 73
     1
 44
1.0
1001
ACAD
1000
MTEXTBEGIN
1070
    73
1070
     1
1070
    44
1040
1.0
1070
    74
1070
     0
1000
MTEXTEND
  0
LINE
  5
59E9
330
1F
100
AcDbEntity
  8
SOLBET_Tynki_Posadzki
100
AcDbLine
 10
115.7720114021403
 20
169.4109539314607
 30
0.0
 11
115.7720114021403
 21
168.9109539314607
 31
0.0
  0
LINE
  5
5A0E
330
1F
100
AcDbEntity
  8
SOLBET_Emulsje_Folie
100
AcDbLine
 10
98.80799446621132
 20
115.1379799346678
 30
0.0
 11
98.80799446621132
 21
74.06360036167427
 31
0.0
  0
LINE
  5
5A0F
330
1F
100
AcDbEntity
  8
SOLBET_Emulsje_Folie
100
AcDbLine
 10
98.80799446621132
 20
124.2815243704859
 30
0.0
 11
99.2079944662114
 21
124.4325785127843
 31
0.0
  0
LINE
  5
5A10
330
1F
100
AcDbEntity
  8
SOLBET_Emulsje_Folie
100
AcDbLine
 10
98.80799446621132
 20
125.3045496875878
 30
0.0
 11
99.2079944662114
 21
125.1534955452897
 31
0.0
  0
LINE
  5
5A11
330
1F
100
AcDbEntity
  8
SOLBET_Emulsje_Folie
100
AcDbLine
 10
98.80799446621132
 20
126.063747595044
 30
0.0
 11
99.2079944662114
 21
126.2148017373423
 31
0.0
  0
LINE
  5
5A12
330
1F
100
AcDbEntity
  8
SOLBET_Emulsje_Folie
100
AcDbLine
 10
98.80799446621132
 20
120.7170779213698
 30
0.0
 11
99.2079944662114
 21
120.8681320636682
 31
0.0
  0
LINE
  5
5A13
330
1F
100
AcDbEntity
  8
SOLBET_Emulsje_Folie
100
AcDbLine
 10
98.80799446621132
 20
121.7401032384717
 30
0.0
 11
99.2079944662114
 21
121.5890490961736
 31
0.0
  0
LINE
  5
5A14
330
1F
100
AcDbEntity
  8
SOLBET_Emulsje_Folie
100
AcDbLine
 10
98.80799446621132
 20
122.4993011459277
 30
0.0
 11
99.2079944662114
 21
122.6503552882262
 31
0.0
  0
LINE
  5
5A15
330
1F
100
AcDbEntity
  8
SOLBET_Emulsje_Folie
100
AcDbLine
 10
98.80799446621132
 20
123.52232646303
 30
0.0
 11
99.2079944662114
 21
123.3712723207314
 31
0.0
  0
LINE
  5
5A16
330
1F
100
AcDbEntity
  8
SOLBET_Emulsje_Folie
100
AcDbLine
 10
98.80799446621132
 20
117.1526314722536
 30
0.0
 11
99.2079944662114
 21
117.303685614552
 31
0.0
  0
LINE
  5
5A17
330
1F
100
AcDbEntity
  8
SOLBET_Emulsje_Folie
100
AcDbLine
 10
98.80799446621132
 20
118.1756567893557
 30
0.0
 11
99.2079944662114
 21
118.0246026470573
 31
0.0
  0
LINE
  5
5A18
330
1F
100
AcDbEntity
  8
SOLBET_Emulsje_Folie
100
AcDbLine
 10
98.80799446621132
 20
118.9348546968116
 30
0.0
 11
99.2079944662114
 21
119.08590883911
 31
0.0
  0
LINE
  5
5A19
330
1F
100
AcDbEntity
  8
SOLBET_Emulsje_Folie
100
AcDbLine
 10
98.80799446621132
 20
119.9578800139137
 30
0.0
 11
99.2079944662114
 21
119.8068258716154
 31
0.0
  0
LINE
  5
5A1A
330
1F
100
AcDbEntity
  8
SOLBET_Emulsje_Folie
100
AcDbLine
 10
98.80799446621132
 20
113.5881850231375
 30
0.0
 11
99.2079944662114
 21
113.7392391654359
 31
0.0
  0
LINE
  5
5A1B
330
1F
100
AcDbEntity
  8
SOLBET_Emulsje_Folie
100
AcDbLine
 10
98.80799446621132
 20
114.6112103402395
 30
0.0
 11
99.2079944662114
 21
114.4601561979412
 31
0.0
  0
LINE
  5
5A1C
330
1F
100
AcDbEntity
  8
SOLBET_Emulsje_Folie
100
AcDbLine
 10
98.80799446621132
 20
110.0237385740213
 30
0.0
 11
99.2079944662114
 21
110.1747927163198
 31
0.0
  0
LINE
  5
5A1D
330
1F
100
AcDbEntity
  8
SOLBET_Emulsje_Folie
100
AcDbLine
 10
98.80799446621132
 20
111.0467638911234
 30
0.0
 11
99.2079944662114
 21
110.8957097488249
 31
0.0
  0
LINE
  5
5A1E
330
1F
100
AcDbEntity
  8
SOLBET_Emulsje_Folie
100
AcDbLine
 10
98.80799446621132
 20
111.8059617985793
 30
0.0
 11
99.2079944662114
 21
111.9570159408777
 31
0.0
  0
LINE
  5
5A1F
330
1F
100
AcDbEntity
  8
SOLBET_Emulsje_Folie
100
AcDbLine
 10
98.80799446621132
 20
112.8289871156814
 30
0.0
 11
99.2079944662114
 21
112.677932973383
 31
0.0
  0
LINE
  5
5A20
330
1F
100
AcDbEntity
  8
SOLBET_Emulsje_Folie
100
AcDbLine
 10
98.80799446621132
 20
106.4592921249052
 30
0.0
 11
99.2079944662114
 21
106.6103462672035
 31
0.0
  0
LINE
  5
5A21
330
1F
100
AcDbEntity
  8
SOLBET_Emulsje_Folie
100
AcDbLine
 10
98.80799446621132
 20
107.4823174420071
 30
0.0
 11
99.2079944662114
 21
107.3312632997089
 31
0.0
  0
LINE
  5
5A22
330
1F
100
AcDbEntity
  8
SOLBET_Emulsje_Folie
100
AcDbLine
 10
98.80799446621132
 20
108.2415153494632
 30
0.0
 11
99.2079944662114
 21
108.3925694917616
 31
0.0
  0
LINE
  5
5A23
330
1F
100
AcDbEntity
  8
SOLBET_Emulsje_Folie
100
AcDbLine
 10
98.80799446621132
 20
109.2645406665654
 30
0.0
 11
99.2079944662114
 21
109.1134865242669
 31
0.0
  0
LINE
  5
5A24
330
1F
100
AcDbEntity
  8
SOLBET_Emulsje_Folie
100
AcDbLine
 10
98.80799446621132
 20
102.894845675789
 30
0.0
 11
99.2079944662114
 21
103.0458998180875
 31
0.0
  0
LINE
  5
5A25
330
1F
100
AcDbEntity
  8
SOLBET_Emulsje_Folie
100
AcDbLine
 10
98.80799446621132
 20
103.917870992891
 30
0.0
 11
99.2079944662114
 21
103.7668168505928
 31
0.0
  0
LINE
  5
5A26
330
1F
100
AcDbEntity
  8
SOLBET_Emulsje_Folie
100
AcDbLine
 10
98.80799446621132
 20
104.6770689003469
 30
0.0
 11
99.2079944662114
 21
104.8281230426454
 31
0.0
  0
LINE
  5
5A27
330
1F
100
AcDbEntity
  8
SOLBET_Emulsje_Folie
100
AcDbLine
 10
98.80799446621132
 20
105.7000942174493
 30
0.0
 11
99.2079944662114
 21
105.5490400751507
 31
0.0
  0
LINE
  5
5A28
330
1F
100
AcDbEntity
  8
SOLBET_Emulsje_Folie
100
AcDbLine
 10
98.80799446621132
 20
99.33039922667285
 30
0.0
 11
99.2079944662114
 21
99.4814533689713
 31
0.0
  0
LINE
  5
5A29
330
1F
100
AcDbEntity
  8
SOLBET_Emulsje_Folie
100
AcDbLine
 10
98.80799446621132
 20
100.3534245437748
 30
0.0
 11
99.2079944662114
 21
100.2023704014766
 31
0.0
  0
LINE
  5
5A2A
330
1F
100
AcDbEntity
  8
SOLBET_Emulsje_Folie
100
AcDbLine
 10
98.80799446621132
 20
101.1126224512309
 30
0.0
 11
99.2079944662114
 21
101.2636765935293
 31
0.0
  0
LINE
  5
5A2B
330
1F
100
AcDbEntity
  8
SOLBET_Emulsje_Folie
100
AcDbLine
 10
98.80799446621132
 20
102.135647768333
 30
0.0
 11
99.2079944662114
 21
101.9845936260346
 31
0.0
  0
LINE
  5
5A2C
330
1F
100
AcDbEntity
  8
SOLBET_Emulsje_Folie
100
AcDbLine
 10
98.80799446621132
 20
74.06360036167427
 30
0.0
 11
99.2079944662114
 21
74.06360036167427
 31
0.0
  0
LINE
  5
5A2D
330
1F
100
AcDbEntity
  8
SOLBET_Emulsje_Folie
100
AcDbLine
 10
98.80799446621132
 20
75.40229939996186
 30
0.0
 11
99.2079944662114
 21
75.25124525766341
 31
0.0
  0
LINE
  5
5A2E
330
1F
100
AcDbEntity
  8
SOLBET_Emulsje_Folie
100
AcDbLine
 10
98.80799446621132
 20
74.37927408285975
 30
0.0
 11
99.2079944662114
 21
74.5303282251582
 31
0.0
  0
LINE
  5
5A2F
102
{ACAD_REACTORS
330
5D67
102
}
330
1F
100
AcDbEntity
  8
SOLBET_Emulsje_Folie
100
AcDbLine
 10
98.80799446621132
 20
149.0636002453528
 30
0.0
 11
98.80799446621132
 21
116.637979934668
 31
0.0
  0
LINE
  5
5A30
330
1F
100
AcDbEntity
  8
SOLBET_Emulsje_Folie
100
AcDbLine
 10
98.80799446621132
 20
76.16149730741779
 30
0.0
 11
99.2079944662114
 21
76.31255144971624
 31
0.0
  0
LINE
  5
5A31
330
1F
100
AcDbEntity
  8
SOLBET_Emulsje_Folie
100
AcDbLine
 10
98.80799446621132
 20
77.1845226245199
 30
0.0
 11
99.2079944662114
 21
77.03346848222157
 31
0.0
  0
LINE
  5
5A32
330
1F
100
AcDbEntity
  8
SOLBET_Emulsje_Folie
100
AcDbLine
 10
99.2079944662114
 20
115.1379799346678
 30
0.0
 11
99.2079944662114
 21
74.06360036167427
 31
0.0
  0
LINE
  5
5A33
330
1F
100
AcDbEntity
  8
SOLBET_Emulsje_Folie
100
AcDbLine
 10
98.80799446621132
 20
78.96674584907794
 30
0.0
 11
99.2079944662114
 21
78.8156917067796
 31
0.0
  0
LINE
  5
5A34
330
1F
100
AcDbEntity
  8
SOLBET_Emulsje_Folie
100
AcDbLine
 10
98.80799446621132
 20
77.94372053197583
 30
0.0
 11
99.2079944662114
 21
78.09477467427427
 31
0.0
  0
LINE
  5
5A35
330
1F
100
AcDbEntity
  8
SOLBET_Emulsje_Folie
100
AcDbLine
 10
98.80799446621132
 20
79.72594375653386
 30
0.0
 11
99.2079944662114
 21
79.87699789883243
 31
0.0
  0
LINE
  5
5A36
330
1F
100
AcDbEntity
  8
SOLBET_Emulsje_Folie
100
AcDbLine
 10
98.80799446621132
 20
80.74896907363598
 30
0.0
 11
99.2079944662114
 21
80.59791493133776
 31
0.0
  0
LINE
  5
5A37
330
1F
100
AcDbEntity
  8
SOLBET_Emulsje_Folie
100
AcDbLine
 10
98.80799446621132
 20
81.50816698109201
 30
0.0
 11
99.2079944662114
 21
81.65922112339046
 31
0.0
  0
LINE
  5
5A38
330
1F
100
AcDbEntity
  8
SOLBET_Emulsje_Folie
100
AcDbLine
 10
98.80799446621132
 20
82.53119229819413
 30
0.0
 11
99.2079944662114
 21
82.3801381558958
 31
0.0
  0
LINE
  5
5A39
330
1F
100
AcDbEntity
  8
SOLBET_Emulsje_Folie
100
AcDbLine
 10
98.80799446621132
 20
83.29039020565017
 30
0.0
 11
99.2079944662114
 21
83.4414443479485
 31
0.0
  0
LINE
  5
5A3A
330
1F
100
AcDbEntity
  8
SOLBET_Emulsje_Folie
100
AcDbLine
 10
98.80799446621132
 20
84.31341552275227
 30
0.0
 11
99.2079944662114
 21
84.16236138045382
 31
0.0
  0
LINE
  5
5A3B
330
1F
100
AcDbEntity
  8
SOLBET_Emulsje_Folie
100
AcDbLine
 10
98.80799446621132
 20
85.0726134302082
 30
0.0
 11
99.2079944662114
 21
85.22366757250654
 31
0.0
  0
LINE
  5
5A3C
330
1F
100
AcDbEntity
  8
SOLBET_Emulsje_Folie
100
AcDbLine
 10
98.80799446621132
 20
86.09563874731032
 30
0.0
 11
99.2079944662114
 21
85.94458460501186
 31
0.0
  0
LINE
  5
5A3D
330
1F
100
AcDbEntity
  8
SOLBET_Emulsje_Folie
100
AcDbLine
 10
98.80799446621132
 20
86.85483665476624
 30
0.0
 11
99.2079944662114
 21
87.00589079706469
 31
0.0
  0
LINE
  5
5A3E
330
1F
100
AcDbEntity
  8
SOLBET_Emulsje_Folie
100
AcDbLine
 10
98.80799446621132
 20
87.87786197186836
 30
0.0
 11
99.2079944662114
 21
87.72680782956991
 31
0.0
  0
LINE
  5
5A3F
330
1F
100
AcDbEntity
  8
SOLBET_Emulsje_Folie
100
AcDbLine
 10
98.80799446621132
 20
98.57120131921693
 30
0.0
 11
99.2079944662114
 21
98.42014717691847
 31
0.0
  0
LINE
  5
5A40
330
1F
100
AcDbEntity
  8
SOLBET_Emulsje_Folie
100
AcDbLine
 10
98.80799446621132
 20
97.5481760021147
 30
0.0
 11
99.2079944662114
 21
97.69923014441316
 31
0.0
  0
LINE
  5
5A41
330
1F
100
AcDbEntity
  8
SOLBET_Emulsje_Folie
100
AcDbLine
 10
98.80799446621132
 20
96.78897809465878
 30
0.0
 11
99.2079944662114
 21
96.63792395236056
 31
0.0
  0
LINE
  5
5A42
330
1F
100
AcDbEntity
  8
SOLBET_Emulsje_Folie
100
AcDbLine
 10
98.80799446621132
 20
95.76595277755666
 30
0.0
 11
99.2079944662114
 21
95.91700691985522
 31
0.0
  0
LINE
  5
5A43
330
1F
100
AcDbEntity
  8
SOLBET_Emulsje_Folie
100
AcDbLine
 10
98.80799446621132
 20
95.00675487010074
 30
0.0
 11
99.2079944662114
 21
94.85570072780229
 31
0.0
  0
LINE
  5
5A44
330
1F
100
AcDbEntity
  8
SOLBET_Emulsje_Folie
100
AcDbLine
 10
98.80799446621132
 20
93.98372955299862
 30
0.0
 11
99.2079944662114
 21
94.13478369529697
 31
0.0
  0
LINE
  5
5A45
330
1F
100
AcDbEntity
  8
SOLBET_Emulsje_Folie
100
AcDbLine
 10
98.80799446621132
 20
93.2245316455427
 30
0.0
 11
99.2079944662114
 21
93.07347750324424
 31
0.0
  0
LINE
  5
5A46
330
1F
100
AcDbEntity
  8
SOLBET_Emulsje_Folie
100
AcDbLine
 10
98.80799446621132
 20
92.20150632844058
 30
0.0
 11
99.2079944662114
 21
92.35256047073892
 31
0.0
  0
LINE
  5
5A47
330
1F
100
AcDbEntity
  8
SOLBET_Emulsje_Folie
100
AcDbLine
 10
98.80799446621132
 20
91.44230842098455
 30
0.0
 11
99.2079944662114
 21
91.2912542786862
 31
0.0
  0
LINE
  5
5A48
330
1F
100
AcDbEntity
  8
SOLBET_Emulsje_Folie
100
AcDbLine
 10
98.80799446621132
 20
90.41928310388243
 30
0.0
 11
99.2079944662114
 21
90.57033724618088
 31
0.0
  0
LINE
  5
5A49
330
1F
100
AcDbEntity
  8
SOLBET_Emulsje_Folie
100
AcDbLine
 10
98.80799446621132
 20
88.63705987932439
 30
0.0
 11
99.2079944662114
 21
88.78811402162284
 31
0.0
  0
LINE
  5
5A4A
330
1F
100
AcDbEntity
  8
SOLBET_Emulsje_Folie
100
AcDbLine
 10
98.80799446621132
 20
89.6600851964264
 30
0.0
 11
99.2079944662114
 21
89.50903105412805
 31
0.0
  0
LINE
  5
5A4B
330
1F
100
AcDbEntity
  8
SOLBET_Emulsje_Folie
100
AcDbLine
 10
99.2079944662114
 20
149.0636002453528
 30
0.0
 11
99.2079944662114
 21
116.637979934668
 31
0.0
  0
LINE
  5
5A4C
330
1F
100
AcDbEntity
  8
SOLBET_Wymiary_Opisy
  6
Continuous
100
AcDbLine
 10
89.52896416592466
 20
57.04567211115102
 30
0.0
 11
84.44571054638322
 21
57.04567211115102
 31
0.0
  0
LINE
  5
5A4D
330
1F
100
AcDbEntity
  8
SOLBET_Wymiary_Opisy
100
AcDbLine
 10
79.13794511324022
 20
115.1379799346678
 30
0.0
 11
84.44571054638322
 21
57.04567211115102
 31
0.0
  0
LINE
  5
5A4E
102
{ACAD_REACTORS
330
5D67
102
}
330
1F
100
AcDbEntity
  8
SOLBET_Wymiary_Opisy
100
AcDbLine
 10
73.76001567588537
 20
148.0636002453528
 30
0.0
 11
76.69581325448735
 21
116.637979934668
 31
0.0
  0
LINE
  5
5A4F
330
1F
100
AcDbEntity
  8
SOLBET_Emulsje_Folie
100
AcDbLine
 10
99.26453137697059
 20
115.1379799346678
 30
0.0
 11
99.26453137697059
 21
74.06360036167427
 31
0.0
  0
LINE
  5
5A51
330
1F
100
AcDbEntity
  8
SOLBET_Emulsje_Folie
100
AcDbLine
 10
99.26453137697059
 20
163.1281754218929
 30
0.0
 11
99.26453137697059
 21
116.637979934668
 31
0.0
  0
LINE
  5
5A53
330
1F
100
AcDbEntity
  8
SOLBET_Wymiary_Opisy
100
AcDbLine
 10
74.11959335006781
 20
115.1379799346678
 30
0.0
 11
119.289391635363
 21
115.1379799346678
 31
0.0
  0
LINE
  5
5A54
102
{ACAD_REACTORS
330
5D67
102
}
330
1F
100
AcDbEntity
  8
SOLBET_Wymiary_Opisy
100
AcDbLine
 10
73.96387418580548
 20
116.637979934668
 30
0.0
 11
119.289391635363
 21
116.637979934668
 31
0.0
  0
LINE
  5
5A55
330
1F
100
AcDbEntity
  8
SOLBET_Emulsje_Folie
100
AcDbLine
 10
98.71994654189713
 20
149.443829670994
 30
0.0
 11
99.20799446621117
 21
150.1255021642603
 31
0.0
  0
LINE
  5
5A56
330
1F
100
AcDbEntity
  8
SOLBET_Emulsje_Folie
100
AcDbLine
 10
98.71994654189713
 20
149.443829670994
 30
0.0
 11
98.71994654189713
 21
148.3643660657302
 31
0.0
  0
LINE
  5
5A57
330
1F
100
AcDbEntity
  8
SOLBET_Tynki_Posadzki
100
AcDbLine
 10
99.1097172749869
 20
163.1281754218929
 30
0.0
 11
99.1097172749869
 21
149.3977350249382
 31
0.0
  0
LINE
  5
5A58
330
1F
100
AcDbEntity
  8
SOLBET_Grunt
100
AcDbLine
 10
64.19316922863732
 20
147.0657165953215
 30
0.0
 11
65.10462501638585
 21
148.0636002453528
 31
0.0
  0
LINE
  5
5A59
330
1F
100
AcDbEntity
  8
SOLBET_Grunt
100
AcDbLine
 10
63.85058930260561
 20
144.847735135243
 30
0.0
 11
66.78792459929673
 21
148.0636002453528
 31
0.0
  0
LINE
  5
5A5A
330
1F
100
AcDbEntity
  8
SOLBET_Grunt
100
AcDbLine
 10
73.98973896915027
 20
145.6045761480245
 30
0.0
 11
71.74369380581651
 21
148.0636002453528
 31
0.0
  0
LINE
  5
5A5B
330
1F
100
AcDbEntity
  8
SOLBET_Grunt
100
AcDbLine
 10
70.97185001065395
 20
147.0657165953215
 30
0.0
 11
70.06039422290541
 21
148.0636002453528
 31
0.0
  0
LINE
  5
5A5C
330
1F
100
AcDbEntity
  8
SOLBET_Grunt
100
AcDbLine
 10
71.31442993668542
 20
144.847735135243
 30
0.0
 11
68.37709463999454
 21
148.0636002453528
 31
0.0
  0
LINE
  5
5A5D
330
1F
100
AcDbEntity
  8
SOLBET_Wymiary_Opisy
100
AcDbLine
 10
62.31850795519403
 20
149.0504307984641
 30
0.0
 11
62.31850795519403
 21
138.6227787423452
 31
0.0
  0
LINE
  5
5A5E
102
{ACAD_REACTORS
330
5D67
102
}
330
1F
100
AcDbEntity
  8
SOLBET_Grunt
  6
Continuous
100
AcDbLine
 10
98.80799446621132
 20
148.0636002453528
 30
0.0
 11
62.31850795519403
 21
148.0636002453528
 31
0.0
  0
LINE
  5
5A5F
330
1F
100
AcDbEntity
  8
SOLBET_Emulsje_Folie
100
AcDbLine
 10
98.80799446621132
 20
130.6512193612624
 30
0.0
 11
99.2079944662114
 21
130.5001652189638
 31
0.0
  0
LINE
  5
5A60
330
1F
100
AcDbEntity
  8
SOLBET_Emulsje_Folie
100
AcDbLine
 10
98.80799446621132
 20
129.62819404416
 30
0.0
 11
99.2079944662114
 21
129.7792481864584
 31
0.0
  0
LINE
  5
5A61
330
1F
100
AcDbEntity
  8
SOLBET_Emulsje_Folie
100
AcDbLine
 10
98.80799446621132
 20
128.8689961367041
 30
0.0
 11
99.2079944662114
 21
128.7179419944059
 31
0.0
  0
LINE
  5
5A62
330
1F
100
AcDbEntity
  8
SOLBET_Emulsje_Folie
100
AcDbLine
 10
98.80799446621132
 20
127.845970819602
 30
0.0
 11
99.2079944662114
 21
127.9970249619006
 31
0.0
  0
LINE
  5
5A63
330
1F
100
AcDbEntity
  8
SOLBET_Emulsje_Folie
100
AcDbLine
 10
98.80799446621132
 20
133.1926404932763
 30
0.0
 11
99.2079944662114
 21
133.3436946355747
 31
0.0
  0
LINE
  5
5A64
330
1F
100
AcDbEntity
  8
SOLBET_Emulsje_Folie
100
AcDbLine
 10
98.80799446621132
 20
132.4334425858202
 30
0.0
 11
99.2079944662114
 21
132.282388443522
 31
0.0
  0
LINE
  5
5A65
330
1F
100
AcDbEntity
  8
SOLBET_Emulsje_Folie
100
AcDbLine
 10
98.80799446621132
 20
131.4104172687183
 30
0.0
 11
99.2079944662114
 21
131.5614714110166
 31
0.0
  0
LINE
  5
5A66
330
1F
100
AcDbEntity
  8
SOLBET_Emulsje_Folie
100
AcDbLine
 10
98.80799446621132
 20
127.0867729121461
 30
0.0
 11
99.2079944662114
 21
126.9357187698477
 31
0.0
  0
LINE
  5
5A67
330
1F
100
AcDbEntity
  8
SOLBET_Emulsje_Folie
100
AcDbLine
 10
98.80799446621132
 20
137.7801122594945
 30
0.0
 11
99.2079944662114
 21
137.6290581171961
 31
0.0
  0
LINE
  5
5A68
330
1F
100
AcDbEntity
  8
SOLBET_Emulsje_Folie
100
AcDbLine
 10
98.80799446621132
 20
136.7570869423924
 30
0.0
 11
99.2079944662114
 21
136.9081410846908
 31
0.0
  0
LINE
  5
5A69
330
1F
100
AcDbEntity
  8
SOLBET_Emulsje_Folie
100
AcDbLine
 10
98.80799446621132
 20
135.9978890349365
 30
0.0
 11
99.2079944662114
 21
135.846834892638
 31
0.0
  0
LINE
  5
5A6A
330
1F
100
AcDbEntity
  8
SOLBET_Emulsje_Folie
100
AcDbLine
 10
98.80799446621132
 20
134.9748637178344
 30
0.0
 11
99.2079944662114
 21
135.1259178601329
 31
0.0
  0
LINE
  5
5A6B
330
1F
100
AcDbEntity
  8
SOLBET_Emulsje_Folie
100
AcDbLine
 10
98.80799446621132
 20
140.3215333915085
 30
0.0
 11
99.2079944662114
 21
140.4725875338071
 31
0.0
  0
LINE
  5
5A6C
330
1F
100
AcDbEntity
  8
SOLBET_Emulsje_Folie
100
AcDbLine
 10
98.80799446621132
 20
139.5623354840526
 30
0.0
 11
99.2079944662114
 21
139.4112813417543
 31
0.0
  0
LINE
  5
5A6D
330
1F
100
AcDbEntity
  8
SOLBET_Emulsje_Folie
100
AcDbLine
 10
98.80799446621132
 20
138.5393101669506
 30
0.0
 11
99.2079944662114
 21
138.690364309249
 31
0.0
  0
LINE
  5
5A6E
330
1F
100
AcDbEntity
  8
SOLBET_Emulsje_Folie
100
AcDbLine
 10
98.80799446621132
 20
134.2156658103785
 30
0.0
 11
99.2079944662114
 21
134.06461166808
 31
0.0
  0
LINE
  5
5A6F
330
1F
100
AcDbEntity
  8
SOLBET_Emulsje_Folie
100
AcDbLine
 10
98.80799446621132
 20
144.9090051577268
 30
0.0
 11
99.2079944662114
 21
144.7579510154285
 31
0.0
  0
LINE
  5
5A70
330
1F
100
AcDbEntity
  8
SOLBET_Emulsje_Folie
100
AcDbLine
 10
98.80799446621132
 20
143.8859798406247
 30
0.0
 11
99.2079944662114
 21
144.0370339829231
 31
0.0
  0
LINE
  5
5A71
330
1F
100
AcDbEntity
  8
SOLBET_Emulsje_Folie
100
AcDbLine
 10
98.80799446621132
 20
143.1267819331688
 30
0.0
 11
99.2079944662114
 21
142.9757277908704
 31
0.0
  0
LINE
  5
5A72
330
1F
100
AcDbEntity
  8
SOLBET_Emulsje_Folie
100
AcDbLine
 10
98.80799446621132
 20
142.1037566160666
 30
0.0
 11
99.2079944662114
 21
142.2548107583651
 31
0.0
  0
LINE
  5
5A73
330
1F
100
AcDbEntity
  8
SOLBET_Emulsje_Folie
100
AcDbLine
 10
98.80799446621132
 20
147.4504262897408
 30
0.0
 11
99.2079944662114
 21
147.6014804320393
 31
0.0
  0
LINE
  5
5A74
330
1F
100
AcDbEntity
  8
SOLBET_Emulsje_Folie
100
AcDbLine
 10
98.80799446621132
 20
146.6912283822848
 30
0.0
 11
99.2079944662114
 21
146.5401742399866
 31
0.0
  0
LINE
  5
5A75
330
1F
100
AcDbEntity
  8
SOLBET_Emulsje_Folie
100
AcDbLine
 10
98.80799446621132
 20
145.668203065183
 30
0.0
 11
99.2079944662114
 21
145.8192572074813
 31
0.0
  0
LINE
  5
5A76
330
1F
100
AcDbEntity
  8
SOLBET_Emulsje_Folie
100
AcDbLine
 10
98.80799446621132
 20
141.3445587086107
 30
0.0
 11
99.2079944662114
 21
141.1935045663124
 31
0.0
  0
ARC
  5
5A78
330
1F
100
AcDbEntity
  8
SOLBET_Emulsje_Folie
100
AcDbCircle
 10
99.01453137697059
 20
74.06360036167427
 30
0.0
 40
0.25
100
AcDbArc
 50
270.0
 51
0.0
  0
LINE
  5
5A7B
330
1F
100
AcDbEntity
  8
SOLBET_Emulsje_Folie
100
AcDbLine
 10
98.09971727498691
 20
163.2155569846695
 30
0.0
 11
98.09971727498691
 21
163.4555569846693
 31
0.0
  0
HATCH
  5
5CAD
330
1F
100
AcDbEntity
  8
SOLBET_Grunt
100
AcDbHatch
 10
0.0
 20
0.0
 30
0.0
210
0.0
220
0.0
230
1.0
  2
AR-CONC
 70
     0
 71
     0
 91
        1
 92
        7
 72
     0
 73
     1
 93
        9
 10
84.44571054638329
 20
57.04567211115101
 10
89.52896433285616
 20
57.04567211115101
 10
92.77286668685571
 20
60.54567201941347
 10
94.47286668685547
 20
60.54567201941347
 10
94.47286668685547
 20
73.04567201941347
 10
94.47286668685547
 20
74.05371467260192
 10
98.80799446621132
 20
74.05371467260192
 10
98.80799446621132
 20
115.1379799346678
 10
79.13794511324017
 20
115.1379799346677
 97
        0
 75
     0
 76
     1
 52
0.0
 41
0.05
 77
     0
 78
    13
 53
50.0
 43
-337.3247188168534
 44
0.0
 45
9.1092334498002
 46
-0.7969542769451543
 79
     2
 49
0.9525000000000002
 49
-10.4775
 53
355.0
 43
-337.3247188168534
 44
0.0
 45
-1.762141298783349
 46
9.552832144108998
 79
     2
 49
0.762
 49
-8.381999999999999
 53
100.451
 43
-336.5656188168534
 44
-0.0664125
 45
7.347125083297962
 46
8.755834391014593
 79
     2
 49
0.8095
 49
-8.9045
 53
46.1842
 43
-337.3247188168534
 44
2.54
 45
13.5539520446065
 46
-2.102116396636357
 79
     2
 49
1.428749999999999
 49
-15.71625
 53
96.63559999999996
 43
-336.1952238168534
 44
2.364825
 45
11.87021172331186
 46
12.37127779450246
 79
     2
 49
1.214249999999999
 49
-13.35675
 53
351.184
 43
-337.3247188168534
 44
2.54
 45
11.87023029069669
 46
12.37125589302988
 79
     2
 49
1.143
 49
-12.573
 53
21.0
 43
-336.0547188168534
 44
1.905
 45
7.580743991769164
 46
-5.113275925838125
 79
     2
 49
0.9525000000000002
 49
-10.4775
 53
326.0
 43
-336.0547188168534
 44
1.905
 45
3.090101417382353
 46
9.209398306115962
 79
     2
 49
0.762
 49
-8.381999999999999
 53
71.45140000000001
 43
-335.4229938168534
 44
1.478895
 45
10.67082453850622
 46
4.096142885802872
 79
     2
 49
0.8095
 49
-8.9045
 53
37.5
 43
-337.3247188168534
 44
0.0
 45
0.1544301625295909
 46
4.227751943657655
 79
     6
 49
0.0
 49
-8.2804
 49
0.0
 49
-8.509
 49
0.0
 49
-8.41375
 53
7.499999999999999
 43
-337.3247188168534
 44
0.0
 45
3.340983125515287
 46
5.009028740905975
 79
     6
 49
0.0
 49
-4.851399999999999
 49
0.0
 49
-8.0899
 49
0.0
 49
-3.20675
 53
327.5
 43
-340.1568188168535
 44
0.0
 45
6.779529758343568
 46
-0.2864371996336732
 79
     6
 49
0.0
 49
-3.175
 49
0.0
 49
-9.906
 49
0.0
 49
-13.1445
 53
317.5
 43
-341.4268188168534
 44
0.0
 45
7.406459069300902
 46
1.27132455166665
 79
     6
 49
0.0
 49
-4.1275
 49
0.0
 49
-6.5786
 49
0.0
 49
-9.3345
 47
0.2807271303824296
 98
        1
 10
85.8545182084963
 20
95.93368688707959
1001
ACAD
1010
0.0
1020
0.0
1030
0.0
  0
HATCH
  5
5D67
330
1F
100
AcDbEntity
  8
SOLBET_Grunt
100
AcDbHatch
 10
0.0
 20
0.0
 30
0.0
210
0.0
220
0.0
230
1.0
  2
AR-CONC
 70
     0
 71
     1
 91
        1
 92
        7
 72
     0
 73
     1
 93
        4
 10
76.69581325448733
 20
116.637979934668
 10
98.80799446621132
 20
116.637979934668
 10
98.80799446621132
 20
148.0636002453528
 10
73.76001567588535
 20
148.0636002453528
 97
        4
330
5A5E
330
5A4E
330
5A54
330
5A2F
 75
     0
 76
     1
 52
0.0
 41
0.02
 77
     0
 78
    13
 53
50.0
 43
-337.3247188168534
 44
0.0
 45
3.64369337992008
 46
-0.3187817107780617
 79
     2
 49
0.381
 49
-4.191
 53
355.0
 43
-337.3247188168534
 44
0.0
 45
-0.7048565195133399
 46
3.821132857643599
 79
     2
 49
0.3048
 49
-3.352799999999999
 53
100.451
 43
-337.0210788168535
 44
-0.026565
 45
2.938850033319184
 46
3.502333756405837
 79
     2
 49
0.3238
 49
-3.5618
 53
46.1842
 43
-337.3247188168534
 44
1.016
 45
5.421580817842598
 46
-0.8408465586545428
 79
     2
 49
0.5715
 49
-6.2865
 53
96.63559999999996
 43
-336.8729208168534
 44
0.94593
 45
4.748084689324742
 46
4.948511117800984
 79
     2
 49
0.4857
 49
-5.342699999999998
 53
351.184
 43
-337.3247188168534
 44
1.016
 45
4.748092116278678
 46
4.948502357211953
 79
     2
 49
0.4572
 49
-5.0292
 53
21.0
 43
-336.8167188168535
 44
0.762
 45
3.032297596707665
 46
-2.04531037033525
 79
     2
 49
0.381
 49
-4.191
 53
326.0
 43
-336.8167188168535
 44
0.762
 45
1.236040566952941
 46
3.683759322446385
 79
     2
 49
0.3048
 49
-3.352799999999999
 53
71.45140000000001
 43
-336.5640288168534
 44
0.5915580000000001
 45
4.268329815402489
 46
1.638457154321149
 79
     2
 49
0.3238
 49
-3.5618
 53
37.5
 43
-337.3247188168534
 44
0.0
 45
0.0617720650118363
 46
1.691100777463062
 79
     6
 49
0.0
 49
-3.312159999999999
 49
0.0
 49
-3.4036
 49
0.0
 49
-3.3655
 53
7.499999999999999
 43
-337.3247188168534
 44
0.0
 45
1.336393250206114
 46
2.00361149636239
 79
     6
 49
0.0
 49
-1.940559999999999
 49
0.0
 49
-3.235959999999999
 49
0.0
 49
-1.2827
 53
327.5
 43
-338.4575588168534
 44
0.0
 45
2.711811903337427
 46
-0.1145748798534693
 79
     6
 49
0.0
 49
-1.27
 49
0.0
 49
-3.9624
 49
0.0
 49
-5.257799999999999
 53
317.5
 43
-338.9655588168535
 44
0.0
 45
2.962583627720361
 46
0.5085298206666603
 79
     6
 49
0.0
 49
-1.650999999999999
 49
0.0
 49
-2.63144
 49
0.0
 49
-3.7338
 47
0.2807271303824296
 98
        1
 10
86.97831877715362
 20
129.3402094111316
1001
ACAD
1010
0.0
1020
0.0
1030
0.0
  0
LINE
  5
5D7A
330
1F
100
AcDbEntity
  8
SOLBET_Emulsje_Folie
100
AcDbLine
 10
99.20799446621117
 20
149.0636002453528
 30
0.0
 11
98.80799446621109
 21
149.0636002453528
 31
0.0
  0
LINE
  5
5D7B
330
1F
100
AcDbEntity
  8
SOLBET_Emulsje_Folie
100
AcDbLine
 10
98.80799446621132
 20
148.4734516068431
 30
0.0
 11
99.2079944662114
 21
148.3223974645445
 31
0.0
  0
DIMENSION
  5
5D92
330
1F
100
AcDbEntity
  8
SOLBET_Wymiary_Opisy
100
AcDbDimension
  2
*D6
 10
86.34285372912639
 20
148.0636002453528
 30
0.0
 11
86.34285372912637
 21
155.6395786150112
 31
0.0
 70
   160
  1
Min. 30cm
 71
     5
 42
15.15195673931669
  3
Solbet
100
AcDbAlignedDimension
 13
98.09971727498691
 23
163.2155569846695
 33
0.0
 14
98.80799446621132
 24
148.0636002453528
 34
0.0
 50
90.0
100
AcDbRotatedDimension
  0
LINE
  5
5E2E
330
1F
100
AcDbEntity
  8
SOLBET_Emulsje_Folie
100
AcDbLine
 10
99.26453137697059
 20
163.1281754218929
 30
0.0
 11
99.40601830352262
 21
163.1281753301554
 31
0.0
  0
LINE
  5
6298
330
1F
100
AcDbEntity
  8
SOLBET_Emulsje_Folie
100
AcDbLine
 10
122.7931906775881
 20
163.2155569846695
 30
0.0
 11
98.09971727498691
 21
163.2155569846695
 31
0.0
  0
LINE
  5
6299
330
1F
100
AcDbEntity
  8
SOLBET_Emulsje_Folie
100
AcDbLine
 10
122.7931906775881
 20
163.4555569846693
 30
0.0
 11
98.09971727498691
 21
163.4555569846693
 31
0.0
  0
LINE
  5
629A
330
1F
100
AcDbEntity
  8
SOLBET_Tynki_Posadzki
100
AcDbLine
 10
99.26453137697059
 20
163.1281754218929
 30
0.0
 11
99.1097172749869
 21
163.1281754218929
 31
0.0
  0
LINE
  5
62A0
330
1F
100
AcDbEntity
  8
SOLBET_Tynki_Posadzki
100
AcDbLine
 10
114.9728666868554
 20
79.38712045007048
 30
0.0
 11
172.5319319540185
 21
79.38712045006525
 31
0.0
  0
HATCH
  5
62FC
330
1F
100
AcDbEntity
  8
SOLBET_Beton
100
AcDbHatch
 10
0.0
 20
0.0
 30
0.0
210
0.0
220
0.0
230
1.0
  2
ANSI31
 70
     0
 71
     0
 91
        2
 92
        7
 72
     1
 73
     1
 93
        5
 10
94.47286668685547
 20
60.54567201941347
 42
0.0
 10
92.77286668685565
 20
60.54567201941346
 42
0.0
 10
89.52896424783114
 20
57.04567201941335
 42
0.0
 10
152.5048597983116
 20
57.04567201941336
 42
-0.0493144372786194
 10
151.7021787394282
 20
60.54567201941347
 42
0.0
 97
        0
 92
        7
 72
     1
 73
     1
 93
        4
 10
151.7021787394282
 20
60.54567201941348
 42
0.0493144372786194
 10
152.5048597983116
 20
57.04567201941336
 42
0.0
 10
172.5319319540184
 20
57.04567201941336
 42
0.0
 10
172.5319319540184
 20
60.54567201941347
 42
0.0
 97
        0
 75
     0
 76
     1
 52
270.0
 41
0.5
 77
     0
 78
     1
 53
315.0
 43
-337.3247188168534
 44
0.0
 45
1.122532015133644
 46
1.122532015133643
 79
     0
 47
0.0971653817045828
 98
        2
 10
124.2380288634403
 20
59.20892157914011
 10
156.7164883893442
 20
59.4032523372706
1001
ACAD
1010
0.0
1020
0.0
1030
0.0
  0
LINE
  5
6303
330
1F
100
AcDbEntity
  8
SOLBET_Bloczki
100
AcDbLine
 10
114.4566828631959
 20
151.0636001536127
 30
0.0
 11
99.45668286319596
 21
151.0636001536127
 31
0.0
  0
LINE
  5
6304
330
1F
100
AcDbEntity
  8
SOLBET_Bloczki
100
AcDbLine
 10
99.45668286319596
 20
151.0636001536127
 30
0.0
 11
99.45668286319596
 21
150.2275767936343
 31
0.0
  0
LINE
  5
6310
330
1F
100
AcDbEntity
  8
SOLBET_Beton
100
AcDbLine
 10
110.4739452109506
 20
151.0636001536125
 30
0.0
 11
105.4739452109503
 21
151.0636001536125
 31
0.0
  0
LINE
  5
6311
330
1F
100
AcDbEntity
  8
SOLBET_Beton
100
AcDbLine
 10
105.4739452109503
 20
151.0636001536125
 30
0.0
 11
105.4739455758014
 21
163.0636001536152
 31
0.0
  0
LINE
  5
6312
330
1F
100
AcDbEntity
  8
SOLBET_Beton
100
AcDbLine
 10
215.7325307570857
 20
89.97307753531304
 30
0.0
 11
268.0581267644444
 21
89.97307753531304
 31
0.0
  0
LINE
  5
6314
330
1F
100
AcDbEntity
  8
SOLBET_Beton
100
AcDbLine
 10
268.0581267644444
 20
127.473077535313
 30
0.0
 11
215.4291897611081
 21
127.473077535313
 31
0.0
  0
LINE
  5
6315
330
1F
100
AcDbEntity
  8
SOLBET_Beton
100
AcDbLine
 10
220.0204135543814
 20
79.47307753531269
 30
0.0
 11
268.0581267644444
 21
79.47307753531269
 31
0.0
  0
MTEXT
  5
637D
330
1F
100
AcDbEntity
  8
SOLBET_Wymiary_Opisy
100
AcDbMText
 10
9.386429556654206
 20
289.8092639143694
 30
0.0
 40
5.0
 41
0.0
 71
     1
 72
     1
  1
{\LDETAL 4}
  7
Solbet_2_5
 73
     1
 44
1.0
1001
ACAD
1000
MTEXTBEGIN
1070
    73
1070
     1
1070
    44
1040
1.0
1070
    74
1070
     0
1000
MTEXTEND
  0
MTEXT
  5
637E
102
{ACAD_XDICTIONARY
360
6BBC
102
}
330
1F
100
AcDbEntity
  8
SOLBET_Wymiary_Opisy
100
AcDbMText
 10
9.237389498194829
 20
278.8848900004983
 30
0.0
 40
5.0
 41
0.0
 71
     1
 72
     1
  1
Posadowienie na p\U+0142ycie fundamentowej\Pbudynku podpiwniczonego\Ppiwnica bez docieplenia
  7
Solbet_2_5
 73
     1
 44
1.0
1001
ACAD
1000
MTEXTBEGIN
1070
    73
1070
     1
1070
    44
1040
1.0
1070
    74
1070
     0
1000
MTEXTEND
  0
MTEXT
  5
637F
330
1F
100
AcDbEntity
  8
SOLBET_Wymiary_Opisy
100
AcDbMText
 10
11.15024354294803
 20
25.47234208846623
 30
0.0
 40
2.5
 41
0.0
 71
     1
 72
     1
  1
UWAGA:
  7
Solbet_2_5
 73
     1
 44
1.0
1001
ACAD
1000
MTEXTBEGIN
1070
    73
1070
     1
1070
    44
1040
1.0
1070
    74
1070
     0
1000
MTEXTEND
  0
MTEXT
  5
6380
102
{ACAD_XDICTIONARY
360
6BBE
102
}
330
1F
100
AcDbEntity
  8
SOLBET_Wymiary_Opisy
100
AcDbMText
 10
11.00120348448865
 20
20.8601049431681
 30
0.0
 40
2.5
 41
0.0
 71
     1
 72
     1
  1
Sytemy hydroizolacji stosowa\U+0107 wg zalece\U+0144 producent\U+00F3w\PStyropian wodoodporny wg zalece\U+0144 producent\U+00F3w
  7
Solbet_2_5
 73
     1
 44
1.0
1001
ACAD
1000
MTEXTBEGIN
1070
    73
1070
     1
1070
    44
1040
1.0
1070
    74
1070
     0
1000
MTEXTEND
  0
LINE
  5
63EE
330
1F
100
AcDbEntity
  8
SOLBET_Zaprawy
100
AcDbLine
 10
99.26453137697059
 20
163.1281754218929
 30
0.0
 11
99.26453137697059
 21
149.0636002453528
 31
0.0
  0
LINE
  5
644F
330
1F
100
AcDbEntity
  8
SOLBET_Wymiary_Opisy
100
AcDbLine
 10
93.1768733447916
 20
195.9490733898236
 30
0.0
 11
69.10947029251463
 21
207.1365911227125
 31
0.0
1001
ACAD
1000
DSTYLE
1002
{
1070
   147
1040
0.625
1070
    77
1070
     1
1002
}
  0
LINE
  5
6450
330
1F
100
AcDbEntity
  8
SOLBET_Wymiary_Opisy
100
AcDbLine
 10
69.10947029251463
 20
207.1365911227125
 30
0.0
 11
18.90984376814032
 21
207.1365911227125
 31
0.0
1001
ACAD
1000
DSTYLE
1002
{
1070
   147
1040
0.625
1070
    77
1070
     1
1002
}
  0
TEXT
  5
6451
330
1F
100
AcDbEntity
  8
SOLBET_Wymiary_Opisy
100
AcDbText
 10
18.52860078301251
 20
212.9159922634017
 30
0.0
 40
2.5
  1
Siatka z klejem SOLBET Gabit T
  7
Solbet_2_5
100
AcDbText
  0
TEXT
  5
6452
330
1F
100
AcDbEntity
  8
SOLBET_Wymiary_Opisy
100
AcDbText
 10
43.78595502225403
 20
208.4964498417036
 30
0.0
 40
2.5
  1
jeżeli wymagane
  7
Solbet_2_5
100
AcDbText
  0
INSERT
  5
6453
330
1F
100
AcDbEntity
  8
SOLBET_Wymiary_Opisy
100
AcDbBlockReference
  2
_DotSmall
 10
93.1768733447916
 20
195.9490733898236
 30
0.0
 41
2.499999999999195
 42
2.5
 43
2.5
 50
323.192595210197
1001
ACAD
1000
DSTYLE
1002
{
1070
   147
1040
0.625
1070
    77
1070
     1
1002
}
  0
TEXT
  5
6455
330
1F
100
AcDbEntity
  8
SOLBET_Wymiary_Opisy
100
AcDbText
 10
37.24523823341792
 20
199.241166090119
 30
0.0
 40
2.5
  1
Bloczki SOLBET Ideal
  7
Solbet_2_5
100
AcDbText
  0
INSERT
  5
6456
330
1F
100
AcDbEntity
  8
SOLBET_Wymiary_Opisy
100
AcDbBlockReference
  2
_DotSmall
 10
101.3407645630279
 20
184.7062250370449
 30
0.0
 41
2.499999999999994
 42
2.5
 43
2.5
 50
337.1546848322934
1001
ACAD
1000
DSTYLE
1002
{
1070
   147
1040
0.625
1070
    77
1070
     1
1002
}
  0
LWPOLYLINE
  5
6457
330
1F
100
AcDbEntity
  8
SOLBET_Wymiary_Opisy
100
AcDbPolyline
 90
        3
 70
     0
 43
0.0
 10
101.3407645630279
 20
184.7062250370449
 10
69.17732385207273
 20
198.2564335465644
 10
37.50473568339294
 20
198.2564335465644
1001
ACAD
1000
DSTYLE
1002
{
1070
   147
1040
0.625
1070
    77
1070
     1
1002
}
  0
LEADER
  5
65D8
330
1F
100
AcDbEntity
  8
SOLBET_Wymiary_Opisy
100
AcDbLeader
  3
Solbet$7
 73
     0
 74
     0
 75
     1
 40
3.25
 41
25.25
 76
     3
 10
114.8661660225666
 20
150.6767145186012
 30
0.0
 10
123.5514981807803
 20
142.9830418176127
 30
0.0
 10
126.0514981807803
 20
142.9830418176127
 30
0.0
340
65D9
213
0.0
223
-0.2322806831707567
233
0.0
1001
ACAD
1000
DSTYLE
1002
{
1070
   147
1040
0.625
1070
    77
1070
     1
1002
}
  0
MTEXT
  5
65D9
102
{ACAD_XDICTIONARY
360
6BC0
102
}
102
{ACAD_REACTORS
330
65D8
102
}
330
1F
100
AcDbEntity
  8
SOLBET_Wymiary_Opisy
100
AcDbMText
 10
126.6764981807803
 20
147.0903225007835
 30
0.0
 40
2.5
 41
0.0
 71
     1
 72
     1
  1
Ci\U+0119cie tynkarskie
  7
Solbet_2_5
 73
     1
 44
1.0
1001
ACAD
1000
MTEXTBEGIN
1070
    73
1070
     1
1070
    44
1040
1.0
1070
    74
1070
     0
1000
MTEXTEND
  0
DIMENSION
  5
65DA
330
1F
100
AcDbEntity
  8
SOLBET_Wymiary_Opisy
100
AcDbDimension
  2
*D7
 10
99.45668286319591
 20
169.445696430404
 30
0.0
 11
61.53889128536866
 21
169.445696430404
 31
0.0
 70
   160
  1
max. 1/3 szeokości bloczka
 71
     5
 42
5.982737511496168
  3
Solbet
100
AcDbAlignedDimension
 13
93.47394535169973
 23
163.8636003577635
 33
0.0
 14
99.45668286319591
 24
163.0636002453528
 34
0.0
100
AcDbRotatedDimension
  0
INSERT
  5
65DB
330
1F
100
AcDbEntity
  8
SOLBET_Wymiary_Opisy
100
AcDbBlockReference
  2
_DotSmall
 10
100.5070662929975
 20
152.7010401133525
 30
0.0
 41
2.499999999999988
 42
2.5
 43
2.5
 50
150.4285248597116
1001
ACAD
1000
DSTYLE
1002
{
1070
   147
1040
0.625
1070
    77
1070
     1
1002
}
  0
LWPOLYLINE
  5
65DC
330
1F
100
AcDbEntity
  8
SOLBET_Wymiary_Opisy
100
AcDbPolyline
 90
        3
 70
     0
 43
0.0
 10
100.5070662929975
 20
152.7010401133525
 10
120.9402284682332
 20
136.7084316611559
 10
152.5466907276159
 20
136.7084316611559
1001
ACAD
1000
DSTYLE
1002
{
1070
   147
1040
0.625
1070
    77
1070
     1
1002
}
  0
MTEXT
  5
65DD
102
{ACAD_XDICTIONARY
360
6BC2
102
}
330
1F
100
AcDbEntity
  8
SOLBET_Wymiary_Opisy
100
AcDbMText
 10
150.0500091963854
 20
140.0347061246034
 30
0.0
 40
2.5
 41
0.0
 71
     3
 72
     1
  1
P\U+0142ytka SOLBET
  7
Solbet_2_5
 73
     1
 44
1.0
1001
ACAD
1000
MTEXTBEGIN
1070
    73
1070
     1
1070
    44
1040
1.0
1070
    74
1070
     0
1000
MTEXTEND
  0
POINT
  5
661A
330
1F
100
AcDbEntity
  8
SOLBET_Beton
100
AcDbPoint
 10
0.0
 20
0.0
 30
0.0
  0
LINE
  5
66ED
330
1F
100
AcDbEntity
  8
SOLBET_Emulsje_Folie
100
AcDbLine
 10
95.84466661464258
 20
73.21389458669698
 30
0.0
 11
172.5319320390435
 21
73.22140660372861
 31
0.0
  0
HATCH
  5
66EF
330
1F
100
AcDbEntity
  8
SOLBET_Beton
100
AcDbHatch
 10
0.0
 20
0.0
 30
0.0
210
0.0
220
0.0
230
1.0
  2
ANSI33
 70
     0
 71
     0
 91
        1
 92
        1
 93
        6
 72
     1
 10
94.4728667718806
 20
60.54567211115113
 11
172.5319320390435
 21
60.54567211115113
 72
     1
 10
172.5319320390435
 20
60.54567211115113
 11
172.5319320390435
 21
73.04567211115113
 72
     1
 10
172.5319320390435
 20
73.04567211115113
 11
95.57011712316636
 21
73.04567211115113
 72
     1
 10
95.57011712316636
 20
73.04567211115113
 11
93.62437648138154
 21
71.04923574374272
 72
     1
 10
93.62437648138154
 20
71.04923574374272
 11
93.62437648138154
 21
60.54567211115113
 72
     1
 10
93.62437648138154
 20
60.54567211115113
 11
94.4728667718806
 21
60.54567211115113
 97
        0
 75
     0
 76
     1
 52
0.0
 41
0.8
 77
     0
 78
     2
 53
45.0
 43
0.0000000850251354
 44
0.000000091737661
 45
-3.59210244842766
 46
3.592102448427661
 79
     0
 53
45.0
 43
3.592104085025141
 44
0.000000091737661
 45
-3.59210244842766
 46
3.592102448427661
 79
     2
 49
2.54
 49
-1.27
 98
        1
 10
0.0000000850251354
 20
0.000000091737661
1001
ACAD
1010
0.0
1020
0.0
1030
0.0
  0
LINE
  5
66F1
330
1F
100
AcDbEntity
  8
SOLBET_Emulsje_Folie
100
AcDbLine
 10
95.73117695902828
 20
73.39738977918106
 30
0.0
 11
93.43003461714658
 21
71.09624743729941
 31
0.0
1001
ASO_SCHRAFF
1005
0
1070
     1
1002
{
1070
     1
1005
0
1002
}
1002
{
1070
     2
1005
0
1002
}
1002
{
1070
     4
1000
BRASS
1040
0.2
1040
45.0
1070
     0
1000
T__SCHR
1070
   256
1000
VONLAYER
1040
50.0
1070
     1
1002
}
  0
LINE
  5
66F2
330
1F
100
AcDbEntity
  8
SOLBET_Emulsje_Folie
  6
DASHED2
370
    30
100
AcDbLine
 10
95.70268453497908
 20
73.51738977918109
 30
0.0
 11
94.75471866492773
 21
72.56942390912968
 31
0.0
1001
ASO_SCHRAFF
1005
0
1070
     1
1002
{
1070
     1
1005
0
1002
}
1002
{
1070
     2
1005
0
1002
}
1002
{
1070
     4
1000
BRASS
1040
0.2
1040
45.0
1070
     0
1000
T__SCHR
1070
   256
1000
VONLAYER
1040
50.0
1070
     1
1002
}
  0
LINE
  5
66F3
330
1F
100
AcDbEntity
  8
SOLBET_Emulsje_Folie
100
AcDbLine
 10
95.67419211092987
 20
73.63738977918107
 30
0.0
 11
93.22003461714666
 21
71.18323228539776
 31
0.0
1001
ASO_SCHRAFF
1005
0
1070
     1
1002
{
1070
     1
1005
0
1002
}
1002
{
1070
     2
1005
0
1002
}
1002
{
1070
     4
1000
BRASS
1040
0.2
1040
45.0
1070
     0
1000
T__SCHR
1070
   256
1000
VONLAYER
1040
50.0
1070
     1
1002
}
  0
LINE
  5
66F4
330
1F
100
AcDbEntity
  8
SOLBET_Emulsje_Folie
100
AcDbLine
 10
95.595844252196
 20
73.81360036167428
 30
0.0
 11
93.0400346171466
 21
71.25779072662492
 31
0.0
1001
ASO_SCHRAFF
1005
0
1070
     1
1002
{
1070
     1
1005
0
1002
}
1002
{
1070
     2
1005
0
1002
}
1002
{
1070
     4
1000
BRASS
1040
0.2
1040
45.0
1070
     0
1000
T__SCHR
1070
   256
1000
VONLAYER
1040
50.0
1070
     1
1002
}
  0
LINE
  5
66F5
330
1F
100
AcDbEntity
  8
SOLBET_Emulsje_Folie
100
AcDbLine
 10
99.01453154390242
 20
73.81360036167428
 30
0.0
 11
95.595844252196
 21
73.81360036167428
 31
0.0
  0
LWPOLYLINE
  5
66F6
330
1F
100
AcDbEntity
  8
SOLBET_Emulsje_Folie
100
AcDbPolyline
 90
        2
 70
     0
 43
0.0
 10
117.2130919492456
 20
73.39738977918107
 10
95.73117695902828
 20
73.39738977918106
  0
LWPOLYLINE
  5
66F7
330
1F
100
AcDbEntity
  8
SOLBET_Emulsje_Folie
100
AcDbPolyline
 90
        2
 70
     0
 43
0.0
 10
95.67419211092987
 20
73.63738977918107
 10
117.2130919492456
 20
73.63738977918107
  0
LINE
  5
66F8
330
1F
100
AcDbEntity
  8
SOLBET_Emulsje_Folie
  6
DASHED2
370
    30
100
AcDbLine
 10
95.70268453497902
 20
73.51738977918104
 30
0.0
 11
117.2130919492456
 21
73.51738977918106
 31
0.0
  0
LINE
  5
66F9
330
1F
100
AcDbEntity
  8
SOLBET_Emulsje_Folie
100
AcDbLine
 10
93.43003461714658
 20
71.09624743729941
 30
0.0
 11
93.43003461714658
 21
68.39624743729941
 31
0.0
  0
LINE
  5
66FA
330
1F
100
AcDbEntity
  8
SOLBET_Emulsje_Folie
100
AcDbLine
 10
93.22003461714666
 20
68.39624743729941
 30
0.0
 11
93.22003461714666
 21
71.18323228539776
 31
0.0
  0
LINE
  5
66FB
330
1F
100
AcDbEntity
  8
SOLBET_Emulsje_Folie
100
AcDbLine
 10
93.0400346171466
 20
68.39624743729941
 30
0.0
 11
93.0400346171466
 21
71.2577907266249
 31
0.0
  0
LINE
  5
66FC
330
1F
100
AcDbEntity
  8
SOLBET_Emulsje_Folie
  6
DASHED2
370
    30
100
AcDbLine
 10
93.32503461714656
 20
68.39624743729941
 30
0.0
 11
93.32503461714656
 21
69.54435959002814
 31
0.0
  0
LINE
  5
66FD
330
1F
100
AcDbEntity
  8
SOLBET_Emulsje_Folie
  6
DASHED2
370
    30
100
AcDbLine
 10
93.32503461714656
 20
70.14266495547923
 30
0.0
 11
93.32503461714656
 21
71.13973986134862
 31
0.0
  0
LINE
  5
66FE
330
1F
100
AcDbEntity
  8
SOLBET_Emulsje_Folie
  6
DASHED2
370
    30
100
AcDbLine
 10
93.32503461714656
 20
71.13973986134862
 30
0.0
 11
94.15888919339716
 21
71.97359443759914
 31
0.0
  0
LINE
  5
66FF
330
1F
100
AcDbEntity
  8
SOLBET_Emulsje_Folie
100
AcDbLine
 10
93.22003461714666
 20
68.39624743729941
 30
0.0
 11
93.43003461714658
 21
68.39624743729941
 31
0.0
  0
LINE
  5
6700
330
1F
100
AcDbEntity
  8
SOLBET_Emulsje_Folie
100
AcDbLine
 10
117.2130919492456
 20
73.63738977918107
 30
0.0
 11
117.2130919492456
 21
73.39738977918107
 31
0.0
  0
LINE
  5
6701
330
1F
100
AcDbEntity
  8
SOLBET_Emulsje_Folie
100
AcDbLine
 10
93.54595270259698
 20
68.39624743729941
 30
0.0
 11
93.54595270259698
 21
70.91518067465145
 31
0.0
  0
CIRCLE
  5
6703
330
1F
100
AcDbEntity
  8
SOLBET_Wymiary_Opisy
100
AcDbCircle
 10
97.07416036126268
 20
72.3715617588108
 30
0.0
 40
6.72794034480946
  0
LEADER
  5
6704
330
1F
100
AcDbEntity
  8
SOLBET_Wymiary_Opisy
100
AcDbLeader
  3
Solbet$7
 73
     0
 75
     1
 40
5.0
 41
3.5
 76
     3
 10
91.02916976749929
 20
69.41804351701384
 30
0.0
 10
71.71523903314358
 20
62.6634685756392
 30
0.0
 10
69.21523903314358
 20
62.6634685756392
 30
0.0
340
6705
213
-0.8791749024171622
223
-0.1753245211093599
233
0.0
1001
ACAD
1000
DSTYLE
1002
{
1070
   341
1005
1EF2
1070
   147
1040
0.625
1070
    77
1070
     1
1002
}
  0
MTEXT
  5
6705
102
{ACAD_REACTORS
330
6704
102
}
330
1F
100
AcDbEntity
  8
SOLBET_Wymiary_Opisy
100
AcDbMText
 10
69.46941393556073
 20
68.46379309674856
 30
0.0
 40
5.0
 41
0.0
 71
     3
 72
     1
  1
C
  7
Solbet_5
 73
     1
 44
1.0
1001
ACAD
1000
MTEXTBEGIN
1070
    73
1070
     1
1070
    44
1040
1.0
1070
    74
1070
     0
1000
MTEXTEND
  0
LWPOLYLINE
  5
6736
330
1F
100
AcDbEntity
  8
SOLBET_Bloczki
100
AcDbPolyline
 90
        3
 70
     0
 43
0.0
 10
183.3120696392707
 20
255.33417747368
 10
183.3120696392707
 20
230.2076025182997
 10
205.5079024805341
 20
230.2076025182997
  0
HATCH
  5
6737
330
1F
100
AcDbEntity
  8
SOLBET_Beton
100
AcDbHatch
 10
0.0
 20
0.0
 30
0.0
210
0.0
220
0.0
230
1.0
  2
ANSI33
 70
     0
 71
     0
 91
        1
 92
        1
 93
        4
 72
     2
 10
172.5514825166933
 20
223.4619435252999
 40
33.6397017240473
 50
240.1580723290472
 51
363.692464015495
 73
     1
 72
     1
 10
206.1213514974506
 20
225.6283757761796
 11
166.8120696392706
 21
225.6283757761797
 72
     1
 10
166.8120696392702
 20
225.6283757761796
 11
155.8120696392706
 21
214.6283757761798
 72
     1
 10
155.8120696392711
 20
214.6283757761799
 11
155.8120696392716
 21
194.2828141928114
 97
        0
 75
     0
 76
     1
 52
0.0
 41
3.75
 77
     0
 78
     2
 53
45.0
 43
-9373.754466236038
 44
1503.668103112338
 45
-16.83798022700466
 46
16.83798022700466
 79
     0
 53
45.0
 43
-9356.916478736037
 44
1503.668103112338
 45
-16.83798022700466
 46
16.83798022700466
 79
     2
 49
11.90625
 49
-5.953124999999999
 98
        1
 10
207.522251345983
 20
173.5439466379812
1001
ACAD
1010
0.0
1020
0.0
1030
0.0
  0
LINE
  5
6738
330
1F
100
AcDbEntity
  8
SOLBET_Beton
100
AcDbLine
 10
206.1213514974506
 20
225.6283757761796
 30
0.0
 11
166.8120696392702
 21
225.6283757761796
 31
0.0
1001
ASO_SCHRAFF
1005
0
1070
     1
1002
{
1070
     1
1005
0
1002
}
1002
{
1070
     2
1005
0
1002
}
1002
{
1070
     4
1000
BRASS
1040
0.2
1040
45.0
1070
     0
1000
T__SCHR
1070
   256
1000
VONLAYER
1040
50.0
1070
     1
1002
}
  0
LINE
  5
6739
330
1F
100
AcDbEntity
  8
SOLBET_Beton
100
AcDbLine
 10
155.8120696392707
 20
214.6283757761795
 30
0.0
 11
155.8120696392707
 21
194.2828141928117
 31
0.0
1001
ASO_SCHRAFF
1005
0
1070
     1
1002
{
1070
     1
1005
0
1002
}
1002
{
1070
     2
1005
0
1002
}
1002
{
1070
     4
1000
BRASS
1040
0.2
1040
45.0
1070
     0
1000
T__SCHR
1070
   256
1000
VONLAYER
1040
50.0
1070
     1
1002
}
  0
LINE
  5
673A
330
1F
100
AcDbEntity
  8
SOLBET_Beton
100
AcDbLine
 10
166.8120696392702
 20
225.6283757761796
 30
0.0
 11
155.8120696392707
 21
214.6283757761795
 31
0.0
1001
ASO_SCHRAFF
1005
0
1070
     1
1002
{
1070
     1
1005
0
1002
}
1002
{
1070
     2
1005
0
1002
}
1002
{
1070
     4
1000
BRASS
1040
0.2
1040
45.0
1070
     0
1000
T__SCHR
1070
   256
1000
VONLAYER
1040
50.0
1070
     1
1002
}
  0
LINE
  5
673B
330
1F
100
AcDbEntity
  8
SOLBET_Emulsje_Folie
100
AcDbLine
 10
166.5753192284328
 20
226.8765496058336
 30
0.0
 11
155.0696075190249
 21
215.3708378964254
 31
0.0
1001
ASO_SCHRAFF
1005
0
1070
     1
1002
{
1070
     1
1005
0
1002
}
1002
{
1070
     2
1005
0
1002
}
1002
{
1070
     4
1000
BRASS
1040
0.2
1040
45.0
1070
     0
1000
T__SCHR
1070
   256
1000
VONLAYER
1040
50.0
1070
     1
1002
}
  0
LINE
  5
673C
330
1F
100
AcDbEntity
  8
SOLBET_Emulsje_Folie
  6
DASHED2
370
    30
100
AcDbLine
 10
166.4328571081873
 20
227.4765496058337
 30
0.0
 11
161.6930277579299
 21
222.7367202555768
 31
0.0
1001
ASO_SCHRAFF
1005
0
1070
     1
1002
{
1070
     1
1005
0
1002
}
1002
{
1070
     2
1005
0
1002
}
1002
{
1070
     4
1000
BRASS
1040
0.2
1040
45.0
1070
     0
1000
T__SCHR
1070
   256
1000
VONLAYER
1040
50.0
1070
     1
1002
}
  0
LINE
  5
673D
330
1F
100
AcDbEntity
  8
SOLBET_Emulsje_Folie
100
AcDbLine
 10
166.290394987941
 20
228.0765496058336
 30
0.0
 11
154.0196075190247
 21
215.8057621369171
 31
0.0
1001
ASO_SCHRAFF
1005
0
1070
     1
1002
{
1070
     1
1005
0
1002
}
1002
{
1070
     2
1005
0
1002
}
1002
{
1070
     4
1000
BRASS
1040
0.2
1040
45.0
1070
     0
1000
T__SCHR
1070
   256
1000
VONLAYER
1040
50.0
1070
     1
1002
}
  0
LINE
  5
673E
330
1F
100
AcDbEntity
  8
SOLBET_Emulsje_Folie
100
AcDbLine
 10
165.8986556942713
 20
228.9576025182997
 30
0.0
 11
153.1196075190246
 21
216.1785543430529
 31
0.0
1001
ASO_SCHRAFF
1005
0
1070
     1
1002
{
1070
     1
1005
0
1002
}
1002
{
1070
     2
1005
0
1002
}
1002
{
1070
     4
1000
BRASS
1040
0.2
1040
45.0
1070
     0
1000
T__SCHR
1070
   256
1000
VONLAYER
1040
50.0
1070
     1
1002
}
  0
LINE
  5
6740
330
1F
100
AcDbEntity
  8
SOLBET_Emulsje_Folie
100
AcDbLine
 10
182.4226675511427
 20
255.6207562847678
 30
0.0
 11
182.4226675511427
 21
230.2076025182997
 31
0.0
  0
LINE
  5
6741
330
1F
100
AcDbEntity
  8
SOLBET_Emulsje_Folie
100
AcDbLine
 10
181.172667551029
 20
228.9576025182997
 30
0.0
 11
165.8986556942713
 21
228.9576025182997
 31
0.0
  0
ARC
  5
6742
330
1F
100
AcDbEntity
  8
SOLBET_Emulsje_Folie
100
AcDbCircle
 10
181.172667551029
 20
230.2076025182997
 30
0.0
 40
1.25
100
AcDbArc
 50
270.0
 51
0.0
  0
LINE
  5
6744
330
1F
100
AcDbEntity
  8
SOLBET_Emulsje_Folie
100
AcDbLine
 10
178.6374359510942
 20
230.2076025182997
 30
0.0
 11
180.6374359512106
 21
230.2076025182997
 31
0.0
  0
LINE
  5
6745
330
1F
100
AcDbEntity
  8
SOLBET_Emulsje_Folie
100
AcDbLine
 10
178.6374359510942
 20
236.9010977097444
 30
0.0
 11
180.6374359512106
 21
236.1458269982488
 31
0.0
  0
LINE
  5
6746
330
1F
100
AcDbEntity
  8
SOLBET_Emulsje_Folie
100
AcDbLine
 10
178.6374359510942
 20
231.7859711242292
 30
0.0
 11
180.6374359512106
 21
232.5412418357247
 31
0.0
  0
LINE
  5
6747
330
1F
100
AcDbEntity
  8
SOLBET_Emulsje_Folie
100
AcDbLine
 10
178.6374359510942
 20
240.6970872470213
 30
0.0
 11
180.6374359512106
 21
241.4523579585168
 31
0.0
  0
LINE
  5
6748
330
1F
100
AcDbEntity
  8
SOLBET_Emulsje_Folie
100
AcDbLine
 10
178.6374359510942
 20
245.8122138325217
 30
0.0
 11
180.6374359512106
 21
245.0569431210261
 31
0.0
  0
LINE
  5
6749
330
1F
100
AcDbEntity
  8
SOLBET_Emulsje_Folie
100
AcDbLine
 10
178.6374359510942
 20
254.7233299553137
 30
0.0
 11
180.6374359512106
 21
253.9680592438183
 31
0.0
  0
LINE
  5
674A
330
1F
100
AcDbEntity
  8
SOLBET_Emulsje_Folie
100
AcDbLine
 10
178.6374359510942
 20
249.6082033698132
 30
0.0
 11
180.6374359512106
 21
250.3634740813088
 31
0.0
  0
LINE
  5
674B
330
1F
100
AcDbEntity
  8
SOLBET_Emulsje_Folie
100
AcDbLine
 10
178.6374359510946
 20
256.5465427049356
 30
0.0
 11
178.6374359510942
 21
230.2076025182997
 31
0.0
  0
LINE
  5
674C
330
1F
100
AcDbEntity
  8
SOLBET_Emulsje_Folie
100
AcDbLine
 10
180.6374359512106
 20
256.1153796253134
 30
0.0
 11
180.6374359512106
 21
230.2076025182997
 31
0.0
  0
HATCH
  5
674D
330
1F
100
AcDbEntity
  8
SOLBET_Grunt
100
AcDbHatch
 10
0.0
 20
0.0
 30
0.0
210
0.0
220
0.0
230
1.0
  2
AR-CONC
 70
     0
 71
     0
 91
        1
 92
        1
 93
        5
 72
     2
 10
172.5514825166933
 20
223.4619435252996
 40
33.6397017240473
 50
89.26257450035045
 51
240.1580723290458
 73
     1
 72
     1
 10
155.8120696392707
 20
194.2828141928119
 11
155.8120696392707
 21
232.6190894516075
 72
     1
 10
155.8120696392707
 20
232.6190894516074
 11
168.312069639273
 21
230.2076025182995
 72
     1
 10
168.312069639273
 20
230.2076025182996
 11
172.9844304440162
 21
230.2076025182997
 72
     1
 10
172.9844304440162
 20
230.2076025182997
 11
172.9844304440162
 21
257.0988590820967
 97
        0
 75
     0
 76
     1
 52
0.0
 41
0.25
 77
     0
 78
    13
 53
50.0
 43
-9373.754466236038
 44
1503.668103112338
 45
45.546167249001
 46
-3.984771384725771
 79
     2
 49
4.762500000000001
 49
-52.3875
 53
355.0
 43
-9373.754466236038
 44
1503.668103112338
 45
-8.810706493916747
 46
47.76416072054499
 79
     2
 49
3.81
 49
-41.91000000000001
 53
100.4509999999999
 43
-9369.958966236039
 44
1503.336040612339
 45
36.73562541648981
 46
43.77917195507295
 79
     2
 49
4.0475
 49
-44.52249999999999
 53
46.1842
 43
-9373.754466236038
 44
1516.368103112339
 45
67.76976022303248
 46
-10.51058198318179
 79
     2
 49
7.14375
 49
-78.58125000000001
 53
96.63559999999996
 43
-9368.106991236038
 44
1515.492228112339
 45
59.35105861655928
 46
61.8563889725123
 79
     2
 49
6.071249999999984
 49
-66.78374999999981
 53
351.184
 43
-9373.754466236038
 44
1516.368103112339
 45
59.35115145348348
 46
61.85627946514942
 79
     2
 49
5.714999999999999
 49
-62.865
 53
21.0
 43
-9367.404466236036
 44
1513.193103112339
 45
37.90371995884583
 46
-25.56637962919062
 79
     2
 49
4.762500000000001
 49
-52.3875
 53
326.0
 43
-9367.404466236036
 44
1513.193103112339
 45
15.45050708691177
 46
46.0469915305798
 79
     2
 49
3.809999999999998
 49
-41.90999999999998
 53
71.45140000000001
 43
-9364.245841236039
 44
1511.062578112339
 45
53.35412269253112
 46
20.48071442901436
 79
     2
 49
4.0475
 49
-44.5225
 53
37.49999999999999
 43
-9373.754466236038
 44
1503.668103112338
 45
0.7721508126479543
 46
21.13875971828828
 79
     6
 49
0.0
 49
-41.402
 49
0.0
 49
-42.545
 49
0.0
 49
-42.06875
 53
7.499999999999999
 43
-9373.754466236038
 44
1503.668103112338
 45
16.70491562757644
 46
25.04514370452988
 79
     6
 49
0.0
 49
-24.25699999999999
 49
0.0
 49
-40.44949999999999
 49
0.0
 49
-16.03375
 53
327.5
 43
-9387.914966236037
 44
1503.668103112338
 45
33.89764879171784
 46
-1.432185998168366
 79
     6
 49
0.0
 49
-15.875
 49
0.0
 49
-49.53
 49
0.0
 49
-65.7225
 53
317.5
 43
-9394.264966236038
 44
1503.668103112338
 45
37.03229534650451
 46
6.356622758333254
 79
     6
 49
0.0
 49
-20.6375
 49
0.0
 49
-32.893
 49
0.0
 49
-46.6725
 98
        4
 10
114.659767568648
 20
238.1937613920381
 10
132.1324780735103
 20
325.4834996356094
 10
83.15993494512623
 20
387.9733098335855
 10
-29.99664205677891
 20
2213.816139189447
1001
ACAD
1010
0.0
1020
0.0
1030
0.0
  0
LWPOLYLINE
  5
674F
330
1F
100
AcDbEntity
  8
SOLBET_Emulsje_Folie
100
AcDbPolyline
 90
        2
 70
     0
 43
0.0
 10
206.0174353254456
 20
226.8765496058336
 10
166.5753192284328
 20
226.8765496058336
  0
LWPOLYLINE
  5
6750
330
1F
100
AcDbEntity
  8
SOLBET_Emulsje_Folie
100
AcDbPolyline
 90
        2
 70
     0
 43
0.0
 10
166.290394987941
 20
228.0765496058336
 10
205.8731712914891
 20
228.0765496058336
  0
LINE
  5
6751
330
1F
100
AcDbEntity
  8
SOLBET_Emulsje_Folie
  6
DASHED2
370
    30
100
AcDbLine
 10
166.4328571081873
 20
227.4765496058336
 30
0.0
 11
205.9507709836803
 21
227.4765496058336
 31
0.0
  0
LINE
  5
6753
330
1F
100
AcDbEntity
  8
SOLBET_Emulsje_Folie
100
AcDbLine
 10
155.0696075190249
 20
215.3708378964254
 30
0.0
 11
155.0696075190249
 21
201.8708378964254
 31
0.0
  0
LINE
  5
6754
330
1F
100
AcDbEntity
  8
SOLBET_Emulsje_Folie
100
AcDbLine
 10
155.0696075190249
 20
201.8708378964254
 30
0.0
 11
154.0196075190247
 21
201.8708378964254
 31
0.0
  0
LINE
  5
6755
330
1F
100
AcDbEntity
  8
SOLBET_Emulsje_Folie
100
AcDbLine
 10
154.0196075190247
 20
201.8708378964254
 30
0.0
 11
154.0196075190247
 21
215.8057621369171
 31
0.0
  0
LINE
  5
6756
330
1F
100
AcDbEntity
  8
SOLBET_Emulsje_Folie
100
AcDbLine
 10
153.1196075190246
 20
201.8708378964254
 30
0.0
 11
153.1196075190246
 21
216.1785543430529
 31
0.0
  0
LINE
  5
6757
330
1F
100
AcDbEntity
  8
SOLBET_Emulsje_Folie
  6
DASHED2
370
    30
100
AcDbLine
 10
154.5446075190243
 20
201.8708378964254
 30
0.0
 11
154.5446075190243
 21
207.611398660069
 31
0.0
  0
LINE
  5
6758
330
1F
100
AcDbEntity
  8
SOLBET_Emulsje_Folie
  6
DASHED2
370
    30
100
AcDbLine
 10
154.5446075190243
 20
210.6029254873245
 30
0.0
 11
154.5446075190243
 21
215.5883000166714
 31
0.0
  0
LINE
  5
6759
330
1F
100
AcDbEntity
  8
SOLBET_Emulsje_Folie
  6
DASHED2
370
    30
100
AcDbLine
 10
154.5446075190243
 20
215.5883000166714
 30
0.0
 11
158.7138804002775
 21
219.7575728979241
 31
0.0
  0
CIRCLE
  5
675A
330
1F
100
AcDbEntity
  8
SOLBET_Wymiary_Opisy
100
AcDbCircle
 10
172.5514825166933
 20
223.4619435252996
 30
0.0
 40
33.6397017240473
  0
MTEXT
  5
675B
102
{ACAD_XDICTIONARY
360
6A44
102
}
330
1F
100
AcDbEntity
  8
SOLBET_Wymiary_Opisy
100
AcDbMText
 10
156.1162473085985
 20
275.7707632362612
 30
0.0
 40
5.0
 41
30.77919768571883
 71
     1
 72
     5
  1
\pxqc;C\P(5 : 1)
  7
Solbet_5
 73
     1
 44
1.0
1001
ACAD
1000
MTEXTBEGIN
1070
    73
1070
     1
1070
    44
1040
1.0
1070
    74
1070
     0
1000
MTEXTEND
1000
ACAD_MTEXT_DEFINED_HEIGHT_BEGIN
1070
    46
1040
23.42535011036716
1000
ACAD_MTEXT_DEFINED_HEIGHT_END
  0
LINE
  5
675D
330
1F
100
AcDbEntity
  8
SOLBET_Emulsje_Folie
100
AcDbLine
 10
155.5111034718152
 20
201.8708378964254
 30
0.0
 11
155.5111034718152
 21
214.769284535413
 31
0.0
  0
LINE
  5
675E
330
1F
100
AcDbEntity
  8
SOLBET_Emulsje_Folie
100
AcDbLine
 10
155.5111034718152
 20
214.769284535413
 30
0.0
 11
166.8299415482161
 21
226.0881226118138
 31
0.0
  0
HATCH
  5
698B
330
1F
100
AcDbEntity
  8
SOLBET_Tynki_Posadzki
100
AcDbHatch
 10
0.0
 20
0.0
 30
0.0
210
0.0
220
0.0
230
1.0
  2
AR-CONC
 70
     0
 71
     0
 91
        1
 92
        7
 72
     1
 73
     1
 93
        5
 10
172.5319319540184
 20
166.4109539314607
 42
0.0
 10
172.5319319540184
 20
168.9109539314607
 42
0.0
 10
115.5887612606179
 20
168.9109539314607
 42
0.0
 10
115.5887612606179
 20
166.4834864114776
 42
0.0737237824442441
 10
115.5995144438312
 20
166.4109539314607
 42
0.0
 97
        0
 75
     0
 76
     1
 52
0.0
 41
0.033
 77
     0
 78
    13
 53
50.0
 43
-337.3247188168534
 44
0.0
 45
6.012094076868132
 46
-0.525989822783802
 79
     2
 49
0.6286500000000001
 49
-6.91515
 53
355.0
 43
-337.3247188168534
 44
0.0
 45
-1.16301325719701
 46
6.304869215111938
 79
     2
 49
0.5029200000000001
 49
-5.532119999999999
 53
100.451
 43
-336.8237128168534
 44
-0.04383225
 45
4.849102554976655
 46
5.778850698069631
 79
     2
 49
0.5342700000000001
 49
-5.87697
 53
46.1842
 43
-337.3247188168534
 44
1.676399999999999
 45
8.945608349440288
 46
-1.387396821779995
 79
     2
 49
0.942975
 49
-10.372725
 53
96.63559999999996
 43
-336.5792521168534
 44
1.5607845
 45
7.834339737385826
 46
8.165043344371625
 79
     2
 49
0.8014049999999999
 49
-8.815454999999998
 53
351.184
 43
-337.3247188168534
 44
1.676399999999999
 45
7.834351991859819
 46
8.165028889399723
 79
     2
 49
0.7543800000000001
 49
-8.29818
 53
21.0
 43
-336.4865188168534
 44
1.2573
 45
5.003291034567648
 46
-3.374762111053162
 79
     2
 49
0.6286500000000001
 49
-6.91515
 53
326.0
 43
-336.4865188168534
 44
1.2573
 45
2.039466935472353
 46
6.078202882036536
 79
     2
 49
0.5029200000000001
 49
-5.532119999999999
 53
71.45140000000001
 43
-336.0695803168535
 44
0.9760707
 45
7.042744195414107
 46
2.703454304629895
 79
     2
 49
0.5342700000000001
 49
-5.87697
 53
37.5
 43
-337.3247188168534
 44
0.0
 45
0.10192390726953
 46
2.790316282814052
 79
     6
 49
0.0
 49
-5.465064
 49
0.0
 49
-5.61594
 49
0.0
 49
-5.553075
 53
7.499999999999999
 43
-337.3247188168534
 44
0.0
 45
2.205048862840089
 46
3.305958968997944
 79
     6
 49
0.0
 49
-3.201923999999999
 49
0.0
 49
-5.339334
 49
0.0
 49
-2.116455
 53
327.5
 43
-339.1939048168534
 44
0.0
 45
4.474489640506755
 46
-0.1890485517582243
 79
     6
 49
0.0
 49
-2.095499999999999
 49
0.0
 49
-6.53796
 49
0.0
 49
-8.675369999999999
 53
317.5
 43
-340.0321048168534
 44
0.0
 45
4.888262985738595
 46
0.8390742040999896
 79
     6
 49
0.0
 49
-2.724149999999999
 49
0.0
 49
-4.341876
 49
0.0
 49
-6.16077
 47
0.2285671334967344
 98
        5
 10
235.5052631067145
 20
210.0507507769461
 10
234.4771877785914
 20
111.8190578894874
 10
131.9670337471017
 20
78.33501422459062
 10
161.8915840053604
 20
78.0447058968258
 10
141.3348345514232
 20
167.5734881705466
1001
ACAD
1010
0.0
1020
0.0
1030
0.0
  0
HATCH
  5
698C
330
1F
100
AcDbEntity
  8
SOLBET_Tynki_Posadzki
100
AcDbHatch
 10
0.0
 20
0.0
 30
0.0
210
0.0
220
0.0
230
1.0
  2
AR-CONC
 70
     0
 71
     0
 91
        1
 92
        7
 72
     1
 73
     1
 93
        4
 10
158.1376710131966
 20
76.88712045007048
 42
0.0
 10
172.5319319540183
 20
76.88712045007048
 42
0.0
 10
172.5319319540185
 20
79.38712045006525
 42
0.0
 10
162.0780850604553
 20
79.38712045006621
 42
0.0641954275315586
 97
        0
 75
     0
 76
     1
 52
0.0
 41
0.033
 77
     0
 78
    13
 53
50.0
 43
-337.3247188168534
 44
0.0
 45
6.012094076868132
 46
-0.525989822783802
 79
     2
 49
0.6286500000000001
 49
-6.91515
 53
355.0
 43
-337.3247188168534
 44
0.0
 45
-1.16301325719701
 46
6.304869215111938
 79
     2
 49
0.5029200000000001
 49
-5.532119999999999
 53
100.451
 43
-336.8237128168534
 44
-0.04383225
 45
4.849102554976655
 46
5.778850698069631
 79
     2
 49
0.5342700000000001
 49
-5.87697
 53
46.1842
 43
-337.3247188168534
 44
1.676399999999999
 45
8.945608349440288
 46
-1.387396821779995
 79
     2
 49
0.942975
 49
-10.372725
 53
96.63559999999996
 43
-336.5792521168534
 44
1.5607845
 45
7.834339737385826
 46
8.165043344371625
 79
     2
 49
0.8014049999999999
 49
-8.815454999999998
 53
351.184
 43
-337.3247188168534
 44
1.676399999999999
 45
7.834351991859819
 46
8.165028889399723
 79
     2
 49
0.7543800000000001
 49
-8.29818
 53
21.0
 43
-336.4865188168534
 44
1.2573
 45
5.003291034567648
 46
-3.374762111053162
 79
     2
 49
0.6286500000000001
 49
-6.91515
 53
326.0
 43
-336.4865188168534
 44
1.2573
 45
2.039466935472353
 46
6.078202882036536
 79
     2
 49
0.5029200000000001
 49
-5.532119999999999
 53
71.45140000000001
 43
-336.0695803168535
 44
0.9760707
 45
7.042744195414107
 46
2.703454304629895
 79
     2
 49
0.5342700000000001
 49
-5.87697
 53
37.5
 43
-337.3247188168534
 44
0.0
 45
0.10192390726953
 46
2.790316282814052
 79
     6
 49
0.0
 49
-5.465064
 49
0.0
 49
-5.61594
 49
0.0
 49
-5.553075
 53
7.499999999999999
 43
-337.3247188168534
 44
0.0
 45
2.205048862840089
 46
3.305958968997944
 79
     6
 49
0.0
 49
-3.201923999999999
 49
0.0
 49
-5.339334
 49
0.0
 49
-2.116455
 53
327.5
 43
-339.1939048168534
 44
0.0
 45
4.474489640506755
 46
-0.1890485517582243
 79
     6
 49
0.0
 49
-2.095499999999999
 49
0.0
 49
-6.53796
 49
0.0
 49
-8.675369999999999
 53
317.5
 43
-340.0321048168534
 44
0.0
 45
4.888262985738595
 46
0.8390742040999896
 79
     6
 49
0.0
 49
-2.724149999999999
 49
0.0
 49
-4.341876
 49
0.0
 49
-6.16077
 47
0.2285671334967344
 98
        5
 10
235.5052631067145
 20
210.0507507769461
 10
234.4771877785914
 20
111.8190578894874
 10
131.9670337471017
 20
78.33501422459062
 10
161.8915840053604
 20
78.0447058968258
 10
141.3348345514232
 20
167.5734881705466
1001
ACAD
1010
0.0
1020
0.0
1030
0.0
  0
HATCH
  5
698D
330
1F
100
AcDbEntity
  8
SOLBET_Tynki_Posadzki
100
AcDbHatch
 10
0.0
 20
0.0
 30
0.0
210
0.0
220
0.0
230
1.0
  2
AR-CONC
 70
     0
 71
     0
 91
        1
 92
        7
 72
     1
 73
     1
 93
        4
 10
115.5876827365231
 20
79.38712045007044
 42
0.0
 10
115.5876827365231
 20
76.88712045007048
 42
0.0
 10
158.1376710131966
 20
76.88712045007048
 42
-0.0641954275315586
 10
162.0780850604553
 20
79.38712045006621
 42
0.0
 97
        0
 75
     0
 76
     1
 52
0.0
 41
0.033
 77
     0
 78
    13
 53
50.0
 43
-337.3247188168534
 44
0.0
 45
6.012094076868132
 46
-0.525989822783802
 79
     2
 49
0.6286500000000001
 49
-6.91515
 53
355.0
 43
-337.3247188168534
 44
0.0
 45
-1.16301325719701
 46
6.304869215111938
 79
     2
 49
0.5029200000000001
 49
-5.532119999999999
 53
100.451
 43
-336.8237128168534
 44
-0.04383225
 45
4.849102554976655
 46
5.778850698069631
 79
     2
 49
0.5342700000000001
 49
-5.87697
 53
46.1842
 43
-337.3247188168534
 44
1.676399999999999
 45
8.945608349440288
 46
-1.387396821779995
 79
     2
 49
0.942975
 49
-10.372725
 53
96.63559999999996
 43
-336.5792521168534
 44
1.5607845
 45
7.834339737385826
 46
8.165043344371625
 79
     2
 49
0.8014049999999999
 49
-8.815454999999998
 53
351.184
 43
-337.3247188168534
 44
1.676399999999999
 45
7.834351991859819
 46
8.165028889399723
 79
     2
 49
0.7543800000000001
 49
-8.29818
 53
21.0
 43
-336.4865188168534
 44
1.2573
 45
5.003291034567648
 46
-3.374762111053162
 79
     2
 49
0.6286500000000001
 49
-6.91515
 53
326.0
 43
-336.4865188168534
 44
1.2573
 45
2.039466935472353
 46
6.078202882036536
 79
     2
 49
0.5029200000000001
 49
-5.532119999999999
 53
71.45140000000001
 43
-336.0695803168535
 44
0.9760707
 45
7.042744195414107
 46
2.703454304629895
 79
     2
 49
0.5342700000000001
 49
-5.87697
 53
37.5
 43
-337.3247188168534
 44
0.0
 45
0.10192390726953
 46
2.790316282814052
 79
     6
 49
0.0
 49
-5.465064
 49
0.0
 49
-5.61594
 49
0.0
 49
-5.553075
 53
7.499999999999999
 43
-337.3247188168534
 44
0.0
 45
2.205048862840089
 46
3.305958968997944
 79
     6
 49
0.0
 49
-3.201923999999999
 49
0.0
 49
-5.339334
 49
0.0
 49
-2.116455
 53
327.5
 43
-339.1939048168534
 44
0.0
 45
4.474489640506755
 46
-0.1890485517582243
 79
     6
 49
0.0
 49
-2.095499999999999
 49
0.0
 49
-6.53796
 49
0.0
 49
-8.675369999999999
 53
317.5
 43
-340.0321048168534
 44
0.0
 45
4.888262985738595
 46
0.8390742040999896
 79
     6
 49
0.0
 49
-2.724149999999999
 49
0.0
 49
-4.341876
 49
0.0
 49
-6.16077
 47
0.2285671334967344
 98
        5
 10
235.5052631067145
 20
210.0507507769461
 10
234.4771877785914
 20
111.8190578894874
 10
131.9670337471017
 20
78.33501422459062
 10
161.8915840053604
 20
78.0447058968258
 10
141.3348345514232
 20
167.5734881705466
1001
ACAD
1010
0.0
1020
0.0
1030
0.0
  0
HATCH
  5
698E
330
1F
100
AcDbEntity
  8
SOLBET_Tynki_Posadzki
100
AcDbHatch
 10
0.0
 20
0.0
 30
0.0
210
0.0
220
0.0
230
1.0
  2
AR-CONC
 70
     0
 71
     0
 91
        1
 92
        7
 72
     1
 73
     1
 93
        4
 10
224.4025847809819
 20
146.4727469135915
 42
0.0336903681456238
 10
219.8801938410029
 20
138.9727469135915
 42
0.0
 10
267.9094472389433
 20
138.9727469135915
 42
0.0
 10
267.909447238944
 20
146.4727469135915
 42
0.0
 97
        0
 75
     0
 76
     1
 52
0.0
 41
0.033
 77
     0
 78
    13
 53
50.0
 43
-337.4733983423541
 44
31.34997435660011
 45
6.012094076868132
 46
-0.525989822783802
 79
     2
 49
0.6286500000000001
 49
-6.91515
 53
355.0
 43
-337.4733983423541
 44
31.34997435660011
 45
-1.16301325719701
 46
6.304869215111938
 79
     2
 49
0.5029200000000001
 49
-5.532119999999999
 53
100.451
 43
-336.9723923423541
 44
31.30614210660012
 45
4.849102554976655
 46
5.778850698069631
 79
     2
 49
0.5342700000000001
 49
-5.87697
 53
46.1842
 43
-337.4733983423541
 44
33.02637435660012
 45
8.945608349440288
 46
-1.387396821779995
 79
     2
 49
0.942975
 49
-10.372725
 53
96.63559999999996
 43
-336.7279316423541
 44
32.91075885660011
 45
7.834339737385826
 46
8.165043344371625
 79
     2
 49
0.8014049999999997
 49
-8.815454999999996
 53
351.184
 43
-337.4733983423541
 44
33.02637435660012
 45
7.834351991859819
 46
8.165028889399723
 79
     2
 49
0.7543800000000001
 49
-8.29818
 53
21.0
 43
-336.6351983423542
 44
32.60727435660012
 45
5.003291034567648
 46
-3.374762111053162
 79
     2
 49
0.6286500000000001
 49
-6.91515
 53
326.0
 43
-336.6351983423542
 44
32.60727435660012
 45
2.039466935472353
 46
6.078202882036536
 79
     2
 49
0.5029200000000001
 49
-5.532119999999999
 53
71.45140000000001
 43
-336.2182598423542
 44
32.32604505660012
 45
7.042744195414107
 46
2.703454304629895
 79
     2
 49
0.5342700000000001
 49
-5.87697
 53
37.5
 43
-337.4733983423541
 44
31.34997435660011
 45
0.10192390726953
 46
2.790316282814052
 79
     6
 49
0.0
 49
-5.465064
 49
0.0
 49
-5.61594
 49
0.0
 49
-5.553075
 53
7.499999999999999
 43
-337.4733983423541
 44
31.34997435660011
 45
2.205048862840089
 46
3.305958968997944
 79
     6
 49
0.0
 49
-3.201923999999999
 49
0.0
 49
-5.339334
 49
0.0
 49
-2.116455
 53
327.5
 43
-339.3425843423541
 44
31.34997435660011
 45
4.474489640506755
 46
-0.1890485517582243
 79
     6
 49
0.0
 49
-2.095499999999999
 49
0.0
 49
-6.53796
 49
0.0
 49
-8.675369999999999
 53
317.5
 43
-340.1807843423541
 44
31.34997435660011
 45
4.888262985738595
 46
0.8390742040999896
 79
     6
 49
0.0
 49
-2.724149999999999
 49
0.0
 49
-4.341876
 49
0.0
 49
-6.16077
 47
0.2285671334967344
 98
        5
 10
235.3565835812138
 20
241.4007251335462
 10
234.3285082530907
 20
143.1690322460875
 10
131.818354221601
 20
109.6849885811907
 10
161.7429044798597
 20
109.3946802534259
 10
141.1861550259225
 20
198.9234625271467
1001
ACAD
1010
0.0
1020
0.0
1030
0.0
  0
LINE
  5
699C
330
1F
100
AcDbEntity
  8
SOLBET_Emulsje_Folie
100
AcDbLine
 10
166.8299415482161
 20
226.0881226118138
 30
0.0
 11
206.0885175002518
 21
226.0881226118138
 31
0.0
  0
LINE
  5
69A3
330
1F
100
AcDbEntity
  8
SOLBET_Beton
100
AcDbLine
 10
94.4728667718806
 20
60.54567211115113
 30
0.0
 11
172.5319320390435
 21
60.54567211115113
 31
0.0
  0
LINE
  5
69A4
330
1F
100
AcDbEntity
  8
SOLBET_Beton
100
AcDbLine
 10
172.5319320390435
 20
60.54567211115113
 30
0.0
 11
172.5319320390435
 21
73.04567211115113
 31
0.0
  0
LINE
  5
69A5
330
1F
100
AcDbEntity
  8
SOLBET_Beton
100
AcDbLine
 10
172.5319320390435
 20
73.04567211115113
 30
0.0
 11
95.97342898719505
 21
73.04567211115113
 31
0.0
  0
LINE
  5
69A8
330
1F
100
AcDbEntity
  8
SOLBET_Beton
100
AcDbLine
 10
93.62437648138154
 20
60.54567211115113
 30
0.0
 11
94.4728667718806
 21
60.54567211115113
 31
0.0
  0
LINE
  5
69A9
330
1F
100
AcDbEntity
  8
SOLBET_Emulsje_Folie
100
AcDbLine
 10
95.84466661464258
 20
73.21389458669698
 30
0.0
 11
93.54595270259698
 21
70.91518067465145
 31
0.0
1001
ASO_SCHRAFF
1005
0
1070
     1
1002
{
1070
     1
1005
0
1002
}
1002
{
1070
     2
1005
0
1002
}
1002
{
1070
     4
1000
BRASS
1040
0.2
1040
45.0
1070
     0
1000
T__SCHR
1070
   256
1000
VONLAYER
1040
50.0
1070
     1
1002
}
  0
LINE
  5
69AA
330
1F
100
AcDbEntity
  8
SOLBET_Beton
100
AcDbLine
 10
95.97342898719505
 20
73.04567211115113
 30
0.0
 11
93.62437648138154
 21
70.69661960533768
 31
0.0
1001
ASO_SCHRAFF
1005
0
1070
     1
1002
{
1070
     1
1005
0
1002
}
1002
{
1070
     2
1005
0
1002
}
1002
{
1070
     4
1000
BRASS
1040
0.2
1040
45.0
1070
     0
1000
T__SCHR
1070
   256
1000
VONLAYER
1040
50.0
1070
     1
1002
}
  0
LINE
  5
69AD
330
1F
100
AcDbEntity
  8
SOLBET_Beton
100
AcDbLine
 10
93.62437648138154
 20
70.69661960533768
 30
0.0
 11
93.62437648138154
 21
60.54567211115113
 31
0.0
  0
INSERT
  5
6AAE
330
1F
100
AcDbEntity
  8
SOLBET_Bloczki
100
AcDbBlockReference
  2
SOLBET_Bloczek_Ideal_420x240x590_P+W_KG400_PRA
 10
93.47394563319836
 20
187.8559515942444
 30
0.0
  0
INSERT
  5
6AAF
330
1F
100
AcDbEntity
  8
SOLBET_Bloczki
100
AcDbBlockReference
  2
SOLBET_Bloczek_Ideal_420x240x590_P+W_KG400_PRA
 10
93.47394563319836
 20
175.8559515942443
 30
0.0
  0
INSERT
  5
6AB0
330
1F
100
AcDbEntity
  8
SOLBET_Bloczki
100
AcDbBlockReference
  2
SOLBET_Bloczek_Ideal_420x240x590_P+W_KG400_PRA
 10
93.47394563319836
 20
163.8559515942441
 30
0.0
  0
INSERT
  5
6AC1
330
1F
100
AcDbEntity
  8
SOLBET_Bloczki
100
AcDbBlockReference
  2
SOLBET_Bloczek_Optimal_300x240x590_P+W_KG400_PRA
 10
99.45668286319596
 20
122.0636004177527
 30
0.0
  0
INSERT
  5
6AC2
330
1F
100
AcDbEntity
  8
SOLBET_Bloczki
100
AcDbBlockReference
  2
SOLBET_Bloczek_Optimal_300x240x590_P+W_KG400_PRA
 10
99.4566831459697
 20
134.0636004547067
 30
0.0
  0
INSERT
  5
6AC3
330
1F
100
AcDbEntity
  8
SOLBET_Bloczki
100
AcDbBlockReference
  2
SOLBET_Bloczek_Optimal_300x240x590_P+W_KG400_PRA
 10
99.45668258042225
 20
98.06360038079867
 30
0.0
  0
INSERT
  5
6AC4
330
1F
100
AcDbEntity
  8
SOLBET_Bloczki
100
AcDbBlockReference
  2
SOLBET_Bloczek_Optimal_300x240x590_P+W_KG400_PRA
 10
99.45668258042225
 20
86.06360038079868
 30
0.0
  0
INSERT
  5
6AC5
330
1F
100
AcDbEntity
  8
SOLBET_Bloczki
100
AcDbBlockReference
  2
SOLBET_Bloczek_Optimal_300x240x590_P+W_KG400_PRA
 10
99.45668258042225
 20
74.06360038079867
 30
0.0
  0
MTEXT
  5
6B54
102
{ACAD_XDICTIONARY
360
6B55
102
}
330
1F
100
AcDbEntity
  8
SOLBET_Wymiary_Opisy
100
AcDbMText
 10
301.2542633255816
 20
7.273150535415538
 30
0.0
 40
5.0
 41
0.0
 71
     1
 72
     5
  1
Skala 1:20
  7
Solbet_5
 73
     1
 44
1.0
1001
ACAD
1000
MTEXTBEGIN
1070
    73
1070
     1
1070
    44
1040
1.0
1070
    74
1070
     0
1000
MTEXTEND
1000
ACAD_MTEXT_DEFINED_HEIGHT_BEGIN
1070
    46
1040
5.395147572682731
1000
ACAD_MTEXT_DEFINED_HEIGHT_END
  0
LWPOLYLINE
  5
6B57
330
1F
100
AcDbEntity
  8
SOLBET_Ramka_05
100
AcDbPolyline
 90
        4
 70
     1
 43
0.0
 10
298.2355972046678
 20
9.804221198935465
 10
334.35177409209
 20
9.804221198935465
 10
334.35177409209
 20
0.0
 10
298.2355972046678
 20
0.0000000000000018
  0
ENDSEC
  0
SECTION
  2
OBJECTS
  0
DICTIONARY
  5
C
330
0
100
AcDbDictionary
281
     1
  3
ACAD_COLOR
350
6B
  3
ACAD_GROUP
350
D
  3
ACAD_LAYOUT
350
1A
  3
ACAD_MATERIAL
350
6A
  3
ACAD_MLEADERSTYLE
350
12D
  3
ACAD_MLINESTYLE
350
17
  3
ACAD_PLOTSETTINGS
350
19
  3
ACAD_PLOTSTYLENAME
350
E
  3
ACAD_SCALELIST
350
10C
  3
ACAD_TABLESTYLE
350
7E
  3
ACAD_VISUALSTYLE
350
EF
  3
ACDB_RECOMPOSE_DATA
350
15D
  3
AcDbVariableDictionary
350
5E
  3
DWGPROPS
350
6B99
  0
DICTIONARY
  5
443
330
8
100
AcDbDictionary
280
     1
281
     1
  0
DICTIONARY
  5
3E5
330
2
100
AcDbDictionary
280
     1
281
     1
  3
ACAD_LAYERFILTERS
360
1883
  3
ACLYDICTIONARY
360
1882
  0
DICTIONARY
  5
13C
330
10
100
AcDbDictionary
280
     1
281
     1
  3
ADSK_XREC_LAYER_RECONCILED
360
3F4
  0
DICTIONARY
  5
403
330
3DD
100
AcDbDictionary
280
     1
281
     1
  3
ADSK_XREC_LAYER_RECONCILED
360
404
  0
DICTIONARY
  5
405
330
3DF
100
AcDbDictionary
280
     1
281
     1
  3
ADSK_XREC_LAYER_RECONCILED
360
406
  0
DICTIONARY
  5
407
330
3E0
100
AcDbDictionary
280
     1
281
     1
  3
ADSK_XREC_LAYER_RECONCILED
360
408
  0
DICTIONARY
  5
409
330
3E1
100
AcDbDictionary
280
     1
281
     1
  3
ADSK_XREC_LAYER_RECONCILED
360
40A
  0
DICTIONARY
  5
40B
330
3E2
100
AcDbDictionary
280
     1
281
     1
  3
ADSK_XREC_LAYER_RECONCILED
360
40C
  0
DICTIONARY
  5
40D
330
3E3
100
AcDbDictionary
280
     1
281
     1
  3
ADSK_XREC_LAYER_RECONCILED
360
40E
  0
DICTIONARY
  5
40F
330
3E4
100
AcDbDictionary
280
     1
281
     1
  3
ADSK_XREC_LAYER_RECONCILED
360
410
  0
DICTIONARY
  5
411
330
3E8
100
AcDbDictionary
280
     1
281
     1
  3
ADSK_XREC_LAYER_RECONCILED
360
412
  0
DICTIONARY
  5
4A3
330
1F
100
AcDbDictionary
280
     1
281
     1
  3
ACAD_SORTENTS
360
4A4
  0
DICTIONARY
  5
2A80
330
2A74
100
AcDbDictionary
280
     1
281
     1
  3
ACAD_SORTENTS
360
2A81
  0
DICTIONARY
  5
2ABF
330
2AB5
100
AcDbDictionary
280
     1
281
     1
  3
ACAD_SORTENTS
360
2AC0
  0
DICTIONARY
  5
2B47
330
2B3C
100
AcDbDictionary
280
     1
281
     1
  3
ACAD_SORTENTS
360
2B48
  0
DICTIONARY
  5
6A9A
330
6A8E
100
AcDbDictionary
280
     1
281
     1
  3
ACAD_SORTENTS
360
6A9B
  0
DICTIONARY
  5
6AAA
330
6A9E
100
AcDbDictionary
280
     1
281
     1
  3
ACAD_SORTENTS
360
6AAB
  0
DICTIONARY
  5
6ABD
330
6AB1
100
AcDbDictionary
280
     1
281
     1
  3
ACAD_SORTENTS
360
6ABE
  0
DICTIONARY
  5
6BC4
330
662B
100
AcDbDictionary
280
     1
281
     1
  3
ACAD_MTEXT_RT
360
6BC5
  0
DICTIONARY
  5
6A40
330
5975
100
AcDbDictionary
280
     1
281
     1
  3
ACAD_MTEXT_2008_RT
360
6A41
  0
DICTIONARY
  5
6BA8
330
5977
100
AcDbDictionary
280
     1
281
     1
  3
ACAD_MTEXT_RT
360
6BA9
  0
DICTIONARY
  5
6BAA
330
597D
100
AcDbDictionary
280
     1
281
     1
  3
ACAD_MTEXT_RT
360
6BAB
  0
DICTIONARY
  5
6BAC
330
5996
100
AcDbDictionary
280
     1
281
     1
  3
ACAD_MTEXT_RT
360
6BAD
  0
DICTIONARY
  5
6BAE
330
599C
100
AcDbDictionary
280
     1
281
     1
  3
ACAD_MTEXT_RT
360
6BAF
  0
DICTIONARY
  5
6BB0
330
59A0
100
AcDbDictionary
280
     1
281
     1
  3
ACAD_MTEXT_RT
360
6BB1
  0
DICTIONARY
  5
6A42
330
59C1
100
AcDbDictionary
280
     1
281
     1
  3
ACAD_MTEXT_2008_RT
360
6A43
  0
DICTIONARY
  5
6BB2
330
59CB
100
AcDbDictionary
280
     1
281
     1
  3
ACAD_MTEXT_RT
360
6BB3
  0
DICTIONARY
  5
6BB4
330
59CD
100
AcDbDictionary
280
     1
281
     1
  3
ACAD_MTEXT_RT
360
6BB5
  0
DICTIONARY
  5
6BB6
330
59CF
100
AcDbDictionary
280
     1
281
     1
  3
ACAD_MTEXT_RT
360
6BB7
  0
DICTIONARY
  5
6BB8
330
59D9
100
AcDbDictionary
280
     1
281
     1
  3
ACAD_MTEXT_RT
360
6BB9
  0
DICTIONARY
  5
6BBA
330
59DE
100
AcDbDictionary
280
     1
281
     1
  3
ACAD_MTEXT_RT
360
6BBB
  0
DICTIONARY
  5
6BBC
330
637E
100
AcDbDictionary
280
     1
281
     1
  3
ACAD_MTEXT_RT
360
6BBD
  0
DICTIONARY
  5
6BBE
330
6380
100
AcDbDictionary
280
     1
281
     1
  3
ACAD_MTEXT_RT
360
6BBF
  0
DICTIONARY
  5
6BC0
330
65D9
100
AcDbDictionary
280
     1
281
     1
  3
ACAD_MTEXT_RT
360
6BC1
  0
DICTIONARY
  5
6BC2
330
65DD
100
AcDbDictionary
280
     1
281
     1
  3
ACAD_MTEXT_RT
360
6BC3
  0
DICTIONARY
  5
6A44
330
675B
100
AcDbDictionary
280
     1
281
     1
  3
ACAD_MTEXT_2008_RT
360
6A45
  0
DICTIONARY
  5
6B55
330
6B54
100
AcDbDictionary
280
     1
281
     1
  3
ACAD_MTEXT_2008_RT
360
6B56
  0
DICTIONARY
  5
6B
102
{ACAD_REACTORS
330
C
102
}
330
C
100
AcDbDictionary
281
     1
  0
DICTIONARY
  5
D
102
{ACAD_REACTORS
330
C
102
}
330
C
100
AcDbDictionary
281
     1
  0
DICTIONARY
  5
1A
102
{ACAD_REACTORS
330
C
102
}
330
C
100
AcDbDictionary
281
     1
  3
Arkusz1
350
D3
  3
Arkusz2
350
D7
  3
Model
350
22
  0
DICTIONARY
  5
6A
102
{ACAD_REACTORS
330
C
102
}
330
C
100
AcDbDictionary
281
     1
  3
ByBlock
350
ED
  3
ByLayer
350
EC
  3
Global
350
EE
  0
DICTIONARY
  5
12D
102
{ACAD_REACTORS
330
C
102
}
330
C
100
AcDbDictionary
281
     1
  3
Standard
350
12E
  0
DICTIONARY
  5
17
102
{ACAD_REACTORS
330
C
102
}
330
C
100
AcDbDictionary
281
     1
  3
SOLBET_IZOLACJA
350
7E9
  3
Standard
350
18
  0
DICTIONARY
  5
19
102
{ACAD_REACTORS
330
C
102
}
330
C
100
AcDbDictionary
281
     1
  3
Ustawienia1
350
4FA3
  0
ACDBDICTIONARYWDFLT
  5
E
102
{ACAD_REACTORS
330
C
102
}
330
C
100
AcDbDictionary
281
     1
  3
Normal
350
F
100
AcDbDictionaryWithDefault
340
F
  0
DICTIONARY
  5
10C
102
{ACAD_REACTORS
330
C
102
}
330
C
100
AcDbDictionary
281
     1
  3
A0
350
10D
  3
A1
350
188
  3
A2
350
189
  3
A3
350
18A
  3
A4
350
18B
  3
A5
350
18C
  3
A6
350
18D
  3
A7
350
18E
  3
A8
350
18F
  3
A9
350
190
  3
B0
350
191
  3
B1
350
192
  3
B2
350
193
  3
B3
350
194
  3
B4
350
195
  3
B5
350
196
  3
B6
350
197
  3
B7
350
198
  3
B8
350
199
  3
B9
350
19A
  3
C0
350
19B
  3
C1
350
19C
  3
C2
350
19D
  3
C3
350
19E
  3
C4
350
19F
  3
C5
350
1A0
  3
C6
350
1A1
  3
C7
350
1A2
  3
C8
350
1A3
  3
C9
350
1A4
  3
D0
350
1A5
  3
D1
350
1A6
  3
D2
350
1A7
  0
DICTIONARY
  5
7E
102
{ACAD_REACTORS
330
C
102
}
330
C
100
AcDbDictionary
281
     1
  3
Standard
350
7F
  0
DICTIONARY
  5
EF
102
{ACAD_REACTORS
330
C
102
}
330
C
100
AcDbDictionary
281
     1
  3
2dWireframe
350
F5
  3
3D Hidden
350
F7
  3
3dWireframe
350
F6
  3
Basic
350
F4
  3
Brighten
350
FB
  3
ColorChange
350
FF
  3
Conceptual
350
F8
  3
Dim
350
FA
  3
Facepattern
350
FE
  3
Flat
350
F0
  3
FlatWithEdges
350
F1
  3
Gouraud
350
F2
  3
GouraudWithEdges
350
F3
  3
Linepattern
350
FD
  3
Realistic
350
F9
  3
Thicken
350
FC
  0
XRECORD
  5
15D
102
{ACAD_REACTORS
330
C
102
}
330
C
100
AcDbXrecord
280
     1
 90
        1
330
7F
330
5975
330
59C1
330
675B
  0
DICTIONARY
  5
5E
102
{ACAD_REACTORS
330
C
102
}
330
C
100
AcDbDictionary
281
     1
  3
CANNOSCALE
350
146
  3
CMLEADERSTYLE
350
145
  3
CTABLESTYLE
350
84
  3
DIMASSOC
350
5F
  3
HIDETEXT
350
63
  3
INDEXCTL
350
466
  3
LIGHTINGUNITS
350
464
  3
MSLTSCALE
350
463
  3
PSOLHEIGHT
350
6B98
  3
PSOLWIDTH
350
6B97
  3
SORTENTS
350
465
  0
XRECORD
  5
6B99
102
{ACAD_REACTORS
330
C
102
}
330
C
100
AcDbXrecord
280
     1
  1
DWGPROPS COOKIE
  2

  3

  4

  6

  7

  8
Olus
  9

300
=
301
=
302
=
303
=
304
=
305
=
306
=
307
=
308
=
309
=
 40
0.80132375
 41
2454690.075573148
 42
2454848.836904028
  1

 90
        0
  0
DICTIONARY
  5
1883
102
{ACAD_REACTORS
330
3E5
102
}
330
3E5
100
AcDbDictionary
281
     1
  0
DICTIONARY
  5
1882
102
{ACAD_REACTORS
330
3E5
102
}
330
3E5
100
AcDbDictionary
281
     1
1001
ACAD
1000
<All
  0
XRECORD
  5
3F4
102
{ACAD_REACTORS
330
13C
102
}
330
13C
100
AcDbXrecord
280
     1
290
     1
  0
XRECORD
  5
404
102
{ACAD_REACTORS
330
403
102
}
330
403
100
AcDbXrecord
280
     1
290
     1
  0
XRECORD
  5
406
102
{ACAD_REACTORS
330
405
102
}
330
405
100
AcDbXrecord
280
     1
290
     1
  0
XRECORD
  5
408
102
{ACAD_REACTORS
330
407
102
}
330
407
100
AcDbXrecord
280
     1
290
     1
  0
XRECORD
  5
40A
102
{ACAD_REACTORS
330
409
102
}
330
409
100
AcDbXrecord
280
     1
290
     1
  0
XRECORD
  5
40C
102
{ACAD_REACTORS
330
40B
102
}
330
40B
100
AcDbXrecord
280
     1
290
     1
  0
XRECORD
  5
40E
102
{ACAD_REACTORS
330
40D
102
}
330
40D
100
AcDbXrecord
280
     1
290
     1
  0
XRECORD
  5
410
102
{ACAD_REACTORS
330
40F
102
}
330
40F
100
AcDbXrecord
280
     1
290
     1
  0
XRECORD
  5
412
102
{ACAD_REACTORS
330
411
102
}
330
411
100
AcDbXrecord
280
     1
290
     1
  0
SORTENTSTABLE
  5
4A4
102
{ACAD_REACTORS
330
4A3
102
}
330
4A3
100
AcDbSortentsTable
330
1F
331
5980
  5
5988
331
5A55
  5
5A6A
331
5A16
  5
5A2A
331
5A5D
  5
5A72
331
5A1E
  5
5A32
331
59CF
  5
59E2
331
5990
  5
5999
331
5959
  5
5961
331
5A65
  5
5BBD
331
5A26
  5
5A3A
331
5998
  5
59A0
331
5A2E
  5
5A42
331
6747
  5
6759
331
6451
  5
65D9
331
674F
  5
698D
331
6757
  5
69A7
331
65D9
  5
65DD
331
66F8
  5
6739
331
589E
  5
589E
331
58A6
  5
58A6
331
58AE
  5
58AE
331
59A0
  5
59A8
331
5961
  5
5969
331
5A6D
  5
60A4
331
5A36
  5
5A4B
331
59DF
  5
5A18
331
59A8
  5
59B8
331
5969
  5
5971
331
592A
  5
5936
331
5A75
  5
60AD
331
5A3E
  5
5A55
331
59E7
  5
5A20
331
5971
  5
5979
331
5932
  5
593A
331
58F3
  5
58F7
331
5A46
  5
5A5D
331
59B8
  5
59C5
331
5979
  5
5981
331
58FB
  5
5902
331
593A
  5
5942
331
62FC
  5
590F
331
6304
  5
63EE
331
5A4E
  5
5A65
331
5A0F
  5
5A23
331
5CAD
  5
590E
331
6700
  5
6742
331
6738
  5
674A
331
58B6
  5
58BA
331
587F
  5
587F
331
58C6
  5
58F2
331
588F
  5
588F
331
59C0
  5
59D0
331
5981
  5
5989
331
5903
  5
5911
331
5A56
  5
5A6B
331
5A17
  5
5A2B
331
6314
  5
59CE
331
5A5E
  5
5A73
331
5A1F
  5
5A33
331
59D0
  5
59E5
331
5991
  5
599A
331
595A
  5
5962
331
5A66
  5
5BBE
331
5A27
  5
5A3B
331
5999
  5
59A1
331
591B
  5
5927
331
5A2F
  5
5A44
331
6740
  5
6753
331
6748
  5
675A
331
6750
  5
698E
331
6452
  5
65DA
331
66F1
  5
66FD
331
5897
  5
5897
331
6758
  5
69A8
331
66F9
  5
673A
331
65DA
  5
661A
331
589F
  5
589F
331
58A7
  5
58A7
331
58AF
  5
58AF
331
59D8
  5
5A13
331
59A1
  5
59A9
331
5962
  5
596A
331
5A6E
  5
60A5
331
5A37
  5
5A4C
331
59E0
  5
5A19
331
596A
  5
5972
331
592B
  5
5937
331
58EC
  5
58F5
331
5A76
  5
6311
331
5A3F
  5
5A56
331
59B1
  5
59B9
331
5972
  5
597A
331
5933
  5
593B
331
58F4
  5
58F8
331
5A47
  5
5A5E
331
59B9
  5
59C6
331
597A
  5
5982
331
593B
  5
5943
331
58FC
  5
5903
331
5A4F
  5
5A66
331
6701
  5
6744
331
661A
  5
66F1
331
6739
  5
674B
331
58B7
  5
58BB
331
5878
  5
5878
331
69A8
  5
66FC
331
5880
  5
5880
331
58C7
  5
58F3
331
5A10
  5
5A24
331
59C1
  5
59D6
331
5982
  5
598E
331
5904
  5
5912
331
5A57
  5
5A6C
331
5A18
  5
5A2C
331
6315
  5
59CB
331
637D
  5
6451
331
5A5F
  5
5A74
331
5A20
  5
5A34
331
595B
  5
5963
331
5992
  5
599B
331
5A67
  5
5BBF
331
5A28
  5
5A3C
331
599A
  5
59A2
331
591C
  5
5928
331
5E2E
  5
635C
331
6741
  5
6754
331
6749
  5
675B
331
6751
  5
699C
331
6453
  5
65DB
331
66F2
  5
6702
331
5898
  5
5898
331
6759
  5
69A9
331
65DB
  5
66ED
331
66FA
  5
673B
331
58A0
  5
58A0
331
5A30
  5
5A45
331
59D9
  5
5A14
331
59A2
  5
59AA
331
5963
  5
596B
331
5A6F
  5
60A6
331
5A38
  5
5A4D
331
59E1
  5
5A1C
331
596B
  5
5973
331
592C
  5
5938
331
5A40
  5
5A57
331
59E9
  5
5A21
331
59B2
  5
59BA
331
5973
  5
597B
331
5934
  5
593C
331
58F5
  5
58F9
331
5A48
  5
5A5F
331
59BA
  5
59CA
331
597B
  5
5983
331
58FD
  5
5904
331
593C
  5
5952
331
58B0
  5
58B0
331
673A
  5
674C
331
58B8
  5
58BC
331
5879
  5
5879
331
69A9
  5
66FE
331
5881
  5
5881
331
5A11
  5
5A25
331
59C2
  5
59D7
331
5983
  5
598F
331
5A58
  5
5A6D
331
5A19
  5
5A2D
331
59CA
  5
59DD
331
5D67
  5
5A43
331
637E
  5
6452
331
5A60
  5
5A75
331
5A21
  5
5A35
331
5993
  5
599C
331
595C
  5
5964
331
59D2
  5
5A0F
331
5A29
  5
5A3D
331
599B
  5
59A3
331
591D
  5
5929
331
6742
  5
6755
331
674A
  5
675D
331
5891
  5
5891
331
66F3
  5
6703
331
5899
  5
5899
331
675A
  5
69AA
331
65DC
  5
66EF
331
66FB
  5
673C
331
58A1
  5
58A1
331
5A68
  5
5D7A
331
5A31
  5
5A46
331
59DA
  5
5A15
331
59A3
  5
59AB
331
5964
  5
596C
331
5A70
  5
60A7
331
5A39
  5
5A4E
331
596C
  5
5974
331
59E2
  5
5A1D
331
5A78
  5
6312
331
5A41
  5
5A58
331
59B3
  5
59BB
331
5974
  5
597C
331
5935
  5
593D
331
58F6
  5
58FA
331
5A49
  5
5A60
331
597C
  5
5984
331
593D
  5
5953
331
6703
  5
6745
331
673B
  5
674D
331
58B1
  5
58B1
331
58B9
  5
58C2
331
69AA
  5
6701
331
587A
  5
587A
331
5882
  5
5882
331
588A
  5
588A
331
5A51
  5
5A67
331
5A12
  5
5A26
331
59C3
  5
59D8
331
5984
  5
5990
331
5A59
  5
5A6E
331
5A1A
  5
5A2E
331
59CB
  5
59DE
331
598C
  5
5995
331
590E
  5
591C
331
637F
  5
6453
331
5A61
  5
5A76
331
5A22
  5
5A36
331
595D
  5
5965
331
59D3
  5
5A12
331
5A2A
  5
5A3E
331
599C
  5
59A4
331
591E
  5
592A
331
674B
  5
675E
331
6753
  5
69A3
331
6455
  5
59DC
331
66F4
  5
6704
331
5892
  5
5892
331
675B
  5
69AB
331
65DD
  5
66F0
331
66FC
  5
673D
331
589A
  5
589A
331
58A2
  5
58A2
331
5A69
  5
5D7B
331
5A32
  5
5A47
331
59A4
  5
59AC
331
5965
  5
596D
331
6298
  5
59E9
331
62A0
  5
637D
331
5A71
  5
60A8
331
5A3A
  5
5A4F
331
59E3
  5
5A1E
331
596D
  5
5975
331
5A42
  5
5A59
331
59B4
  5
59BC
331
5936
  5
593E
331
58F7
  5
58FB
331
5975
  5
597D
331
5A4A
  5
5A61
331
597D
  5
5985
331
593E
  5
595B
331
58FF
  5
590B
331
698B
  5
58B6
331
6704
  5
6746
331
69A3
  5
66F5
331
673C
  5
674F
331
58B2
  5
58B2
331
58BA
  5
58C3
331
587B
  5
587B
331
58C2
  5
58C6
331
6310
  5
644F
331
5A13
  5
5A27
331
59C4
  5
59D9
331
5985
  5
5991
331
594E
  5
595D
331
5A5A
  5
5A6F
331
5A1B
  5
5A2F
331
59CC
  5
59DF
331
598D
  5
5996
331
590F
  5
591D
331
6380
  5
6455
331
5A62
  5
5A77
331
5A23
  5
5A37
331
595E
  5
5966
331
5995
  5
599D
331
5A2B
  5
5A3F
331
599D
  5
59A5
331
591F
  5
592B
331
63EE
  5
6456
331
6744
  5
6756
331
674C
  5
698B
331
66ED
  5
66F2
331
6754
  5
69A4
331
6456
  5
59DA
331
66F5
  5
6705
331
5893
  5
5893
331
66FD
  5
673E
331
589B
  5
589B
331
58A3
  5
58A3
331
58C8
  5
58F4
331
5A6A
  5
5D92
331
5A33
  5
5A48
331
59A5
  5
59B5
331
5966
  5
596E
331
5927
  5
5933
331
6299
  5
5A0E
331
5A72
  5
60A9
331
5A3B
  5
5A51
331
59E4
  5
5A1F
331
596E
  5
5976
331
5A43
  5
5A5A
331
59B5
  5
59BD
331
5937
  5
593F
331
58F8
  5
58FC
331
5976
  5
597E
331
5A4B
  5
5A62
331
59BD
  5
59CC
331
597E
  5
5986
331
593F
  5
595C
331
698C
  5
58B7
331
6705
  5
6747
331
699C
  5
69AE
331
69A4
  5
66F6
331
673D
  5
6750
331
58BB
  5
58C4
331
587C
  5
587C
331
58C3
  5
58C7
331
588C
  5
588C
331
5900
  5
5910
331
6311
  5
6450
331
5A53
  5
5A68
331
5A14
  5
5A28
331
5986
  5
5992
331
594F
  5
595E
331
5D7A
  5
6314
331
5A5B
  5
5A70
331
5A1C
  5
5A30
331
59CD
  5
59E0
331
598E
  5
5997
331
5957
  5
595F
331
5910
  5
591E
331
5D92
  5
6316
331
5A63
  5
5A78
331
5A24
  5
5A38
331
5996
  5
599E
331
595F
  5
5967
331
5A2C
  5
5A40
331
599E
  5
59A6
331
6745
  5
6757
331
644F
  5
6457
331
674D
  5
698C
331
5894
  5
5894
331
6755
  5
69A5
331
6457
  5
59DB
331
66F6
  5
6737
331
589C
  5
589C
331
675D
  5
69AC
331
66FE
  5
6740
331
58A4
  5
58A4
331
58AC
  5
58AC
331
629A
  5
6363
331
5A6B
  5
5E2E
331
5A34
  5
5A49
331
59DD
  5
5A16
331
59A6
  5
59B6
331
5967
  5
596F
331
5928
  5
5934
331
5A73
  5
60AB
331
5A3C
  5
5A53
331
596F
  5
5977
331
5A7B
  5
6313
331
5A44
  5
5A5B
331
59B6
  5
59BE
331
5977
  5
597F
331
5938
  5
5940
331
58F9
  5
58FD
331
5A4C
  5
5A63
331
597F
  5
5987
331
698D
  5
58B8
331
6736
  5
6748
331
69A5
  5
66F7
331
673E
  5
6751
331
58BC
  5
58C5
331
69AD
  5
66FB
331
58C4
  5
58C8
331
588D
  5
588D
331
5A54
  5
5A69
331
5A15
  5
5A29
331
5987
  5
5993
331
6312
  5
59CD
331
5D7B
  5
6315
331
5A5C
  5
5A71
331
5A1D
  5
5A31
331
59CE
  5
59E1
331
598F
  5
5998
331
5958
  5
5960
331
5911
  5
591F
331
5A64
  5
5A7B
331
5A25
  5
5A39
331
5997
  5
599F
331
5A2D
  5
5A41
331
599F
  5
59A7
331
6746
  5
6758
331
6450
  5
65D8
331
66EF
  5
66F3
331
6756
  5
69A6
331
65D8
  5
65DC
331
66F7
  5
6738
331
589D
  5
589D
331
675E
  5
69AD
331
66FF
  5
6741
331
58A5
  5
58A5
331
5960
  5
5968
331
5A6C
  5
60A3
331
5A35
  5
5A4A
331
59DE
  5
5A17
331
59A7
  5
59B7
331
5968
  5
5970
331
5929
  5
5935
331
5A74
  5
60AC
331
5A3D
  5
5A54
331
5970
  5
5978
331
5931
  5
5939
331
58F2
  5
58F6
331
5A45
  5
5A5C
331
59B7
  5
59C1
331
5978
  5
5980
331
5939
  5
5941
331
58FA
  5
5901
331
6303
  5
6380
331
5A4D
  5
5A64
331
5A0E
  5
5A22
331
59BF
  5
59CF
331
698E
  5
58B9
331
6737
  5
6749
331
58B5
  5
58B5
331
58C5
  5
58EC
331
588E
  5
588E
  0
SORTENTSTABLE
  5
2A81
102
{ACAD_REACTORS
330
2A80
102
}
330
2A80
100
AcDbSortentsTable
330
2A74
  0
SORTENTSTABLE
  5
2AC0
102
{ACAD_REACTORS
330
2ABF
102
}
330
2ABF
100
AcDbSortentsTable
330
2AB5
  0
SORTENTSTABLE
  5
2B48
102
{ACAD_REACTORS
330
2B47
102
}
330
2B47
100
AcDbSortentsTable
330
2B3C
  0
SORTENTSTABLE
  5
6A9B
102
{ACAD_REACTORS
330
6A9A
102
}
330
6A9A
100
AcDbSortentsTable
330
6A8E
  0
SORTENTSTABLE
  5
6AAB
102
{ACAD_REACTORS
330
6AAA
102
}
330
6AAA
100
AcDbSortentsTable
330
6A9E
  0
SORTENTSTABLE
  5
6ABE
102
{ACAD_REACTORS
330
6ABD
102
}
330
6ABD
100
AcDbSortentsTable
330
6AB1
  0
XRECORD
  5
6BC5
102
{ACAD_REACTORS
330
6BC4
102
}
330
6BC4
100
AcDbXrecord
280
     1
 40
45905.0
  1
max. 1/3 szeokości bloczka
  0
XRECORD
  5
6A41
102
{ACAD_REACTORS
330
6A40
102
}
330
6A40
100
AcDbXrecord
280
     1
 40
24645.0
  1
\pxqc;A\P(3 : 1)
  0
XRECORD
  5
6BA9
102
{ACAD_REACTORS
330
6BA8
102
}
330
6BA8
100
AcDbXrecord
280
     1
 40
34960.0
  1
Warstwa wykończeniowa
  0
XRECORD
  5
6BAB
102
{ACAD_REACTORS
330
6BAA
102
}
330
6BAA
100
AcDbXrecord
280
     1
 40
42625.0
  1
Płyty izolacyjne twarde
  0
XRECORD
  5
6BAD
102
{ACAD_REACTORS
330
6BAC
102
}
330
6BAC
100
AcDbXrecord
280
     1
 40
34960.0
  1
Warstwa wykończeniowa
  0
XRECORD
  5
6BAF
102
{ACAD_REACTORS
330
6BAE
102
}
330
6BAE
100
AcDbXrecord
280
     1
 40
42625.0
  1
Płyty izolacyjne twarde
  0
XRECORD
  5
6BB1
102
{ACAD_REACTORS
330
6BB0
102
}
330
6BB0
100
AcDbXrecord
280
     1
 40
32623.0
  1
Płyta żelbetowa
  0
XRECORD
  5
6A43
102
{ACAD_REACTORS
330
6A42
102
}
330
6A42
100
AcDbXrecord
280
     1
 40
24709.0
  1
\pxqc;B\P(3 : 1)
  0
XRECORD
  5
6BB3
102
{ACAD_REACTORS
330
6BB2
102
}
330
6BB2
100
AcDbXrecord
280
     1
 40
33376.0
  1
Tynk zewnętrzny SOLBET
  0
XRECORD
  5
6BB5
102
{ACAD_REACTORS
330
6BB4
102
}
330
6BB4
100
AcDbXrecord
280
     1
 40
25446.0
  1
Wieniec żelbetowy
  0
XRECORD
  5
6BB7
102
{ACAD_REACTORS
330
6BB6
102
}
330
6BB6
100
AcDbXrecord
280
     1
 40
29116.0
  1
Warstwa docieplająca
  0
XRECORD
  5
6BB9
102
{ACAD_REACTORS
330
6BB8
102
}
330
6BB8
100
AcDbXrecord
280
     1
 40
33358.0
  1
Tynk wewnętrzny SOLBET
  0
XRECORD
  5
6BBB
102
{ACAD_REACTORS
330
6BBA
102
}
330
6BBA
100
AcDbXrecord
280
     1
 40
23045.0
  1
Profil zamykający
  0
XRECORD
  5
6BBD
102
{ACAD_REACTORS
330
6BBC
102
}
330
6BBC
100
AcDbXrecord
280
     1
 40
425889.0
  1
Posadowienie na płycie fundamentowej\Pbudynku podpiwniczonego\Ppiwnica bez docieplenia
  0
XRECORD
  5
6BBF
102
{ACAD_REACTORS
330
6BBE
102
}
330
6BBE
100
AcDbXrecord
280
     1
 40
727596.0
  1
Sytemy hydroizolacji stosować wg zaleceń producentów\PStyropian wodoodporny wg zaleceń producentów
  0
XRECORD
  5
6BC1
102
{ACAD_REACTORS
330
6BC0
102
}
330
6BC0
100
AcDbXrecord
280
     1
 40
26527.0
  1
Cięcie tynkarskie
  0
XRECORD
  5
6BC3
102
{ACAD_REACTORS
330
6BC2
102
}
330
6BC2
100
AcDbXrecord
280
     1
 40
14518.0
  1
Płytka SOLBET
  0
XRECORD
  5
6A45
102
{ACAD_REACTORS
330
6A44
102
}
330
6A44
100
AcDbXrecord
280
     1
 40
24748.0
  1
\pxqc;C\P(5 : 1)
  0
XRECORD
  5
6B56
102
{ACAD_REACTORS
330
6B55
102
}
330
6B55
100
AcDbXrecord
280
     1
 40
24748.0
  1
\pxqc;C\P(5 : 1)
  0
LAYOUT
  5
D3
102
{ACAD_XDICTIONARY
360
6B9D
102
}
102
{ACAD_REACTORS
330
1A
102
}
330
1A
100
AcDbPlotSettings
  1

  2
C:\Documents and Settings\basas\Application Data\Autodesk\AutoCAD 2005\R16.1\enu\plotters\Default Windows System Printer.pc3
  4

  6

 40
0.0
 41
0.0
 42
0.0
 43
0.0
 44
0.0
 45
0.0
 46
0.0
 47
0.0
 48
0.0
 49
0.0
140
0.0
141
0.0
142
1.0
143
1.0
 70
   688
 72
     0
 73
     0
 74
     5
  7

 75
    16
147
1.0
148
0.0
149
0.0
100
AcDbLayout
  1
Arkusz1
 70
     1
 71
     1
 10
0.0
 20
0.0
 11
12.0
 21
9.0
 12
0.0
 22
0.0
 32
0.0
 14
0.0
 24
0.0
 34
0.0
 15
0.0
 25
0.0
 35
0.0
146
0.0
 13
0.0
 23
0.0
 33
0.0
 16
1.0
 26
0.0
 36
0.0
 17
0.0
 27
1.0
 37
0.0
 76
     0
330
D2
  0
LAYOUT
  5
D7
102
{ACAD_XDICTIONARY
360
6B9F
102
}
102
{ACAD_REACTORS
330
1A
102
}
330
1A
100
AcDbPlotSettings
  1

  2
C:\Documents and Settings\basas\Application Data\Autodesk\AutoCAD 2005\R16.1\enu\plotters\Default Windows System Printer.pc3
  4

  6

 40
0.0
 41
0.0
 42
0.0
 43
0.0
 44
0.0
 45
0.0
 46
0.0
 47
0.0
 48
0.0
 49
0.0
140
0.0
141
0.0
142
1.0
143
1.0
 70
   688
 72
     0
 73
     0
 74
     5
  7

 75
    16
147
1.0
148
0.0
149
0.0
100
AcDbLayout
  1
Arkusz2
 70
     1
 71
     2
 10
0.0
 20
0.0
 11
12.0
 21
9.0
 12
0.0
 22
0.0
 32
0.0
 14
0.0
 24
0.0
 34
0.0
 15
0.0
 25
0.0
 35
0.0
146
0.0
 13
0.0
 23
0.0
 33
0.0
 16
1.0
 26
0.0
 36
0.0
 17
0.0
 27
1.0
 37
0.0
 76
     0
330
D6
  0
LAYOUT
  5
22
102
{ACAD_XDICTIONARY
360
6B9A
102
}
102
{ACAD_REACTORS
330
1A
102
}
330
1A
100
AcDbPlotSettings
  1

  2
none_device
  4
Letter_(8.50_x_11.00_Inches)
  6

 40
6.349999904632568
 41
6.349999904632568
 42
6.350006103515625
 43
6.350006103515625
 44
215.8999938964844
 45
279.3999938964844
 46
0.0
 47
80.0
 48
0.0
 49
0.0
140
334.35177409209
141
297.0
142
1.0
143
1.645432057190009
 70
 11952
 72
     1
 73
     0
 74
     4
  7

 75
     0
147
0.6077431125948479
148
0.0
149
0.0
100
AcDbLayout
  1
Model
 70
     1
 71
     0
 10
0.0
 20
0.0
 11
12.0
 21
9.0
 12
0.0
 22
0.0
 32
0.0
 14
0.0
 24
0.0
 34
0.0
 15
0.0
 25
0.0
 35
0.0
146
0.0
 13
0.0
 23
0.0
 33
0.0
 16
1.0
 26
0.0
 36
0.0
 17
0.0
 27
1.0
 37
0.0
 76
     0
330
1F
331
EA
1001
ACAD_PSEXT
1000
Brak
1000
Brak
1000
Nie można zastosować.
1000
Arkusz nie zostanie wydrukowany dopóki nie wybrano konfiguracji plotera.
1070
     0
  0
MATERIAL
  5
ED
102
{ACAD_XDICTIONARY
360
6BA3
102
}
102
{ACAD_REACTORS
330
6A
102
}
330
6A
100
AcDbMaterial
  1
ByBlock
 73
     2
 78
     2
172
     2
176
     2
270
     2
274
     2
  0
MATERIAL
  5
EC
102
{ACAD_XDICTIONARY
360
6BA1
102
}
102
{ACAD_REACTORS
330
6A
102
}
330
6A
100
AcDbMaterial
  1
ByLayer
 73
     2
 78
     2
172
     2
176
     2
270
     2
274
     2
  0
MATERIAL
  5
EE
102
{ACAD_XDICTIONARY
360
173
102
}
102
{ACAD_REACTORS
330
6A
102
}
330
6A
100
AcDbMaterial
  1
Global
 73
     2
 43
0.0007999999797903
 43
0.0
 43
0.0
 43
0.0
 43
0.0
 43
0.0007999999797903
 43
0.0
 43
0.0
 43
0.0
 43
0.0
 43
1.0
 43
0.0
 43
0.0
 43
0.0
 43
0.0
 43
1.0
 78
     2
172
     2
 49
0.0007999999797903
 49
0.0
 49
0.0
 49
0.0
 49
0.0
 49
0.0007999999797903
 49
0.0
 49
0.0
 49
0.0
 49
0.0
 49
1.0
 49
0.0
 49
0.0
 49
0.0
 49
0.0
 49
1.0
176
     2
142
0.0007999999797903
142
0.0
142
0.0
142
0.0
142
0.0
142
0.0007999999797903
142
0.0
142
0.0
142
0.0
142
0.0
142
1.0
142
0.0
142
0.0
142
0.0
142
0.0
142
1.0
270
     2
144
0.0007999999797903
144
0.0
144
0.0
144
0.0
144
0.0
144
0.0007999999797903
144
0.0
144
0.0
144
0.0
144
0.0
144
1.0
144
0.0
144
0.0
144
0.0
144
0.0
144
1.0
274
     2
1001
ACAD
1070
    -1
1070
     3
1070
     0
1000

1071
        0
1070
     0
  0
ACAD_PROXY_OBJECT
  5
12E
102
{ACAD_REACTORS
330
12D
102
}
330
12D
100
AcDbProxyObject
 90
      499
 91
      508
 95
       23
 70
     0
 93
      618
310
40901902A4063FBFFFFFE0000000000000020400000000000020404254DD185B99185C99000000000000000104090140501A0000000000000410000000000000004102576400000000000003903F
340
14
340
0
340
11
340
0
 94
        0
1001
ACAD_MLEADERVER
1070
     2
1001
ACAD
1000
AcRTDxfName
1000
MLEADERSTYLE
1000
AcRTDxfName
1000
MLEADERSTYLE
  0
MLINESTYLE
  5
7E9
102
{ACAD_REACTORS
330
17
102
}
330
17
100
AcDbMlineStyle
  2
SOLBET_IZOLACJA
 70
   272
  3

 62
   256
 51
90.0
 52
90.0
 71
     2
 49
0.008
 62
   256
  6
BYLAYER
 49
-0.008
 62
   256
  6
BYLAYER
  0
MLINESTYLE
  5
18
102
{ACAD_REACTORS
330
17
102
}
330
17
100
AcDbMlineStyle
  2
STANDARD
 70
     0
  3

 62
   256
 51
90.0
 52
90.0
 71
     2
 49
0.5
 62
   256
  6
BYLAYER
 49
-0.5
 62
   256
  6
BYLAYER
  0
PLOTSETTINGS
  5
4FA3
102
{ACAD_XDICTIONARY
360
6BA6
102
}
102
{ACAD_REACTORS
330
19
102
}
330
19
100
AcDbPlotSettings
  1
Ustawienia1
  2
PDF995
  4
User66
  6

 40
3.174999952316284
 41
3.174999952316284
 42
3.17498779296875
 43
3.17498779296875
 44
420.0
 45
594.0
 46
11.54999923706054
 47
-13.65000009536743
 48
-316.0724066439061
 49
0.0
140
18.27936744818385
141
297.0
142
1.0
143
1.0
 70
 11936
 72
     1
 73
     0
 74
     4
  7

 75
     0
147
0.9999999999999998
148
316.0724066439061
149
0.0
1001
ACAD_PSEXT
1000
PDF995
1000
PDF995 Printer Driver
1000
PDF995PORT
1000

1070
     0
  0
ACDBPLACEHOLDER
  5
F
102
{ACAD_REACTORS
330
E
102
}
330
E
  0
ACAD_PROXY_OBJECT
  5
10D
102
{ACAD_REACTORS
330
10C
102
}
330
10C
100
AcDbProxyObject
 90
      499
 91
      507
 95
       23
 70
     0
 93
       49
310
904313A31005FF
 94
        0
1001
ACAD
1000
AcRTDxfName
1000
SCALE
1000
AcRTDxfName
1000
SCALE
  0
ACAD_PROXY_OBJECT
  5
188
102
{ACAD_REACTORS
330
10C
102
}
330
10C
100
AcDbProxyObject
 90
      499
 91
      507
 95
       23
 70
     0
 93
      113
310
904313A3200400000000000000407F
 94
        0
1001
ACAD
1000
AcRTDxfName
1000
SCALE
1000
AcRTDxfName
1000
SCALE
  0
ACAD_PROXY_OBJECT
  5
189
102
{ACAD_REACTORS
330
10C
102
}
330
10C
100
AcDbProxyObject
 90
      499
 91
      507
 95
       23
 70
     0
 93
      113
310
904313A3400400000000000010407F
 94
        0
1001
ACAD
1000
AcRTDxfName
1000
SCALE
1000
AcRTDxfName
1000
SCALE
  0
ACAD_PROXY_OBJECT
  5
18A
102
{ACAD_REACTORS
330
10C
102
}
330
10C
100
AcDbProxyObject
 90
      499
 91
      507
 95
       23
 70
     0
 93
      113
310
904313A3500400000000000014407F
 94
        0
1001
ACAD
1000
AcRTDxfName
1000
SCALE
1000
AcRTDxfName
1000
SCALE
  0
ACAD_PROXY_OBJECT
  5
18B
102
{ACAD_REACTORS
330
10C
102
}
330
10C
100
AcDbProxyObject
 90
      499
 91
      507
 95
       23
 70
     0
 93
      113
310
904313A3800400000000000020407F
 94
        0
1001
ACAD
1000
AcRTDxfName
1000
SCALE
1000
AcRTDxfName
1000
SCALE
  0
ACAD_PROXY_OBJECT
  5
18C
102
{ACAD_REACTORS
330
10C
102
}
330
10C
100
AcDbProxyObject
 90
      499
 91
      507
 95
       23
 70
     0
 93
      121
310
905313A313000400000000000024407F
 94
        0
1001
ACAD
1000
AcRTDxfName
1000
SCALE
1000
AcRTDxfName
1000
SCALE
  0
ACAD_PROXY_OBJECT
  5
18D
102
{ACAD_REACTORS
330
10C
102
}
330
10C
100
AcDbProxyObject
 90
      499
 91
      507
 95
       23
 70
     0
 93
      121
310
905313A313600400000000000030407F
 94
        0
1001
ACAD
1000
AcRTDxfName
1000
SCALE
1000
AcRTDxfName
1000
SCALE
  0
ACAD_PROXY_OBJECT
  5
18E
102
{ACAD_REACTORS
330
10C
102
}
330
10C
100
AcDbProxyObject
 90
      499
 91
      507
 95
       23
 70
     0
 93
      121
310
905313A323000400000000000034407F
 94
        0
1001
ACAD
1000
AcRTDxfName
1000
SCALE
1000
AcRTDxfName
1000
SCALE
  0
ACAD_PROXY_OBJECT
  5
18F
102
{ACAD_REACTORS
330
10C
102
}
330
10C
100
AcDbProxyObject
 90
      499
 91
      507
 95
       23
 70
     0
 93
      121
310
905313A33300040000000000003E407F
 94
        0
1001
ACAD
1000
AcRTDxfName
1000
SCALE
1000
AcRTDxfName
1000
SCALE
  0
ACAD_PROXY_OBJECT
  5
190
102
{ACAD_REACTORS
330
10C
102
}
330
10C
100
AcDbProxyObject
 90
      499
 91
      507
 95
       23
 70
     0
 93
      121
310
905313A343000400000000000044407F
 94
        0
1001
ACAD
1000
AcRTDxfName
1000
SCALE
1000
AcRTDxfName
1000
SCALE
  0
ACAD_PROXY_OBJECT
  5
191
102
{ACAD_REACTORS
330
10C
102
}
330
10C
100
AcDbProxyObject
 90
      499
 91
      507
 95
       23
 70
     0
 93
      121
310
905313A353000400000000000049407F
 94
        0
1001
ACAD
1000
AcRTDxfName
1000
SCALE
1000
AcRTDxfName
1000
SCALE
  0
ACAD_PROXY_OBJECT
  5
192
102
{ACAD_REACTORS
330
10C
102
}
330
10C
100
AcDbProxyObject
 90
      499
 91
      507
 95
       23
 70
     0
 93
      129
310
906313A31303000400000000000059407F
 94
        0
1001
ACAD
1000
AcRTDxfName
1000
SCALE
1000
AcRTDxfName
1000
SCALE
  0
ACAD_PROXY_OBJECT
  5
193
102
{ACAD_REACTORS
330
10C
102
}
330
10C
100
AcDbProxyObject
 90
      499
 91
      507
 95
       23
 70
     0
 93
      113
310
904323A3100000000000000001017F
 94
        0
1001
ACAD
1000
AcRTDxfName
1000
SCALE
1000
AcRTDxfName
1000
SCALE
  0
ACAD_PROXY_OBJECT
  5
194
102
{ACAD_REACTORS
330
10C
102
}
330
10C
100
AcDbProxyObject
 90
      499
 91
      507
 95
       23
 70
     0
 93
      113
310
904343A3100000000000000041017F
 94
        0
1001
ACAD
1000
AcRTDxfName
1000
SCALE
1000
AcRTDxfName
1000
SCALE
  0
ACAD_PROXY_OBJECT
  5
195
102
{ACAD_REACTORS
330
10C
102
}
330
10C
100
AcDbProxyObject
 90
      499
 91
      507
 95
       23
 70
     0
 93
      113
310
904383A3100000000000000081017F
 94
        0
1001
ACAD
1000
AcRTDxfName
1000
SCALE
1000
AcRTDxfName
1000
SCALE
  0
ACAD_PROXY_OBJECT
  5
196
102
{ACAD_REACTORS
330
10C
102
}
330
10C
100
AcDbProxyObject
 90
      499
 91
      507
 95
       23
 70
     0
 93
      121
310
90531303A3100000000000000091017F
 94
        0
1001
ACAD
1000
AcRTDxfName
1000
SCALE
1000
AcRTDxfName
1000
SCALE
  0
ACAD_PROXY_OBJECT
  5
197
102
{ACAD_REACTORS
330
10C
102
}
330
10C
100
AcDbProxyObject
 90
      499
 91
      507
 95
       23
 70
     0
 93
      129
310
9063130303A3100000000000000165017F
 94
        0
1001
ACAD
1000
AcRTDxfName
1000
SCALE
1000
AcRTDxfName
1000
SCALE
  0
ACAD_PROXY_OBJECT
  5
198
102
{ACAD_REACTORS
330
10C
102
}
330
10C
100
AcDbProxyObject
 90
      499
 91
      507
 95
       23
 70
     0
 93
      265
310
90F312F31323822203D2031272D302200000000000000200FC00000000000028407F
 94
        0
1001
ACAD
1000
AcRTDxfName
1000
SCALE
1000
AcRTDxfName
1000
SCALE
  0
ACAD_PROXY_OBJECT
  5
199
102
{ACAD_REACTORS
330
10C
102
}
330
10C
100
AcDbProxyObject
 90
      499
 91
      507
 95
       23
 70
     0
 93
      257
310
90E312F363422203D2031272D302200000000000000240FC00000000000028407F
 94
        0
1001
ACAD
1000
AcRTDxfName
1000
SCALE
1000
AcRTDxfName
1000
SCALE
  0
ACAD_PROXY_OBJECT
  5
19A
102
{ACAD_REACTORS
330
10C
102
}
330
10C
100
AcDbProxyObject
 90
      499
 91
      507
 95
       23
 70
     0
 93
      257
310
90E312F333222203D2031272D302200000000000000280FC00000000000028407F
 94
        0
1001
ACAD
1000
AcRTDxfName
1000
SCALE
1000
AcRTDxfName
1000
SCALE
  0
ACAD_PROXY_OBJECT
  5
19B
102
{ACAD_REACTORS
330
10C
102
}
330
10C
100
AcDbProxyObject
 90
      499
 91
      507
 95
       23
 70
     0
 93
      257
310
90E312F313622203D2031272D3022000000000000002C0FC00000000000028407F
 94
        0
1001
ACAD
1000
AcRTDxfName
1000
SCALE
1000
AcRTDxfName
1000
SCALE
  0
ACAD_PROXY_OBJECT
  5
19C
102
{ACAD_REACTORS
330
10C
102
}
330
10C
100
AcDbProxyObject
 90
      499
 91
      507
 95
       23
 70
     0
 93
      257
310
90E332F333222203D2031272D3022000000000000002E0FC00000000000028407F
 94
        0
1001
ACAD
1000
AcRTDxfName
1000
SCALE
1000
AcRTDxfName
1000
SCALE
  0
ACAD_PROXY_OBJECT
  5
19D
102
{ACAD_REACTORS
330
10C
102
}
330
10C
100
AcDbProxyObject
 90
      499
 91
      507
 95
       23
 70
     0
 93
      249
310
90D312F3822203D2031272D302200000000000000300FC00000000000028407F
 94
        0
1001
ACAD
1000
AcRTDxfName
1000
SCALE
1000
AcRTDxfName
1000
SCALE
  0
ACAD_PROXY_OBJECT
  5
19E
102
{ACAD_REACTORS
330
10C
102
}
330
10C
100
AcDbProxyObject
 90
      499
 91
      507
 95
       23
 70
     0
 93
      257
310
90E332F313622203D2031272D302200000000000000320FC00000000000028407F
 94
        0
1001
ACAD
1000
AcRTDxfName
1000
SCALE
1000
AcRTDxfName
1000
SCALE
  0
ACAD_PROXY_OBJECT
  5
19F
102
{ACAD_REACTORS
330
10C
102
}
330
10C
100
AcDbProxyObject
 90
      499
 91
      507
 95
       23
 70
     0
 93
      249
310
90D312F3422203D2031272D302200000000000000340FC00000000000028407F
 94
        0
1001
ACAD
1000
AcRTDxfName
1000
SCALE
1000
AcRTDxfName
1000
SCALE
  0
ACAD_PROXY_OBJECT
  5
1A0
102
{ACAD_REACTORS
330
10C
102
}
330
10C
100
AcDbProxyObject
 90
      499
 91
      507
 95
       23
 70
     0
 93
      249
310
90D332F3822203D2031272D302200000000000000360FC00000000000028407F
 94
        0
1001
ACAD
1000
AcRTDxfName
1000
SCALE
1000
AcRTDxfName
1000
SCALE
  0
ACAD_PROXY_OBJECT
  5
1A1
102
{ACAD_REACTORS
330
10C
102
}
330
10C
100
AcDbProxyObject
 90
      499
 91
      507
 95
       23
 70
     0
 93
      249
310
90D312F3222203D2031272D302200000000000000380FC00000000000028407F
 94
        0
1001
ACAD
1000
AcRTDxfName
1000
SCALE
1000
AcRTDxfName
1000
SCALE
  0
ACAD_PROXY_OBJECT
  5
1A2
102
{ACAD_REACTORS
330
10C
102
}
330
10C
100
AcDbProxyObject
 90
      499
 91
      507
 95
       23
 70
     0
 93
      249
310
90D332F3422203D2031272D3022000000000000003A0FC00000000000028407F
 94
        0
1001
ACAD
1000
AcRTDxfName
1000
SCALE
1000
AcRTDxfName
1000
SCALE
  0
ACAD_PROXY_OBJECT
  5
1A3
102
{ACAD_REACTORS
330
10C
102
}
330
10C
100
AcDbProxyObject
 90
      499
 91
      507
 95
       23
 70
     0
 93
      169
310
90B3122203D2031272D302200400000000000028407F
 94
        0
1001
ACAD
1000
AcRTDxfName
1000
SCALE
1000
AcRTDxfName
1000
SCALE
  0
ACAD_PROXY_OBJECT
  5
1A4
102
{ACAD_REACTORS
330
10C
102
}
330
10C
100
AcDbProxyObject
 90
      499
 91
      507
 95
       23
 70
     0
 93
      265
310
90F312D312F3222203D2031272D3022000000000000003E0FC00000000000028407F
 94
        0
1001
ACAD
1000
AcRTDxfName
1000
SCALE
1000
AcRTDxfName
1000
SCALE
  0
ACAD_PROXY_OBJECT
  5
1A5
102
{ACAD_REACTORS
330
10C
102
}
330
10C
100
AcDbProxyObject
 90
      499
 91
      507
 95
       23
 70
     0
 93
      233
310
90B3322203D2031272D3022000000000000000210000000000000028407F
 94
        0
1001
ACAD
1000
AcRTDxfName
1000
SCALE
1000
AcRTDxfName
1000
SCALE
  0
ACAD_PROXY_OBJECT
  5
1A6
102
{ACAD_REACTORS
330
10C
102
}
330
10C
100
AcDbProxyObject
 90
      499
 91
      507
 95
       23
 70
     0
 93
      233
310
90B3622203D2031272D3022000000000000000610000000000000028407F
 94
        0
1001
ACAD
1000
AcRTDxfName
1000
SCALE
1000
AcRTDxfName
1000
SCALE
  0
ACAD_PROXY_OBJECT
  5
1A7
102
{ACAD_REACTORS
330
10C
102
}
330
10C
100
AcDbProxyObject
 90
      499
 91
      507
 95
       23
 70
     0
 93
      257
310
90E31272D3022203D2031272D3022000000000000000A10000000000000028407F
 94
        0
1001
ACAD
1000
AcRTDxfName
1000
SCALE
1000
AcRTDxfName
1000
SCALE
  0
TABLESTYLE
  5
7F
102
{ACAD_XDICTIONARY
360
162
102
}
102
{ACAD_REACTORS
330
7E
102
}
330
7E
100
AcDbTableStyle
  3
Standard
 70
     0
 71
     0
 40
1.5
 41
1.5
280
     0
281
     0
  7
Standard
140
4.5
170
     2
 62
     0
 63
     7
283
     0
274
    -2
284
     1
 64
     0
275
    -2
285
     1
 65
     0
276
    -2
286
     1
 66
     0
277
    -2
287
     1
 67
     0
278
    -2
288
     1
 68
     0
279
    -2
289
     1
 69
     0
  7
Standard
140
6.0
170
     5
 62
     0
 63
     7
283
     0
274
    -2
284
     1
 64
     0
275
    -2
285
     1
 65
     0
276
    -2
286
     1
 66
     0
277
    -2
287
     1
 67
     0
278
    -2
288
     1
 68
     0
279
    -2
289
     1
 69
     0
  7
Standard
140
4.5
170
     5
 62
     0
 63
     7
283
     0
274
    -2
284
     1
 64
     0
275
    -2
285
     1
 65
     0
276
    -2
286
     1
 66
     0
277
    -2
287
     1
 67
     0
278
    -2
288
     1
 68
     0
279
    -2
289
     1
 69
     0
  0
VISUALSTYLE
  5
F5
102
{ACAD_REACTORS
330
EF
102
}
330
EF
100
AcDbVisualStyle
  2
2dWireframe
 70
     4
 71
     0
 72
     2
 73
     1
 90
        0
 40
-0.6
 41
-30.0
 62
     5
 63
     7
 74
     1
 91
        4
 64
     7
 65
   257
 75
     1
175
     1
 42
1.0
 92
        0
 66
   257
 43
1.0
 76
     1
 77
     6
 78
     2
 67
     7
 79
     5
170
     0
171
     0
290
     0
174
     0
 93
        1
 44
0.0
173
     0
291
     0
 45
0.0
1001
ACAD
1000
AcDbSavedByObjectVersion
1070
     0
  0
VISUALSTYLE
  5
F7
102
{ACAD_REACTORS
330
EF
102
}
330
EF
100
AcDbVisualStyle
  2
3D Hidden
 70
     6
 71
     1
 72
     2
 73
     2
 90
        0
 40
-0.6
 41
-30.0
 62
     5
 63
     7
 74
     2
 91
        2
 64
     7
 65
   257
 75
     2
175
     1
 42
40.0
 92
        0
 66
   257
 43
1.0
 76
     1
 77
     6
 78
     2
 67
     7
 79
     3
170
     0
171
     0
290
     0
174
     0
 93
        1
 44
0.0
173
     0
291
     0
 45
0.0
1001
ACAD
1000
AcDbSavedByObjectVersion
1070
     0
  0
VISUALSTYLE
  5
F6
102
{ACAD_REACTORS
330
EF
102
}
330
EF
100
AcDbVisualStyle
  2
3dWireframe
 70
     5
 71
     0
 72
     2
 73
     1
 90
        0
 40
-0.6
 41
-30.0
 62
     5
 63
     7
 74
     1
 91
        4
 64
     7
 65
   257
 75
     1
175
     1
 42
1.0
 92
        0
 66
   257
 43
1.0
 76
     1
 77
     6
 78
     2
 67
     7
 79
     5
170
     0
171
     0
290
     0
174
     0
 93
        1
 44
0.0
173
     0
291
     0
 45
0.0
1001
ACAD
1000
AcDbSavedByObjectVersion
1070
     0
  0
VISUALSTYLE
  5
F4
102
{ACAD_REACTORS
330
EF
102
}
330
EF
100
AcDbVisualStyle
  2
Basic
 70
     7
 71
     1
 72
     0
 73
     1
 90
        0
 40
-0.6
 41
-30.0
 62
     5
 63
     7
 74
     0
 91
        4
 64
     7
 65
   257
 75
     1
175
     1
 42
1.0
 92
        8
 66
     7
 43
1.0
 76
     1
 77
     6
 78
     2
 67
     7
 79
     5
170
     0
171
     0
290
     0
174
     0
 93
        1
 44
0.0
173
     0
291
     1
 45
0.0
1001
ACAD
1000
AcDbSavedByObjectVersion
1070
     0
  0
VISUALSTYLE
  5
FB
102
{ACAD_REACTORS
330
EF
102
}
330
EF
100
AcDbVisualStyle
  2
Brighten
 70
    12
 71
     2
 72
     2
 73
     1
 90
        0
 40
-0.6
 41
-30.0
 62
     5
 63
     7
 74
     1
 91
        4
 64
     7
 65
   257
 75
     1
175
     1
 42
1.0
 92
        8
 66
     7
 43
1.0
 76
     1
 77
     6
 78
     2
 67
     7
 79
     5
170
     0
171
     0
290
     0
174
     0
 93
        1
 44
50.0
173
     0
291
     1
 45
0.0
1001
ACAD
1000
AcDbSavedByObjectVersion
1070
     0
  0
VISUALSTYLE
  5
FF
102
{ACAD_REACTORS
330
EF
102
}
330
EF
100
AcDbVisualStyle
  2
ColorChange
 70
    16
 71
     2
 72
     2
 73
     3
 90
        0
 40
-0.6
 41
-30.0
 62
     5
 63
     8
 74
     1
 91
        4
 64
     7
 65
   257
 75
     1
175
     1
 42
1.0
 92
        8
 66
     8
 43
1.0
 76
     1
 77
     6
 78
     2
 67
     7
 79
     5
170
     0
171
     0
290
     0
174
     0
 93
        1
 44
0.0
173
     0
291
     1
 45
0.0
1001
ACAD
1000
AcDbSavedByObjectVersion
1070
     0
  0
VISUALSTYLE
  5
F8
102
{ACAD_REACTORS
330
EF
102
}
330
EF
100
AcDbVisualStyle
  2
Conceptual
 70
     9
 71
     3
 72
     2
 73
     1
 90
        0
 40
-0.6
 41
-30.0
 62
     5
 63
     7
 74
     2
 91
        2
 64
     7
 65
   257
 75
     1
175
     1
 42
40.0
 92
        8
 66
     7
 43
1.0
 76
     1
 77
     6
 78
     2
 67
     7
 79
     3
170
     0
171
     0
290
     0
174
     0
 93
        1
 44
0.0
173
     0
291
     0
 45
0.0
1001
ACAD
1000
AcDbSavedByObjectVersion
1070
     0
  0
VISUALSTYLE
  5
FA
102
{ACAD_REACTORS
330
EF
102
}
330
EF
100
AcDbVisualStyle
  2
Dim
 70
    11
 71
     2
 72
     2
 73
     1
 90
        0
 40
-0.6
 41
-30.0
 62
     5
 63
     7
 74
     1
 91
        4
 64
     7
 65
   257
 75
     1
175
     1
 42
1.0
 92
        8
 66
     7
 43
1.0
 76
     1
 77
     6
 78
     2
 67
     7
 79
     5
170
     0
171
     0
290
     0
174
     0
 93
        1
 44
-50.0
173
     0
291
     1
 45
0.0
1001
ACAD
1000
AcDbSavedByObjectVersion
1070
     0
  0
VISUALSTYLE
  5
FE
102
{ACAD_REACTORS
330
EF
102
}
330
EF
100
AcDbVisualStyle
  2
Facepattern
 70
    15
 71
     2
 72
     2
 73
     1
 90
        0
 40
-0.6
 41
-30.0
 62
     5
 63
     7
 74
     1
 91
        4
 64
     7
 65
   257
 75
     1
175
     1
 42
1.0
 92
        8
 66
     7
 43
1.0
 76
     1
 77
     6
 78
     2
 67
     7
 79
     5
170
     0
171
     0
290
     0
174
     0
 93
        1
 44
0.0
173
     0
291
     1
 45
0.0
1001
ACAD
1000
AcDbSavedByObjectVersion
1070
     0
  0
VISUALSTYLE
  5
F0
102
{ACAD_REACTORS
330
EF
102
}
330
EF
100
AcDbVisualStyle
  2
Flat
 70
     0
 71
     2
 72
     1
 73
     1
 90
        2
 40
-0.6
 41
30.0
 62
     5
 63
     7
 74
     0
 91
        4
 64
     7
 65
   257
 75
     1
175
     1
 42
1.0
 92
        8
 66
     7
 43
1.0
 76
     1
 77
     6
 78
     2
 67
     7
 79
     5
170
     0
171
     0
290
     0
174
     0
 93
        1
 44
0.0
173
     0
291
     1
 45
0.0
1001
ACAD
1000
AcDbSavedByObjectVersion
1070
     0
  0
VISUALSTYLE
  5
F1
102
{ACAD_REACTORS
330
EF
102
}
330
EF
100
AcDbVisualStyle
  2
FlatWithEdges
 70
     1
 71
     2
 72
     1
 73
     1
 90
        2
 40
-0.6
 41
30.0
 62
     5
 63
     7
 74
     1
 91
        4
 64
     7
 65
   257
 75
     1
175
     1
 42
1.0
 92
        0
 66
   257
 43
1.0
 76
     1
 77
     6
 78
     2
 67
     7
 79
     5
170
     0
171
     0
290
     0
174
     0
 93
        1
 44
0.0
173
     0
291
     1
 45
0.0
1001
ACAD
1000
AcDbSavedByObjectVersion
1070
     0
  0
VISUALSTYLE
  5
F2
102
{ACAD_REACTORS
330
EF
102
}
330
EF
100
AcDbVisualStyle
  2
Gouraud
 70
     2
 71
     2
 72
     2
 73
     1
 90
        2
 40
-0.6
 41
30.0
 62
     5
 63
     7
 74
     0
 91
        4
 64
     7
 65
   257
 75
     1
175
     1
 42
1.0
 92
        0
 66
     7
 43
1.0
 76
     1
 77
     6
 78
     2
 67
     7
 79
     5
170
     0
171
     0
290
     0
174
     0
 93
        1
 44
0.0
173
     0
291
     1
 45
0.0
1001
ACAD
1000
AcDbSavedByObjectVersion
1070
     0
  0
VISUALSTYLE
  5
F3
102
{ACAD_REACTORS
330
EF
102
}
330
EF
100
AcDbVisualStyle
  2
GouraudWithEdges
 70
     3
 71
     2
 72
     2
 73
     1
 90
        2
 40
-0.6
 41
30.0
 62
     5
 63
     7
 74
     1
 91
        4
 64
     7
 65
   257
 75
     1
175
     1
 42
1.0
 92
        0
 66
   257
 43
1.0
 76
     1
 77
     6
 78
     2
 67
     7
 79
     5
170
     0
171
     0
290
     0
174
     0
 93
        1
 44
0.0
173
     0
291
     1
 45
0.0
1001
ACAD
1000
AcDbSavedByObjectVersion
1070
     0
  0
VISUALSTYLE
  5
FD
102
{ACAD_REACTORS
330
EF
102
}
330
EF
100
AcDbVisualStyle
  2
Linepattern
 70
    14
 71
     2
 72
     2
 73
     1
 90
        0
 40
-0.6
 41
-30.0
 62
     5
 63
     7
 74
     1
 91
        4
 64
     7
 65
   257
 75
     7
175
     7
 42
1.0
 92
        8
 66
     7
 43
1.0
 76
     1
 77
     6
 78
     2
 67
     7
 79
     5
170
     0
171
     0
290
     0
174
     0
 93
        1
 44
0.0
173
     0
291
     1
 45
0.0
1001
ACAD
1000
AcDbSavedByObjectVersion
1070
     0
  0
VISUALSTYLE
  5
F9
102
{ACAD_REACTORS
330
EF
102
}
330
EF
100
AcDbVisualStyle
  2
Realistic
 70
     8
 71
     2
 72
     2
 73
     1
 90
        0
 40
-0.6
 41
-30.0
 62
     5
 63
     7
 74
     1
 91
        0
 64
     7
 65
   257
 75
     1
175
     1
 42
1.0
 92
        8
 66
     8
 43
1.0
 76
     1
 77
     6
 78
     2
 67
     7
 79
     5
170
     0
171
     0
290
     0
174
     0
 93
       13
 44
0.0
173
     0
291
     0
 45
0.0
1001
ACAD
1000
AcDbSavedByObjectVersion
1070
     0
  0
VISUALSTYLE
  5
FC
102
{ACAD_REACTORS
330
EF
102
}
330
EF
100
AcDbVisualStyle
  2
Thicken
 70
    13
 71
     2
 72
     2
 73
     1
 90
        0
 40
-0.6
 41
-30.0
 62
     5
 63
     7
 74
     1
 91
        4
 64
     7
 65
   257
 75
     1
175
     1
 42
1.0
 92
       12
 66
     7
 43
1.0
 76
     1
 77
     6
 78
     2
 67
     7
 79
     5
170
     0
171
     0
290
     0
174
     0
 93
        1
 44
0.0
173
     0
291
     1
 45
0.0
1001
ACAD
1000
AcDbSavedByObjectVersion
1070
     0
  0
DICTIONARYVAR
  5
146
102
{ACAD_REACTORS
330
5E
102
}
330
5E
100
DictionaryVariables
280
     0
  1
1:1
  0
DICTIONARYVAR
  5
145
102
{ACAD_REACTORS
330
5E
102
}
330
5E
100
DictionaryVariables
280
     0
  1
STANDARD
  0
DICTIONARYVAR
  5
84
102
{ACAD_REACTORS
330
5E
102
}
330
5E
100
DictionaryVariables
280
     0
  1
STANDARD
  0
DICTIONARYVAR
  5
5F
102
{ACAD_REACTORS
330
5E
102
}
330
5E
100
DictionaryVariables
280
     0
  1
2
  0
DICTIONARYVAR
  5
63
102
{ACAD_REACTORS
330
5E
102
}
330
5E
100
DictionaryVariables
280
     0
  1
1
  0
DICTIONARYVAR
  5
466
102
{ACAD_REACTORS
330
5E
102
}
330
5E
100
DictionaryVariables
280
     0
  1
0
  0
DICTIONARYVAR
  5
464
102
{ACAD_REACTORS
330
5E
102
}
330
5E
100
DictionaryVariables
280
     0
  1
2
  0
DICTIONARYVAR
  5
463
102
{ACAD_REACTORS
330
5E
102
}
330
5E
100
DictionaryVariables
280
     0
  1
1
  0
DICTIONARYVAR
  5
6B98
102
{ACAD_REACTORS
330
5E
102
}
330
5E
100
DictionaryVariables
280
     0
  1
80.000000
  0
DICTIONARYVAR
  5
6B97
102
{ACAD_REACTORS
330
5E
102
}
330
5E
100
DictionaryVariables
280
     0
  1
5.000000
  0
DICTIONARYVAR
  5
465
102
{ACAD_REACTORS
330
5E
102
}
330
5E
100
DictionaryVariables
280
     0
  1
127
  0
DICTIONARY
  5
6B9D
330
D3
100
AcDbDictionary
280
     1
281
     1
  3
ACAD_XREC_ROUNDTRIP
360
6B9E
  0
DICTIONARY
  5
6B9F
330
D7
100
AcDbDictionary
280
     1
281
     1
  3
ACAD_XREC_ROUNDTRIP
360
6BA0
  0
DICTIONARY
  5
6B9A
330
22
100
AcDbDictionary
280
     1
281
     1
  3
ACAD_XREC_ROUNDTRIP
360
6B9B
  0
DICTIONARY
  5
6BA3
330
ED
100
AcDbDictionary
280
     1
281
     1
  3
ACAD_XREC_ROUNDTRIP
360
6BA4
  0
DICTIONARY
  5
6BA1
330
EC
100
AcDbDictionary
280
     1
281
     1
  3
ACAD_XREC_ROUNDTRIP
360
6BA2
  0
DICTIONARY
  5
173
330
EE
100
AcDbDictionary
280
     1
281
     1
  3
ACAD_XREC_ROUNDTRIP
360
6BA5
  3
BUMPTILE
360
175
  3
DIFFUSETILE
360
174
  3
OPACITYTILE
360
176
  3
REFLECTIONTILE
360
177
  0
DICTIONARY
  5
6BA6
330
4FA3
100
AcDbDictionary
280
     1
281
     1
  3
ACAD_XREC_ROUNDTRIP
360
6BA7
  0
DICTIONARY
  5
162
330
7F
100
AcDbDictionary
280
     1
281
     1
  3
ACAD_ROUNDTRIP_2008_TABLESTYLE_CELLSTYLEMAP
360
6A3F
  3
ACAD_XREC_ROUNDTRIP
360
6B9C
  0
XRECORD
  5
6B9E
102
{ACAD_REACTORS
330
6B9D
102
}
330
6B9D
100
AcDbXrecord
280
     1
102
SHADEPLOT
 70
     0
102
SHADEPLOTRESLEVEL
 70
     2
102
SHADEPLOTCUSTOMDPI
 70
   300
  0
XRECORD
  5
6BA0
102
{ACAD_REACTORS
330
6B9F
102
}
330
6B9F
100
AcDbXrecord
280
     1
102
SHADEPLOT
 70
     0
102
SHADEPLOTRESLEVEL
 70
     2
102
SHADEPLOTCUSTOMDPI
 70
   300
  0
XRECORD
  5
6B9B
102
{ACAD_REACTORS
330
6B9A
102
}
330
6B9A
100
AcDbXrecord
280
     1
102
SHADEPLOT
 70
     0
102
SHADEPLOTRESLEVEL
 70
     2
102
SHADEPLOTCUSTOMDPI
 70
   300
  0
XRECORD
  5
6BA4
102
{ACAD_REACTORS
330
6BA3
102
}
330
6BA3
100
AcDbXrecord
280
     1
102
MATERIAL
148
0.0
149
0.0
149
0.0
 93
        0
 94
       63
282
     0
 72
     1
 77
     1
171
     1
175
     1
179
     1
273
     0
  0
XRECORD
  5
6BA2
102
{ACAD_REACTORS
330
6BA1
102
}
330
6BA1
100
AcDbXrecord
280
     1
102
MATERIAL
148
0.0
149
0.0
149
0.0
 93
        0
 94
       63
282
     0
 72
     1
 77
     1
171
     1
175
     1
179
     1
273
     0
  0
XRECORD
  5
6BA5
102
{ACAD_REACTORS
330
173
102
}
330
173
100
AcDbXrecord
280
     1
102
MATERIAL
148
0.0
149
0.0
149
0.0
 93
        0
 94
       63
282
     0
 72
     1
 77
     1
171
     1
175
     1
179
     1
273
     0
  0
XRECORD
  5
175
102
{ACAD_REACTORS
330
173
102
}
330
173
100
AcDbXrecord
280
     1
270
     1
271
     1
  0
XRECORD
  5
174
102
{ACAD_REACTORS
330
173
102
}
330
173
100
AcDbXrecord
280
     1
270
     1
271
     1
  0
XRECORD
  5
176
102
{ACAD_REACTORS
330
173
102
}
330
173
100
AcDbXrecord
280
     1
270
     1
271
     1
  0
XRECORD
  5
177
102
{ACAD_REACTORS
330
173
102
}
330
173
100
AcDbXrecord
280
     1
270
     1
271
     1
  0
XRECORD
  5
6BA7
102
{ACAD_REACTORS
330
6BA6
102
}
330
6BA6
100
AcDbXrecord
280
     1
102
SHADEPLOT
 70
     0
102
SHADEPLOTRESLEVEL
 70
     2
102
SHADEPLOTCUSTOMDPI
 70
   300
  0
ACAD_PROXY_OBJECT
  5
6A3F
102
{ACAD_REACTORS
330
162
102
}
330
162
100
AcDbProxyObject
 90
      499
 91
      509
 95
       23
 70
     0
 93
     5304
310
40D054060020000020000003200101A000080002A5058000000C10000000000000006101010000000000003E0FC000000000000F83F0000000000003E0FC000000000000F83F02B5E8DC0F42B1CFC0AD7A3703D0AC73F419019018000000C1003FBFFFFFE0000000000003C8FD029018000000C1003FBFFFFFE00000000000
310
03C8FD049018000000C1003FBFFFFFE0000000000003C8FD089018000000C1003FBFFFFFE0000000000003C8FD109018000000C1003FBFFFFFE0000000000003C8FD209018000000C1003FBFFFFFE0000000000003C8FD01405075F5449544C450041501A8000000C800406800020000A94160000003040000000000000012
310
40404000000000000F83F0000000000003E0FC000000000000F83F0000000000003E0FC0AD7A3703D0AC73F02B5E8DC0F42B1CFD0640640600000030400FEFFFFFF8000000000000F23F40A40600000030400FEFFFFFF8000000000000F23F41240600000030400FEFFFFFF8000000000000F23F42240600000030400FEFFF
310
FFF8000000000000F23F44240600000030400FEFFFFFF8000000000000F23F48240600000030400FEFFFFFF8000000000000F23F409014217D2115051115480105406A0000003200101A000080002A5028000000C10000000000000004901010000000000003E0FC000000000000F83F0000000000003E0FC000000000000F
310
83F02B5E8DC0F42B1CFC0AD7A3703D0AC73F419019018000000C1003FBFFFFFE0000000000003C8FD029018000000C1003FBFFFFFE0000000000003C8FD049018000000C1003FBFFFFFE0000000000003C8FD089018000000C1003FBFFFFFE0000000000003C8FD109018000000C1003FBFFFFFE0000000000003C8FD20901
310
8000000C1003FBFFFFFE0000000000003C8FD03409065F444154410000
340
11
340
14
340
14
340
14
340
14
340
14
340
14
340
11
340
14
340
14
340
14
340
14
340
14
340
14
340
11
340
14
340
14
340
14
340
14
340
14
340
14
 94
        0
1001
ACAD
1000
AcRTDxfName
1000
CELLSTYLEMAP
1000
AcRTDxfName
1000
CELLSTYLEMAP
  0
XRECORD
  5
6B9C
102
{ACAD_REACTORS
330
162
102
}
330
162
100
AcDbXrecord
280
     1
102
ACAD_ROUNDTRIP_PRE2007_TABLESTYLE
 90
      512
 91
        0
  1

 92
      512
 93
        0
  2

 94
      512
 95
        0
  3

  0
ENDSEC
  0
EOF
