  0
SECTION
  2
HEADER
  9
$ACADVER
  1
AC1015
  9
$ACADMAINTVER
 70
    20
  9
$DWGCODEPAGE
  3
ANSI_1250
  9
$INSBASE
 10
0.0
 20
0.0
 30
0.0
  9
$EXTMIN
 10
-0.0342087364178951
 20
-0.0136251155229275
 30
-0.000000000000013
  9
$EXTMAX
 10
334.3817023546703
 20
297.009032111529
 30
0.0000000000000023
  9
$LIMMIN
 10
0.0
 20
0.0
  9
$LIMMAX
 10
334.35177409209
 20
297.0
  9
$ORTHOMODE
 70
     1
  9
$REGENMODE
 70
     1
  9
$FILLMODE
 70
     1
  9
$QTEXTMODE
 70
     0
  9
$MIRRTEXT
 70
     0
  9
$LTSCALE
 40
1.0
  9
$ATTMODE
 70
     2
  9
$TEXTSIZE
 40
2.5
  9
$TRACEWID
 40
1.0
  9
$TEXTSTYLE
  7
Standard
  9
$CLAYER
  8
SOLBET_Ramka_05
  9
$CELTYPE
  6
ByLayer
  9
$CECOLOR
 62
   256
  9
$CELTSCALE
 40
1.0
  9
$DISPSILH
 70
     0
  9
$DIMSCALE
 40
1.0
  9
$DIMASZ
 40
2.5
  9
$DIMEXO
 40
0.0
  9
$DIMDLI
 40
3.75
  9
$DIMRND
 40
0.0
  9
$DIMDLE
 40
0.0
  9
$DIMEXE
 40
1.25
  9
$DIMTP
 40
0.0
  9
$DIMTM
 40
0.0
  9
$DIMTXT
 40
2.5
  9
$DIMCEN
 40
2.5
  9
$DIMTSZ
 40
0.0
  9
$DIMTOL
 70
     0
  9
$DIMLIM
 70
     0
  9
$DIMTIH
 70
     0
  9
$DIMTOH
 70
     0
  9
$DIMSE1
 70
     0
  9
$DIMSE2
 70
     0
  9
$DIMTAD
 70
     1
  9
$DIMZIN
 70
     8
  9
$DIMBLK
  1

  9
$DIMASO
 70
     1
  9
$DIMSHO
 70
     1
  9
$DIMPOST
  1

  9
$DIMAPOST
  1

  9
$DIMALT
 70
     0
  9
$DIMALTD
 70
     3
  9
$DIMALTF
 40
0.03937007874016
  9
$DIMLFAC
 40
1.0
  9
$DIMTOFL
 70
     1
  9
$DIMTVP
 40
0.0
  9
$DIMTIX
 70
     0
  9
$DIMSOXD
 70
     0
  9
$DIMSAH
 70
     0
  9
$DIMBLK1
  1

  9
$DIMBLK2
  1

  9
$DIMSTYLE
  2
Solbet
  9
$DIMCLRD
 70
     0
  9
$DIMCLRE
 70
     0
  9
$DIMCLRT
 70
     0
  9
$DIMTFAC
 40
1.0
  9
$DIMGAP
 40
0.625
  9
$DIMJUST
 70
     0
  9
$DIMSD1
 70
     0
  9
$DIMSD2
 70
     0
  9
$DIMTOLJ
 70
     0
  9
$DIMTZIN
 70
     8
  9
$DIMALTZ
 70
     0
  9
$DIMALTTZ
 70
     0
  9
$DIMUPT
 70
     0
  9
$DIMDEC
 70
     2
  9
$DIMTDEC
 70
     2
  9
$DIMALTU
 70
     2
  9
$DIMALTTD
 70
     3
  9
$DIMTXSTY
  7
Solbet_2_5
  9
$DIMAUNIT
 70
     0
  9
$DIMADEC
 70
     0
  9
$DIMALTRND
 40
0.0
  9
$DIMAZIN
 70
     0
  9
$DIMDSEP
 70
    44
  9
$DIMATFIT
 70
     3
  9
$DIMFRAC
 70
     0
  9
$DIMLDRBLK
  1

  9
$DIMLUNIT
 70
     2
  9
$DIMLWD
 70
    -2
  9
$DIMLWE
 70
    -2
  9
$DIMTMOVE
 70
     0
  9
$LUNITS
 70
     2
  9
$LUPREC
 70
     4
  9
$SKETCHINC
 40
1.0
  9
$FILLETRAD
 40
0.0
  9
$AUNITS
 70
     0
  9
$AUPREC
 70
     0
  9
$MENU
  1
.
  9
$ELEVATION
 40
0.0
  9
$PELEVATION
 40
0.0
  9
$THICKNESS
 40
0.0
  9
$LIMCHECK
 70
     0
  9
$CHAMFERA
 40
0.0
  9
$CHAMFERB
 40
0.0
  9
$CHAMFERC
 40
0.0
  9
$CHAMFERD
 40
0.0
  9
$SKPOLY
 70
     0
  9
$TDCREATE
 40
2454690.075573148
  9
$TDUCREATE
 40
2454690.033906482
  9
$TDUPDATE
 40
2454848.838964028
  9
$TDUUPDATE
 40
2454848.797297362
  9
$TDINDWG
 40
0.9727411921
  9
$TDUSRTIMER
 40
0.9727366667
  9
$USRTIMER
 70
     1
  9
$ANGBASE
 50
0.0
  9
$ANGDIR
 70
     0
  9
$PDMODE
 70
     0
  9
$PDSIZE
 40
0.0
  9
$PLINEWID
 40
0.0
  9
$SPLFRAME
 70
     0
  9
$SPLINETYPE
 70
     6
  9
$SPLINESEGS
 70
     8
  9
$HANDSEED
  5
7F9F
  9
$SURFTAB1
 70
     6
  9
$SURFTAB2
 70
     6
  9
$SURFTYPE
 70
     6
  9
$SURFU
 70
     6
  9
$SURFV
 70
     6
  9
$UCSBASE
  2

  9
$UCSNAME
  2

  9
$UCSORG
 10
0.0
 20
0.0
 30
0.0
  9
$UCSXDIR
 10
1.0
 20
0.0
 30
0.0
  9
$UCSYDIR
 10
0.0
 20
1.0
 30
0.0
  9
$UCSORTHOREF
  2

  9
$UCSORTHOVIEW
 70
     0
  9
$UCSORGTOP
 10
0.0
 20
0.0
 30
0.0
  9
$UCSORGBOTTOM
 10
0.0
 20
0.0
 30
0.0
  9
$UCSORGLEFT
 10
0.0
 20
0.0
 30
0.0
  9
$UCSORGRIGHT
 10
0.0
 20
0.0
 30
0.0
  9
$UCSORGFRONT
 10
0.0
 20
0.0
 30
0.0
  9
$UCSORGBACK
 10
0.0
 20
0.0
 30
0.0
  9
$PUCSBASE
  2

  9
$PUCSNAME
  2

  9
$PUCSORG
 10
0.0
 20
0.0
 30
0.0
  9
$PUCSXDIR
 10
1.0
 20
0.0
 30
0.0
  9
$PUCSYDIR
 10
0.0
 20
1.0
 30
0.0
  9
$PUCSORTHOREF
  2

  9
$PUCSORTHOVIEW
 70
     0
  9
$PUCSORGTOP
 10
0.0
 20
0.0
 30
0.0
  9
$PUCSORGBOTTOM
 10
0.0
 20
0.0
 30
0.0
  9
$PUCSORGLEFT
 10
0.0
 20
0.0
 30
0.0
  9
$PUCSORGRIGHT
 10
0.0
 20
0.0
 30
0.0
  9
$PUCSORGFRONT
 10
0.0
 20
0.0
 30
0.0
  9
$PUCSORGBACK
 10
0.0
 20
0.0
 30
0.0
  9
$USERI1
 70
     0
  9
$USERI2
 70
     0
  9
$USERI3
 70
     0
  9
$USERI4
 70
     0
  9
$USERI5
 70
     0
  9
$USERR1
 40
0.0
  9
$USERR2
 40
0.0
  9
$USERR3
 40
0.0
  9
$USERR4
 40
0.0
  9
$USERR5
 40
0.0
  9
$WORLDVIEW
 70
     1
  9
$SHADEDGE
 70
     3
  9
$SHADEDIF
 70
    70
  9
$TILEMODE
 70
     1
  9
$MAXACTVP
 70
    64
  9
$PINSBASE
 10
0.0
 20
0.0
 30
0.0
  9
$PLIMCHECK
 70
     0
  9
$PEXTMIN
 10
0.0
 20
0.0
 30
0.0
  9
$PEXTMAX
 10
0.0
 20
0.0
 30
0.0
  9
$PLIMMIN
 10
0.0
 20
0.0
  9
$PLIMMAX
 10
12.0
 20
9.0
  9
$UNITMODE
 70
     0
  9
$VISRETAIN
 70
     1
  9
$PLINEGEN
 70
     0
  9
$PSLTSCALE
 70
     1
  9
$TREEDEPTH
 70
  3020
  9
$CMLSTYLE
  2
SOLBET_IZOLACJA
  9
$CMLJUST
 70
     0
  9
$CMLSCALE
 40
20.0
  9
$PROXYGRAPHICS
 70
     1
  9
$MEASUREMENT
 70
     1
  9
$CELWEIGHT
370
    -1
  9
$ENDCAPS
280
     0
  9
$JOINSTYLE
280
     0
  9
$LWDISPLAY
290
     1
  9
$INSUNITS
 70
     4
  9
$HYPERLINKBASE
  1

  9
$STYLESHEET
  1

  9
$XEDIT
290
     1
  9
$CEPSNTYPE
380
     0
  9
$PSTYLEMODE
290
     1
  9
$FINGERPRINTGUID
  2
{6B12AB33-8E39-428E-8E85-461C8D99A3CB}
  9
$VERSIONGUID
  2
{E7793B43-BFC4-4C0A-AD6B-BDFD7BE41CBE}
  9
$EXTNAMES
290
     1
  9
$PSVPSCALE
 40
0.0
  9
$OLESTARTUP
290
     0
  0
ENDSEC
  0
SECTION
  2
CLASSES
  0
CLASS
  1
ACDBDICTIONARYWDFLT
  2
AcDbDictionaryWithDefault
  3
ObjectDBX Classes
 90
        0
280
     0
281
     0
  0
CLASS
  1
ACDBPLACEHOLDER
  2
AcDbPlaceHolder
  3
ObjectDBX Classes
 90
        0
280
     0
281
     0
  0
CLASS
  1
LAYOUT
  2
AcDbLayout
  3
ObjectDBX Classes
 90
        0
280
     0
281
     0
  0
CLASS
  1
DICTIONARYVAR
  2
AcDbDictionaryVar
  3
ObjectDBX Classes
 90
        0
280
     0
281
     0
  0
CLASS
  1
TABLESTYLE
  2
AcDbTableStyle
  3
ObjectDBX Classes
 90
     4095
280
     0
281
     0
  0
CLASS
  1
MATERIAL
  2
AcDbMaterial
  3
ObjectDBX Classes
 90
     1024
280
     0
281
     0
  0
CLASS
  1
VISUALSTYLE
  2
AcDbVisualStyle
  3
ObjectDBX Classes
 90
     4095
280
     0
281
     0
  0
CLASS
  1
SCALE
  2
AcDbScale
  3
ObjectDBX Classes
 90
     1153
280
     0
281
     0
  0
CLASS
  1
MLEADERSTYLE
  2
AcDbMLeaderStyle
  3
ACDB_MLEADERSTYLE_CLASS
 90
     4095
280
     0
281
     0
  0
CLASS
  1
CELLSTYLEMAP
  2
AcDbCellStyleMap
  3
ObjectDBX Classes
 90
     1152
280
     0
281
     0
  0
CLASS
  1
DIMASSOC
  2
AcDbDimAssoc
  3
"AcDbDimAssoc|Product Desc:     AcDim ARX App For Dimension|Company:          Autodesk, Inc.|WEB Address:      www.autodesk.com"
 90
    32768
280
     0
281
     0
  0
CLASS
  1
SORTENTSTABLE
  2
AcDbSortentsTable
  3
ObjectDBX Classes
 90
        0
280
     0
281
     0
  0
CLASS
  1
MULTILEADER
  2
AcDbMLeader
  3
ACDB_MLEADER_CLASS
 90
    33793
280
     0
281
     1
  0
CLASS
  1
ACDB_MTEXTOBJECTCONTEXTDATA_CLASS
  2
AcDbMTextObjectContextData
  3
ObjectDBX Classes
 90
    33921
280
     0
281
     0
  0
CLASS
  1
PLOTSETTINGS
  2
AcDbPlotSettings
  3
ObjectDBX Classes
 90
        0
280
     0
281
     0
  0
CLASS
  1
ACAD_EVALUATION_GRAPH
  2
AcDbEvalGraph
  3
ObjectDBX Classes
 90
    33921
280
     0
281
     0
  0
CLASS
  1
ACAECUSTOBJ
  2
AcAeEditorObj
  3
AcAeEditorObj
 90
    33792
280
     0
281
     0
  0
ENDSEC
  0
SECTION
  2
TABLES
  0
TABLE
  2
VPORT
  5
8
102
{ACAD_XDICTIONARY
360
443
102
}
330
0
100
AcDbSymbolTable
 70
     1
  0
VPORT
  5
EA
330
8
100
AcDbSymbolTableRecord
100
AcDbViewportTableRecord
  2
*Active
 70
     0
 10
0.0
 20
0.0
 11
1.0
 21
1.0
 12
167.1737468091262
 22
148.497703498003
 13
0.0
 23
0.0
 14
10.0
 24
10.0
 15
10.0
 25
10.0
 16
0.0
 26
0.0
 36
1.0
 17
0.0
 27
0.0
 37
0.0
 40
300.3229089740191
 41
1.74582560296846
 42
50.0
 43
0.0
 44
0.0
 50
0.0
 51
0.0
 71
     0
 72
  1000
 73
     1
 74
     3
 75
     0
 76
     0
 77
     0
 78
     0
281
     0
 65
     1
110
0.0
120
0.0
130
0.0
111
1.0
121
0.0
131
0.0
112
0.0
122
1.0
132
0.0
 79
     0
146
0.0
  0
ENDTAB
  0
TABLE
  2
LTYPE
  5
5
330
0
100
AcDbSymbolTable
 70
     3
  0
LTYPE
  5
14
330
5
100
AcDbSymbolTableRecord
100
AcDbLinetypeTableRecord
  2
ByBlock
 70
     0
  3

 72
    65
 73
     0
 40
0.0
  0
LTYPE
  5
15
330
5
100
AcDbSymbolTableRecord
100
AcDbLinetypeTableRecord
  2
ByLayer
 70
     0
  3

 72
    65
 73
     0
 40
0.0
  0
LTYPE
  5
16
330
5
100
AcDbSymbolTableRecord
100
AcDbLinetypeTableRecord
  2
Continuous
 70
     0
  3
Solid line
 72
    65
 73
     0
 40
0.0
  0
LTYPE
  5
982
330
5
100
AcDbSymbolTableRecord
100
AcDbLinetypeTableRecord
  2
BATTING
 70
     0
  3
Batting SSSSSSSSSSSSSSSSSSSSSSSSSSSSSSSSSSSSSSSSSSSSSSS
 72
    65
 73
     4
 40
10.16254
 49
0.00254
 74
     0
 49
-2.54
 74
     4
 75
   134
340
7E7
 46
2.54
 50
0.0
 44
-2.54
 45
0.0
 49
-5.08
 74
     4
 75
   134
340
7E7
 46
2.54
 50
180.0
 44
2.54
 45
0.0
 49
-2.54
 74
     0
  0
LTYPE
  5
7BD0
330
5
100
AcDbSymbolTableRecord
100
AcDbLinetypeTableRecord
  2
DASHED2
 70
     0
  3
Dashed (.5x) _ _ _ _ _ _ _ _ _ _ _ _ _ _ _ _ _
 72
    65
 73
     2
 40
9.524999999999998
 49
6.349999999999999
 74
     0
 49
-3.174999999999999
 74
     0
  0
ENDTAB
  0
TABLE
  2
LAYER
  5
2
102
{ACAD_XDICTIONARY
360
3E5
102
}
330
0
100
AcDbSymbolTable
 70
    12
  0
LAYER
  5
10
102
{ACAD_XDICTIONARY
360
13C
102
}
330
2
100
AcDbSymbolTableRecord
100
AcDbLayerTableRecord
  2
0
 70
     0
 62
     7
  6
Continuous
370
    -3
390
F
  0
LAYER
  5
2BB
330
2
100
AcDbSymbolTableRecord
100
AcDbLayerTableRecord
  2
DEFPOINTS
 70
     0
 62
     7
  6
Continuous
290
     0
370
    -3
390
F
  0
LAYER
  5
3DD
102
{ACAD_XDICTIONARY
360
403
102
}
330
2
100
AcDbSymbolTableRecord
100
AcDbLayerTableRecord
  2
SOLBET_Bloczki
 70
     0
 62
   140
  6
Continuous
370
    -3
390
F
1001
AcAecLayerStandard
1000

1000

  0
LAYER
  5
3DF
102
{ACAD_XDICTIONARY
360
405
102
}
330
2
100
AcDbSymbolTableRecord
100
AcDbLayerTableRecord
  2
SOLBET_Wymiary_Opisy
 70
     0
 62
     1
  6
Continuous
370
    -3
390
F
1001
AcAecLayerStandard
1000

1000

  0
LAYER
  5
3E0
102
{ACAD_XDICTIONARY
360
407
102
}
330
2
100
AcDbSymbolTableRecord
100
AcDbLayerTableRecord
  2
SOLBET_Beton
 70
     0
 62
     9
  6
Continuous
370
    -3
390
F
1001
AcAecLayerStandard
1000

1000

  0
LAYER
  5
3E1
102
{ACAD_XDICTIONARY
360
409
102
}
330
2
100
AcDbSymbolTableRecord
100
AcDbLayerTableRecord
  2
SOLBET_Izolacja
 70
     0
 62
    40
  6
Continuous
370
    -3
390
F
1001
AcAecLayerStandard
1000

1000

  0
LAYER
  5
3E2
102
{ACAD_XDICTIONARY
360
40B
102
}
330
2
100
AcDbSymbolTableRecord
100
AcDbLayerTableRecord
  2
SOLBET_Zbrojenie_Konstrukcja
 70
     0
 62
     7
  6
Continuous
370
    -3
390
F
1001
AcAecLayerStandard
1000

1000

  0
LAYER
  5
3E3
102
{ACAD_XDICTIONARY
360
40D
102
}
330
2
100
AcDbSymbolTableRecord
100
AcDbLayerTableRecord
  2
SOLBET_Grunt
 70
     0
 62
    42
  6
Continuous
370
    -3
390
F
1001
AcAecLayerStandard
1000

1000

  0
LAYER
  5
3E4
102
{ACAD_XDICTIONARY
360
40F
102
}
330
2
100
AcDbSymbolTableRecord
100
AcDbLayerTableRecord
  2
SOLBET_Tynki_Posadzki
 70
     0
 62
     3
  6
Continuous
370
    -3
390
F
1001
AcAecLayerStandard
1000

1000

  0
LAYER
  5
3E8
102
{ACAD_XDICTIONARY
360
411
102
}
330
2
100
AcDbSymbolTableRecord
100
AcDbLayerTableRecord
  2
SOLBET_Ramka_05
 70
     0
 62
     2
  6
Continuous
370
    -3
390
F
1001
AcAecLayerStandard
1000

1000

  0
LAYER
  5
472
330
2
100
AcDbSymbolTableRecord
100
AcDbLayerTableRecord
  2
SOLBET_Zaprawy
 70
     0
 62
     4
  6
Continuous
370
    -3
390
F
1001
AcAecLayerStandard
1000

1000

  0
LAYER
  5
4E2
330
2
100
AcDbSymbolTableRecord
100
AcDbLayerTableRecord
  2
SOLBET_Emulsje_Folie
 70
     0
 62
     6
  6
Continuous
370
    -3
390
F
1001
AcAecLayerStandard
1000

1000

  0
ENDTAB
  0
TABLE
  2
STYLE
  5
3
330
0
100
AcDbSymbolTable
 70
     6
  0
STYLE
  5
11
330
3
100
AcDbSymbolTableRecord
100
AcDbTextStyleTableRecord
  2
Standard
 70
     0
 40
0.0
 41
1.0
 50
0.0
 71
     0
 42
2.5
  3
txt.shx
  4

  0
STYLE
  5
2C2
330
3
100
AcDbSymbolTableRecord
100
AcDbTextStyleTableRecord
  2
SIMPLEX8
 70
     0
 40
0.0
 41
0.8
 50
0.0
 71
     0
 42
0.1
  3
simplexd
  4

1001
AcadAnnotative
1000
AnnotativeData
1002
{
1070
     1
1070
     1
1002
}
  0
STYLE
  5
7D7
330
3
100
AcDbSymbolTableRecord
100
AcDbTextStyleTableRecord
  2
Solbet_5
 70
     0
 40
5.0
 41
1.0
 50
0.0
 71
     0
 42
5.0
  3
isocpeur.ttf
  4

1001
ACAD
1000
ISOCPEUR
1071
       34
  0
STYLE
  5
7D9
330
3
100
AcDbSymbolTableRecord
100
AcDbTextStyleTableRecord
  2
Solbet_2_5
 70
     0
 40
2.5
 41
1.0
 50
0.0
 71
     0
 42
2.5
  3
isocpeur.ttf
  4

1001
ACAD
1000
ISOCPEUR
1071
       34
  0
STYLE
  5
7E7
330
3
100
AcDbSymbolTableRecord
100
AcDbTextStyleTableRecord
  2

 70
     1
 40
0.0
 41
1.0
 50
0.0
 71
     0
 42
2.5
  3
ltypeshp.shx
  4

  0
STYLE
  5
2A72
330
3
100
AcDbSymbolTableRecord
100
AcDbTextStyleTableRecord
  2
Solbet_1
 70
     0
 40
1.0
 41
1.0
 50
0.0
 71
     0
 42
2.5
  3
isocpeur.ttf
  4

1001
ACAD
1000
ISOCPEUR
1071
       34
  0
ENDTAB
  0
TABLE
  2
VIEW
  5
6
330
0
100
AcDbSymbolTable
 70
     0
  0
ENDTAB
  0
TABLE
  2
UCS
  5
7
330
0
100
AcDbSymbolTable
 70
     0
  0
ENDTAB
  0
TABLE
  2
APPID
  5
9
330
0
100
AcDbSymbolTable
 70
    14
  0
APPID
  5
12
330
9
100
AcDbSymbolTableRecord
100
AcDbRegAppTableRecord
  2
ACAD
 70
     0
  0
APPID
  5
9E
330
9
100
AcDbSymbolTableRecord
100
AcDbRegAppTableRecord
  2
ACAD_PSEXT
 70
     0
  0
APPID
  5
133
330
9
100
AcDbSymbolTableRecord
100
AcDbRegAppTableRecord
  2
AcadAnnoPO
 70
     0
  0
APPID
  5
134
330
9
100
AcDbSymbolTableRecord
100
AcDbRegAppTableRecord
  2
AcadAnnotative
 70
     0
  0
APPID
  5
135
330
9
100
AcDbSymbolTableRecord
100
AcDbRegAppTableRecord
  2
ACAD_DSTYLE_DIMJAG
 70
     0
  0
APPID
  5
136
330
9
100
AcDbSymbolTableRecord
100
AcDbRegAppTableRecord
  2
ACAD_DSTYLE_DIMTALN
 70
     0
  0
APPID
  5
165
330
9
100
AcDbSymbolTableRecord
100
AcDbRegAppTableRecord
  2
ACAD_MLEADERVER
 70
     0
  0
APPID
  5
2C4
330
9
100
AcDbSymbolTableRecord
100
AcDbRegAppTableRecord
  2
ASO_SCHRAFF
 70
     0
  0
APPID
  5
3DE
330
9
100
AcDbSymbolTableRecord
100
AcDbRegAppTableRecord
  2
AcAecLayerStandard
 70
     0
  0
APPID
  5
7DE
330
9
100
AcDbSymbolTableRecord
100
AcDbRegAppTableRecord
  2
ACAD_EXEMPT_FROM_CAD_STANDARDS
 70
     0
  0
APPID
  5
948
330
9
100
AcDbSymbolTableRecord
100
AcDbRegAppTableRecord
  2
ACAD_DSTYLE_DIMBREAK
 70
     0
  0
APPID
  5
1D0A
330
9
100
AcDbSymbolTableRecord
100
AcDbRegAppTableRecord
  2
AcadAnnotativeDecomposition
 70
     0
  0
APPID
  5
2A73
330
9
100
AcDbSymbolTableRecord
100
AcDbRegAppTableRecord
  2
AcDbAttr
 70
     0
  0
APPID
  5
6F16
330
9
100
AcDbSymbolTableRecord
100
AcDbRegAppTableRecord
  2
ACAUTHENVIRON
 70
     0
  0
ENDTAB
  0
TABLE
  2
DIMSTYLE
  5
A
330
0
100
AcDbSymbolTable
 70
     3
100
AcDbDimStyleTable
 71
     1
340
949
  0
DIMSTYLE
105
4DDB
330
A
100
AcDbSymbolTableRecord
100
AcDbDimStyleTableRecord
  2
Standard
 70
     0
340
11
  0
DIMSTYLE
105
949
102
{ACAD_REACTORS
330
7160
102
}
330
A
100
AcDbSymbolTableRecord
100
AcDbDimStyleTableRecord
  2
Solbet
 70
     0
 41
2.5
 42
0.0
 43
3.75
 44
1.25
 73
     0
 74
     0
 77
     1
 78
     8
140
2.5
141
2.5
143
0.03937007874016
147
0.625
171
     3
172
     1
271
     2
272
     2
274
     3
278
    44
283
     0
284
     8
340
7D9
1001
ACAD_DSTYLE_DIMBREAK
1070
   391
1040
3.75
1001
ACAD_DSTYLE_DIMJAG
1070
   388
1040
1.5
1001
ACAD_DSTYLE_DIMTALN
1070
   392
1070
     0
  0
DIMSTYLE
105
954
330
A
100
AcDbSymbolTableRecord
100
AcDbDimStyleTableRecord
  2
Solbet$7
 70
     0
 41
2.5
 42
0.0
 43
3.75
 44
1.25
 73
     0
 74
     0
 77
     1
 78
     8
140
2.5
141
2.5
143
0.03937007874016
147
0.625
171
     3
172
     1
271
     2
272
     2
274
     3
278
    44
283
     0
284
     8
340
7D9
341
958
1001
ACAD_DSTYLE_DIMBREAK
1070
   391
1040
3.75
1001
ACAD_DSTYLE_DIMJAG
1070
   388
1040
1.5
1001
ACAD_DSTYLE_DIMTALN
1070
   392
1070
     0
  0
ENDTAB
  0
TABLE
  2
BLOCK_RECORD
  5
1
330
0
100
AcDbSymbolTable
 70
     9
  0
BLOCK_RECORD
  5
1F
102
{ACAD_XDICTIONARY
360
4A3
102
}
330
1
100
AcDbSymbolTableRecord
100
AcDbBlockTableRecord
  2
*Model_Space
340
22
  0
BLOCK_RECORD
  5
D2
330
1
100
AcDbSymbolTableRecord
100
AcDbBlockTableRecord
  2
*Paper_Space
340
D3
  0
BLOCK_RECORD
  5
D6
330
1
100
AcDbSymbolTableRecord
100
AcDbBlockTableRecord
  2
*Paper_Space0
340
D7
  0
BLOCK_RECORD
  5
958
330
1
100
AcDbSymbolTableRecord
100
AcDbBlockTableRecord
  2
_DotSmall
340
0
102
{BLKREFS
331
79F6
331
7A0C
331
7A0D
331
7A22
331
7A2A
331
7A3E
331
7A6E
102
}
  0
BLOCK_RECORD
  5
5ECF
330
1
100
AcDbSymbolTableRecord
100
AcDbBlockTableRecord
  2
*X2
340
0
102
{BLKREFS
331
611B
102
}
  0
BLOCK_RECORD
  5
5EF5
330
1
100
AcDbSymbolTableRecord
100
AcDbBlockTableRecord
  2
*X3
340
0
102
{BLKREFS
331
611D
102
}
  0
BLOCK_RECORD
  5
6F5E
102
{ACAD_XDICTIONARY
360
6F6A
102
}
330
1
100
AcDbSymbolTableRecord
100
AcDbBlockTableRecord
  2
SOLBET_Bloczek_OPTIMAL_240x240x590_P+W_PRA
340
0
1001
ACAD
1000
DesignCenter Data
1002
{
1070
     1
1070
     4
1002
}
  0
BLOCK_RECORD
  5
7163
330
1
100
AcDbSymbolTableRecord
100
AcDbBlockTableRecord
  2
*D5
340
0
  0
BLOCK_RECORD
  5
7832
330
1
100
AcDbSymbolTableRecord
100
AcDbBlockTableRecord
  2
_None
340
0
  0
BLOCK_RECORD
  5
7EAC
102
{ACAD_XDICTIONARY
360
7EB8
102
}
330
1
100
AcDbSymbolTableRecord
100
AcDbBlockTableRecord
  2
SOLBET_Bloczek_Optimal_240x240x590_P+W_KG400_PRA
340
0
102
{BLKREFS
331
7EBC
331
7EBD
331
7EBE
102
}
1001
ACAD
1000
DesignCenter Data
1002
{
1070
     1
1070
     4
1002
}
  0
ENDTAB
  0
ENDSEC
  0
SECTION
  2
BLOCKS
  0
BLOCK
  5
20
330
1F
100
AcDbEntity
  8
0
100
AcDbBlockBegin
  2
*Model_Space
 70
     0
 10
0.0
 20
0.0
 30
0.0
  3
*Model_Space
  1

  0
ENDBLK
  5
21
330
1F
100
AcDbEntity
  8
0
100
AcDbBlockEnd
  0
BLOCK
  5
D4
330
D2
100
AcDbEntity
 67
     1
  8
0
100
AcDbBlockBegin
  2
*Paper_Space
 70
     0
 10
0.0
 20
0.0
 30
0.0
  3
*Paper_Space
  1

  0
ENDBLK
  5
D5
330
D2
100
AcDbEntity
 67
     1
  8
0
100
AcDbBlockEnd
  0
BLOCK
  5
D8
330
D6
100
AcDbEntity
 67
     1
  8
0
100
AcDbBlockBegin
  2
*Paper_Space0
 70
     0
 10
0.0
 20
0.0
 30
0.0
  3
*Paper_Space0
  1

  0
ENDBLK
  5
D9
330
D6
100
AcDbEntity
 67
     1
  8
0
100
AcDbBlockEnd
  0
BLOCK
  5
95A
330
958
100
AcDbEntity
  8
0
100
AcDbBlockBegin
  2
_DotSmall
 70
     0
 10
0.0
 20
0.0
 30
0.0
  3
_DotSmall
  1

  0
LWPOLYLINE
  5
959
330
958
100
AcDbEntity
  8
0
  6
ByBlock
 62
     0
100
AcDbPolyline
 90
        2
 70
     1
 43
0.5
 10
-0.0625
 20
0.0
 42
1.0
 10
0.0625
 20
0.0
 42
1.0
  0
ENDBLK
  5
95B
330
958
100
AcDbEntity
  8
0
100
AcDbBlockEnd
  0
BLOCK
  5
5ED0
330
5ECF
100
AcDbEntity
  8
0
100
AcDbBlockBegin
  2
*X2
 70
     1
 10
0.0
 20
0.0
 30
0.0
  3
*X2
  1
ASOWDBLK
  0
LINE
  5
5ED1
330
5ECF
100
AcDbEntity
  8
0
 62
     0
100
AcDbLine
 10
2.637977652701201
 20
2.914431961184441
 30
0.0
 11
2.643901204524604
 21
2.9214913753509
 31
0.0
  0
LINE
  5
5ED2
330
5ECF
100
AcDbEntity
  8
0
 62
     0
100
AcDbLine
 10
2.81729269835139
 20
2.898743927438793
 30
0.0
 11
2.829344966033012
 21
2.913107260747274
 31
0.0
  0
LINE
  5
5ED3
330
5ECF
100
AcDbEntity
  8
0
 62
     0
100
AcDbLine
 10
2.996607744001578
 20
2.883055893693144
 30
0.0
 11
3.008660011683201
 21
2.897419227001625
 31
0.0
  0
LINE
  5
5ED4
330
5ECF
100
AcDbEntity
  8
0
 62
     0
100
AcDbLine
 10
2.637977653962004
 20
2.914431961722638
 30
0.0
 11
2.65292057443338
 21
2.913124625581423
 31
0.0
  0
LINE
  5
5ED5
330
5ECF
100
AcDbEntity
  8
0
 62
     0
100
AcDbLine
 10
2.817292699618518
 20
2.898743928028059
 30
0.0
 11
2.832235620089894
 21
2.897436591886844
 31
0.0
  0
LINE
  5
5ED6
330
5ECF
100
AcDbEntity
  8
0
 62
     0
100
AcDbLine
 10
2.996607745275032
 20
2.883055894333481
 30
0.0
 11
3.011550665746408
 21
2.881748558192266
 31
0.0
  0
LINE
  5
5ED7
330
5ECF
100
AcDbEntity
  8
0
 62
     0
100
AcDbLine
 10
2.652922824263081
 20
2.91312254420357
 30
0.0
 11
2.651379094476562
 21
2.9214913753509
 31
0.0
  0
LINE
  5
5ED8
330
5ECF
100
AcDbEntity
  8
0
 62
     0
100
AcDbLine
 10
2.83223785624157
 20
2.897434369648088
 30
0.0
 11
2.82934721577888
 21
2.913105040869919
 31
0.0
  0
LINE
  5
5ED9
330
5ECF
100
AcDbEntity
  8
0
 62
     0
100
AcDbLine
 10
3.011552888220058
 20
2.881746195092606
 30
0.0
 11
3.008662247757369
 21
2.897416866314437
 31
0.0
  0
LINE
  5
5EDA
330
5ECF
100
AcDbEntity
  8
0
 62
     0
100
AcDbLine
 10
3.004728717835379
 20
2.918623299578917
 30
0.0
 11
3.012200310665684
 21
2.9214913753509
 31
0.0
  0
LINE
  5
5EDB
330
5ECF
100
AcDbEntity
  8
0
 62
     0
100
AcDbLine
 10
2.076108403890537
 20
2.878034378968509
 30
0.0
 11
2.09361303688736
 21
2.884753778022484
 31
0.0
  0
LINE
  5
5EDC
330
5ECF
100
AcDbEntity
  8
0
 62
     0
100
AcDbLine
 10
3.004728719227681
 20
2.918623298885614
 30
0.0
 11
3.017164282816007
 21
2.910235405333553
 31
0.0
  0
LINE
  5
5EDD
330
5ECF
100
AcDbEntity
  8
0
 62
     0
100
AcDbLine
 10
2.076108404986957
 20
2.878034378224146
 30
0.0
 11
2.085808805663694
 21
2.871491375350903
 31
0.0
  0
LINE
  5
5EDE
330
5ECF
100
AcDbEntity
  8
0
 62
     0
100
AcDbLine
 10
3.017166504580921
 20
2.910233061530141
 30
0.0
 11
3.020944105468336
 21
2.9214913753509
 31
0.0
  0
LINE
  5
5EDF
330
5ECF
100
AcDbEntity
  8
0
 62
     0
100
AcDbLine
 10
2.089165742563525
 20
2.871491375350903
 30
0.0
 11
2.093615248581711
 21
2.884752155563813
 31
0.0
  0
LINE
  5
5EE0
330
5ECF
100
AcDbEntity
  8
0
 62
     0
100
AcDbLine
 10
2.527410716131277
 20
2.910040258224065
 30
0.0
 11
2.527410716131277
 21
2.910040258224065
 31
0.0
  0
LINE
  5
5EE1
330
5ECF
100
AcDbEntity
  8
0
 62
     0
100
AcDbLine
 10
2.401134085493128
 20
2.894035608753471
 30
0.0
 11
2.401134085493128
 21
2.894035608753471
 31
0.0
  0
LINE
  5
5EE2
330
5ECF
100
AcDbEntity
  8
0
 62
     0
100
AcDbLine
 10
2.272774902336715
 20
2.87643296053173
 30
0.0
 11
2.272774902336715
 21
2.87643296053173
 31
0.0
  0
LINE
  5
5EE3
330
5ECF
100
AcDbEntity
  8
0
 62
     0
100
AcDbLine
 10
2.908853286765975
 20
2.879168168359705
 30
0.0
 11
2.908853286765975
 21
2.879168168359705
 31
0.0
  0
LINE
  5
5EE4
330
5ECF
100
AcDbEntity
  8
0
 62
     0
100
AcDbLine
 10
3.038700007435435
 20
2.897912244260838
 30
0.0
 11
3.038700007435435
 21
2.897912244260838
 31
0.0
  0
LINE
  5
5EE5
330
5ECF
100
AcDbEntity
  8
0
 62
     0
100
AcDbLine
 10
2.724368411148418
 20
2.877115557348477
 30
0.0
 11
2.724368411148418
 21
2.877115557348477
 31
0.0
  0
LINE
  5
5EE6
330
5ECF
100
AcDbEntity
  8
0
 62
     0
100
AcDbLine
 10
2.78695336802264
 20
2.885355023232368
 30
0.0
 11
2.78695336802264
 21
2.885355023232368
 31
0.0
  0
LINE
  5
5EE7
330
5ECF
100
AcDbEntity
  8
0
 62
     0
100
AcDbLine
 10
2.881636352283839
 20
2.897820274589383
 30
0.0
 11
2.881636352283839
 21
2.897820274589383
 31
0.0
  0
LINE
  5
5EE8
330
5ECF
100
AcDbEntity
  8
0
 62
     0
100
AcDbLine
 10
3.039523946457618
 20
2.918606570700426
 30
0.0
 11
3.039523946457618
 21
2.918606570700426
 31
0.0
  0
LINE
  5
5EE9
330
5ECF
100
AcDbEntity
  8
0
 62
     0
100
AcDbLine
 10
2.159824724890555
 20
2.89273645861517
 30
0.0
 11
2.159824724890555
 21
2.89273645861517
 31
0.0
  0
LINE
  5
5EEA
330
5ECF
100
AcDbEntity
  8
0
 62
     0
100
AcDbLine
 10
2.222409681764777
 20
2.90097592449906
 30
0.0
 11
2.222409681764777
 21
2.90097592449906
 31
0.0
  0
LINE
  5
5EEB
330
5ECF
100
AcDbEntity
  8
0
 62
     0
100
AcDbLine
 10
2.317092666025976
 20
2.913441175856075
 30
0.0
 11
2.317092666025976
 21
2.913441175856075
 31
0.0
  0
LINE
  5
5EEC
330
5ECF
100
AcDbEntity
  8
0
 62
     0
100
AcDbLine
 10
2.410127396899718
 20
2.874448220277949
 30
0.0
 11
2.410127396899718
 21
2.874448220277949
 31
0.0
  0
LINE
  5
5EED
330
5ECF
100
AcDbEntity
  8
0
 62
     0
100
AcDbLine
 10
2.276671787856614
 20
2.880086938211545
 30
0.0
 11
2.276671787856614
 21
2.880086938211545
 31
0.0
  0
LINE
  5
5EEE
330
5ECF
100
AcDbEntity
  8
0
 62
     0
100
AcDbLine
 10
2.143216178813513
 20
2.885725656145139
 30
0.0
 11
2.143216178813513
 21
2.885725656145139
 31
0.0
  0
LINE
  5
5EEF
330
5ECF
100
AcDbEntity
  8
0
 62
     0
100
AcDbLine
 10
2.463592405717757
 20
2.903137095107872
 30
0.0
 11
2.463592405717757
 21
2.903137095107872
 31
0.0
  0
LINE
  5
5EF0
330
5ECF
100
AcDbEntity
  8
0
 62
     0
100
AcDbLine
 10
2.996459447841457
 20
2.890726899970882
 30
0.0
 11
2.996459447841457
 21
2.890726899970882
 31
0.0
  0
LINE
  5
5EF1
330
5ECF
100
AcDbEntity
  8
0
 62
     0
100
AcDbLine
 10
3.142255990177055
 20
2.915753145553961
 30
0.0
 11
3.142255990177055
 21
2.915753145553961
 31
0.0
  0
LINE
  5
5EF2
330
5ECF
100
AcDbEntity
  8
0
 62
     0
100
AcDbLine
 10
2.31779586338216
 20
2.878110849524792
 30
0.0
 11
2.31779586338216
 21
2.878110849524792
 31
0.0
  0
LINE
  5
5EF3
330
5ECF
100
AcDbEntity
  8
0
 62
     0
100
AcDbLine
 10
2.112095537430741
 20
2.907976308310485
 30
0.0
 11
2.112095537430741
 21
2.907976308310485
 31
0.0
  0
ENDBLK
  5
5EF4
330
5ECF
100
AcDbEntity
  8
0
100
AcDbBlockEnd
  0
BLOCK
  5
5EF6
330
5EF5
100
AcDbEntity
  8
0
100
AcDbBlockBegin
  2
*X3
 70
     1
 10
0.0
 20
0.0
 30
0.0
  3
*X3
  1
ASOWDBLK
  0
LINE
  5
5EF7
330
5EF5
100
AcDbEntity
  8
0
 62
     0
100
AcDbLine
 10
1.923170601041423
 20
1.126227392825562
 30
0.0
 11
1.853170601041423
 21
1.196227392825562
 31
0.0
  0
LINE
  5
5EF8
330
5EF5
100
AcDbEntity
  8
0
 62
     0
100
AcDbLine
 10
1.878976427217263
 20
1.126227392825562
 30
0.0
 11
1.808976427217263
 21
1.196227392825562
 31
0.0
  0
LINE
  5
5EF9
330
5EF5
100
AcDbEntity
  8
0
 62
     0
100
AcDbLine
 10
1.834782253393104
 20
1.126227392825562
 30
0.0
 11
1.764782253393104
 21
1.196227392825562
 31
0.0
  0
LINE
  5
5EFA
330
5EF5
100
AcDbEntity
  8
0
 62
     0
100
AcDbLine
 10
1.790588079568945
 20
1.126227392825562
 30
0.0
 11
1.720588079568945
 21
1.196227392825562
 31
0.0
  0
LINE
  5
5EFB
330
5EF5
100
AcDbEntity
  8
0
 62
     0
100
AcDbLine
 10
1.746393905744786
 20
1.126227392825562
 30
0.0
 11
1.676393905744786
 21
1.196227392825562
 31
0.0
  0
LINE
  5
5EFC
330
5EF5
100
AcDbEntity
  8
0
 62
     0
100
AcDbLine
 10
1.702199731920627
 20
1.126227392825562
 30
0.0
 11
1.632199731920627
 21
1.196227392825562
 31
0.0
  0
LINE
  5
5EFD
330
5EF5
100
AcDbEntity
  8
0
 62
     0
100
AcDbLine
 10
1.658005558096468
 20
1.126227392825562
 30
0.0
 11
1.610871175443808
 21
1.173361775478222
 31
0.0
  0
LINE
  5
5EFE
330
5EF5
100
AcDbEntity
  8
0
 62
     0
100
AcDbLine
 10
1.613811384272309
 20
1.126227392825562
 30
0.0
 11
1.589613218414465
 21
1.150425558683405
 31
0.0
  0
LINE
  5
5EFF
330
5EF5
100
AcDbEntity
  8
0
 62
     0
100
AcDbLine
 10
1.569617210448149
 20
1.126227392825562
 30
0.0
 11
1.568355261385123
 21
1.127489341888588
 31
0.0
  0
LINE
  5
5F00
330
5EF5
100
AcDbEntity
  8
0
 62
     0
100
AcDbLine
 10
1.967364774865582
 20
1.126227392825563
 30
0.0
 11
1.897364774865582
 21
1.196227392825562
 31
0.0
  0
LINE
  5
5F01
330
5EF5
100
AcDbEntity
  8
0
 62
     0
100
AcDbLine
 10
2.011558948689741
 20
1.126227392825563
 30
0.0
 11
1.941558948689741
 21
1.196227392825562
 31
0.0
  0
LINE
  5
5F02
330
5EF5
100
AcDbEntity
  8
0
 62
     0
100
AcDbLine
 10
2.0557531225139
 20
1.126227392825563
 30
0.0
 11
1.9857531225139
 21
1.196227392825562
 31
0.0
  0
LINE
  5
5F03
330
5EF5
100
AcDbEntity
  8
0
 62
     0
100
AcDbLine
 10
2.099947296338059
 20
1.126227392825563
 30
0.0
 11
2.02994729633806
 21
1.196227392825562
 31
0.0
  0
LINE
  5
5F04
330
5EF5
100
AcDbEntity
  8
0
 62
     0
100
AcDbLine
 10
2.144141470162218
 20
1.126227392825563
 30
0.0
 11
2.074141470162219
 21
1.196227392825562
 31
0.0
  0
LINE
  5
5F05
330
5EF5
100
AcDbEntity
  8
0
 62
     0
100
AcDbLine
 10
2.188335643986377
 20
1.126227392825563
 30
0.0
 11
2.118335643986378
 21
1.196227392825562
 31
0.0
  0
LINE
  5
5F06
330
5EF5
100
AcDbEntity
  8
0
 62
     0
100
AcDbLine
 10
2.232529817810537
 20
1.126227392825563
 30
0.0
 11
2.162529817810537
 21
1.196227392825562
 31
0.0
  0
ENDBLK
  5
5F07
330
5EF5
100
AcDbEntity
  8
0
100
AcDbBlockEnd
  0
BLOCK
  5
6F6C
330
6F5E
100
AcDbEntity
  8
0
100
AcDbBlockBegin
  2
SOLBET_Bloczek_OPTIMAL_240x240x590_P+W_PRA
 70
     2
 10
0.0
 20
0.0
 30
0.0
  3
SOLBET_Bloczek_OPTIMAL_240x240x590_P+W_PRA
  1

  0
ATTDEF
  5
6F5F
330
6F5E
100
AcDbEntity
  8
SOLBET_Wymiary_Opisy
100
AcDbText
 10
-0.0000000878742412
 20
6.303237404038322
 30
0.0
 40
0.9913121336814832
  1
240x240x590
  7
Solbet_1
100
AcDbAttributeDefinition
  3

  2
WYMIARY
 70
     3
1001
AcDbAttr
1070
     0
1070
     1
  0
ATTDEF
  5
6F60
330
6F5E
100
AcDbEntity
  8
SOLBET_Wymiary_Opisy
100
AcDbText
 10
-0.0000000878742412
 20
4.790717996322224
 30
0.0
 40
0.9913121336814832
  1
400, 500, 600, 700
  7
Solbet_1
100
AcDbAttributeDefinition
  3

  2
KLASA_GĘSTOŚCI
 70
     9
1001
AcDbAttr
1070
     0
1070
     1
  0
ATTDEF
  5
6F61
330
6F5E
100
AcDbEntity
  8
SOLBET_Wymiary_Opisy
100
AcDbText
 10
-0.0000000878742412
 20
3.269569161109998
 30
0.0
 40
0.9913121336814832
  1
pióra+wpusty
  7
Solbet_1
100
AcDbAttributeDefinition
  3

  2
PROFILOWANIE
 70
    11
1001
AcDbAttr
1070
     0
1070
     1
  0
ATTDEF
  5
6F62
330
6F5E
100
AcDbEntity
  8
SOLBET_Wymiary_Opisy
100
AcDbText
 10
-0.0000000878742412
 20
0.2448647517692188
 30
0.0
 40
0.9913121336814832
  1
SOLBET
  7
Solbet_1
100
AcDbAttributeDefinition
  3

  2
FIRMA
 70
     3
1001
AcDbAttr
1070
     0
1070
     1
  0
ATTDEF
  5
6F63
330
6F5E
100
AcDbEntity
  8
SOLBET_Wymiary_Opisy
100
AcDbText
 10
-0.0000000878742412
 20
9.333547402386153
 30
0.0
 40
0.9913121336814832
  1
Bloczek
  7
Solbet_1
100
AcDbAttributeDefinition
  3
Nazwa
  2
NAZWA
 70
     3
1001
AcDbAttr
1070
     0
1070
     1
  0
ATTDEF
  5
6F64
330
6F5E
100
AcDbEntity
  8
SOLBET_Wymiary_Opisy
100
AcDbText
 10
-0.0000000878742412
 20
7.794499222151949
 30
0.0
 40
0.9913121336814832
  1
SOLBET OPTIMAL
  7
Solbet_1
100
AcDbAttributeDefinition
  3

  2
SYSTEM
 70
     3
1001
AcDbAttr
1070
     0
1070
     1
  0
ATTDEF
  5
6F65
330
6F5E
100
AcDbEntity
  8
SOLBET_Wymiary_Opisy
100
AcDbText
 10
-0.0000000878742412
 20
1.744181511296331
 30
0.0
 40
0.9913121336814832
  1
Prawo
  7
Solbet_1
100
AcDbAttributeDefinition
  3

  2
WIDOK
 70
    11
1001
AcDbAttr
1070
     0
1070
     1
  0
LINE
  5
6F66
330
6F5E
100
AcDbEntity
  8
SOLBET_Bloczki
100
AcDbLine
 10
12.00000017574848
 20
11.99999995881262
 30
0.0
 11
12.00000017574848
 21
-0.0000000411874908
 31
0.0
  0
LINE
  5
6F67
330
6F5E
100
AcDbEntity
  8
SOLBET_Bloczki
100
AcDbLine
 10
12.00000017574848
 20
11.99999995881262
 30
0.0
 11
0.0000001757484824
 21
11.99999995881262
 31
0.0
  0
LINE
  5
6F68
330
6F5E
100
AcDbEntity
  8
SOLBET_Bloczki
100
AcDbLine
 10
0.0000001757484824
 20
11.99999995881262
 30
0.0
 11
0.0000001757484824
 21
-0.0000000411873771
 31
0.0
  0
LINE
  5
6F69
330
6F5E
100
AcDbEntity
  8
SOLBET_Bloczki
100
AcDbLine
 10
0.0000001757484824
 20
-0.0000000411873771
 30
0.0
 11
12.00000017574848
 21
-0.0000000411874908
 31
0.0
  0
ENDBLK
  5
6F6D
330
6F5E
100
AcDbEntity
  8
0
100
AcDbBlockEnd
  0
BLOCK
  5
7164
330
7163
100
AcDbEntity
  8
0
100
AcDbBlockBegin
  2
*D5
 70
     1
 10
0.0
 20
0.0
 30
0.0
  3
*D5
  1

  0
LINE
  5
7F40
330
7163
100
AcDbEntity
  8
SOLBET_Wymiary_Opisy
 62
     0
370
    -2
100
AcDbLine
 10
204.4412758847346
 20
155.12312712529
 30
0.0
 11
137.6814442254975
 21
155.12312712529
 31
0.0
  0
LINE
  5
7F41
330
7163
100
AcDbEntity
  8
SOLBET_Wymiary_Opisy
 62
     0
370
    -2
100
AcDbLine
 10
207.7757480456969
 20
139.9431271252902
 30
0.0
 11
137.6814442254975
 21
139.9431271252902
 31
0.0
  0
LINE
  5
7F42
330
7163
100
AcDbEntity
  8
SOLBET_Wymiary_Opisy
 62
     0
370
    -2
100
AcDbLine
 10
138.9314442254975
 20
152.62312712529
 30
0.0
 11
138.9314442254975
 21
142.4431271252902
 31
0.0
  0
SOLID
  5
7F43
330
7163
100
AcDbEntity
  8
SOLBET_Wymiary_Opisy
 62
     0
100
AcDbTrace
 10
138.5147775588308
 20
152.62312712529
 30
0.0
 11
139.3481108921641
 21
152.62312712529
 31
0.0
 12
138.9314442254975
 22
155.12312712529
 32
0.0
 13
138.9314442254975
 23
155.12312712529
 33
0.0
  0
SOLID
  5
7F44
330
7163
100
AcDbEntity
  8
SOLBET_Wymiary_Opisy
 62
     0
100
AcDbTrace
 10
138.5147775588308
 20
142.4431271252902
 30
0.0
 11
139.3481108921641
 21
142.4431271252902
 31
0.0
 12
138.9314442254975
 22
139.9431271252902
 32
0.0
 13
138.9314442254975
 23
139.9431271252902
 33
0.0
  0
MTEXT
  5
7F45
330
7163
100
AcDbEntity
  8
SOLBET_Wymiary_Opisy
 62
     0
100
AcDbMText
 10
137.0554972558005
 20
147.7458760708674
 30
0.0
 40
2.5
 41
0.0
 71
     5
 72
     1
  1
Min. 30cm
  7
Solbet_2_5
 11
0.0000000000000001
 21
1.0
 31
0.0
 73
     1
 44
1.0
1001
ACAD
1000
MTEXTBEGIN
1070
    73
1070
     1
1070
    44
1040
1.0
1070
    74
1070
     0
1000
MTEXTEND
  0
POINT
  5
7F46
330
7163
100
AcDbEntity
  8
DEFPOINTS
 62
     0
100
AcDbPoint
 10
204.4412758847346
 20
155.12312712529
 30
0.0
  0
POINT
  5
7F47
330
7163
100
AcDbEntity
  8
DEFPOINTS
 62
     0
100
AcDbPoint
 10
207.7757480456969
 20
139.9431271252902
 30
0.0
  0
POINT
  5
7F48
330
7163
100
AcDbEntity
  8
DEFPOINTS
 62
     0
100
AcDbPoint
 10
138.9314442254975
 20
139.9431271252902
 30
0.0
  0
ENDBLK
  5
7165
330
7163
100
AcDbEntity
  8
0
100
AcDbBlockEnd
  0
BLOCK
  5
7833
330
7832
100
AcDbEntity
  8
0
100
AcDbBlockBegin
  2
_None
 70
     0
 10
0.0
 20
0.0
 30
0.0
  3
_None
  1

  0
ENDBLK
  5
7834
330
7832
100
AcDbEntity
  8
0
100
AcDbBlockEnd
  0
BLOCK
  5
7EBA
330
7EAC
100
AcDbEntity
  8
0
100
AcDbBlockBegin
  2
SOLBET_Bloczek_Optimal_240x240x590_P+W_KG400_PRA
 70
     2
 10
0.0
 20
0.0
 30
0.0
  3
SOLBET_Bloczek_Optimal_240x240x590_P+W_KG400_PRA
  1

  0
ATTDEF
  5
7EAD
330
7EAC
100
AcDbEntity
  8
SOLBET_Wymiary_Opisy
100
AcDbText
 10
-0.0000000878742412
 20
6.303237404038322
 30
0.0
 40
0.9913121336814832
  1
240x240x590
  7
Solbet_1
100
AcDbAttributeDefinition
  3

  2
WYMIARY
 70
    11
1001
AcDbAttr
1070
     0
1070
     1
  0
ATTDEF
  5
7EAE
330
7EAC
100
AcDbEntity
  8
SOLBET_Wymiary_Opisy
100
AcDbText
 10
-0.0000000878742412
 20
4.790717996322224
 30
0.0
 40
0.9913121336814832
  1
400
  7
Solbet_1
100
AcDbAttributeDefinition
  3

  2
KLASA_GĘSTOŚCI
 70
    11
1001
AcDbAttr
1070
     0
1070
     1
  0
ATTDEF
  5
7EAF
330
7EAC
100
AcDbEntity
  8
SOLBET_Wymiary_Opisy
100
AcDbText
 10
-0.0000000878742412
 20
3.269569161109998
 30
0.0
 40
0.9913121336814832
  1
Pióra+Wpusty
  7
Solbet_1
100
AcDbAttributeDefinition
  3

  2
PROFILOWANIE
 70
    11
1001
AcDbAttr
1070
     0
1070
     1
  0
ATTDEF
  5
7EB0
330
7EAC
100
AcDbEntity
  8
SOLBET_Wymiary_Opisy
100
AcDbText
 10
-0.0000000878742412
 20
0.2448647517692188
 30
0.0
 40
0.9913121336814832
  1
SOLBET
  7
Solbet_1
100
AcDbAttributeDefinition
  3

  2
FIRMA
 70
    11
1001
AcDbAttr
1070
     0
1070
     1
  0
ATTDEF
  5
7EB1
330
7EAC
100
AcDbEntity
  8
SOLBET_Wymiary_Opisy
100
AcDbText
 10
-0.0000000878742412
 20
9.333547402386153
 30
0.0
 40
0.9913121336814832
  1
Bloczek
  7
Solbet_1
100
AcDbAttributeDefinition
  3
Nazwa
  2
NAZWA
 70
    11
1001
AcDbAttr
1070
     0
1070
     1
  0
ATTDEF
  5
7EB2
330
7EAC
100
AcDbEntity
  8
SOLBET_Wymiary_Opisy
100
AcDbText
 10
-0.0000000878742412
 20
7.794499222151949
 30
0.0
 40
0.9913121336814832
  1
SOLBET Optimal
  7
Solbet_1
100
AcDbAttributeDefinition
  3

  2
SYSTEM
 70
    11
1001
AcDbAttr
1070
     0
1070
     1
  0
ATTDEF
  5
7EB3
330
7EAC
100
AcDbEntity
  8
SOLBET_Wymiary_Opisy
100
AcDbText
 10
-0.0000000878742412
 20
1.744181511296331
 30
0.0
 40
0.9913121336814832
  1
Prawo
  7
Solbet_1
100
AcDbAttributeDefinition
  3

  2
WIDOK
 70
    11
1001
AcDbAttr
1070
     0
1070
     1
  0
LINE
  5
7EB4
330
7EAC
100
AcDbEntity
  8
SOLBET_Bloczki
100
AcDbLine
 10
12.00000017574848
 20
11.99999995881262
 30
0.0
 11
12.00000017574848
 21
-0.0000000411874908
 31
0.0
  0
LINE
  5
7EB5
330
7EAC
100
AcDbEntity
  8
SOLBET_Bloczki
100
AcDbLine
 10
12.00000017574848
 20
11.99999995881262
 30
0.0
 11
0.0000001757484824
 21
11.99999995881262
 31
0.0
  0
LINE
  5
7EB6
330
7EAC
100
AcDbEntity
  8
SOLBET_Bloczki
100
AcDbLine
 10
0.0000001757484824
 20
11.99999995881262
 30
0.0
 11
0.0000001757484824
 21
-0.0000000411873771
 31
0.0
  0
LINE
  5
7EB7
330
7EAC
100
AcDbEntity
  8
SOLBET_Bloczki
100
AcDbLine
 10
0.0000001757484824
 20
-0.0000000411873771
 30
0.0
 11
12.00000017574848
 21
-0.0000000411874908
 31
0.0
  0
ENDBLK
  5
7EBB
330
7EAC
100
AcDbEntity
  8
0
100
AcDbBlockEnd
  0
ENDSEC
  0
SECTION
  2
ENTITIES
  0
LINE
  5
602E
330
1F
100
AcDbEntity
  8
SOLBET_Wymiary_Opisy
 62
     1
100
AcDbLine
 10
185.5397216522058
 20
127.84312712529
 30
0.0
 11
225.4412758847347
 21
127.84312712529
 31
0.0
  0
LWPOLYLINE
  5
602F
330
1F
100
AcDbEntity
  8
SOLBET_Beton
100
AcDbPolyline
 90
        4
 70
     0
 43
0.0
 10
224.141275884735
 20
135.9743318922545
 10
224.141275884735
 20
141.9743318922545
 10
211.641275884735
 20
141.9743318922545
 10
211.641275884735
 20
135.9743318922545
  0
LINE
  5
6032
330
1F
100
AcDbEntity
  8
SOLBET_Wymiary_Opisy
 62
     1
100
AcDbLine
 10
185.3687710977387
 20
129.3431271252899
 30
0.0
 11
225.4412758847347
 21
129.3431271252899
 31
0.0
  0
LINE
  5
6034
330
1F
100
AcDbEntity
  8
SOLBET_Izolacja
  6
Continuous
100
AcDbLine
 10
210.9412758847347
 20
99.77634330340618
 30
0.0
 11
210.9412758847347
 21
127.84312712529
 31
0.0
  0
LINE
  5
6035
330
1F
100
AcDbEntity
  8
SOLBET_Izolacja
  6
Continuous
100
AcDbLine
 10
208.4412758847348
 20
99.77634330340618
 30
0.0
 11
208.4412758847348
 21
127.84312712529
 31
0.0
  0
LINE
  5
6036
330
1F
100
AcDbEntity
  8
SOLBET_Izolacja
  6
Continuous
100
AcDbLine
 10
208.4412758847348
 20
129.3431271252899
 30
0.0
 11
208.4412758847348
 21
154.9431271252901
 31
0.0
  0
LINE
  5
6037
330
1F
100
AcDbEntity
  8
SOLBET_Izolacja
  6
Continuous
100
AcDbLine
 10
210.9412758847347
 20
129.3431271252899
 30
0.0
 11
210.9412758847347
 21
154.9431271252901
 31
0.0
  0
LWPOLYLINE
  5
6039
330
1F
100
AcDbEntity
  8
SOLBET_Beton
100
AcDbPolyline
 90
        4
 70
     0
 43
0.0
 10
224.1412758847348
 20
129.3431271252899
 10
224.141275884735
 20
135.4743318922544
 10
211.641275884735
 20
135.4743318922544
 10
211.641275884735
 20
129.3431271252899
  0
LINE
  5
6052
330
1F
100
AcDbEntity
  8
SOLBET_Izolacja
  6
Continuous
100
AcDbLine
 10
208.4412758847348
 20
154.9431271252901
 30
0.0
 11
210.9412758847347
 21
154.943127137844
 31
0.0
  0
LINE
  5
6053
330
1F
100
AcDbEntity
  8
SOLBET_Emulsje_Folie
100
AcDbLine
 10
224.3087308939433
 20
154.997998851108
 30
0.0
 11
224.3087308939433
 21
129.3334236745677
 31
0.0
  0
LINE
  5
6054
330
1F
100
AcDbEntity
  8
SOLBET_Emulsje_Folie
100
AcDbLine
 10
224.3092027921626
 20
127.84312712529
 30
0.0
 11
224.3092027921626
 21
99.81850323893901
 31
0.0
  0
LINE
  5
6055
330
1F
100
AcDbEntity
  8
SOLBET_Zbrojenie_Konstrukcja
100
AcDbLine
 10
208.6060519732905
 20
143.9351189301021
 30
0.0
 11
217.4412758847347
 21
143.9351189301021
 31
0.0
  0
LINE
  5
6056
330
1F
100
AcDbEntity
  8
SOLBET_Zbrojenie_Konstrukcja
100
AcDbLine
 10
208.8542686402666
 20
146.2302566354255
 30
0.0
 11
208.8542686402666
 21
141.6399812247786
 31
0.0
  0
LINE
  5
605A
330
1F
100
AcDbEntity
  8
SOLBET_Wymiary_Opisy
 62
     1
100
AcDbLine
 10
202.4512809453083
 20
197.84312712529
 30
0.0
 11
226.4412758847348
 21
197.84312712529
 31
0.0
  0
LINE
  5
605D
330
1F
100
AcDbEntity
  8
SOLBET_Beton
100
AcDbLine
 10
224.4834015571578
 20
154.7431271252899
 30
0.0
 11
279.9412758847347
 21
154.7431271252899
 31
0.0
  0
LINE
  5
605F
330
1F
100
AcDbEntity
  8
SOLBET_Wymiary_Opisy
 62
     1
100
AcDbLine
 10
279.9412758847347
 20
167.5337254789316
 30
0.0
 11
279.9412758847347
 21
143.0337254789317
 31
0.0
  0
LINE
  5
6060
330
1F
100
AcDbEntity
  8
SOLBET_Izolacja
  6
Continuous
100
AcDbLine
 10
223.9590052727667
 20
155.4171740695803
 30
0.0
 11
279.9412758847347
 21
155.4171740695803
 31
0.0
  0
LINE
  5
6062
330
1F
100
AcDbEntity
  8
SOLBET_Tynki_Posadzki
100
AcDbLine
 10
224.4412758847348
 20
160.7904809031355
 30
0.0
 11
224.4412758847348
 21
197.84312712529
 31
0.0
  0
LINE
  5
6063
330
1F
100
AcDbEntity
  8
SOLBET_Izolacja
  6
Continuous
100
AcDbLine
 10
224.9412758847348
 20
157.9171740695803
 30
0.0
 11
279.9412758847347
 21
157.9171740695803
 31
0.0
  0
LINE
  5
6064
330
1F
100
AcDbEntity
  8
SOLBET_Izolacja
  6
Continuous
100
AcDbLine
 10
224.9412758847348
 20
155.4171740695803
 30
0.0
 11
224.9412758847348
 21
160.7904809031355
 31
0.0
  0
LINE
  5
6067
330
1F
100
AcDbEntity
  8
SOLBET_Tynki_Posadzki
100
AcDbLine
 10
225.2393420759247
 20
161.2904809031356
 30
0.0
 11
279.9412758847347
 21
161.2904809031356
 31
0.0
  0
LINE
  5
6069
330
1F
100
AcDbEntity
  8
SOLBET_Izolacja
  6
Continuous
100
AcDbLine
 10
223.9590052727667
 20
155.7431271252899
 30
0.0
 11
223.9590052727667
 21
155.4171740695803
 31
0.0
  0
LINE
  5
606A
330
1F
100
AcDbEntity
  8
SOLBET_Izolacja
  6
Continuous
100
AcDbLine
 10
224.9412758847348
 20
160.7904809031355
 30
0.0
 11
223.9590052727667
 21
160.7904809031355
 31
0.0
  0
LINE
  5
606D
330
1F
100
AcDbEntity
  8
SOLBET_Izolacja
100
AcDbLine
 10
204.441275884735
 20
155.7431271252899
 30
0.0
 11
204.441275884735
 21
197.84312712529
 31
0.0
  0
LINE
  5
606E
330
1F
100
AcDbEntity
  8
SOLBET_Tynki_Posadzki
100
AcDbLine
 10
203.691275884735
 20
155.7431271252899
 30
0.0
 11
203.691275884735
 21
197.84312712529
 31
0.0
  0
LINE
  5
606F
330
1F
100
AcDbEntity
  8
SOLBET_Zaprawy
100
AcDbLine
 10
204.1579540782016
 20
155.7431271252901
 30
0.0
 11
204.1579540782016
 21
197.84312712529
 31
0.0
  0
LINE
  5
6070
330
1F
100
AcDbEntity
  8
SOLBET_Tynki_Posadzki
100
AcDbLine
 10
204.1579540782016
 20
155.7431271252901
 30
0.0
 11
203.691275884735
 21
155.7431271252899
 31
0.0
  0
LINE
  5
6071
330
1F
100
AcDbEntity
  8
SOLBET_Zaprawy
100
AcDbLine
 10
208.2757480456969
 20
127.84312712529
 30
0.0
 11
208.2757480456969
 21
99.77634330340618
 31
0.0
  0
LINE
  5
6072
330
1F
100
AcDbEntity
  8
SOLBET_Zaprawy
100
AcDbLine
 10
208.2757480456969
 20
154.9431271252901
 30
0.0
 11
208.2757480456969
 21
129.3431271252899
 31
0.0
  0
LINE
  5
6073
330
1F
100
AcDbEntity
  8
SOLBET_Grunt
  6
Continuous
100
AcDbLine
 10
208.2757480456969
 20
139.9431271252902
 30
0.0
 11
174.2869172349799
 21
139.9431271252902
 31
0.0
  0
LINE
  5
6074
330
1F
100
AcDbEntity
  8
SOLBET_Wymiary_Opisy
 62
     1
100
AcDbLine
 10
174.2869172349799
 20
140.9851320215626
 30
0.0
 11
174.2869172349799
 21
130.3431951701918
 31
0.0
  0
LINE
  5
6075
330
1F
100
AcDbEntity
  8
SOLBET_Grunt
  6
Continuous
100
AcDbLine
 10
183.2828392164713
 20
136.7272620151803
 30
0.0
 11
180.3455039197804
 21
139.9431271252902
 31
0.0
  0
LINE
  5
6076
330
1F
100
AcDbEntity
  8
SOLBET_Grunt
  6
Continuous
100
AcDbLine
 10
182.9402592904398
 20
138.9452434752588
 30
0.0
 11
182.0288035026912
 21
139.9431271252902
 31
0.0
  0
LINE
  5
6077
330
1F
100
AcDbEntity
  8
SOLBET_Grunt
  6
Continuous
100
AcDbLine
 10
186.6494383822933
 20
136.7272620151803
 30
0.0
 11
183.7121030856024
 21
139.9431271252902
 31
0.0
  0
LINE
  5
6078
330
1F
100
AcDbEntity
  8
SOLBET_Tynki_Posadzki
100
AcDbLine
 10
207.7757480456969
 20
154.943127124971
 30
0.0
 11
207.7757480456969
 21
139.9431271252902
 31
0.0
  0
ARC
  5
6097
330
1F
100
AcDbEntity
  8
SOLBET_Tynki_Posadzki
100
AcDbCircle
 10
224.4412758847348
 20
161.2904809031356
 30
0.0
 40
1.5000521396288
100
AcDbArc
 50
0.0
 51
90.0
  0
LINE
  5
6098
330
1F
100
AcDbEntity
  8
SOLBET_Tynki_Posadzki
100
AcDbLine
 10
225.2393420759247
 20
161.2904809031356
 30
0.0
 11
225.2393420759247
 21
160.7904809031355
 31
0.0
  0
LINE
  5
609F
330
1F
100
AcDbEntity
  8
SOLBET_Emulsje_Folie
100
AcDbLine
 10
211.4633954670953
 20
155.0077023018302
 30
0.0
 11
211.4633954670953
 21
129.3431271252899
 31
0.0
  0
LINE
  5
60A0
330
1F
100
AcDbEntity
  8
SOLBET_Emulsje_Folie
100
AcDbLine
 10
211.4633954670953
 20
127.84312712529
 30
0.0
 11
211.4633954670953
 21
100.0263433034062
 31
0.0
  0
LINE
  5
60A1
330
1F
100
AcDbEntity
  8
SOLBET_Emulsje_Folie
100
AcDbLine
 10
211.573348977307
 20
155.0077023018302
 30
0.0
 11
224.3087308939433
 21
155.0077023018302
 31
0.0
  0
LINE
  5
60A2
330
1F
100
AcDbEntity
  8
SOLBET_Wymiary_Opisy
  6
Continuous
100
AcDbLine
 10
187.2932128733975
 20
139.9431271252902
 30
0.0
 11
188.2834703138403
 21
129.3431271252899
 31
0.0
  0
LINE
  5
60DF
330
1F
100
AcDbEntity
  8
SOLBET_Grunt
  6
Continuous
100
AcDbLine
 10
175.8189985823917
 20
136.7272620151803
 30
0.0
 11
178.7563338790826
 21
139.9431271252902
 31
0.0
  0
LINE
  5
60E0
330
1F
100
AcDbEntity
  8
SOLBET_Grunt
  6
Continuous
100
AcDbLine
 10
176.1615785084232
 20
138.9452434752588
 30
0.0
 11
177.0730342961715
 21
139.9431271252902
 31
0.0
  0
LINE
  5
60F7
330
1F
100
AcDbEntity
  8
SOLBET_Wymiary_Opisy
  6
Continuous
100
AcDbLine
 10
190.6063543930261
 20
127.84312712529
 30
0.0
 11
195.2491209379291
 21
78.14562083443025
 31
0.0
  0
LINE
  5
6104
330
1F
100
AcDbEntity
  8
SOLBET_Emulsje_Folie
100
AcDbLine
 10
224.4834015571578
 20
154.9643176310783
 30
0.0
 11
279.9412758847347
 21
154.9643176310783
 31
0.0
  0
LINE
  5
6105
330
1F
100
AcDbEntity
  8
SOLBET_Emulsje_Folie
100
AcDbLine
 10
225.0560919344023
 20
161.0404809031356
 30
0.0
 11
225.0560919344023
 21
158.3630133831527
 31
0.0
  0
LINE
  5
6106
330
1F
100
AcDbEntity
  8
SOLBET_Emulsje_Folie
100
AcDbLine
 10
225.3060919344023
 20
158.1130133831525
 30
0.0
 11
279.9412758847347
 21
158.1130133831525
 31
0.0
  0
ARC
  5
6107
330
1F
100
AcDbEntity
  8
SOLBET_Emulsje_Folie
100
AcDbCircle
 10
225.3060919344023
 20
158.3630133831527
 30
0.0
 40
0.25
100
AcDbArc
 50
180.0
 51
270.0
  0
ARC
  5
6112
330
1F
100
AcDbEntity
  8
SOLBET_Emulsje_Folie
100
AcDbCircle
 10
211.2133954670953
 20
100.0263433034062
 30
0.0
 40
0.25
100
AcDbArc
 50
270.0
 51
0.0
  0
LWPOLYLINE
  5
6115
330
1F
100
AcDbEntity
  8
SOLBET_Zbrojenie_Konstrukcja
100
AcDbPolyline
 90
       10
 70
     0
 43
0.0
 10
211.941275884735
 20
159.5703998900992
 10
211.941275884735
 20
155.9931271252899
 42
-0.4142135623730951
 10
211.691275884735
 20
155.7431271252899
 10
205.3028808994718
 20
155.7431271252899
 42
0.4142135623730951
 10
205.0528808994718
 20
155.4931271252899
 10
205.0528808994718
 20
153.1063820448457
 42
-0.4142135623730951
 10
204.8028808994718
 20
152.8563820448457
 10
204.6428641642383
 20
152.8563820448457
 42
-0.4142135623730951
 10
204.3928641642383
 20
153.1063820448457
 10
204.3928641642383
 20
159.3940661801873
  0
LWPOLYLINE
  5
611A
330
1F
100
AcDbEntity
  8
SOLBET_Tynki_Posadzki
100
AcDbPolyline
 90
        5
 70
     1
 43
0.0
 10
225.0560919344023
 20
158.3630133831527
 42
0.0737237824442343
 10
225.0668451176155
 20
158.2904809031357
 10
279.9412758847347
 20
158.2904809031357
 10
279.9412758847347
 20
160.7904809031355
 10
225.0560919344023
 20
160.7904809031355
1001
ASO_SCHRAFF
1005
0
1070
     1
1002
{
1070
     1
1005
0
1002
}
1002
{
1070
     2
1005
0
1002
}
1002
{
1070
     4
1000
AR-CONC
1040
0.01
1040
0.0
1070
     0
1000
T__SCHR
1070
   256
1000
_bylayer
1040
50.0
1070
     1
1002
}
  0
INSERT
  5
611B
330
1F
100
AcDbEntity
  8
SOLBET_Tynki_Posadzki
100
AcDbBlockReference
  2
*X2
 10
122.6380909427896
 20
14.71591213559054
 30
0.0
 41
50.0
 42
50.00000000000006
 43
50.0
1001
ASO_SCHRAFF
1005
0
1070
     0
1005
0
1001
ACAD
1000
HATCH
1002
{
1070
    16
1000
AR-CONC
1040
0.025
1040
0.0
1002
}
  0
LWPOLYLINE
  5
611C
330
1F
100
AcDbEntity
  8
SOLBET_Beton
100
AcDbPolyline
 90
        4
 70
     1
 43
0.0
 10
200.9973734457105
 20
75.6104979549848
 10
234.3851783237592
 20
75.6104979549848
 10
231.1412758847348
 20
79.11049795498479
 10
204.2412758847349
 20
79.11049795498479
1001
ASO_SCHRAFF
1005
611C
1070
     1
1002
{
1070
     1
1005
611C
1002
}
1002
{
1070
     2
1005
0
1002
}
1002
{
1070
     4
1000
ANSI31
1040
0.1
1040
90.0
1070
     0
1000
T__SCHR
1070
   256
1000
VONLAYER
1040
50.0
1070
     1
1002
}
  0
INSERT
  5
611D
330
1F
100
AcDbEntity
  8
SOLBET_Beton
100
AcDbBlockReference
  2
*X3
 10
122.6380909427896
 20
19.29912831370666
 30
0.0
 41
50.0
 42
50.00000000000006
 43
50.0
1001
ASO_SCHRAFF
1005
611D
1070
     0
1005
0
1001
ACAD
1000
HATCH
1002
{
1070
    16
1000
ANSI31
1040
0.25
1040
1.570796326794896
1002
}
  0
LINE
  5
6120
330
1F
100
AcDbEntity
  8
SOLBET_Beton
100
AcDbLine
 10
211.641275884735
 20
142.4743318922545
 30
0.0
 11
211.641275884735
 21
141.9743318922545
 31
0.0
  0
LINE
  5
6124
330
1F
100
AcDbEntity
  8
SOLBET_Beton
100
AcDbLine
 10
224.141275884735
 20
142.4743318922546
 30
0.0
 11
211.641275884735
 21
142.4743318922546
 31
0.0
  0
LINE
  5
6126
330
1F
100
AcDbEntity
  8
SOLBET_Beton
100
AcDbLine
 10
224.141275884735
 20
135.9743318922545
 30
0.0
 11
211.641275884735
 21
135.9743318922545
 31
0.0
  0
LINE
  5
6131
330
1F
100
AcDbEntity
  8
SOLBET_Beton
100
AcDbLine
 10
224.1139909684241
 20
106.3458851644869
 30
0.0
 11
224.1139909684241
 21
100.3458851644869
 31
0.0
  0
LINE
  5
6133
330
1F
100
AcDbEntity
  8
SOLBET_Wymiary_Opisy
100
AcDbLine
 10
200.9973734457105
 20
75.6104979549848
 30
0.0
 11
195.2491209379291
 21
78.14562083443025
 31
0.0
  0
HATCH
  5
6BBE
330
1F
100
AcDbEntity
  8
SOLBET_Grunt
100
AcDbHatch
 10
0.0
 20
0.0
 30
0.0
210
0.0
220
0.0
230
1.0
  2
AR-CONC
 70
     0
 71
     0
 91
        2
 92
        7
 72
     0
 73
     1
 93
        6
 10
195.2491209379291
 20
78.14562083443025
 10
200.9973734457107
 20
75.6104979549848
 10
204.2412758847349
 20
79.11049795498479
 10
205.941275884735
 20
79.11049795498479
 10
205.9412758847351
 20
97.4481481798454
 10
192.4761833837019
 20
107.8279406781153
 97
        0
 92
        7
 72
     0
 73
     1
 93
        7
 10
192.476183383702
 20
107.827940678115
 10
205.9412758847348
 20
97.44814817984549
 10
205.941275884735
 20
99.11049795498517
 10
205.8800763299512
 20
99.77634330340618
 10
208.2757480456969
 20
99.77634330340618
 10
208.2757480456969
 20
127.84312712529
 10
190.606354393026
 20
127.84312712529
 97
        0
 75
     0
 76
     1
 52
0.0
 41
0.05
 77
     0
 78
    13
 53
50.0
 43
-794.7476740019578
 44
22.29370759249855
 45
9.1092334498002
 46
-0.7969542769451543
 79
     2
 49
0.9525000000000002
 49
-10.4775
 53
355.0
 43
-794.7476740019578
 44
22.29370759249855
 45
-1.762141298783349
 46
9.552832144108998
 79
     2
 49
0.762
 49
-8.381999999999999
 53
100.451
 43
-793.9885740019579
 44
22.22729509249855
 45
7.347125083297962
 46
8.755834391014593
 79
     2
 49
0.8095
 49
-8.9045
 53
46.1842
 43
-794.7476740019578
 44
24.83370759249855
 45
13.5539520446065
 46
-2.102116396636357
 79
     2
 49
1.428749999999999
 49
-15.71625
 53
96.63559999999996
 43
-793.6181790019579
 44
24.65853259249855
 45
11.87021172331186
 46
12.37127779450246
 79
     2
 49
1.214249999999999
 49
-13.35674999999999
 53
351.184
 43
-794.7476740019578
 44
24.83370759249855
 45
11.87023029069669
 46
12.37125589302988
 79
     2
 49
1.143
 49
-12.573
 53
21.0
 43
-793.4776740019579
 44
24.19870759249855
 45
7.580743991769164
 46
-5.113275925838125
 79
     2
 49
0.9525000000000002
 49
-10.4775
 53
326.0
 43
-793.4776740019579
 44
24.19870759249855
 45
3.090101417382353
 46
9.209398306115962
 79
     2
 49
0.762
 49
-8.381999999999999
 53
71.45140000000001
 43
-792.8459490019577
 44
23.77260259249855
 45
10.67082453850622
 46
4.096142885802872
 79
     2
 49
0.8095
 49
-8.9045
 53
37.5
 43
-794.7476740019578
 44
22.29370759249855
 45
0.1544301625295909
 46
4.227751943657655
 79
     6
 49
0.0
 49
-8.2804
 49
0.0
 49
-8.509
 49
0.0
 49
-8.41375
 53
7.499999999999999
 43
-794.7476740019578
 44
22.29370759249855
 45
3.340983125515287
 46
5.009028740905975
 79
     6
 49
0.0
 49
-4.851399999999999
 49
0.0
 49
-8.0899
 49
0.0
 49
-3.20675
 53
327.5
 43
-797.5797740019578
 44
22.29370759249855
 45
6.779529758343568
 46
-0.2864371996336732
 79
     6
 49
0.0
 49
-3.175
 49
0.0
 49
-9.906
 49
0.0
 49
-13.1445
 53
317.5
 43
-798.8497740019578
 44
22.29370759249855
 45
7.406459069300902
 46
1.27132455166665
 79
     6
 49
0.0
 49
-4.1275
 49
0.0
 49
-6.5786
 49
0.0
 49
-9.3345
 47
0.1240424799920658
 98
        2
 10
196.5887694992066
 20
91.48623844237397
 10
197.5818650958195
 20
115.6745225566992
1001
ACAD
1010
0.0
1020
0.0
1030
0.0
  0
HATCH
  5
6EAC
330
1F
100
AcDbEntity
  8
SOLBET_Grunt
100
AcDbHatch
 10
0.0
 20
0.0
 30
0.0
210
0.0
220
0.0
230
1.0
  2
AR-CONC
 70
     0
 71
     0
 91
        1
 92
        7
 72
     0
 73
     1
 93
        4
 10
208.2757480456969
 20
129.3431271252899
 10
208.2757480456968
 20
139.9431271252902
 10
187.2932128733975
 20
139.9431271252902
 10
188.2834703138402
 20
129.3431271252899
 97
        0
 75
     0
 76
     1
 52
0.0
 41
0.02
 77
     0
 78
    13
 53
50.0
 43
-794.7476740019578
 44
22.29370759249855
 45
3.64369337992008
 46
-0.3187817107780617
 79
     2
 49
0.381
 49
-4.191
 53
355.0
 43
-794.7476740019578
 44
22.29370759249855
 45
-0.7048565195133399
 46
3.821132857643599
 79
     2
 49
0.3048
 49
-3.352799999999999
 53
100.451
 43
-794.4440340019578
 44
22.26714259249855
 45
2.938850033319184
 46
3.502333756405837
 79
     2
 49
0.3238
 49
-3.5618
 53
46.1842
 43
-794.7476740019578
 44
23.30970759249855
 45
5.421580817842598
 46
-0.8408465586545428
 79
     2
 49
0.5715
 49
-6.2865
 53
96.63559999999996
 43
-794.2958760019578
 44
23.23963759249855
 45
4.748084689324742
 46
4.948511117800984
 79
     2
 49
0.4857
 49
-5.342699999999998
 53
351.184
 43
-794.7476740019578
 44
23.30970759249855
 45
4.748092116278678
 46
4.948502357211953
 79
     2
 49
0.4572
 49
-5.0292
 53
21.0
 43
-794.2396740019578
 44
23.05570759249855
 45
3.032297596707665
 46
-2.04531037033525
 79
     2
 49
0.381
 49
-4.191
 53
326.0
 43
-794.2396740019578
 44
23.05570759249855
 45
1.236040566952941
 46
3.683759322446385
 79
     2
 49
0.3048
 49
-3.352799999999999
 53
71.45140000000001
 43
-793.9869840019579
 44
22.88526559249855
 45
4.268329815402489
 46
1.638457154321149
 79
     2
 49
0.3238
 49
-3.5618
 53
37.5
 43
-794.7476740019578
 44
22.29370759249855
 45
0.0617720650118363
 46
1.691100777463062
 79
     6
 49
0.0
 49
-3.312159999999999
 49
0.0
 49
-3.4036
 49
0.0
 49
-3.3655
 53
7.499999999999999
 43
-794.7476740019578
 44
22.29370759249855
 45
1.336393250206114
 46
2.00361149636239
 79
     6
 49
0.0
 49
-1.940559999999999
 49
0.0
 49
-3.235959999999999
 49
0.0
 49
-1.2827
 53
327.5
 43
-795.8805140019578
 44
22.29370759249855
 45
2.711811903337427
 46
-0.1145748798534693
 79
     6
 49
0.0
 49
-1.27
 49
0.0
 49
-3.9624
 49
0.0
 49
-5.257799999999999
 53
317.5
 43
-796.3885140019579
 44
22.29370759249855
 45
2.962583627720361
 46
0.5085298206666603
 79
     6
 49
0.0
 49
-1.650999999999999
 49
0.0
 49
-2.63144
 49
0.0
 49
-3.7338
 47
0.0538567072208742
 98
        1
 10
198.7907764925039
 20
130.8218445857825
1001
ACAD
1010
0.0
1020
0.0
1030
0.0
  0
LINE
  5
6EBD
330
1F
100
AcDbEntity
  8
SOLBET_Izolacja
  6
BATTING
 48
0.12
100
AcDbLine
 10
225.0658789012624
 20
156.6618460855021
 30
0.0
 11
279.9412758847347
 21
156.6671740695803
 31
0.0
  0
LINE
  5
6EBE
330
1F
100
AcDbEntity
  8
SOLBET_Izolacja
  6
BATTING
 48
0.048
100
AcDbLine
 10
224.4412758847348
 20
160.7904809031355
 30
0.0
 11
224.4504854735956
 21
155.4381241410578
 31
0.0
  0
LINE
  5
6EC0
330
1F
100
AcDbEntity
  8
SOLBET_Izolacja
  6
BATTING
 48
0.36
100
AcDbLine
 10
208.191275884735
 20
197.84312712529
 30
0.0
 11
208.191275884735
 21
155.7431271252899
 31
0.0
  0
LINE
  5
6EC3
330
1F
100
AcDbEntity
  8
SOLBET_Izolacja
100
AcDbLine
 10
211.941275884735
 20
155.9931271252898
 30
0.0
 11
211.941275884735
 21
197.84312712529
 31
0.0
  0
LINE
  5
6ECA
330
1F
100
AcDbEntity
  8
SOLBET_Izolacja
  6
BATTING
 48
0.12
100
AcDbLine
 10
209.6912758847348
 20
99.87590683875305
 30
0.0
 11
209.6912758847348
 21
127.84312712529
 31
0.0
  0
LINE
  5
6ECC
330
1F
100
AcDbEntity
  8
SOLBET_Izolacja
  6
BATTING
 48
0.12
100
AcDbLine
 10
209.6912758847349
 20
129.3431271252899
 30
0.0
 11
209.6912758847348
 21
154.9431271315671
 31
0.0
  0
LINE
  5
6F0F
330
1F
100
AcDbEntity
  8
SOLBET_Emulsje_Folie
100
AcDbLine
 10
204.4412758847347
 20
155.36312712529
 30
0.0
 11
204.4412758847346
 21
155.12312712529
 31
0.0
  0
LWPOLYLINE
  5
6F26
330
1F
100
AcDbEntity
  8
SOLBET_Emulsje_Folie
100
AcDbPolyline
 90
        4
 70
     1
 43
0.0
 10
204.4412758847347
 20
155.36312712529
 10
233.4412758847339
 20
155.36312712529
 10
233.4412758847339
 20
155.12312712529
 10
204.4412758847347
 20
155.12312712529
  0
LINE
  5
6F27
330
1F
100
AcDbEntity
  8
SOLBET_Emulsje_Folie
  6
DASHED2
370
    30
100
AcDbLine
 10
204.4412758847347
 20
155.24312712529
 30
0.0
 11
233.4412758847339
 21
155.24312712529
 31
0.0
  0
HATCH
  5
6F46
330
1F
100
AcDbEntity
  8
SOLBET_Beton
100
AcDbHatch
 10
0.0
 20
0.0
 30
0.0
210
0.0
220
0.0
230
1.0
  2
ANSI33
 70
     0
 71
     0
 91
        1
 92
        7
 72
     0
 73
     1
 93
        4
 10
229.4412758847347
 20
99.11049795498479
 10
205.9412758847348
 20
99.11049795498479
 10
205.941275884735
 20
79.11049795498479
 10
229.4412758847347
 20
79.11049795498479
 97
        0
 75
     0
 76
     1
 52
0.0
 41
0.75
 77
     0
 78
     2
 53
45.0
 43
-794.7476740019578
 44
22.29370759249855
 45
-3.367596045400931
 46
3.367596045400932
 79
     0
 53
45.0
 43
-791.3800765019579
 44
22.29370759249855
 45
-3.367596045400931
 46
3.367596045400932
 79
     2
 49
2.381249999999999
 49
-1.190624999999999
 47
0.2107009111612778
 98
        1
 10
224.6002052288118
 20
88.18561344913314
1001
ACAD
1010
0.0
1020
0.0
1030
0.0
  0
LINE
  5
6F58
330
1F
100
AcDbEntity
  8
SOLBET_Zaprawy
100
AcDbLine
 10
204.1579540782016
 20
155.7431271252901
 30
0.0
 11
204.441275884735
 21
155.7431271252899
 31
0.0
  0
LINE
  5
6F84
330
1F
100
AcDbEntity
  8
SOLBET_Bloczki
100
AcDbLine
 10
223.9590056242638
 20
197.84312712529
 30
0.0
 11
223.9590056242637
 21
191.7431269605402
 31
0.0
  0
LINE
  5
6F86
330
1F
100
AcDbEntity
  8
SOLBET_Bloczki
100
AcDbLine
 10
211.9590056242638
 20
197.84312712529
 30
0.0
 11
211.9590056242637
 21
191.7431269605403
 31
0.0
  0
LINE
  5
6F87
330
1F
100
AcDbEntity
  8
SOLBET_Bloczki
100
AcDbLine
 10
211.9590056242637
 20
191.7431269605403
 30
0.0
 11
223.9590056242637
 21
191.7431269605402
 31
0.0
  0
MTEXT
  5
70C9
102
{ACAD_XDICTIONARY
360
7F8D
102
}
330
1F
100
AcDbEntity
  8
SOLBET_Wymiary_Opisy
100
AcDbMText
 10
65.91716306710589
 20
213.1611409469594
 30
0.0
 40
2.5
 41
0.0
 71
     3
 72
     1
  1
Tynk zewn\U+0119trzny SOLBET
  7
Solbet_2_5
 73
     1
 44
1.0
1001
ACAD
1000
MTEXTBEGIN
1070
    73
1070
     1
1070
    44
1040
1.0
1070
    74
1070
     0
1000
MTEXTEND
  0
LEADER
  5
70D4
330
1F
100
AcDbEntity
  8
SOLBET_Wymiary_Opisy
100
AcDbLeader
  3
Solbet$7
 73
     0
 40
3.25
 41
21.5
 76
     2
 10
86.4927106364189
 20
180.833461158842
 30
0.0
 10
65.73700108006426
 20
185.2384938269144
 30
0.0
213
1.177601578005123
223
-0.1753245211093599
233
0.0
1001
ACAD
1000
DSTYLE
1002
{
1070
   147
1040
0.625
1070
    77
1070
     1
1002
}
  0
MTEXT
  5
70D5
102
{ACAD_REACTORS
330
70D4
102
}
330
1F
100
AcDbEntity
  8
SOLBET_Wymiary_Opisy
100
AcDbMText
 10
63.93439950205913
 20
189.2888183480238
 30
0.0
 40
2.5
 41
0.0
 71
     3
 72
     1
  1
Izolacja z folii
  7
Solbet_2_5
 73
     1
 44
1.0
1001
ACAD
1000
MTEXTBEGIN
1070
    73
1070
     1
1070
    44
1040
1.0
1070
    74
1070
     0
1000
MTEXTEND
  0
LEADER
  5
70D6
330
1F
100
AcDbEntity
  8
SOLBET_Wymiary_Opisy
100
AcDbLeader
  3
Solbet$7
 73
     0
 40
3.25
 41
25.25
 76
     2
 10
120.5671419186195
 20
179.5226746239673
 30
0.0
 10
65.73700108006426
 20
192.4308331502931
 30
0.0
213
1.177601578005123
223
-0.1753245211093599
233
0.0
1001
ACAD
1000
DSTYLE
1002
{
1070
   147
1040
0.625
1070
    77
1070
     1
1002
}
  0
MTEXT
  5
70D7
102
{ACAD_XDICTIONARY
360
7F8F
102
}
102
{ACAD_REACTORS
330
70D6
102
}
330
1F
100
AcDbEntity
  8
SOLBET_Wymiary_Opisy
100
AcDbMText
 10
63.93439950205913
 20
196.4811576714025
 30
0.0
 40
2.5
 41
0.0
 71
     3
 72
     1
  1
Emulsja izoluj\U+0105ca
  7
Solbet_2_5
 73
     1
 44
1.0
1001
ACAD
1000
MTEXTBEGIN
1070
    73
1070
     1
1070
    44
1040
1.0
1070
    74
1070
     0
1000
MTEXTEND
  0
LEADER
  5
70D8
330
1F
100
AcDbEntity
  8
SOLBET_Wymiary_Opisy
100
AcDbLeader
  3
Solbet$7
 73
     0
 40
3.25
 41
22.75
 76
     2
 10
101.8483125446593
 20
172.8422063819411
 30
0.0
 10
65.73700108006426
 20
177.1532902818603
 30
0.0
213
1.177601578005123
223
-0.1753245211093599
233
0.0
1001
ACAD
1000
DSTYLE
1002
{
1070
   147
1040
0.625
1070
    77
1070
     1
1002
}
  0
MTEXT
  5
70D9
102
{ACAD_XDICTIONARY
360
7F91
102
}
102
{ACAD_REACTORS
330
70D8
102
}
330
1F
100
AcDbEntity
  8
SOLBET_Wymiary_Opisy
100
AcDbMText
 10
63.93439950205913
 20
181.2036148029696
 30
0.0
 40
2.5
 41
0.0
 71
     3
 72
     1
  1
Tynk coko\U+0142owy
  7
Solbet_2_5
 73
     1
 44
1.0
1001
ACAD
1000
MTEXTBEGIN
1070
    73
1070
     1
1070
    44
1040
1.0
1070
    74
1070
     0
1000
MTEXTEND
  0
MTEXT
  5
7117
102
{ACAD_XDICTIONARY
360
7E64
102
}
330
1F
100
AcDbEntity
  8
SOLBET_Wymiary_Opisy
100
AcDbMText
 10
87.22434974145244
 20
231.4247505722994
 30
0.0
 40
5.0
 41
30.77919768571883
 71
     1
 72
     5
  1
\pxqc;A\P(5 : 1)
  7
Solbet_5
 73
     1
 44
1.0
1001
ACAD
1000
MTEXTBEGIN
1070
    73
1070
     1
1070
    44
1040
1.0
1070
    74
1070
     0
1000
MTEXTEND
1000
ACAD_MTEXT_DEFINED_HEIGHT_BEGIN
1070
    46
1040
23.42535011036716
1000
ACAD_MTEXT_DEFINED_HEIGHT_END
  0
LEADER
  5
7127
330
1F
100
AcDbEntity
  8
SOLBET_Wymiary_Opisy
100
AcDbLeader
  3
Solbet$7
 73
     0
 74
     0
 75
     1
 40
7.416666666666666
 41
27.5
 76
     3
 10
228.8950748380992
 20
99.56426246360093
 30
0.0
 10
234.4049367060697
 20
102.4607916722981
 30
0.0
 10
236.9049367060697
 20
102.4607916722981
 30
0.0
213
0.2070319087433745
223
4.563577227191373
233
0.0
1001
ACAD
1000
DSTYLE
1002
{
1070
   147
1040
0.625
1070
    77
1070
     1
1002
}
  0
LEADER
  5
712B
330
1F
100
AcDbEntity
  8
SOLBET_Wymiary_Opisy
100
AcDbLeader
  3
Solbet$7
 73
     0
 40
3.25
 41
35.5
 76
     2
 10
209.691275884735
 20
119.7743140278984
 30
0.0
 10
183.2710353056805
 20
114.233646552178
 30
0.0
213
1.177601578005123
223
-0.1753245211093599
233
0.0
1001
ACAD
1000
DSTYLE
1002
{
1070
   147
1040
0.625
1070
    77
1070
     1
1002
}
  0
MTEXT
  5
712C
102
{ACAD_REACTORS
330
712B
102
}
330
1F
100
AcDbEntity
  8
SOLBET_Wymiary_Opisy
100
AcDbMText
 10
181.4684337276754
 20
118.2839710732874
 30
0.0
 40
2.5
 41
0.0
 71
     3
 72
     1
  1
Styropian wodoodporny
  7
Solbet_2_5
 73
     1
 44
1.0
1001
ACAD
1000
MTEXTBEGIN
1070
    73
1070
     1
1070
    44
1040
1.0
1070
    74
1070
     0
1000
MTEXTEND
  0
LEADER
  5
712D
330
1F
100
AcDbEntity
  8
SOLBET_Wymiary_Opisy
100
AcDbLeader
  3
Solbet$7
 73
     0
 40
3.25
 41
19.75
 76
     2
 10
211.2633954670955
 20
109.0577242963119
 30
0.0
 10
183.2710353056805
 20
102.1357400625635
 30
0.0
213
1.177601578005123
223
-0.1753245211093599
233
0.0
1001
ACAD
1000
DSTYLE
1002
{
1070
   147
1040
0.625
1070
    77
1070
     1
1002
}
  0
MTEXT
  5
712E
102
{ACAD_REACTORS
330
712D
102
}
330
1F
100
AcDbEntity
  8
SOLBET_Wymiary_Opisy
100
AcDbMText
 10
181.4684337276754
 20
106.1860645836729
 30
0.0
 40
2.5
 41
0.0
 71
     3
 72
     1
  1
Hydroizolacja
  7
Solbet_2_5
 73
     1
 44
1.0
1001
ACAD
1000
MTEXTBEGIN
1070
    73
1070
     1
1070
    44
1040
1.0
1070
    74
1070
     0
1000
MTEXTEND
  0
LEADER
  5
715E
330
1F
100
AcDbEntity
  8
SOLBET_Wymiary_Opisy
100
AcDbLeader
  3
Solbet$7
 73
     0
 75
     1
 40
7.666666666666666
 41
52.75
 76
     3
 10
208.8542686402666
 20
144.8794061339582
 30
0.0
 10
200.9454939842137
 20
149.9629313288557
 30
0.0
 10
198.4454939842137
 20
149.9629313288557
 30
0.0
213
1.177601578005123
223
4.34859754619417
233
0.0
1001
ACAD
1000
DSTYLE
1002
{
1070
   147
1040
0.625
1070
    77
1070
     1
1002
}
  0
MTEXT
  5
715F
102
{ACAD_XDICTIONARY
360
7F93
102
}
102
{ACAD_REACTORS
330
715E
102
}
330
1F
100
AcDbEntity
  8
SOLBET_Wymiary_Opisy
100
AcDbMText
 10
196.6428924062086
 20
153.9060004493282
 30
0.0
 40
2.5
 41
0.0
 71
     3
 72
     1
  1
Mocowanie mechaniczne styropianu\P(w cz\U+0119\U+015Bci naziemnej)
  7
Solbet_2_5
 73
     1
 44
1.0
1001
ACAD
1000
MTEXTBEGIN
1070
    73
1070
     1
1070
    44
1040
1.0
1070
    74
1070
     0
1000
MTEXTEND
  0
DIMENSION
  5
7160
330
1F
100
AcDbEntity
  8
SOLBET_Wymiary_Opisy
100
AcDbDimension
  2
*D5
 10
138.9314442254975
 20
139.9431271252902
 30
0.0
 11
138.9314442254974
 21
147.7458760708674
 31
0.0
 70
   160
  1
Min. 30cm
 71
     5
 42
15.17999999999983
  3
Solbet
100
AcDbAlignedDimension
 13
204.4412758847346
 23
155.12312712529
 33
0.0
 14
207.7757480456969
 24
139.9431271252902
 34
0.0
 50
90.0
100
AcDbRotatedDimension
  0
CIRCLE
  5
7188
330
1F
100
AcDbEntity
  8
SOLBET_Wymiary_Opisy
100
AcDbCircle
 10
207.6939459421978
 20
156.0124381857051
 30
0.0
 40
5.102418751818163
  0
MTEXT
  5
718A
330
1F
100
AcDbEntity
  8
SOLBET_Wymiary_Opisy
100
AcDbMText
 10
199.9977288721688
 20
169.7583076080332
 30
0.0
 40
5.0
 41
0.0
 71
     3
 72
     1
  1
A
  7
Solbet_5
 73
     1
 44
1.0
1001
ACAD
1000
MTEXTBEGIN
1070
    73
1070
     1
1070
    44
1040
1.0
1070
    74
1070
     0
1000
MTEXTEND
  0
LINE
  5
72C3
330
1F
100
AcDbEntity
  8
SOLBET_Izolacja
  6
Continuous
100
AcDbLine
 10
105.1759517398459
 20
159.3093895488277
 30
0.0
 11
105.1759517398468
 21
179.1997987412669
 31
0.0
  0
LINE
  5
72C4
330
1F
100
AcDbEntity
  8
SOLBET_Izolacja
  6
Continuous
100
AcDbLine
 10
117.6759517398459
 20
164.867986883431
 30
0.0
 11
117.6759517398468
 21
179.1997987412669
 31
0.0
  0
LINE
  5
72C5
330
1F
100
AcDbEntity
  8
SOLBET_Izolacja
  6
Continuous
100
AcDbLine
 10
105.1759517398468
 20
179.1997987412669
 30
0.0
 11
117.6759517398468
 21
179.1997988040361
 31
0.0
  0
LINE
  5
72D4
330
1F
100
AcDbEntity
  8
SOLBET_Izolacja
100
AcDbLine
 10
85.17595173984863
 20
183.1997987412655
 30
0.0
 11
85.17595173984863
 21
204.2026600392498
 31
0.0
  0
LINE
  5
72D5
330
1F
100
AcDbEntity
  8
SOLBET_Tynki_Posadzki
100
AcDbLine
 10
81.42595173984863
 20
183.1997987412655
 30
0.0
 11
81.42595173984863
 21
200.3682609527484
 31
0.0
  0
LINE
  5
72D6
330
1F
100
AcDbEntity
  8
SOLBET_Zaprawy
100
AcDbLine
 10
83.75934270718152
 20
183.1997987412666
 30
0.0
 11
83.75934270718152
 21
202.938905971132
 31
0.0
  0
LINE
  5
72D7
330
1F
100
AcDbEntity
  8
SOLBET_Tynki_Posadzki
100
AcDbLine
 10
83.75934270718152
 20
183.1997987412666
 30
0.0
 11
81.42595173984863
 21
183.1997987412655
 31
0.0
  0
LINE
  5
72D8
330
1F
100
AcDbEntity
  8
SOLBET_Zaprawy
100
AcDbLine
 10
104.3483125446591
 20
179.1997987412669
 30
0.0
 11
104.3483125446573
 21
159.2006525185909
 31
0.0
  0
LINE
  5
72D9
330
1F
100
AcDbEntity
  8
SOLBET_Tynki_Posadzki
100
AcDbLine
 10
101.8483125446591
 20
179.1997987412669
 30
0.0
 11
101.8483125446591
 21
159.0375391283123
 31
0.0
  0
LINE
  5
72E2
330
1F
100
AcDbEntity
  8
SOLBET_Emulsje_Folie
100
AcDbLine
 10
120.2865496516506
 20
179.5226746239672
 30
0.0
 11
120.2865496516506
 21
167.3519309662541
 31
0.0
  0
LINE
  5
72E3
330
1F
100
AcDbEntity
  8
SOLBET_Emulsje_Folie
100
AcDbLine
 10
120.8363172027084
 20
179.5226746239672
 30
0.0
 11
126.4518903191408
 21
179.5226746239674
 31
0.0
  0
LWPOLYLINE
  5
72E8
330
1F
100
AcDbEntity
  8
SOLBET_Zbrojenie_Konstrukcja
100
AcDbPolyline
 90
       10
 70
     0
 43
0.0
 10
122.6759517398486
 20
198.68395061961
 10
122.6759517398486
 20
184.4497987412655
 42
-0.4142135623730951
 10
121.4259517398486
 20
183.1997987412655
 10
89.48397681353254
 20
183.1997987412655
 42
0.4142135623730951
 10
88.23397681353254
 20
181.9497987412655
 10
88.23397681353254
 20
170.0160733390448
 42
-0.4142135623730951
 10
86.98397681353254
 20
168.7660733390448
 10
86.18389313736498
 20
168.7660733390448
 42
-0.4142135623730951
 10
84.93389313736498
 20
170.0160733390448
 10
84.93389313736498
 20
201.4544940157527
  0
LINE
  5
72F5
330
1F
100
AcDbEntity
  8
SOLBET_Izolacja
100
AcDbLine
 10
122.6759517398486
 20
184.4497987412653
 30
0.0
 11
122.6759517398486
 21
198.6839506196078
 31
0.0
  0
LINE
  5
72F6
330
1F
100
AcDbEntity
  8
SOLBET_Izolacja
  6
BATTING
 48
0.61
100
AcDbLine
 10
111.4259517398477
 20
161.0701159399152
 30
0.0
 11
111.4259517398468
 21
179.1997987726515
 31
0.0
  0
LINE
  5
72F7
330
1F
100
AcDbEntity
  8
SOLBET_Emulsje_Folie
100
AcDbLine
 10
85.17595173984682
 20
181.2997987412661
 30
0.0
 11
85.17595173984682
 21
180.0997987412661
 31
0.0
  0
LINE
  5
72FA
330
1F
100
AcDbEntity
  8
SOLBET_Zaprawy
100
AcDbLine
 10
83.75934270718152
 20
183.1997987412666
 30
0.0
 11
85.17595173984863
 21
183.1997987412655
 31
0.0
  0
LINE
  5
7330
330
1F
100
AcDbEntity
  8
SOLBET_Bloczki
100
AcDbLine
 10
122.7645986800062
 20
198.5498768372967
 30
0.0
 11
122.7645986800062
 21
183.1997985353284
 31
0.0
  0
LINE
  5
7331
330
1F
100
AcDbEntity
  8
SOLBET_Bloczki
100
AcDbLine
 10
122.7645986800062
 20
183.1997985353284
 30
0.0
 11
126.9158346844233
 21
183.1997985353284
 31
0.0
  0
LWPOLYLINE
  5
735F
330
1F
100
AcDbEntity
  8
SOLBET_Beton
100
AcDbPolyline
 90
        3
 70
     0
 43
0.0
 10
126.3848682539393
 20
179.1997987412669
 10
121.1759517398486
 20
179.1997987412669
 10
121.1759517398486
 20
168.3806005474052
  0
LINE
  5
7371
330
1F
100
AcDbEntity
  8
SOLBET_Izolacja
100
AcDbLine
 10
103.9259517398486
 20
183.8969959037178
 30
0.0
 11
103.9486371433688
 21
187.9165370290941
 31
0.0
  0
LINE
  5
7372
330
1F
100
AcDbEntity
  8
SOLBET_Izolacja
100
AcDbLine
 10
103.9486371433688
 20
187.9165370290941
 30
0.0
 11
95.70257473967263
 21
183.5621424211066
 31
0.0
  0
ARC
  5
7373
330
1F
100
AcDbEntity
  8
SOLBET_Izolacja
100
AcDbCircle
 10
94.66822571812462
 20
192.5552080138267
 30
0.0
 40
9.052353652688452
100
AcDbArc
 50
90.0
 51
276.5611174474047
  0
LINE
  5
7374
330
1F
100
AcDbEntity
  8
SOLBET_Izolacja
100
AcDbLine
 10
94.66822571812462
 20
201.6075616665151
 30
0.0
 11
113.2620915410079
 21
192.3628144817342
 31
0.0
  0
ARC
  5
7376
330
1F
100
AcDbEntity
  8
SOLBET_Grunt
100
AcDbCircle
 10
113.0614622383918
 20
201.4753802725198
 30
0.0
 40
9.114774128219751
100
AcDbArc
 50
271.2612644671569
 51
348.5057320853012
  0
LINE
  5
7377
330
1F
100
AcDbEntity
  8
SOLBET_Izolacja
100
AcDbLine
 10
109.3278734567841
 20
208.808204112378
 30
0.0
 11
104.0525602623518
 21
206.3302826897231
 31
0.0
  0
LINE
  5
7378
330
1F
100
AcDbEntity
  8
SOLBET_Izolacja
100
AcDbLine
 10
104.0525602623518
 20
206.3302826897231
 30
0.0
 11
104.0728320167127
 21
209.9221584200856
 31
0.0
  0
LINE
  5
739A
330
1F
100
AcDbEntity
  8
SOLBET_Tynki_Posadzki
100
AcDbLine
 10
104.3483125446591
 20
179.1997987412669
 30
0.0
 11
101.8483125446591
 21
179.1997987412669
 31
0.0
  0
LINE
  5
739B
330
1F
100
AcDbEntity
  8
SOLBET_Zaprawy
100
AcDbLine
 10
105.1759517398468
 20
179.1997987412669
 30
0.0
 11
104.3483125446591
 21
179.1997987412669
 31
0.0
  0
HATCH
  5
73BA
330
1F
100
AcDbEntity
  8
SOLBET_Emulsje_Folie
100
AcDbHatch
 10
0.0
 20
0.0
 30
0.0
210
0.0
220
0.0
230
1.0
  2
SOLID
 70
     1
 71
     0
 91
        3
 92
        7
 72
     0
 73
     1
 93
        4
 10
90.43156251540859
 20
181.2997987412661
 10
85.17595173984659
 20
181.2997987412661
 10
85.17595173984682
 20
179.6997987412661
 10
90.43156251540859
 20
179.6997987412661
 97
        0
 92
        7
 72
     0
 73
     1
 93
        4
 10
99.81275944006462
 20
181.2997987412661
 10
99.81275944006462
 20
179.6997987412661
 10
109.1939563647206
 20
179.6997987412661
 10
109.1939563647204
 20
181.2997987412661
 97
        0
 92
        1
 93
        4
 72
     2
 10
101.4393020271627
 20
184.5463540433414
 40
25.51209375909082
 50
349.0489142905838
 51
352.6889708272591
 73
     1
 72
     1
 10
126.7439815675798
 20
181.2997987412661
 11
118.5751532893766
 21
181.2997987412661
 72
     1
 10
118.5751532893766
 20
181.2997987412661
 11
118.5751532893764
 21
179.6997987412661
 72
     1
 10
118.5751532893764
 20
179.6997987412661
 11
126.4868134739424
 21
179.6997987412661
 97
        0
 75
     0
 76
     1
 47
0.0827821803181482
 98
        3
 10
89.95741266032018
 20
180.3796510147351
 10
103.1247315621749
 20
180.5452158877551
 10
121.4264765729904
 20
180.3796510147351
1001
ACAD
1010
0.0
1020
0.0
1030
0.0
  0
MLINE
  5
73BB
330
1F
100
AcDbEntity
  8
SOLBET_Emulsje_Folie
100
AcDbMline
  2
SOLBET_IZOLACJA
340
7E9
 40
100.0
 70
     0
 71
     1
 72
     2
 73
     2
 10
223.4913031662009
 20
179.6997987412661
 30
0.0
210
0.0
220
0.0
230
1.0
 11
126.4868134739424
 21
179.6997987412661
 31
0.0
 12
-1.0
 22
0.0
 32
0.0
 13
-6.123031769111886E-17
 23
-1.0
 33
0.0
 74
     2
 41
0.0
 41
0.0
 75
     0
 74
     2
 41
-1.6
 41
0.0
 75
     0
 11
85.17595173984682
 21
179.6997987412661
 31
0.0
 12
-1.0
 22
0.0
 32
0.0
 13
-2.220446049250313E-16
 23
-1.0
 33
0.0
 74
     2
 41
0.0
 41
0.0
 75
     0
 74
     2
 41
-1.6
 41
0.0
 75
     0
  0
MTEXT
  5
73D6
330
1F
100
AcDbEntity
  8
SOLBET_Wymiary_Opisy
100
AcDbMText
 10
63.93439950205913
 20
174.407824628299
 30
0.0
 40
2.5
 41
0.0
 71
     3
 72
     1
  1
Profil startowy
  7
Solbet_2_5
 73
     1
 44
1.0
1001
ACAD
1000
MTEXTBEGIN
1070
    73
1070
     1
1070
    44
1040
1.0
1070
    74
1070
     0
1000
MTEXTEND
  0
MTEXT
  5
73E8
102
{ACAD_XDICTIONARY
360
7E66
102
}
330
1F
100
AcDbEntity
  8
SOLBET_Wymiary_Opisy
100
AcDbMText
 10
71.98581009594568
 20
221.1644283479906
 30
0.0
 40
2.5
 41
48.34190588626961
 71
     3
 72
     1
  1
\pxql;Warstwa izolacji termicznej
  7
Solbet_2_5
 73
     1
 44
1.0
1001
ACAD
1000
MTEXTBEGIN
1070
    73
1070
     1
1070
    44
1040
1.0
1070
    74
1070
     0
1000
MTEXTEND
  0
ARC
  5
73E9
330
1F
100
AcDbEntity
  8
SOLBET_Wymiary_Opisy
100
AcDbCircle
 10
101.4393020271627
 20
184.5463540433415
 30
0.0
 40
25.51209375909082
100
AcDbArc
 50
270.9186067066178
 51
141.6712448295357
  0
LEADER
  5
73EB
330
1F
100
AcDbEntity
  8
SOLBET_Wymiary_Opisy
100
AcDbLeader
  3
Solbet$7
 73
     0
 74
     0
 75
     1
 40
3.5
 41
37.25
 76
     3
 10
264.5754139303731
 20
243.0163540944623
 30
0.0
 10
289.2769975505148
 20
252.1359588151368
 30
0.0
 10
291.7769975505148
 20
252.1359588151368
 30
0.0
213
1.177601578005123
223
-0.1753245211093599
233
0.0
1001
ACAD
1000
DSTYLE
1002
{
1070
   147
1040
0.625
1070
    77
1070
     1
1002
}
  0
MTEXT
  5
73EC
102
{ACAD_XDICTIONARY
360
7F95
102
}
102
{ACAD_REACTORS
330
73EB
102
}
330
1F
100
AcDbEntity
  8
SOLBET_Wymiary_Opisy
100
AcDbMText
 10
291.2243959725097
 20
256.4362833362462
 30
0.0
 40
2.5
 41
0.0
 71
     1
 72
     1
  1
Warstwa wyko\U+0144czeniowa
  7
Solbet_2_5
 73
     1
 44
1.0
1001
ACAD
1000
MTEXTBEGIN
1070
    73
1070
     1
1070
    44
1040
1.0
1070
    74
1070
     0
1000
MTEXTEND
  0
LEADER
  5
73ED
330
1F
100
AcDbEntity
  8
SOLBET_Wymiary_Opisy
100
AcDbLeader
  3
Solbet$7
 73
     0
 74
     0
 75
     1
 40
3.25
 41
32.5
 76
     3
 10
265.1336824394803
 20
235.2502352780435
 30
0.0
 10
288.0993959725097
 20
245.8947522845461
 30
0.0
 10
290.5993959725097
 20
245.8947522845461
 30
0.0
213
0.0
223
-0.2322806831707567
233
0.0
1001
ACAD
1000
DSTYLE
1002
{
1070
   147
1040
0.625
1070
    77
1070
     1
1002
}
  0
MTEXT
  5
73EE
102
{ACAD_REACTORS
330
73ED
102
}
330
1F
100
AcDbEntity
  8
SOLBET_Wymiary_Opisy
100
AcDbMText
 10
291.2243959725097
 20
250.0020329677168
 30
0.0
 40
2.5
 41
0.0
 71
     1
 72
     1
  1
Wylewka jastrychowa
  7
Solbet_2_5
 73
     1
 44
1.0
1001
ACAD
1000
MTEXTBEGIN
1070
    73
1070
     1
1070
    44
1040
1.0
1070
    74
1070
     0
1000
MTEXTEND
  0
LEADER
  5
73EF
330
1F
100
AcDbEntity
  8
SOLBET_Wymiary_Opisy
100
AcDbLeader
  3
Solbet$7
 73
     0
 74
     0
 75
     1
 40
3.25
 41
19.75
 76
     3
 10
267.1722312731795
 20
228.3565755783536
 30
0.0
 10
288.0993959725097
 20
239.6595952057683
 30
0.0
 10
290.5993959725097
 20
239.6595952057683
 30
0.0
213
0.0
223
-0.2322806831707567
233
0.0
1001
ACAD
1000
DSTYLE
1002
{
1070
   147
1040
0.625
1070
    77
1070
     1
1002
}
  0
MTEXT
  5
73F0
102
{ACAD_REACTORS
330
73EF
102
}
330
1F
100
AcDbEntity
  8
SOLBET_Wymiary_Opisy
100
AcDbMText
 10
291.2243959725097
 20
243.7668758889391
 30
0.0
 40
2.5
 41
0.0
 71
     1
 72
     1
  1
Hydroizolacja
  7
Solbet_2_5
 73
     1
 44
1.0
1001
ACAD
1000
MTEXTBEGIN
1070
    73
1070
     1
1070
    44
1040
1.0
1070
    74
1070
     0
1000
MTEXTEND
  0
LEADER
  5
73F1
330
1F
100
AcDbEntity
  8
SOLBET_Wymiary_Opisy
100
AcDbLeader
  3
Solbet$7
 73
     0
 74
     0
 75
     1
 40
3.25
 41
36.5
 76
     3
 10
271.6577022380879
 20
221.0418361240905
 30
0.0
 10
288.0993959725097
 20
233.1876520868314
 30
0.0
 10
290.5993959725097
 20
233.1876520868314
 30
0.0
213
0.0
223
-0.2322806831707567
233
0.0
1001
ACAD
1000
DSTYLE
1002
{
1070
   147
1040
0.625
1070
    77
1070
     1
1002
}
  0
MTEXT
  5
73F2
102
{ACAD_XDICTIONARY
360
7F97
102
}
102
{ACAD_REACTORS
330
73F1
102
}
330
1F
100
AcDbEntity
  8
SOLBET_Wymiary_Opisy
100
AcDbMText
 10
291.2243959725097
 20
237.2949327700021
 30
0.0
 40
2.5
 41
0.0
 71
     1
 72
     1
  1
P\U+0142yty izolacyjne twarde
  7
Solbet_2_5
 73
     1
 44
1.0
1001
ACAD
1000
MTEXTBEGIN
1070
    73
1070
     1
1070
    44
1040
1.0
1070
    74
1070
     0
1000
MTEXTEND
  0
LEADER
  5
73F3
330
1F
100
AcDbEntity
  8
SOLBET_Wymiary_Opisy
100
AcDbLeader
  3
Solbet$7
 73
     0
 74
     0
 75
     1
 40
3.25
 41
19.75
 76
     3
 10
274.9034420196031
 20
212.6130968179831
 30
0.0
 10
288.0993959725097
 20
226.8735701215533
 30
0.0
 10
290.5993959725097
 20
226.8735701215533
 30
0.0
213
0.0
223
-0.2322806831707567
233
0.0
1001
ACAD
1000
DSTYLE
1002
{
1070
   147
1040
0.625
1070
    77
1070
     1
1002
}
  0
MTEXT
  5
73F4
102
{ACAD_REACTORS
330
73F3
102
}
330
1F
100
AcDbEntity
  8
SOLBET_Wymiary_Opisy
100
AcDbMText
 10
291.2243959725097
 20
230.9808508047241
 30
0.0
 40
2.5
 41
0.0
 71
     1
 72
     1
  1
Hydroizolacja
  7
Solbet_2_5
 73
     1
 44
1.0
1001
ACAD
1000
MTEXTBEGIN
1070
    73
1070
     1
1070
    44
1040
1.0
1070
    74
1070
     0
1000
MTEXTEND
  0
LINE
  5
73F5
330
1F
100
AcDbEntity
  8
SOLBET_Wymiary_Opisy
100
AcDbLine
 10
277.1939725763882
 20
244.2439131782692
 30
0.0
 11
277.1939725763873
 21
189.27946147151
 31
0.0
  0
LINE
  5
73F6
330
1F
100
AcDbEntity
  8
SOLBET_Izolacja
100
AcDbLine
 10
233.3076266367821
 20
214.8773790104931
 30
0.0
 11
277.1939725763882
 21
214.8773790104931
 31
0.0
  0
LINE
  5
73F7
330
1F
100
AcDbEntity
  8
SOLBET_Izolacja
100
AcDbLine
 10
233.3076266367821
 20
227.3773790104931
 30
0.0
 11
277.1939725763882
 21
227.3773790104931
 31
0.0
  0
LINE
  5
73F8
330
1F
100
AcDbEntity
  8
SOLBET_Tynki_Posadzki
100
AcDbLine
 10
241.9228194988332
 20
244.2439131782692
 30
0.0
 11
277.1939725763882
 21
244.2439131782692
 31
0.0
  0
LINE
  5
73F9
330
1F
100
AcDbEntity
  8
SOLBET_Emulsje_Folie
100
AcDbLine
 10
233.8172505245248
 20
212.6130968179831
 30
0.0
 11
277.1939725763882
 21
212.6130968179831
 31
0.0
  0
LINE
  5
73FA
330
1F
100
AcDbEntity
  8
SOLBET_Emulsje_Folie
100
AcDbLine
 10
233.5078881328231
 20
228.3565755783536
 30
0.0
 11
277.1939725763882
 21
228.3565755783536
 31
0.0
  0
HATCH
  5
73FB
330
1F
100
AcDbEntity
  8
SOLBET_Tynki_Posadzki
100
AcDbHatch
 10
0.0
 20
0.0
 30
0.0
210
0.0
220
0.0
230
1.0
  2
AR-CONC
 70
     0
 71
     0
 91
        1
 92
        5
 93
        4
 72
     2
 10
266.36162839274
 20
221.1273790104932
 40
33.63970172404727
 50
142.2031821742316
 51
166.0379938227853
 73
     1
 72
     1
 10
233.7157801852545
 20
229.2439131782701
 11
277.1939725763878
 21
229.2439131782701
 72
     1
 10
277.1939725763882
 20
229.2439131782701
 11
277.1939725763886
 21
241.743913178269
 72
     1
 10
277.1939725763886
 20
241.743913178269
 11
239.7799043893615
 21
241.743913178269
 97
        0
 75
     0
 76
     1
 52
0.0
 41
0.03
 77
     0
 78
    13
 53
50.0
 43
-592.2993770798234
 44
147.0464738215895
 45
5.46554006988012
 46
-0.4781725661670926
 79
     2
 49
0.5715
 49
-6.2865
 53
355.0
 43
-592.2993770798234
 44
147.0464738215895
 45
-1.057284779270009
 46
5.731699286465398
 79
     2
 49
0.4572
 49
-5.029199999999999
 53
100.451
 43
-591.8439170798234
 44
147.0066263215894
 45
4.408275049978777
 46
5.253500634608755
 79
     2
 49
0.4857000000000001
 49
-5.342699999999999
 53
46.1842
 43
-592.2993770798234
 44
148.5704738215894
 45
8.132371226763897
 46
-1.261269837981814
 79
     2
 49
0.8572499999999999
 49
-9.429749999999998
 53
96.63559999999996
 43
-591.6216800798235
 44
148.4653688215894
 45
7.122127033987114
 46
7.422766676701476
 79
     2
 49
0.7285499999999998
 49
-8.014049999999993
 53
351.184
 43
-592.2993770798234
 44
148.5704738215894
 45
7.122138174418017
 46
7.422753535817929
 79
     2
 49
0.6858
 49
-7.5438
 53
21.0
 43
-591.5373770798234
 44
148.1894738215894
 45
4.548446395061498
 46
-3.067965555502874
 79
     2
 49
0.5715
 49
-6.2865
 53
326.0
 43
-591.5373770798234
 44
148.1894738215894
 45
1.854060850429411
 46
5.525638983669577
 79
     2
 49
0.4572
 49
-5.029199999999999
 53
71.45140000000001
 43
-591.1583420798234
 44
147.9338108215894
 45
6.402494723103733
 46
2.457685731481723
 79
     2
 49
0.4857000000000001
 49
-5.342699999999999
 53
37.5
 43
-592.2993770798234
 44
147.0464738215895
 45
0.0926580975177545
 46
2.536651166194593
 79
     6
 49
0.0
 49
-4.968239999999999
 49
0.0
 49
-5.1054
 49
0.0
 49
-5.04825
 53
7.499999999999999
 43
-592.2993770798234
 44
147.0464738215895
 45
2.004589875309172
 46
3.005417244543585
 79
     6
 49
0.0
 49
-2.910839999999999
 49
0.0
 49
-4.853939999999999
 49
0.0
 49
-1.92405
 53
327.5
 43
-593.9986370798234
 44
147.0464738215895
 45
4.06771785500614
 46
-0.1718623197802039
 79
     6
 49
0.0
 49
-1.905
 49
0.0
 49
-5.943599999999999
 49
0.0
 49
-7.886699999999999
 53
317.5
 43
-594.7606370798235
 44
147.0464738215895
 45
4.443875441580541
 46
0.7627947309999904
 79
     6
 49
0.0
 49
-2.476499999999999
 49
0.0
 49
-3.947159999999999
 49
0.0
 49
-5.600699999999999
 47
0.0387476598051738
 98
        1
 10
256.664416936932
 20
235.3414514758839
1001
ACAD
1010
0.0
1020
0.0
1030
0.0
  0
LWPOLYLINE
  5
73FC
330
1F
100
AcDbEntity
  8
SOLBET_Tynki_Posadzki
100
AcDbPolyline
 90
        4
 70
     0
 43
0.0
 10
233.7157801852545
 20
229.2439131782701
 10
277.1939725763882
 20
229.2439131782701
 10
277.1939725763886
 20
241.7439131782692
 10
239.7799043893619
 20
241.7439131782692
1001
ASO_SCHRAFF
1005
0
1070
     1
1002
{
1070
     1
1005
0
1002
}
1002
{
1070
     2
1005
0
1002
}
1002
{
1070
     4
1000
AR-CONC
1040
0.01
1040
0.0
1070
     0
1000
T__SCHR
1070
   256
1000
_bylayer
1040
50.0
1070
     1
1002
}
  0
HATCH
  5
73FD
330
1F
100
AcDbEntity
  8
SOLBET_Beton
100
AcDbHatch
 10
0.0
 20
0.0
 30
0.0
210
0.0
220
0.0
230
1.0
  2
ANSI33
 70
     0
 71
     1
 91
        1
 92
        7
 72
     1
 73
     1
 93
        3
 10
234.1268549952575
 20
211.5071442890411
 42
0.4253361557004719
 10
277.1939725763882
 20
189.2794614715101
 42
0.0
 10
277.1939725763882
 20
211.507144289041
 42
0.0
 97
        2
330
73FE
330
7400
 75
     0
 76
     1
 52
0.0
 41
3.75
 77
     0
 78
     2
 53
45.0
 43
-592.2993770798234
 44
147.0464738215895
 45
-16.83798022700466
 46
16.83798022700466
 79
     0
 53
45.0
 43
-575.4613895798233
 44
147.0464738215895
 45
-16.83798022700466
 46
16.83798022700466
 79
     2
 49
11.90625
 49
-5.953125
 47
0.0587362888947614
 98
        1
 10
259.0296917703849
 20
200.9906522933372
1001
ACAD
1010
0.0
1020
0.0
1030
0.0
  0
LWPOLYLINE
  5
73FE
102
{ACAD_REACTORS
330
73FD
102
}
330
1F
100
AcDbEntity
  8
SOLBET_Beton
100
AcDbPolyline
 90
        3
 70
     0
 43
0.0
 10
234.1268549952579
 20
211.5071442890411
 10
277.1939725763882
 20
211.5071442890411
 10
277.1939725763882
 20
189.2794614715101
  0
LINE
  5
73FF
330
1F
100
AcDbEntity
  8
SOLBET_Izolacja
  6
BATTING
 48
0.6
100
AcDbLine
 10
234.0296648203584
 20
221.1273790104931
 30
0.0
 11
276.665792667668
 21
221.1273790104931
 31
0.0
  0
ARC
  5
7400
102
{ACAD_REACTORS
330
73FD
102
}
330
1F
100
AcDbEntity
  8
SOLBET_Wymiary_Opisy
100
AcDbCircle
 10
266.36162839274
 20
221.1273790104931
 30
0.0
 40
33.6397017240473
100
AcDbArc
 50
136.5926968744823
 51
288.7845676764008
  0
MTEXT
  5
7401
102
{ACAD_XDICTIONARY
360
7E68
102
}
330
1F
100
AcDbEntity
  8
SOLBET_Wymiary_Opisy
100
AcDbMText
 10
241.3057973445223
 20
264.5652055292726
 30
0.0
 40
5.0
 41
30.77919768571883
 71
     1
 72
     5
  1
\pxqc;B\P(5 : 1)
  7
Solbet_5
 73
     1
 44
1.0
1001
ACAD
1000
MTEXTBEGIN
1070
    73
1070
     1
1070
    44
1040
1.0
1070
    74
1070
     0
1000
MTEXTEND
1000
ACAD_MTEXT_DEFINED_HEIGHT_BEGIN
1070
    46
1040
23.42535011036716
1000
ACAD_MTEXT_DEFINED_HEIGHT_END
  0
LEADER
  5
7428
330
1F
100
AcDbEntity
  8
SOLBET_Wymiary_Opisy
100
AcDbLeader
  3
Solbet$7
 73
     0
 75
     1
 40
2.501893939393939
 41
32.0
 76
     3
 10
216.0266945614267
 20
191.003932812102
 30
0.0
 10
170.387524506591
 20
209.6340736755119
 30
0.0
 10
167.887524506591
 20
209.6340736755119
 30
0.0
213
1.177601578005123
223
-0.1753245211093599
233
0.0
1001
ACAD
1000
DSTYLE
1002
{
1070
   147
1040
0.625
1070
    77
1070
     1
1002
}
  0
MTEXT
  5
7429
102
{ACAD_XDICTIONARY
360
7E6A
102
}
102
{ACAD_REACTORS
330
7428
102
}
330
1F
100
AcDbEntity
  8
SOLBET_Wymiary_Opisy
100
AcDbMText
 10
169.098990824521
 20
212.8840736755119
 30
0.0
 40
2.5
 41
45.45245790046704
 71
     3
 72
     1
  1
\pxql;Bloczki SOLBET Optimal 
  7
Solbet_2_5
 73
     1
 44
1.0
1001
ACAD
1000
MTEXTBEGIN
1070
    73
1070
     1
1070
    44
1040
1.0
1070
    74
1070
     0
1000
MTEXTEND
  0
LEADER
  5
742C
330
1F
100
AcDbEntity
  8
SOLBET_Wymiary_Opisy
100
AcDbLeader
  3
Solbet$7
 73
     0
 74
     0
 75
     1
 40
3.25
 41
18.75
 76
     3
 10
265.5319747186041
 20
151.111530762817
 30
0.0
 10
286.1734165177659
 20
132.4795429652563
 30
0.0
 10
288.6734165177659
 20
132.4795429652563
 30
0.0
213
0.0
223
-0.2322806831707567
233
0.0
1001
ACAD
1000
DSTYLE
1002
{
1070
   147
1040
0.625
1070
    77
1070
     1
1002
}
  0
MTEXT
  5
742D
102
{ACAD_REACTORS
330
742C
102
}
330
1F
100
AcDbEntity
  8
SOLBET_Wymiary_Opisy
100
AcDbMText
 10
289.2984165177659
 20
136.586823648427
 30
0.0
 40
2.5
 41
0.0
 71
     1
 72
     1
  1
Chudy beton
  7
Solbet_2_5
 73
     1
 44
1.0
1001
ACAD
1000
MTEXTBEGIN
1070
    73
1070
     1
1070
    44
1040
1.0
1070
    74
1070
     0
1000
MTEXTEND
  0
LEADER
  5
742E
330
1F
100
AcDbEntity
  8
SOLBET_Wymiary_Opisy
100
AcDbLeader
  3
Solbet$7
 73
     0
 74
     0
 75
     1
 40
3.25
 41
30.25
 76
     3
 10
265.8677435385361
 20
136.8468049680304
 30
0.0
 10
286.1734165177659
 20
126.2443745058185
 30
0.0
 10
288.6734165177659
 20
126.2443745058185
 30
0.0
213
0.0
223
-0.2322806831707567
233
0.0
1001
ACAD
1000
DSTYLE
1002
{
1070
   147
1040
0.625
1070
    77
1070
     1
1002
}
  0
MTEXT
  5
742F
102
{ACAD_XDICTIONARY
360
7F99
102
}
102
{ACAD_REACTORS
330
742E
102
}
330
1F
100
AcDbEntity
  8
SOLBET_Wymiary_Opisy
100
AcDbMText
 10
289.2984165177659
 20
130.3516551889893
 30
0.0
 40
2.5
 41
0.0
 71
     1
 72
     1
  1
Zag\U+0119szczony piasek
  7
Solbet_2_5
 73
     1
 44
1.0
1001
ACAD
1000
MTEXTBEGIN
1070
    73
1070
     1
1070
    44
1040
1.0
1070
    74
1070
     0
1000
MTEXTEND
  0
LWPOLYLINE
  5
7430
330
1F
100
AcDbEntity
  8
SOLBET_Ramka_05
100
AcDbPolyline
 90
        4
 70
     1
 43
0.0
 10
0.0
 20
0.0
 10
334.35177409209
 20
0.0
 10
334.35177409209
 20
297.0
 10
0.0
 20
297.0
  0
LINE
  5
744B
330
1F
100
AcDbEntity
  8
SOLBET_Zaprawy
100
AcDbLine
 10
208.2757480456969
 20
154.9431271252901
 30
0.0
 11
208.4412758847348
 21
154.9431271252901
 31
0.0
  0
LINE
  5
744C
330
1F
100
AcDbEntity
  8
SOLBET_Tynki_Posadzki
100
AcDbLine
 10
207.7757480456969
 20
154.943127124971
 30
0.0
 11
208.2757480456969
 21
154.9431271252901
 31
0.0
  0
LEADER
  5
783F
330
1F
100
AcDbEntity
  8
SOLBET_Wymiary_Opisy
100
AcDbLeader
  3
Solbet$7
 73
     0
 75
     1
 40
5.0
 41
4.5
 76
     3
 10
204.8720219241042
 20
160.187589559056
 30
0.0
 10
202.2903681054911
 20
163.9135351281524
 30
0.0
 10
199.7903681054911
 20
163.9135351281524
 30
0.0
213
-0.8791749024171622
223
-0.1753245211093599
233
0.0
1001
ACAD
1000
DSTYLE
1002
{
1070
   341
1005
7832
1070
   147
1040
0.625
1070
    77
1070
     1
1002
}
  0
MTEXT
  5
7840
102
{ACAD_REACTORS
330
783F
102
}
330
1F
100
AcDbEntity
  8
SOLBET_Wymiary_Opisy
100
AcDbMText
 10
200.0445430079083
 20
169.7138596492617
 30
0.0
 40
5.0
 41
0.0
 71
     3
 72
     1
  1
A
  7
Solbet_5
 73
     1
 44
1.0
1001
ACAD
1000
MTEXTBEGIN
1070
    73
1070
     1
1070
    44
1040
1.0
1070
    74
1070
     0
1000
MTEXTEND
  0
CIRCLE
  5
784C
330
1F
100
AcDbEntity
  8
SOLBET_Wymiary_Opisy
100
AcDbCircle
 10
279.0791222243022
 20
156.4265177502852
 30
0.0
 40
6.72794034480946
  0
LEADER
  5
784D
330
1F
100
AcDbEntity
  8
SOLBET_Wymiary_Opisy
100
AcDbLeader
  3
Solbet$7
 73
     0
 74
     0
 75
     1
 40
5.0
 41
4.0
 76
     3
 10
282.7006958944192
 20
162.0965605574631
 30
0.0
 10
285.6718460952357
 20
166.095047296507
 30
0.0
 10
288.1718460952356
 20
166.095047296507
 30
0.0
213
0.8103787685154202
223
-0.1753245211093599
233
0.0
1001
ACAD
1000
DSTYLE
1002
{
1070
   341
1005
7832
1070
   147
1040
0.625
1070
    77
1070
     1
1002
}
  0
MTEXT
  5
784E
102
{ACAD_REACTORS
330
784D
102
}
330
1F
100
AcDbEntity
  8
SOLBET_Wymiary_Opisy
100
AcDbMText
 10
291.9864673267202
 20
171.8953718176164
 30
0.0
 40
5.0
 41
0.0
 71
     3
 72
     1
  1
B
  7
Solbet_5
 73
     1
 44
1.0
1001
ACAD
1000
MTEXTBEGIN
1070
    73
1070
     1
1070
    44
1040
1.0
1070
    74
1070
     0
1000
MTEXTEND
  0
LINE
  5
7861
330
1F
100
AcDbEntity
  8
SOLBET_Izolacja
100
AcDbLine
 10
225.0658789012624
 20
156.6618460855021
 30
0.0
 11
224.9412758847348
 21
156.6618460855021
 31
0.0
  0
LINE
  5
7874
330
1F
100
AcDbEntity
  8
SOLBET_Grunt
100
AcDbLine
 10
240.2499298592811
 20
130.7386432912017
 30
0.0
 11
240.2499298592811
 21
130.7386432912017
 31
0.0
  0
LINE
  5
7875
330
1F
100
AcDbEntity
  8
SOLBET_Grunt
100
AcDbLine
 10
243.012065723291
 20
133.5007791552116
 30
0.0
 11
243.012065723291
 21
133.5007791552116
 31
0.0
  0
LINE
  5
7876
330
1F
100
AcDbEntity
  8
SOLBET_Grunt
100
AcDbLine
 10
245.7742015873009
 20
136.2629150192216
 30
0.0
 11
245.7742015873009
 21
136.2629150192216
 31
0.0
  0
LINE
  5
7877
330
1F
100
AcDbEntity
  8
SOLBET_Grunt
100
AcDbLine
 10
248.5363374513108
 20
139.0250508832316
 30
0.0
 11
248.5363374513108
 21
139.0250508832316
 31
0.0
  0
LINE
  5
7878
330
1F
100
AcDbEntity
  8
SOLBET_Grunt
100
AcDbLine
 10
251.298473315321
 20
141.7871867472415
 30
0.0
 11
251.298473315321
 21
141.7871867472415
 31
0.0
  0
LINE
  5
7879
330
1F
100
AcDbEntity
  8
SOLBET_Grunt
100
AcDbLine
 10
254.0606091793309
 20
144.5493226112515
 30
0.0
 11
254.0606091793309
 21
144.5493226112515
 31
0.0
  0
LINE
  5
787A
330
1F
100
AcDbEntity
  8
SOLBET_Grunt
100
AcDbLine
 10
233.3445901992561
 20
129.3575753591967
 30
0.0
 11
233.3445901992561
 21
129.3575753591967
 31
0.0
  0
LINE
  5
787B
330
1F
100
AcDbEntity
  8
SOLBET_Grunt
100
AcDbLine
 10
236.1067260632662
 20
132.1197112232067
 30
0.0
 11
236.1067260632662
 21
132.1197112232067
 31
0.0
  0
LINE
  5
787C
330
1F
100
AcDbEntity
  8
SOLBET_Grunt
100
AcDbLine
 10
239.0688619272762
 20
134.8818470872166
 30
0.0
 11
239.0688619272762
 21
134.8818470872166
 31
0.0
  0
LINE
  5
787D
330
1F
100
AcDbEntity
  8
SOLBET_Grunt
100
AcDbLine
 10
241.8309977912861
 20
137.6439829512266
 30
0.0
 11
241.8309977912861
 21
137.6439829512266
 31
0.0
  0
LINE
  5
787E
330
1F
100
AcDbEntity
  8
SOLBET_Grunt
100
AcDbLine
 10
244.393133655296
 20
140.4061188152365
 30
0.0
 11
244.393133655296
 21
140.4061188152365
 31
0.0
  0
LINE
  5
787F
330
1F
100
AcDbEntity
  8
SOLBET_Grunt
100
AcDbLine
 10
247.1552695193059
 20
143.1682546792465
 30
0.0
 11
247.1552695193059
 21
143.1682546792465
 31
0.0
  0
LINE
  5
7880
330
1F
100
AcDbEntity
  8
SOLBET_Grunt
100
AcDbLine
 10
249.917405383316
 20
145.9303905432564
 30
0.0
 11
249.917405383316
 21
145.9303905432564
 31
0.0
  0
LINE
  5
7881
330
1F
100
AcDbEntity
  8
SOLBET_Grunt
100
AcDbLine
 10
229.2013864032413
 20
130.7386432912017
 30
0.0
 11
229.2013864032413
 21
130.7386432912017
 31
0.0
  0
LINE
  5
7882
330
1F
100
AcDbEntity
  8
SOLBET_Grunt
100
AcDbLine
 10
231.9635222672512
 20
133.5007791552116
 30
0.0
 11
231.9635222672512
 21
133.5007791552116
 31
0.0
  0
LINE
  5
7883
330
1F
100
AcDbEntity
  8
SOLBET_Grunt
100
AcDbLine
 10
234.9256581312614
 20
136.2629150192216
 30
0.0
 11
234.9256581312614
 21
136.2629150192216
 31
0.0
  0
LINE
  5
7884
330
1F
100
AcDbEntity
  8
SOLBET_Grunt
100
AcDbLine
 10
237.6877939952712
 20
139.0250508832316
 30
0.0
 11
237.6877939952712
 21
139.0250508832316
 31
0.0
  0
LINE
  5
7885
330
1F
100
AcDbEntity
  8
SOLBET_Grunt
100
AcDbLine
 10
240.4499298592812
 20
141.7871867472415
 30
0.0
 11
240.4499298592812
 21
141.7871867472415
 31
0.0
  0
LINE
  5
7886
330
1F
100
AcDbEntity
  8
SOLBET_Grunt
100
AcDbLine
 10
243.012065723291
 20
144.5493226112515
 30
0.0
 11
243.012065723291
 21
144.5493226112515
 31
0.0
  0
LINE
  5
7887
330
1F
100
AcDbEntity
  8
SOLBET_Grunt
100
AcDbLine
 10
225.0581826072264
 20
132.1197112232067
 30
0.0
 11
225.0581826072264
 21
132.1197112232067
 31
0.0
  0
LINE
  5
7888
330
1F
100
AcDbEntity
  8
SOLBET_Grunt
100
AcDbLine
 10
227.8203184712363
 20
134.8818470872166
 30
0.0
 11
227.8203184712363
 21
134.8818470872166
 31
0.0
  0
LINE
  5
7889
330
1F
100
AcDbEntity
  8
SOLBET_Grunt
100
AcDbLine
 10
230.5824543352462
 20
137.6439829512266
 30
0.0
 11
230.5824543352462
 21
137.6439829512266
 31
0.0
  0
LINE
  5
788A
330
1F
100
AcDbEntity
  8
SOLBET_Grunt
100
AcDbLine
 10
233.5445901992561
 20
140.4061188152365
 30
0.0
 11
233.5445901992561
 21
140.4061188152365
 31
0.0
  0
LINE
  5
788B
330
1F
100
AcDbEntity
  8
SOLBET_Grunt
100
AcDbLine
 10
236.1067260632662
 20
143.1682546792465
 30
0.0
 11
236.1067260632662
 21
143.1682546792465
 31
0.0
  0
LINE
  5
788C
330
1F
100
AcDbEntity
  8
SOLBET_Grunt
100
AcDbLine
 10
238.8688619272762
 20
145.9303905432564
 30
0.0
 11
238.8688619272762
 21
145.9303905432564
 31
0.0
  0
LINE
  5
788D
330
1F
100
AcDbEntity
  8
SOLBET_Grunt
100
AcDbLine
 10
226.6392505392314
 20
139.0250508832316
 30
0.0
 11
226.6392505392314
 21
139.0250508832316
 31
0.0
  0
LINE
  5
788E
330
1F
100
AcDbEntity
  8
SOLBET_Grunt
100
AcDbLine
 10
229.2013864032413
 20
141.7871867472415
 30
0.0
 11
229.2013864032413
 21
141.7871867472415
 31
0.0
  0
LINE
  5
788F
330
1F
100
AcDbEntity
  8
SOLBET_Grunt
100
AcDbLine
 10
231.9635222672512
 20
144.5493226112515
 30
0.0
 11
231.9635222672512
 21
144.5493226112515
 31
0.0
  0
LINE
  5
7890
330
1F
100
AcDbEntity
  8
SOLBET_Grunt
100
AcDbLine
 10
225.2581826072264
 20
143.1682546792465
 30
0.0
 11
225.2581826072264
 21
143.1682546792465
 31
0.0
  0
LINE
  5
7891
330
1F
100
AcDbEntity
  8
SOLBET_Grunt
100
AcDbLine
 10
227.8203184712363
 20
145.9303905432564
 30
0.0
 11
227.8203184712363
 21
145.9303905432564
 31
0.0
  0
LINE
  5
7892
330
1F
100
AcDbEntity
  8
SOLBET_Grunt
100
AcDbLine
 10
244.393133655296
 20
129.3575753591967
 30
0.0
 11
244.393133655296
 21
129.3575753591967
 31
0.0
  0
LINE
  5
7893
330
1F
100
AcDbEntity
  8
SOLBET_Grunt
100
AcDbLine
 10
247.1552695193059
 20
132.1197112232067
 30
0.0
 11
247.1552695193059
 21
132.1197112232067
 31
0.0
  0
LINE
  5
7894
330
1F
100
AcDbEntity
  8
SOLBET_Grunt
100
AcDbLine
 10
249.917405383316
 20
134.8818470872166
 30
0.0
 11
249.917405383316
 21
134.8818470872166
 31
0.0
  0
LINE
  5
7895
330
1F
100
AcDbEntity
  8
SOLBET_Grunt
100
AcDbLine
 10
252.6795412473259
 20
137.6439829512266
 30
0.0
 11
252.6795412473259
 21
137.6439829512266
 31
0.0
  0
LINE
  5
7896
330
1F
100
AcDbEntity
  8
SOLBET_Grunt
100
AcDbLine
 10
255.4416771113358
 20
140.4061188152365
 30
0.0
 11
255.4416771113358
 21
140.4061188152365
 31
0.0
  0
LINE
  5
7897
330
1F
100
AcDbEntity
  8
SOLBET_Grunt
100
AcDbLine
 10
258.2038129753457
 20
143.1682546792465
 30
0.0
 11
258.2038129753457
 21
143.1682546792465
 31
0.0
  0
LINE
  5
7898
330
1F
100
AcDbEntity
  8
SOLBET_Grunt
100
AcDbLine
 10
260.9659488393559
 20
145.9303905432564
 30
0.0
 11
260.9659488393559
 21
145.9303905432564
 31
0.0
  0
LINE
  5
7899
330
1F
100
AcDbEntity
  8
SOLBET_Grunt
100
AcDbLine
 10
251.298473315321
 20
130.7386432912017
 30
0.0
 11
251.298473315321
 21
130.7386432912017
 31
0.0
  0
LINE
  5
789A
330
1F
100
AcDbEntity
  8
SOLBET_Grunt
100
AcDbLine
 10
254.0606091793309
 20
133.5007791552116
 30
0.0
 11
254.0606091793309
 21
133.5007791552116
 31
0.0
  0
LINE
  5
789B
330
1F
100
AcDbEntity
  8
SOLBET_Grunt
100
AcDbLine
 10
256.8227450433408
 20
136.2629150192216
 30
0.0
 11
256.8227450433408
 21
136.2629150192216
 31
0.0
  0
LINE
  5
789C
330
1F
100
AcDbEntity
  8
SOLBET_Grunt
100
AcDbLine
 10
259.5848809073507
 20
139.0250508832316
 30
0.0
 11
259.5848809073507
 21
139.0250508832316
 31
0.0
  0
LINE
  5
789D
330
1F
100
AcDbEntity
  8
SOLBET_Grunt
100
AcDbLine
 10
262.3470167713608
 20
141.7871867472415
 30
0.0
 11
262.3470167713608
 21
141.7871867472415
 31
0.0
  0
LINE
  5
789E
330
1F
100
AcDbEntity
  8
SOLBET_Grunt
100
AcDbLine
 10
265.1091526353707
 20
144.5493226112515
 30
0.0
 11
265.1091526353707
 21
144.5493226112515
 31
0.0
  0
LINE
  5
789F
330
1F
100
AcDbEntity
  8
SOLBET_Grunt
100
AcDbLine
 10
255.4416771113358
 20
129.3575753591967
 30
0.0
 11
255.4416771113358
 21
129.3575753591967
 31
0.0
  0
LINE
  5
78A0
330
1F
100
AcDbEntity
  8
SOLBET_Grunt
100
AcDbLine
 10
258.2038129753457
 20
132.1197112232067
 30
0.0
 11
258.2038129753457
 21
132.1197112232067
 31
0.0
  0
LINE
  5
78A1
330
1F
100
AcDbEntity
  8
SOLBET_Grunt
100
AcDbLine
 10
260.9659488393559
 20
134.8818470872166
 30
0.0
 11
260.9659488393559
 21
134.8818470872166
 31
0.0
  0
LINE
  5
78A2
330
1F
100
AcDbEntity
  8
SOLBET_Grunt
100
AcDbLine
 10
263.7280847033657
 20
137.6439829512266
 30
0.0
 11
263.7280847033657
 21
137.6439829512266
 31
0.0
  0
LINE
  5
78A3
330
1F
100
AcDbEntity
  8
SOLBET_Grunt
100
AcDbLine
 10
266.4902205673757
 20
140.4061188152365
 30
0.0
 11
266.4902205673757
 21
140.4061188152365
 31
0.0
  0
LINE
  5
78A4
330
1F
100
AcDbEntity
  8
SOLBET_Grunt
100
AcDbLine
 10
269.2523564313856
 20
143.1682546792465
 30
0.0
 11
269.2523564313856
 21
143.1682546792465
 31
0.0
  0
LINE
  5
78A5
330
1F
100
AcDbEntity
  8
SOLBET_Grunt
100
AcDbLine
 10
272.0144922953955
 20
145.9303905432564
 30
0.0
 11
272.0144922953955
 21
145.9303905432564
 31
0.0
  0
LINE
  5
78A6
330
1F
100
AcDbEntity
  8
SOLBET_Grunt
100
AcDbLine
 10
262.3470167713608
 20
130.7386432912017
 30
0.0
 11
262.3470167713608
 21
130.7386432912017
 31
0.0
  0
LINE
  5
78A7
330
1F
100
AcDbEntity
  8
SOLBET_Grunt
100
AcDbLine
 10
265.1091526353707
 20
133.5007791552117
 30
0.0
 11
265.1091526353707
 21
133.5007791552117
 31
0.0
  0
LINE
  5
78A8
330
1F
100
AcDbEntity
  8
SOLBET_Grunt
100
AcDbLine
 10
267.8712884993806
 20
136.2629150192216
 30
0.0
 11
267.8712884993806
 21
136.2629150192216
 31
0.0
  0
LINE
  5
78A9
330
1F
100
AcDbEntity
  8
SOLBET_Grunt
100
AcDbLine
 10
270.6334243633905
 20
139.0250508832316
 30
0.0
 11
270.6334243633905
 21
139.0250508832316
 31
0.0
  0
LINE
  5
78AA
330
1F
100
AcDbEntity
  8
SOLBET_Grunt
100
AcDbLine
 10
273.3955602274004
 20
141.7871867472415
 30
0.0
 11
273.3955602274004
 21
141.7871867472415
 31
0.0
  0
LINE
  5
78AB
330
1F
100
AcDbEntity
  8
SOLBET_Grunt
100
AcDbLine
 10
276.1576960914106
 20
144.5493226112515
 30
0.0
 11
276.1576960914106
 21
144.5493226112515
 31
0.0
  0
LINE
  5
78AC
330
1F
100
AcDbEntity
  8
SOLBET_Grunt
100
AcDbLine
 10
266.4902205673757
 20
129.3575753591968
 30
0.0
 11
266.4902205673757
 21
129.3575753591968
 31
0.0
  0
LINE
  5
78AD
330
1F
100
AcDbEntity
  8
SOLBET_Grunt
100
AcDbLine
 10
269.2523564313856
 20
132.1197112232067
 30
0.0
 11
269.2523564313856
 21
132.1197112232067
 31
0.0
  0
LINE
  5
78AE
330
1F
100
AcDbEntity
  8
SOLBET_Grunt
100
AcDbLine
 10
272.0144922953955
 20
134.8818470872166
 30
0.0
 11
272.0144922953955
 21
134.8818470872166
 31
0.0
  0
LINE
  5
78AF
330
1F
100
AcDbEntity
  8
SOLBET_Grunt
100
AcDbLine
 10
274.7766281594056
 20
137.6439829512266
 30
0.0
 11
274.7766281594056
 21
137.6439829512266
 31
0.0
  0
LINE
  5
78B0
330
1F
100
AcDbEntity
  8
SOLBET_Grunt
100
AcDbLine
 10
277.5387640234155
 20
140.4061188152365
 30
0.0
 11
277.5387640234155
 21
140.4061188152365
 31
0.0
  0
LINE
  5
78B1
330
1F
100
AcDbEntity
  8
SOLBET_Grunt
100
AcDbLine
 10
273.3955602274004
 20
130.7386432912017
 30
0.0
 11
273.3955602274004
 21
130.7386432912017
 31
0.0
  0
LINE
  5
78B2
330
1F
100
AcDbEntity
  8
SOLBET_Grunt
100
AcDbLine
 10
276.1576960914106
 20
133.5007791552117
 30
0.0
 11
276.1576960914106
 21
133.5007791552117
 31
0.0
  0
LINE
  5
78B3
330
1F
100
AcDbEntity
  8
SOLBET_Grunt
100
AcDbLine
 10
278.9198319554205
 20
136.2629150192216
 30
0.0
 11
278.9198319554205
 21
136.2629150192216
 31
0.0
  0
LINE
  5
78B4
330
1F
100
AcDbEntity
  8
SOLBET_Grunt
100
AcDbLine
 10
277.5387640234155
 20
129.3575753591968
 30
0.0
 11
277.5387640234155
 21
129.3575753591968
 31
0.0
  0
MTEXT
  5
7987
330
1F
100
AcDbEntity
  8
SOLBET_Wymiary_Opisy
100
AcDbMText
 10
9.533835313429449
 20
289.5557482572476
 30
0.0
 40
5.0
 41
0.0
 71
     1
 72
     1
  1
{\LDETAL 5}
  7
Solbet_2_5
 73
     1
 44
1.0
1001
ACAD
1000
MTEXTBEGIN
1070
    73
1070
     1
1070
    44
1040
1.0
1070
    74
1070
     0
1000
MTEXTEND
  0
MTEXT
  5
7988
102
{ACAD_XDICTIONARY
360
7F9B
102
}
330
1F
100
AcDbEntity
  8
SOLBET_Wymiary_Opisy
100
AcDbMText
 10
9.384795254970072
 20
278.6313743433764
 30
0.0
 40
5.0
 41
0.0
 71
     1
 72
     1
  1
Posadowienie na p\U+0142ycie fundamentowej\Pw gruntach przepuszczalnych wariant \U+015Bciany z dociepleniem
  7
Solbet_2_5
 73
     1
 44
1.0
1001
ACAD
1000
MTEXTBEGIN
1070
    73
1070
     1
1070
    44
1040
1.0
1070
    74
1070
     0
1000
MTEXTEND
  0
MTEXT
  5
7989
102
{ACAD_XDICTIONARY
360
7F9D
102
}
330
1F
100
AcDbEntity
  8
SOLBET_Wymiary_Opisy
100
AcDbMText
 10
32.2426357201208
 20
21.76347955156547
 30
0.0
 40
2.5
 41
0.0
 71
     1
 72
     1
  1
Sytemy hydroizolacji stosowa\U+0107 wg zalece\U+0144 producent\U+00F3w\PStyropian wodoodporny wg zalece\U+0144 producent\U+00F3w
  7
Solbet_2_5
 73
     1
 44
1.0
1001
ACAD
1000
MTEXTBEGIN
1070
    73
1070
     1
1070
    44
1040
1.0
1070
    74
1070
     0
1000
MTEXTEND
  0
LINE
  5
79F2
330
1F
100
AcDbEntity
  8
SOLBET_Wymiary_Opisy
100
AcDbLine
 10
83.58116912399873
 20
192.7258537669901
 30
0.0
 11
65.66797319652448
 21
198.2633056382271
 31
0.0
1001
ACAD
1000
DSTYLE
1002
{
1070
   147
1040
0.625
1070
    77
1070
     1
1002
}
  0
LINE
  5
79F3
330
1F
100
AcDbEntity
  8
SOLBET_Wymiary_Opisy
100
AcDbLine
 10
65.66683367116297
 20
198.2633053325241
 30
0.0
 11
15.64163469143796
 21
198.2498849640938
 31
0.0
1001
ACAD
1000
DSTYLE
1002
{
1070
   147
1040
0.625
1070
    77
1070
     1
1002
}
  0
TEXT
  5
79F4
330
1F
100
AcDbEntity
  8
SOLBET_Wymiary_Opisy
100
AcDbText
 10
15.06532584507977
 20
203.4454909045891
 30
0.0
 40
2.5
  1
Siatka z klejem SOLBET Gabit T
  7
Solbet_2_5
100
AcDbText
  0
TEXT
  5
79F5
330
1F
100
AcDbEntity
  8
SOLBET_Wymiary_Opisy
100
AcDbText
 10
39.76583584421997
 20
199.3750139826504
 30
0.0
 40
2.5
  1
jeżeli wymagane
  7
Solbet_2_5
100
AcDbText
  0
INSERT
  5
79F6
330
1F
100
AcDbEntity
  8
SOLBET_Wymiary_Opisy
100
AcDbBlockReference
  2
_DotSmall
 10
83.58116912399873
 20
192.7258537669901
 30
0.0
 41
2.499999999999195
 42
2.5
 43
2.5
 50
323.192595210197
1001
ACAD
1000
DSTYLE
1002
{
1070
   147
1040
0.625
1070
    77
1070
     1
1002
}
  0
LINE
  5
7A08
330
1F
100
AcDbEntity
  8
SOLBET_Wymiary_Opisy
100
AcDbLine
 10
208.2468615313152
 20
126.9774605848778
 30
0.0
 11
182.005557601599
 21
119.7177554844747
 31
0.0
1001
ACAD
1000
DSTYLE
1002
{
1070
   147
1040
0.625
1070
    77
1070
     1
1002
}
  0
LINE
  5
7A09
330
1F
100
AcDbEntity
  8
SOLBET_Wymiary_Opisy
100
AcDbLine
 10
182.005557601599
 20
119.7177554844747
 30
0.0
 11
132.5445099229504
 21
119.6932649326488
 31
0.0
1001
ACAD
1000
DSTYLE
1002
{
1070
   147
1040
0.625
1070
    77
1070
     1
1002
}
  0
TEXT
  5
7A0A
330
1F
100
AcDbEntity
  8
SOLBET_Wymiary_Opisy
100
AcDbText
 10
132.4217410807972
 20
125.2095293222058
 30
0.0
 40
2.5
  1
Siatka z klejem SOLBET Gabit T
  7
Solbet_2_5
100
AcDbText
  0
TEXT
  5
7A0B
330
1F
100
AcDbEntity
  8
SOLBET_Wymiary_Opisy
100
AcDbText
 10
157.5891473248406
 20
120.9274927208165
 30
0.0
 40
2.5
  1
jeżeli wymagane
  7
Solbet_2_5
100
AcDbText
  0
INSERT
  5
7A0C
330
1F
100
AcDbEntity
  8
SOLBET_Wymiary_Opisy
100
AcDbBlockReference
  2
_DotSmall
 10
208.2468615313152
 20
126.9774605848778
 30
0.0
 41
2.499999999999195
 42
2.5
 43
2.5
 50
323.192595210197
1001
ACAD
1000
DSTYLE
1002
{
1070
   147
1040
0.625
1070
    77
1070
     1
1002
}
  0
INSERT
  5
7A0D
330
1F
100
AcDbEntity
  8
SOLBET_Wymiary_Opisy
100
AcDbBlockReference
  2
_DotSmall
 10
224.4412758847348
 20
195.1524765379447
 30
0.0
 41
2.499999999999996
 42
2.5
 43
2.5
 50
339.9483862413798
1001
ACAD
1000
DSTYLE
1002
{
1070
   147
1040
0.625
1070
    77
1070
     1
1002
}
  0
LWPOLYLINE
  5
7A0E
330
1F
100
AcDbEntity
  8
SOLBET_Wymiary_Opisy
100
AcDbPolyline
 90
        3
 70
     0
 43
0.0
 10
224.4412758847348
 20
195.1524765379447
 10
171.4663934408826
 20
216.0912424855947
 10
129.1686488362477
 20
216.0912424855947
1001
ACAD
1000
DSTYLE
1002
{
1070
   147
1040
0.625
1070
    77
1070
     1
1002
}
  0
TEXT
  5
7A0F
330
1F
100
AcDbEntity
  8
SOLBET_Wymiary_Opisy
100
AcDbText
 10
128.7613293766609
 20
217.6934994999422
 30
0.0
 40
2.5
  1
Tynk wewnętrzny SOLBET
  7
Solbet_2_5
100
AcDbText
  0
INSERT
  5
7A22
330
1F
100
AcDbEntity
  8
SOLBET_Wymiary_Opisy
100
AcDbBlockReference
  2
_DotSmall
 10
81.42595173984863
 20
198.3066513947937
 30
0.0
 41
2.499999999999983
 42
2.5
 43
2.5
 50
316.0463988211146
1001
ACAD
1000
DSTYLE
1002
{
1070
   147
1040
0.625
1070
    77
1070
     1
1002
}
  0
LWPOLYLINE
  5
7A23
330
1F
100
AcDbEntity
  8
SOLBET_Wymiary_Opisy
100
AcDbPolyline
 90
        3
 70
     0
 43
0.0
 10
81.42595173984863
 20
198.3066513947937
 10
70.21976464511102
 20
209.11081642585
 10
26.89795736999327
 20
209.11081642585
1001
ACAD
1000
DSTYLE
1002
{
1070
   147
1040
0.625
1070
    77
1070
     1
1002
}
  0
INSERT
  5
7A2A
330
1F
100
AcDbEntity
  8
SOLBET_Wymiary_Opisy
100
AcDbBlockReference
  2
_DotSmall
 10
94.66822571812462
 20
201.6075616665151
 30
0.0
 41
2.499999999999987
 42
2.5
 43
2.5
 50
316.6853335360933
1001
ACAD
1000
DSTYLE
1002
{
1070
   147
1040
0.625
1070
    77
1070
     1
1002
}
  0
LWPOLYLINE
  5
7A2B
330
1F
100
AcDbEntity
  8
SOLBET_Wymiary_Opisy
100
AcDbPolyline
 90
        3
 70
     0
 43
0.0
 10
94.66822571812462
 20
201.6075616665151
 10
75.01766834658406
 20
217.1141038268813
 10
24.11438090224578
 20
217.1141038268813
1001
ACAD
1000
DSTYLE
1002
{
1070
   147
1040
0.625
1070
    77
1070
     1
1002
}
  0
INSERT
  5
7A3E
330
1F
100
AcDbEntity
  8
SOLBET_Wymiary_Opisy
100
AcDbBlockReference
  2
_DotSmall
 10
84.93389313736498
 20
172.6765585405823
 30
0.0
 41
2.499999999999992
 42
2.5
 43
2.5
 50
6.888172385921861
1001
ACAD
1000
DSTYLE
1002
{
1070
   147
1040
0.625
1070
    77
1070
     1
1002
}
  0
LWPOLYLINE
  5
7A3F
330
1F
100
AcDbEntity
  8
SOLBET_Wymiary_Opisy
100
AcDbPolyline
 90
        3
 70
     0
 43
0.0
 10
84.93389313736498
 20
172.6765585405823
 10
65.73700108006426
 20
170.3575001071897
 10
40.45323722819524
 20
170.3575001071897
1001
ACAD
1000
DSTYLE
1002
{
1070
   147
1040
0.625
1070
    77
1070
     1
1002
}
  0
LINE
  5
7A68
330
1F
100
AcDbEntity
  8
SOLBET_Zaprawy
100
AcDbLine
 10
210.9412758847347
 20
154.9431271252901
 30
0.0
 11
211.1412758847348
 21
154.9431271252901
 31
0.0
  0
LINE
  5
7A69
330
1F
100
AcDbEntity
  8
SOLBET_Zaprawy
100
AcDbLine
 10
211.1412758847348
 20
154.9431271252901
 30
0.0
 11
211.1412758847349
 21
129.3431271252899
 31
0.0
  0
LINE
  5
7A6A
330
1F
100
AcDbEntity
  8
SOLBET_Zaprawy
100
AcDbLine
 10
211.1412758847348
 20
99.77634330340618
 30
0.0
 11
211.1412758847348
 21
100.1544885928479
 31
0.0
  0
LINE
  5
7A6B
330
1F
100
AcDbEntity
  8
SOLBET_Zaprawy
100
AcDbLine
 10
211.1412758847347
 20
127.84312712529
 30
0.0
 11
211.1412758847348
 21
99.77634330340618
 31
0.0
  0
MTEXT
  5
7A6D
330
1F
100
AcDbEntity
  8
SOLBET_Wymiary_Opisy
100
AcDbMText
 10
181.4684337276754
 20
111.7326628673705
 30
0.0
 40
2.5
 41
0.0
 71
     3
 72
     1
  1
Klej SOLBET Gabit T-1
  7
Solbet_2_5
 73
     1
 44
1.0
1001
ACAD
1000
MTEXTBEGIN
1070
    73
1070
     1
1070
    44
1040
1.0
1070
    74
1070
     0
1000
MTEXTEND
  0
INSERT
  5
7A6E
330
1F
100
AcDbEntity
  8
SOLBET_Wymiary_Opisy
100
AcDbBlockReference
  2
_DotSmall
 10
211.1412758847347
 20
114.6043225800096
 30
0.0
 41
2.500000000000013
 42
2.5
 43
2.5
 50
13.94802589019794
1001
ACAD
1000
DSTYLE
1002
{
1070
   147
1040
0.625
1070
    77
1070
     1
1002
}
  0
LWPOLYLINE
  5
7A6F
330
1F
100
AcDbEntity
  8
SOLBET_Wymiary_Opisy
100
AcDbPolyline
 90
        3
 70
     0
 43
0.0
 10
211.1412758847347
 20
114.6043225800096
 10
183.2710353056805
 20
107.6823383462612
 10
150.9684337276753
 20
107.6823383462611
1001
ACAD
1000
DSTYLE
1002
{
1070
   147
1040
0.625
1070
    77
1070
     1
1002
}
  0
LINE
  5
7A70
330
1F
100
AcDbEntity
  8
SOLBET_Zaprawy
100
AcDbLine
 10
117.6759517398468
 20
179.1997987412669
 30
0.0
 11
118.6759517398468
 21
179.1997987412669
 31
0.0
  0
LINE
  5
7A71
330
1F
100
AcDbEntity
  8
SOLBET_Zaprawy
100
AcDbLine
 10
118.6759517398468
 20
179.1997987412669
 30
0.0
 11
118.6759517398468
 21
165.7377168078885
 31
0.0
  0
TEXT
  5
7B85
330
1F
100
AcDbEntity
  8
SOLBET_Wymiary_Opisy
100
AcDbText
 10
236.9049367060697
 20
108.1884225794415
 30
0.0
 40
2.5
  1
Emulsja izolazyjna
  7
Solbet_2_5
100
AcDbText
  0
TEXT
  5
7B86
330
1F
100
AcDbEntity
  8
SOLBET_Wymiary_Opisy
100
AcDbText
 10
236.9049367060697
 20
104.0217559127748
 30
0.0
 40
2.5
  1
lub izolacja z folii
  7
Solbet_2_5
100
AcDbText
  0
LINE
  5
7C83
330
1F
100
AcDbEntity
  8
SOLBET_Beton
100
AcDbLine
 10
205.9412758847291
 20
96.91049795498186
 30
0.0
 11
205.9412758847291
 21
79.11049795498479
 31
0.0
1001
ASO_SCHRAFF
1005
0
1070
     1
1002
{
1070
     1
1005
0
1002
}
1002
{
1070
     2
1005
0
1002
}
1002
{
1070
     4
1000
BRASS
1040
0.2
1040
45.0
1070
     0
1000
T__SCHR
1070
   256
1000
VONLAYER
1040
50.0
1070
     1
1002
}
  0
LINE
  5
7C84
330
1F
100
AcDbEntity
  8
SOLBET_Emulsje_Folie
100
AcDbLine
 10
208.0939258025614
 20
99.36013272091267
 30
0.0
 11
205.7927834606796
 21
97.05899037903103
 31
0.0
1001
ASO_SCHRAFF
1005
0
1070
     1
1002
{
1070
     1
1005
0
1002
}
1002
{
1070
     2
1005
0
1002
}
1002
{
1070
     4
1000
BRASS
1040
0.2
1040
45.0
1070
     0
1000
T__SCHR
1070
   256
1000
VONLAYER
1040
50.0
1070
     1
1002
}
  0
LINE
  5
7C85
330
1F
100
AcDbEntity
  8
SOLBET_Emulsje_Folie
  6
DASHED2
370
    30
100
AcDbLine
 10
208.0654333785123
 20
99.48013272091271
 30
0.0
 11
207.1174675084608
 21
98.53216685086131
 31
0.0
1001
ASO_SCHRAFF
1005
0
1070
     1
1002
{
1070
     1
1005
0
1002
}
1002
{
1070
     2
1005
0
1002
}
1002
{
1070
     4
1000
BRASS
1040
0.2
1040
45.0
1070
     0
1000
T__SCHR
1070
   256
1000
VONLAYER
1040
50.0
1070
     1
1002
}
  0
LINE
  5
7C86
330
1F
100
AcDbEntity
  8
SOLBET_Emulsje_Folie
100
AcDbLine
 10
208.036940954463
 20
99.60013272091268
 30
0.0
 11
205.5827834606798
 21
97.14597522712939
 31
0.0
1001
ASO_SCHRAFF
1005
0
1070
     1
1002
{
1070
     1
1005
0
1002
}
1002
{
1070
     2
1005
0
1002
}
1002
{
1070
     4
1000
BRASS
1040
0.2
1040
45.0
1070
     0
1000
T__SCHR
1070
   256
1000
VONLAYER
1040
50.0
1070
     1
1002
}
  0
LINE
  5
7C87
330
1F
100
AcDbEntity
  8
SOLBET_Emulsje_Folie
100
AcDbLine
 10
207.9585930957291
 20
99.7763433034059
 30
0.0
 11
205.4027834606797
 21
97.22053366835654
 31
0.0
1001
ASO_SCHRAFF
1005
0
1070
     1
1002
{
1070
     1
1005
0
1002
}
1002
{
1070
     2
1005
0
1002
}
1002
{
1070
     4
1000
BRASS
1040
0.2
1040
45.0
1070
     0
1000
T__SCHR
1070
   256
1000
VONLAYER
1040
50.0
1070
     1
1002
}
  0
LINE
  5
7C89
330
1F
100
AcDbEntity
  8
SOLBET_Emulsje_Folie
100
AcDbLine
 10
211.2130019385909
 20
99.7763433034059
 30
0.0
 11
207.9585930957291
 21
99.7763433034059
 31
0.0
  0
LWPOLYLINE
  5
7C8A
330
1F
100
AcDbEntity
  8
SOLBET_Emulsje_Folie
100
AcDbPolyline
 90
        2
 70
     0
 43
0.0
 10
229.4351320081589
 20
99.36013272091269
 10
208.0939258025614
 20
99.36013272091267
  0
LWPOLYLINE
  5
7C8B
330
1F
100
AcDbEntity
  8
SOLBET_Emulsje_Folie
100
AcDbPolyline
 90
        2
 70
     0
 43
0.0
 10
208.036940954463
 20
99.60013272091268
 10
229.4351320081589
 20
99.60013272091268
  0
LINE
  5
7C8C
330
1F
100
AcDbEntity
  8
SOLBET_Emulsje_Folie
  6
DASHED2
370
    30
100
AcDbLine
 10
208.0654333785121
 20
99.48013272091268
 30
0.0
 11
229.4351320081589
 21
99.47701778988756
 31
0.0
  0
LINE
  5
7C8D
330
1F
100
AcDbEntity
  8
SOLBET_Emulsje_Folie
100
AcDbLine
 10
205.7927834606796
 20
97.05899037903103
 30
0.0
 11
205.7927834606796
 21
94.35899037903103
 31
0.0
  0
LINE
  5
7C8E
330
1F
100
AcDbEntity
  8
SOLBET_Emulsje_Folie
100
AcDbLine
 10
205.5827834606798
 20
94.35899037903103
 30
0.0
 11
205.5827834606798
 21
97.14597522712939
 31
0.0
  0
LINE
  5
7C8F
330
1F
100
AcDbEntity
  8
SOLBET_Emulsje_Folie
100
AcDbLine
 10
205.4027834606797
 20
94.35899037903103
 30
0.0
 11
205.4027834606797
 21
97.22053366835652
 31
0.0
  0
LINE
  5
7C90
330
1F
100
AcDbEntity
  8
SOLBET_Emulsje_Folie
  6
DASHED2
370
    30
100
AcDbLine
 10
205.6877834606798
 20
94.35899037903103
 30
0.0
 11
205.6877834606798
 21
95.50710253175976
 31
0.0
  0
LINE
  5
7C91
330
1F
100
AcDbEntity
  8
SOLBET_Emulsje_Folie
  6
DASHED2
370
    30
100
AcDbLine
 10
205.6877834606798
 20
96.10540789721085
 30
0.0
 11
205.6877834606796
 21
97.10248280308023
 31
0.0
  0
LINE
  5
7C92
330
1F
100
AcDbEntity
  8
SOLBET_Emulsje_Folie
  6
DASHED2
370
    30
100
AcDbLine
 10
205.6877834606796
 20
97.10248280308023
 30
0.0
 11
206.5216380369304
 21
97.93633737933078
 31
0.0
  0
CIRCLE
  5
7C93
330
1F
100
AcDbEntity
  8
SOLBET_Wymiary_Opisy
100
AcDbCircle
 10
209.2891584602134
 20
98.67721150480589
 30
0.0
 40
6.72794034480946
  0
LINE
  5
7C94
330
1F
100
AcDbEntity
  8
SOLBET_Emulsje_Folie
100
AcDbLine
 10
205.5827834606798
 20
94.35899037903103
 30
0.0
 11
205.7927834606796
 21
94.35899037903103
 31
0.0
  0
LEADER
  5
7C95
330
1F
100
AcDbEntity
  8
SOLBET_Wymiary_Opisy
100
AcDbLeader
  3
Solbet$7
 73
     0
 75
     1
 40
5.0
 41
2.5
 76
     3
 10
203.2441678664502
 20
95.72369326300892
 30
0.0
 10
183.9302371320943
 20
88.96911832163429
 30
0.0
 10
181.4302371320943
 20
88.96911832163429
 30
0.0
340
7C96
213
-0.8791749024171622
223
-0.1753245211093599
233
0.0
1001
ACAD
1000
DSTYLE
1002
{
1070
   341
1005
7832
1070
   147
1040
0.625
1070
    77
1070
     1
1002
}
  0
MTEXT
  5
7C96
102
{ACAD_REACTORS
330
7C95
102
}
330
1F
100
AcDbEntity
  8
SOLBET_Wymiary_Opisy
100
AcDbMText
 10
181.6844120345115
 20
94.76944284274365
 30
0.0
 40
5.0
 41
0.0
 71
     3
 72
     1
  1
C
  7
Solbet_5
 73
     1
 44
1.0
1001
ACAD
1000
MTEXTBEGIN
1070
    73
1070
     1
1070
    44
1040
1.0
1070
    74
1070
     0
1000
MTEXTEND
  0
LINE
  5
7C97
330
1F
100
AcDbEntity
  8
SOLBET_Beton
100
AcDbLine
 10
205.9412758847291
 20
96.91049795498186
 30
0.0
 11
208.1442112770469
 21
99.1104976457059
 31
0.0
  0
LINE
  5
7C98
330
1F
100
AcDbEntity
  8
SOLBET_Beton
100
AcDbLine
 10
208.1442112770469
 20
99.1104976457059
 30
0.0
 11
229.4320985194372
 21
99.11049788255937
 31
0.0
  0
LINE
  5
7C9F
330
1F
100
AcDbEntity
  8
SOLBET_Beton
100
AcDbLine
 10
229.4320987419614
 20
79.11049795498479
 30
0.0
 11
229.4320985194372
 21
99.1104978825594
 31
0.0
  0
LINE
  5
7CA0
330
1F
100
AcDbEntity
  8
SOLBET_Emulsje_Folie
100
AcDbLine
 10
229.4351320081589
 20
99.60013272091268
 30
0.0
 11
229.4351320081589
 21
99.36013272091269
 31
0.0
  0
LEADER
  5
7CAB
330
1F
100
AcDbEntity
  8
SOLBET_Wymiary_Opisy
100
AcDbLeader
  3
Solbet$7
 73
     0
 74
     0
 75
     1
 40
2.501893939393939
 41
33.5
 76
     3
 10
218.7894784534425
 20
109.1827239305712
 30
0.0
 10
235.8067573439876
 20
125.1779518867798
 30
0.0
 10
238.3067573439876
 20
125.1779518867798
 30
0.0
213
1.177601578005123
223
-0.1753245211093599
233
0.0
1001
ACAD
1000
DSTYLE
1002
{
1070
   147
1040
0.625
1070
    77
1070
     1
1002
}
  0
MTEXT
  5
7CAC
102
{ACAD_REACTORS
330
7CAB
102
}
330
1F
100
AcDbEntity
  8
SOLBET_Wymiary_Opisy
100
AcDbMText
 10
271.5280523380943
 20
129.1903328127299
 30
0.0
 40
2.5
 41
0.0
 71
     3
 72
     1
  1
Bloczki fundamentowe
  7
Solbet_2_5
 73
     1
 44
1.0
1001
ACAD
1000
MTEXTBEGIN
1070
    73
1070
     1
1070
    44
1040
1.0
1070
    74
1070
     0
1000
MTEXTEND
  0
LEADER
  5
7CAD
330
1F
100
AcDbEntity
  8
SOLBET_Wymiary_Opisy
100
AcDbLeader
  3
Solbet$7
 73
     0
 74
     0
 75
     1
 40
3.25
 41
19.75
 76
     3
 10
224.4377001777809
 20
105.3848424406554
 30
0.0
 10
234.6044036697894
 20
114.1684672250907
 30
0.0
 10
237.1044036697895
 20
114.1684672250907
 30
0.0
213
1.177601578005123
223
-0.1753245211093599
233
0.0
1001
ACAD
1000
DSTYLE
1002
{
1070
   147
1040
0.625
1070
    77
1070
     1
1002
}
  0
MTEXT
  5
7CAE
102
{ACAD_REACTORS
330
7CAD
102
}
330
1F
100
AcDbEntity
  8
SOLBET_Wymiary_Opisy
100
AcDbMText
 10
257.3031158383997
 20
118.2187917462
 30
0.0
 40
2.5
 41
0.0
 71
     3
 72
     1
  1
Hydroizolacja
  7
Solbet_2_5
 73
     1
 44
1.0
1001
ACAD
1000
MTEXTBEGIN
1070
    73
1070
     1
1070
    44
1040
1.0
1070
    74
1070
     0
1000
MTEXTEND
  0
LWPOLYLINE
  5
7CDB
330
1F
100
AcDbEntity
  8
SOLBET_Beton
100
AcDbPolyline
 90
        3
 70
     0
 43
0.0
 10
107.9341693248622
 20
121.3866310830405
 10
107.9341693248622
 20
96.26005612766029
 10
130.130002166126
 20
96.26005612766029
  0
HATCH
  5
7CDC
330
1F
100
AcDbEntity
  8
SOLBET_Beton
100
AcDbHatch
 10
0.0
 20
0.0
 30
0.0
210
0.0
220
0.0
230
1.0
  2
ANSI33
 70
     0
 71
     0
 91
        1
 92
        1
 93
        4
 72
     2
 10
97.17358220228527
 20
89.51439713466038
 40
33.6397017240473
 50
240.1580723290472
 51
363.692464015495
 73
     1
 72
     1
 10
130.743451183043
 20
91.68082938554011
 11
91.43416932486298
 21
91.68082938554018
 72
     1
 10
91.43416932486308
 20
91.68082938554011
 11
80.43416932486342
 21
80.68082938554031
 72
     1
 10
80.43416932486218
 20
80.6808293855404
 11
80.43416932486252
 21
60.33526780217195
 97
        0
 75
     0
 76
     1
 52
0.0
 41
3.75
 77
     0
 78
     2
 53
45.0
 43
-9449.132366550443
 44
1369.720556721699
 45
-16.83798022700466
 46
16.83798022700466
 79
     0
 53
45.0
 43
-9432.294379050444
 44
1369.720556721699
 45
-16.83798022700466
 46
16.83798022700466
 79
     2
 49
11.90625
 49
-5.953124999999999
 98
        1
 10
132.1443510315745
 20
39.59640024734176
1001
ACAD
1010
0.0
1020
0.0
1030
0.0
  0
LINE
  5
7CDD
330
1F
100
AcDbEntity
  8
SOLBET_Beton
100
AcDbLine
 10
130.743451183043
 20
91.68082938554006
 30
0.0
 11
91.43416932486308
 21
91.68082938554006
 31
0.0
1001
ASO_SCHRAFF
1005
0
1070
     1
1002
{
1070
     1
1005
0
1002
}
1002
{
1070
     2
1005
0
1002
}
1002
{
1070
     4
1000
BRASS
1040
0.2
1040
45.0
1070
     0
1000
T__SCHR
1070
   256
1000
VONLAYER
1040
50.0
1070
     1
1002
}
  0
LINE
  5
7CDE
330
1F
100
AcDbEntity
  8
SOLBET_Beton
100
AcDbLine
 10
80.43416932486218
 20
80.68082938554004
 30
0.0
 11
80.43416932486218
 21
60.33526780217233
 31
0.0
1001
ASO_SCHRAFF
1005
0
1070
     1
1002
{
1070
     1
1005
0
1002
}
1002
{
1070
     2
1005
0
1002
}
1002
{
1070
     4
1000
BRASS
1040
0.2
1040
45.0
1070
     0
1000
T__SCHR
1070
   256
1000
VONLAYER
1040
50.0
1070
     1
1002
}
  0
LINE
  5
7CDF
330
1F
100
AcDbEntity
  8
SOLBET_Beton
100
AcDbLine
 10
91.43416932486308
 20
91.68082938554006
 30
0.0
 11
80.43416932486218
 21
80.68082938554004
 31
0.0
1001
ASO_SCHRAFF
1005
0
1070
     1
1002
{
1070
     1
1005
0
1002
}
1002
{
1070
     2
1005
0
1002
}
1002
{
1070
     4
1000
BRASS
1040
0.2
1040
45.0
1070
     0
1000
T__SCHR
1070
   256
1000
VONLAYER
1040
50.0
1070
     1
1002
}
  0
LINE
  5
7CE0
330
1F
100
AcDbEntity
  8
SOLBET_Emulsje_Folie
100
AcDbLine
 10
91.19741891402521
 20
92.92900321519415
 30
0.0
 11
79.69170720461682
 21
81.42329150578593
 31
0.0
1001
ASO_SCHRAFF
1005
0
1070
     1
1002
{
1070
     1
1005
0
1002
}
1002
{
1070
     2
1005
0
1002
}
1002
{
1070
     4
1000
BRASS
1040
0.2
1040
45.0
1070
     0
1000
T__SCHR
1070
   256
1000
VONLAYER
1040
50.0
1070
     1
1002
}
  0
LINE
  5
7CE1
330
1F
100
AcDbEntity
  8
SOLBET_Emulsje_Folie
  6
DASHED2
370
    30
100
AcDbLine
 10
91.05495679377929
 20
93.52900321519427
 30
0.0
 11
86.31512744352187
 21
88.7891738649373
 31
0.0
1001
ASO_SCHRAFF
1005
0
1070
     1
1002
{
1070
     1
1005
0
1002
}
1002
{
1070
     2
1005
0
1002
}
1002
{
1070
     4
1000
BRASS
1040
0.2
1040
45.0
1070
     0
1000
T__SCHR
1070
   256
1000
VONLAYER
1040
50.0
1070
     1
1002
}
  0
LINE
  5
7CE2
330
1F
100
AcDbEntity
  8
SOLBET_Emulsje_Folie
100
AcDbLine
 10
90.91249467353248
 20
94.12900321519419
 30
0.0
 11
78.64170720461754
 21
81.85821574627766
 31
0.0
1001
ASO_SCHRAFF
1005
0
1070
     1
1002
{
1070
     1
1005
0
1002
}
1002
{
1070
     2
1005
0
1002
}
1002
{
1070
     4
1000
BRASS
1040
0.2
1040
45.0
1070
     0
1000
T__SCHR
1070
   256
1000
VONLAYER
1040
50.0
1070
     1
1002
}
  0
LINE
  5
7CE3
330
1F
100
AcDbEntity
  8
SOLBET_Emulsje_Folie
100
AcDbLine
 10
90.52075537986423
 20
95.01005612766027
 30
0.0
 11
77.74170720461609
 21
82.23100795241339
 31
0.0
1001
ASO_SCHRAFF
1005
0
1070
     1
1002
{
1070
     1
1005
0
1002
}
1002
{
1070
     2
1005
0
1002
}
1002
{
1070
     4
1000
BRASS
1040
0.2
1040
45.0
1070
     0
1000
T__SCHR
1070
   256
1000
VONLAYER
1040
50.0
1070
     1
1002
}
  0
LINE
  5
7CE4
330
1F
100
AcDbEntity
  8
SOLBET_Izolacja
  6
Continuous
100
AcDbLine
 10
105.4341693248622
 20
96.26005612766029
 30
0.0
 11
105.4341693248622
 21
122.1240925100109
 31
0.0
  0
LINE
  5
7CE5
330
1F
100
AcDbEntity
  8
SOLBET_Emulsje_Folie
100
AcDbLine
 10
107.0447672367351
 20
121.6732098941283
 30
0.0
 11
107.0447672367351
 21
96.26005612766029
 31
0.0
  0
LINE
  5
7CE6
330
1F
100
AcDbEntity
  8
SOLBET_Emulsje_Folie
100
AcDbLine
 10
105.7947672366205
 20
95.01005612766027
 30
0.0
 11
90.52075537986423
 21
95.01005612766027
 31
0.0
  0
ARC
  5
7CE7
330
1F
100
AcDbEntity
  8
SOLBET_Emulsje_Folie
100
AcDbCircle
 10
105.7947672366205
 20
96.26005612766029
 30
0.0
 40
1.25
100
AcDbArc
 50
270.0
 51
0.0
  0
LINE
  5
7CE8
330
1F
100
AcDbEntity
  8
SOLBET_Izolacja
  6
Continuous
100
AcDbLine
 10
100.4341693248621
 20
96.26005612766029
 30
0.0
 11
100.4341693248621
 21
122.9957069014382
 31
0.0
  0
HATCH
  5
7CF2
330
1F
100
AcDbEntity
  8
SOLBET_Grunt
100
AcDbHatch
 10
0.0
 20
0.0
 30
0.0
210
0.0
220
0.0
230
1.0
  2
AR-CONC
 70
     0
 71
     0
 91
        1
 92
        1
 93
        5
 72
     2
 10
97.17358220228527
 20
89.51439713466015
 40
33.6397017240473
 50
89.26257450035045
 51
240.1580723290458
 73
     1
 72
     1
 10
80.43416932486218
 20
60.33526780217233
 11
80.43416932486218
 21
98.67154306096793
 72
     1
 10
80.43416932486218
 20
98.67154306096797
 11
92.93416932486445
 21
96.26005612766011
 72
     1
 10
92.93416932486492
 20
96.26005612766011
 11
97.60653012960814
 21
96.26005612766025
 72
     1
 10
97.60653012960814
 20
96.26005612766029
 11
97.60653012960814
 21
123.1513126914573
 97
        0
 75
     0
 76
     1
 52
0.0
 41
0.25
 77
     0
 78
    13
 53
50.0
 43
-9449.132366550443
 44
1369.720556721699
 45
45.546167249001
 46
-3.984771384725771
 79
     2
 49
4.762500000000001
 49
-52.3875
 53
355.0
 43
-9449.132366550443
 44
1369.720556721699
 45
-8.810706493916747
 46
47.76416072054499
 79
     2
 49
3.81
 49
-41.91000000000001
 53
100.4509999999999
 43
-9445.336866550444
 44
1369.388494221699
 45
36.73562541648981
 46
43.77917195507295
 79
     2
 49
4.0475
 49
-44.52249999999999
 53
46.1842
 43
-9449.132366550443
 44
1382.420556721699
 45
67.76976022303248
 46
-10.51058198318179
 79
     2
 49
7.14375
 49
-78.58125000000001
 53
96.63559999999993
 43
-9443.484891550443
 44
1381.544681721699
 45
59.35105861655928
 46
61.8563889725123
 79
     2
 49
6.071249999999983
 49
-66.7837499999998
 53
351.184
 43
-9449.132366550443
 44
1382.420556721699
 45
59.35115145348348
 46
61.85627946514942
 79
     2
 49
5.714999999999999
 49
-62.865
 53
21.0
 43
-9442.782366550444
 44
1379.245556721699
 45
37.90371995884583
 46
-25.56637962919062
 79
     2
 49
4.762500000000001
 49
-52.3875
 53
326.0
 43
-9442.782366550444
 44
1379.245556721699
 45
15.45050708691177
 46
46.0469915305798
 79
     2
 49
3.809999999999998
 49
-41.90999999999998
 53
71.45140000000001
 43
-9439.623741550446
 44
1377.115031721699
 45
53.35412269253112
 46
20.48071442901436
 79
     2
 49
4.0475
 49
-44.5225
 53
37.49999999999999
 43
-9449.132366550443
 44
1369.720556721699
 45
0.7721508126479543
 46
21.13875971828828
 79
     6
 49
0.0
 49
-41.402
 49
0.0
 49
-42.545
 49
0.0
 49
-42.06875
 53
7.499999999999999
 43
-9449.132366550443
 44
1369.720556721699
 45
16.70491562757644
 46
25.04514370452988
 79
     6
 49
0.0
 49
-24.25699999999999
 49
0.0
 49
-40.44949999999999
 49
0.0
 49
-16.03375
 53
327.5
 43
-9463.292866550444
 44
1369.720556721699
 45
33.89764879171784
 46
-1.432185998168366
 79
     6
 49
0.0
 49
-15.875
 49
0.0
 49
-49.53
 49
0.0
 49
-65.7225
 53
317.5
 43
-9469.642866550444
 44
1369.720556721699
 45
37.03229534650451
 46
6.356622758333254
 79
     6
 49
0.0
 49
-20.6375
 49
0.0
 49
-32.893
 49
0.0
 49
-46.6725
 98
        4
 10
39.2818672542395
 20
104.2462150013987
 10
56.75457775910183
 20
191.5359532449699
 10
7.782034630717703
 20
254.0257634429461
 10
-105.3745423711865
 20
2079.868592798808
1001
ACAD
1010
0.0
1020
0.0
1030
0.0
  0
LINE
  5
7CF3
330
1F
100
AcDbEntity
  8
SOLBET_Izolacja
  6
BATTING
 48
0.24
100
AcDbLine
 10
102.9341693248622
 20
122.6571967763027
 30
0.0
 11
102.9341693248622
 21
96.26005612766029
 31
0.0
  0
LWPOLYLINE
  5
7CF4
330
1F
100
AcDbEntity
  8
SOLBET_Emulsje_Folie
100
AcDbPolyline
 90
        2
 70
     0
 43
0.0
 10
130.6395350110375
 20
92.92900321519415
 10
91.19741891402521
 20
92.92900321519415
  0
LWPOLYLINE
  5
7CF5
330
1F
100
AcDbEntity
  8
SOLBET_Emulsje_Folie
100
AcDbPolyline
 90
        2
 70
     0
 43
0.0
 10
90.91249467353248
 20
94.12900321519419
 10
130.4952709770802
 20
94.12900321519419
  0
LINE
  5
7CF6
330
1F
100
AcDbEntity
  8
SOLBET_Emulsje_Folie
  6
DASHED2
370
    30
100
AcDbLine
 10
91.05495679377929
 20
93.52900321519417
 30
0.0
 11
130.5728706692722
 21
93.52900321519417
 31
0.0
  0
LINE
  5
7CF7
330
1F
100
AcDbEntity
  8
SOLBET_Izolacja
100
AcDbLine
 10
100.4341693248621
 20
96.26005612766029
 30
0.0
 11
105.4341693248622
 21
96.26005612766029
 31
0.0
  0
LINE
  5
7CF8
330
1F
100
AcDbEntity
  8
SOLBET_Emulsje_Folie
100
AcDbLine
 10
79.69170720461682
 20
81.42329150578593
 30
0.0
 11
79.69170720461682
 21
67.92329150578592
 31
0.0
  0
LINE
  5
7CF9
330
1F
100
AcDbEntity
  8
SOLBET_Emulsje_Folie
100
AcDbLine
 10
79.69170720461682
 20
67.92329150578592
 30
0.0
 11
78.64170720461754
 21
67.92329150578592
 31
0.0
  0
LINE
  5
7CFA
330
1F
100
AcDbEntity
  8
SOLBET_Emulsje_Folie
100
AcDbLine
 10
78.64170720461754
 20
67.92329150578592
 30
0.0
 11
78.64170720461754
 21
81.85821574627766
 31
0.0
  0
LINE
  5
7CFB
330
1F
100
AcDbEntity
  8
SOLBET_Emulsje_Folie
100
AcDbLine
 10
77.74170720461609
 20
67.92329150578592
 30
0.0
 11
77.74170720461609
 21
82.23100795241339
 31
0.0
  0
LINE
  5
7CFC
330
1F
100
AcDbEntity
  8
SOLBET_Emulsje_Folie
  6
DASHED2
370
    30
100
AcDbLine
 10
79.16670720461628
 20
67.92329150578592
 30
0.0
 11
79.16670720461628
 21
73.66385226942952
 31
0.0
  0
LINE
  5
7CFD
330
1F
100
AcDbEntity
  8
SOLBET_Emulsje_Folie
  6
DASHED2
370
    30
100
AcDbLine
 10
79.16670720461628
 20
76.65537909668501
 30
0.0
 11
79.16670720461628
 21
81.64075362603188
 31
0.0
  0
LINE
  5
7CFE
330
1F
100
AcDbEntity
  8
SOLBET_Emulsje_Folie
  6
DASHED2
370
    30
100
AcDbLine
 10
79.16670720461628
 20
81.64075362603188
 30
0.0
 11
83.33598008586944
 21
85.81002650728454
 31
0.0
  0
CIRCLE
  5
7CFF
330
1F
100
AcDbEntity
  8
SOLBET_Wymiary_Opisy
100
AcDbCircle
 10
97.17358220228527
 20
89.51439713466015
 30
0.0
 40
33.6397017240473
  0
MTEXT
  5
7D00
102
{ACAD_XDICTIONARY
360
7E6C
102
}
330
1F
100
AcDbEntity
  8
SOLBET_Wymiary_Opisy
100
AcDbMText
 10
83.83898488267687
 20
141.5883763019777
 30
0.0
 40
5.0
 41
30.77919768571883
 71
     1
 72
     5
  1
\pxqc;C\P(5 : 1)
  7
Solbet_5
 73
     1
 44
1.0
1001
ACAD
1000
MTEXTBEGIN
1070
    73
1070
     1
1070
    44
1040
1.0
1070
    74
1070
     0
1000
MTEXTEND
1000
ACAD_MTEXT_DEFINED_HEIGHT_BEGIN
1070
    46
1040
23.42535011036716
1000
ACAD_MTEXT_DEFINED_HEIGHT_END
  0
LINE
  5
7D01
330
1F
100
AcDbEntity
  8
SOLBET_Zaprawy
100
AcDbLine
 10
106.252356570291
 20
121.9058371776363
 30
0.0
 11
106.252356570291
 21
96.26005612766029
 31
0.0
  0
LINE
  5
7D02
330
1F
100
AcDbEntity
  8
SOLBET_Zaprawy
100
AcDbLine
 10
99.67768711678457
 20
123.0607678870984
 30
0.0
 11
99.67768711678457
 21
96.26005612766029
 31
0.0
  0
LINE
  5
7DA4
330
1F
100
AcDbEntity
  8
SOLBET_Beton
100
AcDbLine
 10
224.4834015571578
 20
154.7431271252899
 30
0.0
 11
224.4834015571579
 21
147.24312712529
 31
0.0
  0
LINE
  5
7DA5
330
1F
100
AcDbEntity
  8
SOLBET_Beton
100
AcDbLine
 10
224.4834015571576
 20
147.24312712529
 30
0.0
 11
279.9412758847347
 21
147.24312712529
 31
0.0
  0
LINE
  5
7DBA
330
1F
100
AcDbEntity
  8
SOLBET_Beton
100
AcDbLine
 10
211.641275884735
 20
135.4743318922544
 30
0.0
 11
211.641275884735
 21
135.9743318922545
 31
0.0
  0
LINE
  5
7DBB
330
1F
100
AcDbEntity
  8
SOLBET_Beton
100
AcDbLine
 10
224.141275884735
 20
135.4743318922544
 30
0.0
 11
224.1412758847349
 21
135.9743318922545
 31
0.0
  0
LINE
  5
7DBC
330
1F
100
AcDbEntity
  8
SOLBET_Beton
100
AcDbLine
 10
224.141275884735
 20
141.9743318922545
 30
0.0
 11
224.1412758847349
 21
142.4743318922546
 31
0.0
  0
LWPOLYLINE
  5
7DBD
330
1F
100
AcDbEntity
  8
SOLBET_Beton
100
AcDbPolyline
 90
        4
 70
     0
 43
0.0
 10
224.141275884735
 20
142.4743318922546
 10
224.141275884735
 20
148.4743318922546
 10
211.641275884735
 20
148.4743318922546
 10
211.641275884735
 20
142.4743318922546
  0
LINE
  5
7DBE
330
1F
100
AcDbEntity
  8
SOLBET_Beton
100
AcDbLine
 10
211.641275884735
 20
148.9743318922546
 30
0.0
 11
211.641275884735
 21
148.4743318922546
 31
0.0
  0
LINE
  5
7DBF
330
1F
100
AcDbEntity
  8
SOLBET_Beton
100
AcDbLine
 10
224.141275884735
 20
148.9743318922547
 30
0.0
 11
211.641275884735
 21
148.9743318922547
 31
0.0
  0
LINE
  5
7DC0
330
1F
100
AcDbEntity
  8
SOLBET_Beton
100
AcDbLine
 10
224.141275884735
 20
148.4743318922546
 30
0.0
 11
224.1412758847349
 21
148.9743318922547
 31
0.0
  0
LWPOLYLINE
  5
7DD0
330
1F
100
AcDbEntity
  8
SOLBET_Beton
100
AcDbPolyline
 90
        4
 70
     0
 43
0.0
 10
224.1139909684242
 20
100.3458851644869
 10
224.1139909684242
 20
106.3458851644869
 10
211.6139909684242
 20
106.3458851644869
 10
211.6139909684242
 20
100.3458851644869
  0
LINE
  5
7DD1
330
1F
100
AcDbEntity
  8
SOLBET_Beton
100
AcDbLine
 10
211.6139909684242
 20
106.8458851644869
 30
0.0
 11
211.6139909684242
 21
106.3458851644869
 31
0.0
  0
LINE
  5
7DD2
330
1F
100
AcDbEntity
  8
SOLBET_Beton
100
AcDbLine
 10
224.1139909684242
 20
100.3458851644869
 30
0.0
 11
211.6139909684242
 21
100.3458851644869
 31
0.0
  0
LINE
  5
7DD3
330
1F
100
AcDbEntity
  8
SOLBET_Beton
100
AcDbLine
 10
224.1139909684242
 20
106.3458851644869
 30
0.0
 11
224.1139909684241
 21
106.845885164487
 31
0.0
  0
LWPOLYLINE
  5
7DD4
330
1F
100
AcDbEntity
  8
SOLBET_Beton
100
AcDbPolyline
 90
        4
 70
     0
 43
0.0
 10
224.1139909684242
 20
106.845885164487
 10
224.1139909684242
 20
112.8458851644871
 10
211.6139909684242
 20
112.8458851644871
 10
211.6139909684242
 20
106.845885164487
  0
LINE
  5
7DD5
330
1F
100
AcDbEntity
  8
SOLBET_Beton
100
AcDbLine
 10
211.6139909684242
 20
113.345885164487
 30
0.0
 11
211.6139909684242
 21
112.8458851644871
 31
0.0
  0
LINE
  5
7DD6
330
1F
100
AcDbEntity
  8
SOLBET_Beton
100
AcDbLine
 10
224.1139909684242
 20
106.845885164487
 30
0.0
 11
211.6139909684242
 21
106.845885164487
 31
0.0
  0
LINE
  5
7DD7
330
1F
100
AcDbEntity
  8
SOLBET_Beton
100
AcDbLine
 10
224.1139909684242
 20
112.8458851644871
 30
0.0
 11
224.1139909684241
 21
113.3458851644872
 31
0.0
  0
LWPOLYLINE
  5
7DD8
330
1F
100
AcDbEntity
  8
SOLBET_Beton
100
AcDbPolyline
 90
        4
 70
     0
 43
0.0
 10
224.1139909684242
 20
113.0958851644871
 10
224.1139909684242
 20
119.0958851644871
 10
211.6139909684242
 20
119.0958851644871
 10
211.6139909684242
 20
113.0958851644871
  0
LINE
  5
7DD9
330
1F
100
AcDbEntity
  8
SOLBET_Beton
100
AcDbLine
 10
211.6139909684242
 20
119.5958851644871
 30
0.0
 11
211.6139909684242
 21
119.0958851644871
 31
0.0
  0
LINE
  5
7DDA
330
1F
100
AcDbEntity
  8
SOLBET_Beton
100
AcDbLine
 10
224.1139909684242
 20
113.0958851644871
 30
0.0
 11
211.6139909684242
 21
113.0958851644871
 31
0.0
  0
LINE
  5
7DDB
330
1F
100
AcDbEntity
  8
SOLBET_Beton
100
AcDbLine
 10
224.1139909684242
 20
119.0958851644871
 30
0.0
 11
224.1139909684241
 21
119.5958851644872
 31
0.0
  0
LWPOLYLINE
  5
7DDC
330
1F
100
AcDbEntity
  8
SOLBET_Beton
100
AcDbPolyline
 90
        4
 70
     0
 43
0.0
 10
224.1139909684242
 20
119.5958851644872
 10
224.1139909684242
 20
125.5958851644872
 10
211.6139909684242
 20
125.5958851644872
 10
211.6139909684242
 20
119.5958851644872
  0
LINE
  5
7DDD
330
1F
100
AcDbEntity
  8
SOLBET_Beton
100
AcDbLine
 10
211.6139909684242
 20
126.0958851644872
 30
0.0
 11
211.6139909684242
 21
125.5958851644872
 31
0.0
  0
LINE
  5
7DDE
330
1F
100
AcDbEntity
  8
SOLBET_Beton
100
AcDbLine
 10
224.1139909684242
 20
119.5958851644872
 30
0.0
 11
211.6139909684242
 21
119.5958851644872
 31
0.0
  0
LINE
  5
7DDF
330
1F
100
AcDbEntity
  8
SOLBET_Beton
100
AcDbLine
 10
224.1139909684242
 20
125.5958851644872
 30
0.0
 11
224.1139909684241
 21
126.0958851644873
 31
0.0
  0
LINE
  5
7DE2
330
1F
100
AcDbEntity
  8
SOLBET_Beton
100
AcDbLine
 10
224.1139909684242
 20
126.0958851644873
 30
0.0
 11
211.6139909684242
 21
126.0958851644873
 31
0.0
  0
LINE
  5
7DE4
330
1F
100
AcDbEntity
  8
SOLBET_Beton
100
AcDbLine
 10
211.6139909684242
 20
126.0958851644873
 30
0.0
 11
211.6139909684243
 21
127.84312712529
 31
0.0
  0
LINE
  5
7DE6
330
1F
100
AcDbEntity
  8
SOLBET_Beton
100
AcDbLine
 10
224.1139909684241
 20
126.0958851644873
 30
0.0
 11
224.1139909684241
 21
127.84312712529
 31
0.0
  0
LINE
  5
7DE7
330
1F
100
AcDbEntity
  8
SOLBET_Beton
100
AcDbLine
 10
224.141275884735
 20
148.9743318922547
 30
0.0
 11
224.1412758847349
 21
154.8743913742542
 31
0.0
  0
LINE
  5
7DE8
330
1F
100
AcDbEntity
  8
SOLBET_Beton
100
AcDbLine
 10
224.1447244876073
 20
154.8743913742542
 30
0.0
 11
211.6447244876073
 21
154.8743913742542
 31
0.0
  0
LINE
  5
7DE9
330
1F
100
AcDbEntity
  8
SOLBET_Beton
100
AcDbLine
 10
211.6447244876073
 20
154.8743913742542
 30
0.0
 11
211.641275884735
 21
148.9743318922547
 31
0.0
  0
INSERT
  5
7EBC
330
1F
100
AcDbEntity
  8
SOLBET_Bloczki
100
AcDbBlockReference
  2
SOLBET_Bloczek_Optimal_240x240x590_P+W_KG400_PRA
 10
211.9590054485152
 20
179.7431270017277
 30
0.0
  0
INSERT
  5
7EBD
330
1F
100
AcDbEntity
  8
SOLBET_Bloczki
100
AcDbBlockReference
  2
SOLBET_Bloczek_Optimal_240x240x590_P+W_KG400_PRA
 10
211.9590054485152
 20
167.7431270017277
 30
0.0
  0
INSERT
  5
7EBE
330
1F
100
AcDbEntity
  8
SOLBET_Bloczki
100
AcDbBlockReference
  2
SOLBET_Bloczek_Optimal_240x240x590_P+W_KG400_PRA
 10
211.9590054485152
 20
155.7431270017277
 30
0.0
  0
MTEXT
  5
7F3B
102
{ACAD_XDICTIONARY
360
7F3C
102
}
330
1F
100
AcDbEntity
  8
SOLBET_Wymiary_Opisy
100
AcDbMText
 10
301.2542633255816
 20
7.273150535415538
 30
0.0
 40
5.0
 41
0.0
 71
     1
 72
     5
  1
Skala 1:20
  7
Solbet_5
 73
     1
 44
1.0
1001
ACAD
1000
MTEXTBEGIN
1070
    73
1070
     1
1070
    44
1040
1.0
1070
    74
1070
     0
1000
MTEXTEND
1000
ACAD_MTEXT_DEFINED_HEIGHT_BEGIN
1070
    46
1040
5.395147572682731
1000
ACAD_MTEXT_DEFINED_HEIGHT_END
  0
LWPOLYLINE
  5
7F3E
330
1F
100
AcDbEntity
  8
SOLBET_Ramka_05
100
AcDbPolyline
 90
        4
 70
     1
 43
0.0
 10
298.2355972046678
 20
9.804221198935465
 10
334.35177409209
 20
9.804221198935465
 10
334.35177409209
 20
0.0
 10
298.2355972046678
 20
0.0
  0
POINT
  5
7F3F
330
1F
100
AcDbEntity
  8
SOLBET_Ramka_05
100
AcDbPoint
 10
0.0
 20
0.0
 30
0.0
  0
ENDSEC
  0
SECTION
  2
OBJECTS
  0
DICTIONARY
  5
C
330
0
100
AcDbDictionary
281
     1
  3
ACAD_COLOR
350
6B
  3
ACAD_GROUP
350
D
  3
ACAD_LAYOUT
350
1A
  3
ACAD_MATERIAL
350
6A
  3
ACAD_MLEADERSTYLE
350
12D
  3
ACAD_MLINESTYLE
350
17
  3
ACAD_PLOTSETTINGS
350
19
  3
ACAD_PLOTSTYLENAME
350
E
  3
ACAD_SCALELIST
350
10C
  3
ACAD_TABLESTYLE
350
7E
  3
ACAD_VISUALSTYLE
350
EF
  3
ACDB_RECOMPOSE_DATA
350
15D
  3
AcDbVariableDictionary
350
5E
  3
DWGPROPS
350
7F7E
  0
DICTIONARY
  5
443
330
8
100
AcDbDictionary
280
     1
281
     1
  0
DICTIONARY
  5
3E5
330
2
100
AcDbDictionary
280
     1
281
     1
  3
ACAD_LAYERFILTERS
360
1883
  3
ACLYDICTIONARY
360
1882
  0
DICTIONARY
  5
13C
330
10
100
AcDbDictionary
280
     1
281
     1
  3
ADSK_XREC_LAYER_RECONCILED
360
3F4
  0
DICTIONARY
  5
403
330
3DD
100
AcDbDictionary
280
     1
281
     1
  3
ADSK_XREC_LAYER_RECONCILED
360
404
  0
DICTIONARY
  5
405
330
3DF
100
AcDbDictionary
280
     1
281
     1
  3
ADSK_XREC_LAYER_RECONCILED
360
406
  0
DICTIONARY
  5
407
330
3E0
100
AcDbDictionary
280
     1
281
     1
  3
ADSK_XREC_LAYER_RECONCILED
360
408
  0
DICTIONARY
  5
409
330
3E1
100
AcDbDictionary
280
     1
281
     1
  3
ADSK_XREC_LAYER_RECONCILED
360
40A
  0
DICTIONARY
  5
40B
330
3E2
100
AcDbDictionary
280
     1
281
     1
  3
ADSK_XREC_LAYER_RECONCILED
360
40C
  0
DICTIONARY
  5
40D
330
3E3
100
AcDbDictionary
280
     1
281
     1
  3
ADSK_XREC_LAYER_RECONCILED
360
40E
  0
DICTIONARY
  5
40F
330
3E4
100
AcDbDictionary
280
     1
281
     1
  3
ADSK_XREC_LAYER_RECONCILED
360
410
  0
DICTIONARY
  5
411
330
3E8
100
AcDbDictionary
280
     1
281
     1
  3
ADSK_XREC_LAYER_RECONCILED
360
412
  0
DICTIONARY
  5
4A3
330
1F
100
AcDbDictionary
280
     1
281
     1
  3
ACAD_SORTENTS
360
4A4
  0
DICTIONARY
  5
6F6A
330
6F5E
100
AcDbDictionary
280
     1
281
     1
  3
ACAD_SORTENTS
360
6F6B
  0
DICTIONARY
  5
7EB8
330
7EAC
100
AcDbDictionary
280
     1
281
     1
  3
ACAD_SORTENTS
360
7EB9
  0
DICTIONARY
  5
7F8D
330
70C9
100
AcDbDictionary
280
     1
281
     1
  3
ACAD_MTEXT_RT
360
7F8E
  0
DICTIONARY
  5
7F8F
330
70D7
100
AcDbDictionary
280
     1
281
     1
  3
ACAD_MTEXT_RT
360
7F90
  0
DICTIONARY
  5
7F91
330
70D9
100
AcDbDictionary
280
     1
281
     1
  3
ACAD_MTEXT_RT
360
7F92
  0
DICTIONARY
  5
7E64
330
7117
100
AcDbDictionary
280
     1
281
     1
  3
ACAD_MTEXT_2008_RT
360
7E65
  0
DICTIONARY
  5
7F93
330
715F
100
AcDbDictionary
280
     1
281
     1
  3
ACAD_MTEXT_RT
360
7F94
  0
DICTIONARY
  5
7E66
330
73E8
100
AcDbDictionary
280
     1
281
     1
  3
ACAD_MTEXT_2008_RT
360
7E67
  0
DICTIONARY
  5
7F95
330
73EC
100
AcDbDictionary
280
     1
281
     1
  3
ACAD_MTEXT_RT
360
7F96
  0
DICTIONARY
  5
7F97
330
73F2
100
AcDbDictionary
280
     1
281
     1
  3
ACAD_MTEXT_RT
360
7F98
  0
DICTIONARY
  5
7E68
330
7401
100
AcDbDictionary
280
     1
281
     1
  3
ACAD_MTEXT_2008_RT
360
7E69
  0
DICTIONARY
  5
7E6A
330
7429
100
AcDbDictionary
280
     1
281
     1
  3
ACAD_MTEXT_2008_RT
360
7E6B
  0
DICTIONARY
  5
7F99
330
742F
100
AcDbDictionary
280
     1
281
     1
  3
ACAD_MTEXT_RT
360
7F9A
  0
DICTIONARY
  5
7F9B
330
7988
100
AcDbDictionary
280
     1
281
     1
  3
ACAD_MTEXT_RT
360
7F9C
  0
DICTIONARY
  5
7F9D
330
7989
100
AcDbDictionary
280
     1
281
     1
  3
ACAD_MTEXT_RT
360
7F9E
  0
DICTIONARY
  5
7E6C
330
7D00
100
AcDbDictionary
280
     1
281
     1
  3
ACAD_MTEXT_2008_RT
360
7E6D
  0
DICTIONARY
  5
7F3C
330
7F3B
100
AcDbDictionary
280
     1
281
     1
  3
ACAD_MTEXT_2008_RT
360
7F3D
  0
DICTIONARY
  5
6B
102
{ACAD_REACTORS
330
C
102
}
330
C
100
AcDbDictionary
281
     1
  0
DICTIONARY
  5
D
102
{ACAD_REACTORS
330
C
102
}
330
C
100
AcDbDictionary
281
     1
  0
DICTIONARY
  5
1A
102
{ACAD_REACTORS
330
C
102
}
330
C
100
AcDbDictionary
281
     1
  3
Arkusz1
350
D3
  3
Arkusz2
350
D7
  3
Model
350
22
  0
DICTIONARY
  5
6A
102
{ACAD_REACTORS
330
C
102
}
330
C
100
AcDbDictionary
281
     1
  3
ByBlock
350
ED
  3
ByLayer
350
EC
  3
Global
350
EE
  0
DICTIONARY
  5
12D
102
{ACAD_REACTORS
330
C
102
}
330
C
100
AcDbDictionary
281
     1
  3
Standard
350
12E
  0
DICTIONARY
  5
17
102
{ACAD_REACTORS
330
C
102
}
330
C
100
AcDbDictionary
281
     1
  3
SOLBET_IZOLACJA
350
7E9
  3
Standard
350
18
  0
DICTIONARY
  5
19
102
{ACAD_REACTORS
330
C
102
}
330
C
100
AcDbDictionary
281
     1
  3
Ustawienia1
350
4FA3
  0
ACDBDICTIONARYWDFLT
  5
E
102
{ACAD_REACTORS
330
C
102
}
330
C
100
AcDbDictionary
281
     1
  3
Normal
350
F
100
AcDbDictionaryWithDefault
340
F
  0
DICTIONARY
  5
10C
102
{ACAD_REACTORS
330
C
102
}
330
C
100
AcDbDictionary
281
     1
  3
A0
350
10D
  3
A1
350
188
  3
A2
350
189
  3
A3
350
18A
  3
A4
350
18B
  3
A5
350
18C
  3
A6
350
18D
  3
A7
350
18E
  3
A8
350
18F
  3
A9
350
190
  3
B0
350
191
  3
B1
350
192
  3
B2
350
193
  3
B3
350
194
  3
B4
350
195
  3
B5
350
196
  3
B6
350
197
  3
B7
350
198
  3
B8
350
199
  3
B9
350
19A
  3
C0
350
19B
  3
C1
350
19C
  3
C2
350
19D
  3
C3
350
19E
  3
C4
350
19F
  3
C5
350
1A0
  3
C6
350
1A1
  3
C7
350
1A2
  3
C8
350
1A3
  3
C9
350
1A4
  3
D0
350
1A5
  3
D1
350
1A6
  3
D2
350
1A7
  0
DICTIONARY
  5
7E
102
{ACAD_REACTORS
330
C
102
}
330
C
100
AcDbDictionary
281
     1
  3
Standard
350
7F
  0
DICTIONARY
  5
EF
102
{ACAD_REACTORS
330
C
102
}
330
C
100
AcDbDictionary
281
     1
  3
2dWireframe
350
F5
  3
3D Hidden
350
F7
  3
3dWireframe
350
F6
  3
Basic
350
F4
  3
Brighten
350
FB
  3
ColorChange
350
FF
  3
Conceptual
350
F8
  3
Dim
350
FA
  3
Facepattern
350
FE
  3
Flat
350
F0
  3
FlatWithEdges
350
F1
  3
Gouraud
350
F2
  3
GouraudWithEdges
350
F3
  3
Linepattern
350
FD
  3
Realistic
350
F9
  3
Thicken
350
FC
  0
XRECORD
  5
15D
102
{ACAD_REACTORS
330
C
102
}
330
C
100
AcDbXrecord
280
     1
 90
        1
330
7F
330
7117
330
73E8
330
7401
330
7429
330
7D00
  0
DICTIONARY
  5
5E
102
{ACAD_REACTORS
330
C
102
}
330
C
100
AcDbDictionary
281
     1
  3
CANNOSCALE
350
146
  3
CMLEADERSTYLE
350
145
  3
CTABLESTYLE
350
84
  3
DIMASSOC
350
5F
  3
HIDETEXT
350
63
  3
INDEXCTL
350
466
  3
LIGHTINGUNITS
350
464
  3
MSLTSCALE
350
463
  3
PSOLHEIGHT
350
7F7D
  3
PSOLWIDTH
350
7F7C
  3
SORTENTS
350
465
  0
XRECORD
  5
7F7E
102
{ACAD_REACTORS
330
C
102
}
330
C
100
AcDbXrecord
280
     1
  1
DWGPROPS COOKIE
  2

  3

  4

  6

  7

  8
Olus
  9

300
=
301
=
302
=
303
=
304
=
305
=
306
=
307
=
308
=
309
=
 40
0.9727408333333332
 41
2454690.075573148
 42
2454848.838964028
  1

 90
        0
  0
DICTIONARY
  5
1883
102
{ACAD_REACTORS
330
3E5
102
}
330
3E5
100
AcDbDictionary
281
     1
  0
DICTIONARY
  5
1882
102
{ACAD_REACTORS
330
3E5
102
}
330
3E5
100
AcDbDictionary
281
     1
1001
ACAD
1000
<All
  0
XRECORD
  5
3F4
102
{ACAD_REACTORS
330
13C
102
}
330
13C
100
AcDbXrecord
280
     1
290
     1
  0
XRECORD
  5
404
102
{ACAD_REACTORS
330
403
102
}
330
403
100
AcDbXrecord
280
     1
290
     1
  0
XRECORD
  5
406
102
{ACAD_REACTORS
330
405
102
}
330
405
100
AcDbXrecord
280
     1
290
     1
  0
XRECORD
  5
408
102
{ACAD_REACTORS
330
407
102
}
330
407
100
AcDbXrecord
280
     1
290
     1
  0
XRECORD
  5
40A
102
{ACAD_REACTORS
330
409
102
}
330
409
100
AcDbXrecord
280
     1
290
     1
  0
XRECORD
  5
40C
102
{ACAD_REACTORS
330
40B
102
}
330
40B
100
AcDbXrecord
280
     1
290
     1
  0
XRECORD
  5
40E
102
{ACAD_REACTORS
330
40D
102
}
330
40D
100
AcDbXrecord
280
     1
290
     1
  0
XRECORD
  5
410
102
{ACAD_REACTORS
330
40F
102
}
330
40F
100
AcDbXrecord
280
     1
290
     1
  0
XRECORD
  5
412
102
{ACAD_REACTORS
330
411
102
}
330
411
100
AcDbXrecord
280
     1
290
     1
  0
SORTENTSTABLE
  5
4A4
102
{ACAD_REACTORS
330
4A3
102
}
330
4A3
100
AcDbSortentsTable
330
1F
331
7430
  5
79F2
331
6034
  5
6036
331
787F
  5
60FC
331
6F84
  5
73EB
331
7887
  5
6120
331
72FA
  5
787F
331
73E9
  5
7882
331
6126
  5
72D9
331
6054
  5
6056
331
70D4
  5
73F4
331
788F
  5
612D
331
7A69
  5
7A6D
331
78B2
  5
6F6E
331
7C98
  5
7C9F
331
7A71
  5
7C83
331
7CA0
  5
7CAB
331
7DDE
  5
7DE4
331
7DE6
  5
7DE9
331
79F2
  5
7A0F
331
72C3
  5
784C
331
73F1
  5
789C
331
7840
  5
79F6
331
6BBE
  5
602E
331
60DF
  5
70D6
331
6064
  5
6066
331
7372
  5
7884
331
73F9
  5
78A4
331
7401
  5
78AE
331
6EBE
  5
7373
331
60F7
  5
7128
331
6074
  5
6076
331
6107
  5
712D
331
712C
  5
7428
331
72E3
  5
787A
331
739A
  5
788A
331
7429
  5
78B0
331
7CE0
  5
7CE1
331
7A0A
  5
7A68
331
7893
  5
6131
331
7CE8
  5
7CF2
331
7A22
  5
73F1
331
789B
  5
6144
331
7A2A
  5
7893
331
78A3
  5
6E3F
331
7C89
  5
7C8A
331
7DBF
  5
7DBF
331
7CF8
  5
7CF9
331
7C91
  5
7C92
331
78AB
  5
6F09
331
7DD7
  5
7DDA
331
7878
  5
60DF
331
73BA
  5
788E
331
6035
  5
6037
331
7880
  5
6101
331
7888
  5
6121
331
6055
  5
6058
331
70D5
  5
73F5
331
605D
  5
605F
331
7D00
  5
7D01
331
7A6A
  5
7A6F
331
78B3
  5
6F71
331
7DDF
  5
7DE6
331
7DE7
  5
7DD0
331
79F3
  5
7A22
331
6F26
  5
73BA
331
60E0
  5
70D7
331
72C4
  5
784D
331
73F2
  5
789D
331
72D4
  5
7861
331
7373
  5
7885
331
73FA
  5
78A5
331
6F46
  5
6F84
331
606D
  5
606F
331
7861
  5
7A0B
331
6075
  5
6077
331
712D
  5
7429
331
739B
  5
788C
331
602E
  5
602F
331
7CE1
  5
7CE2
331
7A0B
  5
7A69
331
7894
  5
6132
331
7A23
  5
73F2
331
789C
  5
6145
331
78A4
  5
6EBD
331
7A2B
  5
7894
331
7C8A
  5
7C8B
331
7DC0
  5
7DC0
331
7CF9
  5
7CFA
331
78AC
  5
6F26
331
7C92
  5
7C93
331
7DD0
  5
7DD3
331
7879
  5
60E0
331
6036
  5
6038
331
73BB
  5
788F
331
7881
  5
6102
331
6F0F
  5
739B
331
6120
  5
718A
331
6F86
  5
73EC
331
7889
  5
6123
331
6056
  5
6059
331
73EB
  5
7896
331
70D6
  5
73F6
331
7D01
  5
7D02
331
78B4
  5
6F74
331
7A6B
  5
7A6E
331
7DD8
  5
7DDB
331
7DE8
  5
7DD1
331
79F4
  5
7A23
331
6F27
  5
73D6
331
72C5
  5
784E
331
73F3
  5
789E
331
606E
  5
6070
331
72D5
  5
7874
331
7374
  5
7886
331
73FB
  5
78A7
331
6076
  5
6078
331
6EC0
  5
7376
331
602F
  5
6030
331
712E
  5
742E
331
7CE2
  5
7CE3
331
7A0C
  5
7A6A
331
7895
  5
6133
331
7C83
  5
7C84
331
789D
  5
6146
331
7CF2
  5
7CF3
331
7C8B
  5
7C8C
331
78A5
  5
6EC0
331
7CFA
  5
7CFB
331
7C93
  5
7C94
331
78AD
  5
6F27
331
7DD1
  5
7DD4
331
6037
  5
6039
331
715E
  5
742F
331
787A
  5
60F7
331
7882
  5
6103
331
6F87
  5
73EE
331
72F5
  5
787C
331
744B
  5
79F3
331
788A
  5
6124
331
6131
  5
7359
331
73EC
  5
7897
331
605F
  5
6061
331
70D7
  5
73F7
331
7D02
  5
7DA4
331
7DD9
  5
7DDC
331
7CAB
  5
7CAC
331
7DE9
  5
7DD2
331
7CDB
  5
7CDC
331
79F5
  5
7A2A
331
6067
  5
6069
331
73F4
  5
789F
331
606F
  5
6071
331
6F58
  5
73E7
331
7117
  5
73FC
331
72D6
  5
7875
331
73FC
  5
78A8
331
6077
  5
6079
331
7127
  5
73FE
331
742C
  5
78B4
331
7CE3
  5
7CE4
331
7A0D
  5
78B1
331
7896
  5
613F
331
7C84
  5
7C85
331
789E
  5
6147
331
7DBA
  5
7DBA
331
7CF3
  5
7CF4
331
7C8C
  5
7C8D
331
78A6
  5
6EC3
331
7CFB
  5
7CFC
331
7C94
  5
7C95
331
78AE
  5
6F35
331
7DD2
  5
7DD5
331
6112
  5
712F
331
6097
  5
6099
331
611A
  5
7131
331
715F
  5
7430
331
787B
  5
60F8
331
7883
  5
6108
331
609F
  5
70CA
331
72F6
  5
787D
331
744C
  5
79F4
331
788B
  5
6129
331
73ED
  5
7898
331
7A6D
  5
7B85
331
7DDA
  5
7DDD
331
7DE2
  5
7DE7
331
7CAC
  5
7CAD
331
7B85
  5
73FF
331
79F6
  5
7A2B
331
7CDC
  5
7CDD
331
6060
  5
6062
331
70D8
  5
73F8
331
73F5
  5
78A0
331
6070
  5
6072
331
72D7
  5
7876
331
7376
  5
7887
331
73FD
  5
78AA
331
784C
  5
7A08
331
6078
  5
607A
331
7874
  5
609B
331
742D
  5
7987
331
7CE4
  5
7CE5
331
7A0E
  5
78B2
331
7897
  5
6140
331
7C85
  5
7C86
331
789F
  5
6148
331
7DBB
  5
7DBB
331
7CF4
  5
7CF5
331
7C8D
  5
7C8E
331
78A7
  5
6ECA
331
7CFC
  5
7CFD
331
7A3E
  5
7890
331
78AF
  5
6F51
331
7C95
  5
7C96
331
7DD3
  5
7DD6
331
6ECA
  5
7378
331
6098
  5
609A
331
6039
  5
603B
331
611B
  5
7132
331
7160
  5
744B
331
787C
  5
60F9
331
7884
  5
6109
331
73D6
  5
7892
331
72F7
  5
787E
331
60A0
  5
70CB
331
70C9
  5
73F3
331
7188
  5
744C
331
788C
  5
612A
331
6133
  5
735C
331
73EE
  5
7899
331
7A6E
  5
7A70
331
7DDB
  5
7DDE
331
7987
  5
7A0C
331
7CAD
  5
7CAE
331
7B86
  5
7400
331
7CDD
  5
7CDE
331
70D9
  5
73F9
331
6069
  5
606B
331
735F
  5
7840
331
73F6
  5
78A1
331
6071
  5
6073
331
72D8
  5
7877
331
7377
  5
7888
331
73FE
  5
78AB
331
784D
  5
7A09
331
6EC3
  5
7377
331
6104
  5
7129
331
7875
  5
609C
331
742E
  5
7988
331
7890
  5
612E
331
7DA4
  5
7DA5
331
7CE5
  5
7CE6
331
7A0F
  5
78B3
331
7898
  5
6141
331
7DBC
  5
7DBC
331
7C86
  5
7C87
331
78A0
  5
6149
331
7CF5
  5
7CF6
331
7C8E
  5
7C8F
331
78A8
  5
6ECC
331
7CFD
  5
7CFE
331
7A3F
  5
7891
331
7C96
  5
7C97
331
7DD4
  5
7DD7
331
6032
  5
6034
331
72E8
  5
787B
331
611C
  5
715E
331
787D
  5
60FA
331
6052
  5
6054
331
60A1
  5
70D4
331
6124
  5
72C7
331
7885
  5
610A
331
788D
  5
612B
331
605A
  5
605C
331
7330
  5
7880
331
73EF
  5
789A
331
78B0
  5
6F52
331
7A6F
  5
7A71
331
7DDC
  5
7DDF
331
7988
  5
7A0D
331
7DE4
  5
7DE8
331
7CAE
  5
7CDB
331
7CDE
  5
7CDF
331
6062
  5
6064
331
606A
  5
606C
331
6EAC
  5
6033
331
73F7
  5
78A2
331
7378
  5
7889
331
6072
  5
6074
331
72D9
  5
7878
331
73FF
  5
78AC
331
784E
  5
7A0A
331
6105
  5
712A
331
7876
  5
609E
331
742F
  5
7989
331
7A08
  5
7A3E
331
7891
  5
612F
331
7CE6
  5
7CE7
331
7899
  5
6142
331
7DA5
  5
70C8
331
7C87
  5
7C89
331
78A1
  5
6376
331
7DBD
  5
7DBD
331
7CF6
  5
7CF7
331
7C8F
  5
7C90
331
78A9
  5
6ECD
331
7CFE
  5
7CFF
331
7C97
  5
7C98
331
7DD5
  5
7DD8
331
6ECC
  5
739A
331
6115
  5
7130
331
611D
  5
7160
331
787E
  5
60FB
331
6053
  5
6055
331
60A2
  5
70D5
331
718A
  5
783F
331
73E8
  5
7895
331
7886
  5
610B
331
788E
  5
612C
331
7331
  5
7881
331
783F
  5
79F5
331
7A68
  5
7A6B
331
78B1
  5
6F58
331
7A70
  5
7B86
331
7C9F
  5
7CA0
331
7DDD
  5
7DE2
331
7989
  5
7A0E
331
7CDF
  5
7CE0
331
6063
  5
6065
331
73F0
  5
789B
331
7371
  5
7883
331
73F8
  5
78A3
331
6073
  5
6075
331
6EBD
  5
7372
331
7400
  5
78AD
331
712B
  5
7401
331
6106
  5
712B
331
72E2
  5
7879
331
7428
  5
78AF
331
7877
  5
60A0
331
7A09
  5
7A3F
331
7892
  5
6130
331
7CE7
  5
7CE8
331
789A
  5
6143
331
78A2
  5
6A8F
331
7DBE
  5
7DBE
331
7CF7
  5
7CF8
331
7C90
  5
7C91
331
78AA
  5
6EDD
331
7CFF
  5
7D00
331
7DD6
  5
7DD9
  0
SORTENTSTABLE
  5
6F6B
102
{ACAD_REACTORS
330
6F6A
102
}
330
6F6A
100
AcDbSortentsTable
330
6F5E
  0
SORTENTSTABLE
  5
7EB9
102
{ACAD_REACTORS
330
7EB8
102
}
330
7EB8
100
AcDbSortentsTable
330
7EAC
  0
XRECORD
  5
7F8E
102
{ACAD_REACTORS
330
7F8D
102
}
330
7F8D
100
AcDbXrecord
280
     1
 40
33376.0
  1
Tynk zewnętrzny SOLBET
  0
XRECORD
  5
7F90
102
{ACAD_REACTORS
330
7F8F
102
}
330
7F8F
100
AcDbXrecord
280
     1
 40
22651.0
  1
Emulsja izolująca
  0
XRECORD
  5
7F92
102
{ACAD_REACTORS
330
7F91
102
}
330
7F91
100
AcDbXrecord
280
     1
 40
16059.0
  1
Tynk cokołowy
  0
XRECORD
  5
7E65
102
{ACAD_REACTORS
330
7E64
102
}
330
7E64
100
AcDbXrecord
280
     1
 40
24693.0
  1
\pxqc;A\P(5 : 1)
  0
XRECORD
  5
7F94
102
{ACAD_REACTORS
330
7F93
102
}
330
7F93
100
AcDbXrecord
280
     1
 40
190037.0
  1
Mocowanie mechaniczne styropianu\P(w części naziemnej)
  0
XRECORD
  5
7E67
102
{ACAD_REACTORS
330
7E66
102
}
330
7E66
100
AcDbXrecord
280
     1
 40
38784.0
  1
\pxql;Warstwa izolacji termicznej
  0
XRECORD
  5
7F96
102
{ACAD_REACTORS
330
7F95
102
}
330
7F95
100
AcDbXrecord
280
     1
 40
34960.0
  1
Warstwa wykończeniowa
  0
XRECORD
  5
7F98
102
{ACAD_REACTORS
330
7F97
102
}
330
7F97
100
AcDbXrecord
280
     1
 40
42625.0
  1
Płyty izolacyjne twarde
  0
XRECORD
  5
7E69
102
{ACAD_REACTORS
330
7E68
102
}
330
7E68
100
AcDbXrecord
280
     1
 40
24757.0
  1
\pxqc;B\P(5 : 1)
  0
XRECORD
  5
7E6B
102
{ACAD_REACTORS
330
7E6A
102
}
330
7E6A
100
AcDbXrecord
280
     1
 40
23552.0
  1
\pxql;Bloczki SOLBET Optimal 
  0
XRECORD
  5
7F9A
102
{ACAD_REACTORS
330
7F99
102
}
330
7F99
100
AcDbXrecord
280
     1
 40
28851.0
  1
Zagęszczony piasek
  0
XRECORD
  5
7F9C
102
{ACAD_REACTORS
330
7F9B
102
}
330
7F9B
100
AcDbXrecord
280
     1
 40
549755.0
  1
Posadowienie na płycie fundamentowej\Pw gruntach przepuszczalnych wariant ściany z dociepleniem
  0
XRECORD
  5
7F9E
102
{ACAD_REACTORS
330
7F9D
102
}
330
7F9D
100
AcDbXrecord
280
     1
 40
727596.0
  1
Sytemy hydroizolacji stosować wg zaleceń producentów\PStyropian wodoodporny wg zaleceń producentów
  0
XRECORD
  5
7E6D
102
{ACAD_REACTORS
330
7E6C
102
}
330
7E6C
100
AcDbXrecord
280
     1
 40
24748.0
  1
\pxqc;C\P(5 : 1)
  0
XRECORD
  5
7F3D
102
{ACAD_REACTORS
330
7F3C
102
}
330
7F3C
100
AcDbXrecord
280
     1
 40
24748.0
  1
\pxqc;C\P(5 : 1)
  0
LAYOUT
  5
D3
102
{ACAD_XDICTIONARY
360
7F82
102
}
102
{ACAD_REACTORS
330
1A
102
}
330
1A
100
AcDbPlotSettings
  1

  2
C:\Documents and Settings\basas\Application Data\Autodesk\AutoCAD 2005\R16.1\enu\plotters\Default Windows System Printer.pc3
  4

  6

 40
0.0
 41
0.0
 42
0.0
 43
0.0
 44
0.0
 45
0.0
 46
0.0
 47
0.0
 48
0.0
 49
0.0
140
0.0
141
0.0
142
1.0
143
1.0
 70
   688
 72
     0
 73
     0
 74
     5
  7

 75
    16
147
1.0
148
0.0
149
0.0
100
AcDbLayout
  1
Arkusz1
 70
     1
 71
     1
 10
0.0
 20
0.0
 11
12.0
 21
9.0
 12
0.0
 22
0.0
 32
0.0
 14
0.0
 24
0.0
 34
0.0
 15
0.0
 25
0.0
 35
0.0
146
0.0
 13
0.0
 23
0.0
 33
0.0
 16
1.0
 26
0.0
 36
0.0
 17
0.0
 27
1.0
 37
0.0
 76
     0
330
D2
  0
LAYOUT
  5
D7
102
{ACAD_XDICTIONARY
360
7F84
102
}
102
{ACAD_REACTORS
330
1A
102
}
330
1A
100
AcDbPlotSettings
  1

  2
C:\Documents and Settings\basas\Application Data\Autodesk\AutoCAD 2005\R16.1\enu\plotters\Default Windows System Printer.pc3
  4

  6

 40
0.0
 41
0.0
 42
0.0
 43
0.0
 44
0.0
 45
0.0
 46
0.0
 47
0.0
 48
0.0
 49
0.0
140
0.0
141
0.0
142
1.0
143
1.0
 70
   688
 72
     0
 73
     0
 74
     5
  7

 75
    16
147
1.0
148
0.0
149
0.0
100
AcDbLayout
  1
Arkusz2
 70
     1
 71
     2
 10
0.0
 20
0.0
 11
12.0
 21
9.0
 12
0.0
 22
0.0
 32
0.0
 14
0.0
 24
0.0
 34
0.0
 15
0.0
 25
0.0
 35
0.0
146
0.0
 13
0.0
 23
0.0
 33
0.0
 16
1.0
 26
0.0
 36
0.0
 17
0.0
 27
1.0
 37
0.0
 76
     0
330
D6
  0
LAYOUT
  5
22
102
{ACAD_XDICTIONARY
360
7F7F
102
}
102
{ACAD_REACTORS
330
1A
102
}
330
1A
100
AcDbPlotSettings
  1

  2
none_device
  4
Letter_(8.50_x_11.00_Inches)
  6

 40
6.349999904632568
 41
6.349999904632568
 42
6.350006103515625
 43
6.350006103515625
 44
215.8999938964844
 45
279.3999938964844
 46
11.54999923706054
 47
-13.65000009536743
 48
0.0
 49
0.0
140
210.0
141
297.0
142
1.0
143
1.0
 70
 11936
 72
     1
 73
     0
 74
     4
  7

 75
     0
147
0.9999999999999998
148
0.0
149
0.0
100
AcDbLayout
  1
Model
 70
     1
 71
     0
 10
0.0
 20
0.0
 11
12.0
 21
9.0
 12
0.0
 22
0.0
 32
0.0
 14
0.0
 24
0.0
 34
0.0
 15
0.0
 25
0.0
 35
0.0
146
0.0
 13
0.0
 23
0.0
 33
0.0
 16
1.0
 26
0.0
 36
0.0
 17
0.0
 27
1.0
 37
0.0
 76
     0
330
1F
331
EA
1001
ACAD_PSEXT
1000
Brak
1000
Brak
1000
Nie można zastosować.
1000
Arkusz nie zostanie wydrukowany dopóki nie wybrano konfiguracji plotera.
1070
     0
  0
MATERIAL
  5
ED
102
{ACAD_XDICTIONARY
360
7F88
102
}
102
{ACAD_REACTORS
330
6A
102
}
330
6A
100
AcDbMaterial
  1
ByBlock
 73
     2
 78
     2
172
     2
176
     2
270
     2
274
     2
  0
MATERIAL
  5
EC
102
{ACAD_XDICTIONARY
360
7F86
102
}
102
{ACAD_REACTORS
330
6A
102
}
330
6A
100
AcDbMaterial
  1
ByLayer
 73
     2
 78
     2
172
     2
176
     2
270
     2
274
     2
  0
MATERIAL
  5
EE
102
{ACAD_XDICTIONARY
360
173
102
}
102
{ACAD_REACTORS
330
6A
102
}
330
6A
100
AcDbMaterial
  1
Global
 73
     2
 43
0.0007999999797903
 43
0.0
 43
0.0
 43
0.0
 43
0.0
 43
0.0007999999797903
 43
0.0
 43
0.0
 43
0.0
 43
0.0
 43
1.0
 43
0.0
 43
0.0
 43
0.0
 43
0.0
 43
1.0
 78
     2
172
     2
 49
0.0007999999797903
 49
0.0
 49
0.0
 49
0.0
 49
0.0
 49
0.0007999999797903
 49
0.0
 49
0.0
 49
0.0
 49
0.0
 49
1.0
 49
0.0
 49
0.0
 49
0.0
 49
0.0
 49
1.0
176
     2
142
0.0007999999797903
142
0.0
142
0.0
142
0.0
142
0.0
142
0.0007999999797903
142
0.0
142
0.0
142
0.0
142
0.0
142
1.0
142
0.0
142
0.0
142
0.0
142
0.0
142
1.0
270
     2
144
0.0007999999797903
144
0.0
144
0.0
144
0.0
144
0.0
144
0.0007999999797903
144
0.0
144
0.0
144
0.0
144
0.0
144
1.0
144
0.0
144
0.0
144
0.0
144
0.0
144
1.0
274
     2
1001
ACAD
1070
    -1
1070
     3
1070
     0
1000

1071
        0
1070
     0
  0
ACAD_PROXY_OBJECT
  5
12E
102
{ACAD_REACTORS
330
12D
102
}
330
12D
100
AcDbProxyObject
 90
      499
 91
      508
 95
       23
 70
     0
 93
      618
310
40901902A4063FBFFFFFE0000000000000020400000000000020404254DD185B99185C99000000000000000104090140501A0000000000000410000000000000004102576400000000000003903F
340
14
340
0
340
11
340
0
 94
        0
1001
ACAD_MLEADERVER
1070
     2
1001
ACAD
1000
AcRTDxfName
1000
MLEADERSTYLE
1000
AcRTDxfName
1000
MLEADERSTYLE
1000
AcRTDxfName
1000
MLEADERSTYLE
  0
MLINESTYLE
  5
7E9
102
{ACAD_REACTORS
330
17
102
}
330
17
100
AcDbMlineStyle
  2
SOLBET_IZOLACJA
 70
   272
  3

 62
   256
 51
90.0
 52
90.0
 71
     2
 49
0.008
 62
   256
  6
BYLAYER
 49
-0.008
 62
   256
  6
BYLAYER
  0
MLINESTYLE
  5
18
102
{ACAD_REACTORS
330
17
102
}
330
17
100
AcDbMlineStyle
  2
STANDARD
 70
     0
  3

 62
   256
 51
90.0
 52
90.0
 71
     2
 49
0.5
 62
   256
  6
BYLAYER
 49
-0.5
 62
   256
  6
BYLAYER
  0
PLOTSETTINGS
  5
4FA3
102
{ACAD_XDICTIONARY
360
7F8B
102
}
102
{ACAD_REACTORS
330
19
102
}
330
19
100
AcDbPlotSettings
  1
Ustawienia1
  2
PDF995
  4
User66
  6

 40
3.174999952316284
 41
3.174999952316284
 42
3.17498779296875
 43
3.17498779296875
 44
420.0
 45
594.0
 46
11.54999923706054
 47
-13.65000009536743
 48
-316.0724066439061
 49
0.0
140
18.27936744818385
141
297.0
142
1.0
143
1.0
 70
 11936
 72
     1
 73
     0
 74
     4
  7

 75
     0
147
0.9999999999999998
148
316.0724066439061
149
0.0
1001
ACAD_PSEXT
1000
PDF995
1000
PDF995 Printer Driver
1000
PDF995PORT
1000

1070
     0
  0
ACDBPLACEHOLDER
  5
F
102
{ACAD_REACTORS
330
E
102
}
330
E
  0
ACAD_PROXY_OBJECT
  5
10D
102
{ACAD_REACTORS
330
10C
102
}
330
10C
100
AcDbProxyObject
 90
      499
 91
      507
 95
       23
 70
     0
 93
       49
310
904313A31005FF
 94
        0
1001
ACAD
1000
AcRTDxfName
1000
SCALE
1000
AcRTDxfName
1000
SCALE
1000
AcRTDxfName
1000
SCALE
  0
ACAD_PROXY_OBJECT
  5
188
102
{ACAD_REACTORS
330
10C
102
}
330
10C
100
AcDbProxyObject
 90
      499
 91
      507
 95
       23
 70
     0
 93
      113
310
904313A3200400000000000000407F
 94
        0
1001
ACAD
1000
AcRTDxfName
1000
SCALE
1000
AcRTDxfName
1000
SCALE
1000
AcRTDxfName
1000
SCALE
  0
ACAD_PROXY_OBJECT
  5
189
102
{ACAD_REACTORS
330
10C
102
}
330
10C
100
AcDbProxyObject
 90
      499
 91
      507
 95
       23
 70
     0
 93
      113
310
904313A3400400000000000010407F
 94
        0
1001
ACAD
1000
AcRTDxfName
1000
SCALE
1000
AcRTDxfName
1000
SCALE
1000
AcRTDxfName
1000
SCALE
  0
ACAD_PROXY_OBJECT
  5
18A
102
{ACAD_REACTORS
330
10C
102
}
330
10C
100
AcDbProxyObject
 90
      499
 91
      507
 95
       23
 70
     0
 93
      113
310
904313A3500400000000000014407F
 94
        0
1001
ACAD
1000
AcRTDxfName
1000
SCALE
1000
AcRTDxfName
1000
SCALE
1000
AcRTDxfName
1000
SCALE
  0
ACAD_PROXY_OBJECT
  5
18B
102
{ACAD_REACTORS
330
10C
102
}
330
10C
100
AcDbProxyObject
 90
      499
 91
      507
 95
       23
 70
     0
 93
      113
310
904313A3800400000000000020407F
 94
        0
1001
ACAD
1000
AcRTDxfName
1000
SCALE
1000
AcRTDxfName
1000
SCALE
1000
AcRTDxfName
1000
SCALE
  0
ACAD_PROXY_OBJECT
  5
18C
102
{ACAD_REACTORS
330
10C
102
}
330
10C
100
AcDbProxyObject
 90
      499
 91
      507
 95
       23
 70
     0
 93
      121
310
905313A313000400000000000024407F
 94
        0
1001
ACAD
1000
AcRTDxfName
1000
SCALE
1000
AcRTDxfName
1000
SCALE
1000
AcRTDxfName
1000
SCALE
  0
ACAD_PROXY_OBJECT
  5
18D
102
{ACAD_REACTORS
330
10C
102
}
330
10C
100
AcDbProxyObject
 90
      499
 91
      507
 95
       23
 70
     0
 93
      121
310
905313A313600400000000000030407F
 94
        0
1001
ACAD
1000
AcRTDxfName
1000
SCALE
1000
AcRTDxfName
1000
SCALE
1000
AcRTDxfName
1000
SCALE
  0
ACAD_PROXY_OBJECT
  5
18E
102
{ACAD_REACTORS
330
10C
102
}
330
10C
100
AcDbProxyObject
 90
      499
 91
      507
 95
       23
 70
     0
 93
      121
310
905313A323000400000000000034407F
 94
        0
1001
ACAD
1000
AcRTDxfName
1000
SCALE
1000
AcRTDxfName
1000
SCALE
1000
AcRTDxfName
1000
SCALE
  0
ACAD_PROXY_OBJECT
  5
18F
102
{ACAD_REACTORS
330
10C
102
}
330
10C
100
AcDbProxyObject
 90
      499
 91
      507
 95
       23
 70
     0
 93
      121
310
905313A33300040000000000003E407F
 94
        0
1001
ACAD
1000
AcRTDxfName
1000
SCALE
1000
AcRTDxfName
1000
SCALE
1000
AcRTDxfName
1000
SCALE
  0
ACAD_PROXY_OBJECT
  5
190
102
{ACAD_REACTORS
330
10C
102
}
330
10C
100
AcDbProxyObject
 90
      499
 91
      507
 95
       23
 70
     0
 93
      121
310
905313A343000400000000000044407F
 94
        0
1001
ACAD
1000
AcRTDxfName
1000
SCALE
1000
AcRTDxfName
1000
SCALE
1000
AcRTDxfName
1000
SCALE
  0
ACAD_PROXY_OBJECT
  5
191
102
{ACAD_REACTORS
330
10C
102
}
330
10C
100
AcDbProxyObject
 90
      499
 91
      507
 95
       23
 70
     0
 93
      121
310
905313A353000400000000000049407F
 94
        0
1001
ACAD
1000
AcRTDxfName
1000
SCALE
1000
AcRTDxfName
1000
SCALE
1000
AcRTDxfName
1000
SCALE
  0
ACAD_PROXY_OBJECT
  5
192
102
{ACAD_REACTORS
330
10C
102
}
330
10C
100
AcDbProxyObject
 90
      499
 91
      507
 95
       23
 70
     0
 93
      129
310
906313A31303000400000000000059407F
 94
        0
1001
ACAD
1000
AcRTDxfName
1000
SCALE
1000
AcRTDxfName
1000
SCALE
1000
AcRTDxfName
1000
SCALE
  0
ACAD_PROXY_OBJECT
  5
193
102
{ACAD_REACTORS
330
10C
102
}
330
10C
100
AcDbProxyObject
 90
      499
 91
      507
 95
       23
 70
     0
 93
      113
310
904323A3100000000000000001017F
 94
        0
1001
ACAD
1000
AcRTDxfName
1000
SCALE
1000
AcRTDxfName
1000
SCALE
1000
AcRTDxfName
1000
SCALE
  0
ACAD_PROXY_OBJECT
  5
194
102
{ACAD_REACTORS
330
10C
102
}
330
10C
100
AcDbProxyObject
 90
      499
 91
      507
 95
       23
 70
     0
 93
      113
310
904343A3100000000000000041017F
 94
        0
1001
ACAD
1000
AcRTDxfName
1000
SCALE
1000
AcRTDxfName
1000
SCALE
1000
AcRTDxfName
1000
SCALE
  0
ACAD_PROXY_OBJECT
  5
195
102
{ACAD_REACTORS
330
10C
102
}
330
10C
100
AcDbProxyObject
 90
      499
 91
      507
 95
       23
 70
     0
 93
      113
310
904383A3100000000000000081017F
 94
        0
1001
ACAD
1000
AcRTDxfName
1000
SCALE
1000
AcRTDxfName
1000
SCALE
1000
AcRTDxfName
1000
SCALE
  0
ACAD_PROXY_OBJECT
  5
196
102
{ACAD_REACTORS
330
10C
102
}
330
10C
100
AcDbProxyObject
 90
      499
 91
      507
 95
       23
 70
     0
 93
      121
310
90531303A3100000000000000091017F
 94
        0
1001
ACAD
1000
AcRTDxfName
1000
SCALE
1000
AcRTDxfName
1000
SCALE
1000
AcRTDxfName
1000
SCALE
  0
ACAD_PROXY_OBJECT
  5
197
102
{ACAD_REACTORS
330
10C
102
}
330
10C
100
AcDbProxyObject
 90
      499
 91
      507
 95
       23
 70
     0
 93
      129
310
9063130303A3100000000000000165017F
 94
        0
1001
ACAD
1000
AcRTDxfName
1000
SCALE
1000
AcRTDxfName
1000
SCALE
1000
AcRTDxfName
1000
SCALE
  0
ACAD_PROXY_OBJECT
  5
198
102
{ACAD_REACTORS
330
10C
102
}
330
10C
100
AcDbProxyObject
 90
      499
 91
      507
 95
       23
 70
     0
 93
      265
310
90F312F31323822203D2031272D302200000000000000200FC00000000000028407F
 94
        0
1001
ACAD
1000
AcRTDxfName
1000
SCALE
1000
AcRTDxfName
1000
SCALE
1000
AcRTDxfName
1000
SCALE
  0
ACAD_PROXY_OBJECT
  5
199
102
{ACAD_REACTORS
330
10C
102
}
330
10C
100
AcDbProxyObject
 90
      499
 91
      507
 95
       23
 70
     0
 93
      257
310
90E312F363422203D2031272D302200000000000000240FC00000000000028407F
 94
        0
1001
ACAD
1000
AcRTDxfName
1000
SCALE
1000
AcRTDxfName
1000
SCALE
1000
AcRTDxfName
1000
SCALE
  0
ACAD_PROXY_OBJECT
  5
19A
102
{ACAD_REACTORS
330
10C
102
}
330
10C
100
AcDbProxyObject
 90
      499
 91
      507
 95
       23
 70
     0
 93
      257
310
90E312F333222203D2031272D302200000000000000280FC00000000000028407F
 94
        0
1001
ACAD
1000
AcRTDxfName
1000
SCALE
1000
AcRTDxfName
1000
SCALE
1000
AcRTDxfName
1000
SCALE
  0
ACAD_PROXY_OBJECT
  5
19B
102
{ACAD_REACTORS
330
10C
102
}
330
10C
100
AcDbProxyObject
 90
      499
 91
      507
 95
       23
 70
     0
 93
      257
310
90E312F313622203D2031272D3022000000000000002C0FC00000000000028407F
 94
        0
1001
ACAD
1000
AcRTDxfName
1000
SCALE
1000
AcRTDxfName
1000
SCALE
1000
AcRTDxfName
1000
SCALE
  0
ACAD_PROXY_OBJECT
  5
19C
102
{ACAD_REACTORS
330
10C
102
}
330
10C
100
AcDbProxyObject
 90
      499
 91
      507
 95
       23
 70
     0
 93
      257
310
90E332F333222203D2031272D3022000000000000002E0FC00000000000028407F
 94
        0
1001
ACAD
1000
AcRTDxfName
1000
SCALE
1000
AcRTDxfName
1000
SCALE
1000
AcRTDxfName
1000
SCALE
  0
ACAD_PROXY_OBJECT
  5
19D
102
{ACAD_REACTORS
330
10C
102
}
330
10C
100
AcDbProxyObject
 90
      499
 91
      507
 95
       23
 70
     0
 93
      249
310
90D312F3822203D2031272D302200000000000000300FC00000000000028407F
 94
        0
1001
ACAD
1000
AcRTDxfName
1000
SCALE
1000
AcRTDxfName
1000
SCALE
1000
AcRTDxfName
1000
SCALE
  0
ACAD_PROXY_OBJECT
  5
19E
102
{ACAD_REACTORS
330
10C
102
}
330
10C
100
AcDbProxyObject
 90
      499
 91
      507
 95
       23
 70
     0
 93
      257
310
90E332F313622203D2031272D302200000000000000320FC00000000000028407F
 94
        0
1001
ACAD
1000
AcRTDxfName
1000
SCALE
1000
AcRTDxfName
1000
SCALE
1000
AcRTDxfName
1000
SCALE
  0
ACAD_PROXY_OBJECT
  5
19F
102
{ACAD_REACTORS
330
10C
102
}
330
10C
100
AcDbProxyObject
 90
      499
 91
      507
 95
       23
 70
     0
 93
      249
310
90D312F3422203D2031272D302200000000000000340FC00000000000028407F
 94
        0
1001
ACAD
1000
AcRTDxfName
1000
SCALE
1000
AcRTDxfName
1000
SCALE
1000
AcRTDxfName
1000
SCALE
  0
ACAD_PROXY_OBJECT
  5
1A0
102
{ACAD_REACTORS
330
10C
102
}
330
10C
100
AcDbProxyObject
 90
      499
 91
      507
 95
       23
 70
     0
 93
      249
310
90D332F3822203D2031272D302200000000000000360FC00000000000028407F
 94
        0
1001
ACAD
1000
AcRTDxfName
1000
SCALE
1000
AcRTDxfName
1000
SCALE
1000
AcRTDxfName
1000
SCALE
  0
ACAD_PROXY_OBJECT
  5
1A1
102
{ACAD_REACTORS
330
10C
102
}
330
10C
100
AcDbProxyObject
 90
      499
 91
      507
 95
       23
 70
     0
 93
      249
310
90D312F3222203D2031272D302200000000000000380FC00000000000028407F
 94
        0
1001
ACAD
1000
AcRTDxfName
1000
SCALE
1000
AcRTDxfName
1000
SCALE
1000
AcRTDxfName
1000
SCALE
  0
ACAD_PROXY_OBJECT
  5
1A2
102
{ACAD_REACTORS
330
10C
102
}
330
10C
100
AcDbProxyObject
 90
      499
 91
      507
 95
       23
 70
     0
 93
      249
310
90D332F3422203D2031272D3022000000000000003A0FC00000000000028407F
 94
        0
1001
ACAD
1000
AcRTDxfName
1000
SCALE
1000
AcRTDxfName
1000
SCALE
1000
AcRTDxfName
1000
SCALE
  0
ACAD_PROXY_OBJECT
  5
1A3
102
{ACAD_REACTORS
330
10C
102
}
330
10C
100
AcDbProxyObject
 90
      499
 91
      507
 95
       23
 70
     0
 93
      169
310
90B3122203D2031272D302200400000000000028407F
 94
        0
1001
ACAD
1000
AcRTDxfName
1000
SCALE
1000
AcRTDxfName
1000
SCALE
1000
AcRTDxfName
1000
SCALE
  0
ACAD_PROXY_OBJECT
  5
1A4
102
{ACAD_REACTORS
330
10C
102
}
330
10C
100
AcDbProxyObject
 90
      499
 91
      507
 95
       23
 70
     0
 93
      265
310
90F312D312F3222203D2031272D3022000000000000003E0FC00000000000028407F
 94
        0
1001
ACAD
1000
AcRTDxfName
1000
SCALE
1000
AcRTDxfName
1000
SCALE
1000
AcRTDxfName
1000
SCALE
  0
ACAD_PROXY_OBJECT
  5
1A5
102
{ACAD_REACTORS
330
10C
102
}
330
10C
100
AcDbProxyObject
 90
      499
 91
      507
 95
       23
 70
     0
 93
      233
310
90B3322203D2031272D3022000000000000000210000000000000028407F
 94
        0
1001
ACAD
1000
AcRTDxfName
1000
SCALE
1000
AcRTDxfName
1000
SCALE
1000
AcRTDxfName
1000
SCALE
  0
ACAD_PROXY_OBJECT
  5
1A6
102
{ACAD_REACTORS
330
10C
102
}
330
10C
100
AcDbProxyObject
 90
      499
 91
      507
 95
       23
 70
     0
 93
      233
310
90B3622203D2031272D3022000000000000000610000000000000028407F
 94
        0
1001
ACAD
1000
AcRTDxfName
1000
SCALE
1000
AcRTDxfName
1000
SCALE
1000
AcRTDxfName
1000
SCALE
  0
ACAD_PROXY_OBJECT
  5
1A7
102
{ACAD_REACTORS
330
10C
102
}
330
10C
100
AcDbProxyObject
 90
      499
 91
      507
 95
       23
 70
     0
 93
      257
310
90E31272D3022203D2031272D3022000000000000000A10000000000000028407F
 94
        0
1001
ACAD
1000
AcRTDxfName
1000
SCALE
1000
AcRTDxfName
1000
SCALE
1000
AcRTDxfName
1000
SCALE
  0
TABLESTYLE
  5
7F
102
{ACAD_XDICTIONARY
360
162
102
}
102
{ACAD_REACTORS
330
7E
102
}
330
7E
100
AcDbTableStyle
  3
Standard
 70
     0
 71
     0
 40
1.5
 41
1.5
280
     0
281
     0
  7
Standard
140
4.5
170
     2
 62
     0
 63
     7
283
     0
274
    -2
284
     1
 64
     0
275
    -2
285
     1
 65
     0
276
    -2
286
     1
 66
     0
277
    -2
287
     1
 67
     0
278
    -2
288
     1
 68
     0
279
    -2
289
     1
 69
     0
  7
Standard
140
6.0
170
     5
 62
     0
 63
     7
283
     0
274
    -2
284
     1
 64
     0
275
    -2
285
     1
 65
     0
276
    -2
286
     1
 66
     0
277
    -2
287
     1
 67
     0
278
    -2
288
     1
 68
     0
279
    -2
289
     1
 69
     0
  7
Standard
140
4.5
170
     5
 62
     0
 63
     7
283
     0
274
    -2
284
     1
 64
     0
275
    -2
285
     1
 65
     0
276
    -2
286
     1
 66
     0
277
    -2
287
     1
 67
     0
278
    -2
288
     1
 68
     0
279
    -2
289
     1
 69
     0
  0
VISUALSTYLE
  5
F5
102
{ACAD_REACTORS
330
EF
102
}
330
EF
100
AcDbVisualStyle
  2
2dWireframe
 70
     4
 71
     0
 72
     2
 73
     1
 90
        0
 40
-0.6
 41
-30.0
 62
     5
 63
     7
 74
     1
 91
        4
 64
     7
 65
   257
 75
     1
175
     1
 42
1.0
 92
        0
 66
   257
 43
1.0
 76
     1
 77
     6
 78
     2
 67
     7
 79
     5
170
     0
171
     0
290
     0
174
     0
 93
        1
 44
0.0
173
     0
291
     0
 45
0.0
1001
ACAD
1000
AcDbSavedByObjectVersion
1070
     0
  0
VISUALSTYLE
  5
F7
102
{ACAD_REACTORS
330
EF
102
}
330
EF
100
AcDbVisualStyle
  2
3D Hidden
 70
     6
 71
     1
 72
     2
 73
     2
 90
        0
 40
-0.6
 41
-30.0
 62
     5
 63
     7
 74
     2
 91
        2
 64
     7
 65
   257
 75
     2
175
     1
 42
40.0
 92
        0
 66
   257
 43
1.0
 76
     1
 77
     6
 78
     2
 67
     7
 79
     3
170
     0
171
     0
290
     0
174
     0
 93
        1
 44
0.0
173
     0
291
     0
 45
0.0
1001
ACAD
1000
AcDbSavedByObjectVersion
1070
     0
  0
VISUALSTYLE
  5
F6
102
{ACAD_REACTORS
330
EF
102
}
330
EF
100
AcDbVisualStyle
  2
3dWireframe
 70
     5
 71
     0
 72
     2
 73
     1
 90
        0
 40
-0.6
 41
-30.0
 62
     5
 63
     7
 74
     1
 91
        4
 64
     7
 65
   257
 75
     1
175
     1
 42
1.0
 92
        0
 66
   257
 43
1.0
 76
     1
 77
     6
 78
     2
 67
     7
 79
     5
170
     0
171
     0
290
     0
174
     0
 93
        1
 44
0.0
173
     0
291
     0
 45
0.0
1001
ACAD
1000
AcDbSavedByObjectVersion
1070
     0
  0
VISUALSTYLE
  5
F4
102
{ACAD_REACTORS
330
EF
102
}
330
EF
100
AcDbVisualStyle
  2
Basic
 70
     7
 71
     1
 72
     0
 73
     1
 90
        0
 40
-0.6
 41
-30.0
 62
     5
 63
     7
 74
     0
 91
        4
 64
     7
 65
   257
 75
     1
175
     1
 42
1.0
 92
        8
 66
     7
 43
1.0
 76
     1
 77
     6
 78
     2
 67
     7
 79
     5
170
     0
171
     0
290
     0
174
     0
 93
        1
 44
0.0
173
     0
291
     1
 45
0.0
1001
ACAD
1000
AcDbSavedByObjectVersion
1070
     0
  0
VISUALSTYLE
  5
FB
102
{ACAD_REACTORS
330
EF
102
}
330
EF
100
AcDbVisualStyle
  2
Brighten
 70
    12
 71
     2
 72
     2
 73
     1
 90
        0
 40
-0.6
 41
-30.0
 62
     5
 63
     7
 74
     1
 91
        4
 64
     7
 65
   257
 75
     1
175
     1
 42
1.0
 92
        8
 66
     7
 43
1.0
 76
     1
 77
     6
 78
     2
 67
     7
 79
     5
170
     0
171
     0
290
     0
174
     0
 93
        1
 44
50.0
173
     0
291
     1
 45
0.0
1001
ACAD
1000
AcDbSavedByObjectVersion
1070
     0
  0
VISUALSTYLE
  5
FF
102
{ACAD_REACTORS
330
EF
102
}
330
EF
100
AcDbVisualStyle
  2
ColorChange
 70
    16
 71
     2
 72
     2
 73
     3
 90
        0
 40
-0.6
 41
-30.0
 62
     5
 63
     8
 74
     1
 91
        4
 64
     7
 65
   257
 75
     1
175
     1
 42
1.0
 92
        8
 66
     8
 43
1.0
 76
     1
 77
     6
 78
     2
 67
     7
 79
     5
170
     0
171
     0
290
     0
174
     0
 93
        1
 44
0.0
173
     0
291
     1
 45
0.0
1001
ACAD
1000
AcDbSavedByObjectVersion
1070
     0
  0
VISUALSTYLE
  5
F8
102
{ACAD_REACTORS
330
EF
102
}
330
EF
100
AcDbVisualStyle
  2
Conceptual
 70
     9
 71
     3
 72
     2
 73
     1
 90
        0
 40
-0.6
 41
-30.0
 62
     5
 63
     7
 74
     2
 91
        2
 64
     7
 65
   257
 75
     1
175
     1
 42
40.0
 92
        8
 66
     7
 43
1.0
 76
     1
 77
     6
 78
     2
 67
     7
 79
     3
170
     0
171
     0
290
     0
174
     0
 93
        1
 44
0.0
173
     0
291
     0
 45
0.0
1001
ACAD
1000
AcDbSavedByObjectVersion
1070
     0
  0
VISUALSTYLE
  5
FA
102
{ACAD_REACTORS
330
EF
102
}
330
EF
100
AcDbVisualStyle
  2
Dim
 70
    11
 71
     2
 72
     2
 73
     1
 90
        0
 40
-0.6
 41
-30.0
 62
     5
 63
     7
 74
     1
 91
        4
 64
     7
 65
   257
 75
     1
175
     1
 42
1.0
 92
        8
 66
     7
 43
1.0
 76
     1
 77
     6
 78
     2
 67
     7
 79
     5
170
     0
171
     0
290
     0
174
     0
 93
        1
 44
-50.0
173
     0
291
     1
 45
0.0
1001
ACAD
1000
AcDbSavedByObjectVersion
1070
     0
  0
VISUALSTYLE
  5
FE
102
{ACAD_REACTORS
330
EF
102
}
330
EF
100
AcDbVisualStyle
  2
Facepattern
 70
    15
 71
     2
 72
     2
 73
     1
 90
        0
 40
-0.6
 41
-30.0
 62
     5
 63
     7
 74
     1
 91
        4
 64
     7
 65
   257
 75
     1
175
     1
 42
1.0
 92
        8
 66
     7
 43
1.0
 76
     1
 77
     6
 78
     2
 67
     7
 79
     5
170
     0
171
     0
290
     0
174
     0
 93
        1
 44
0.0
173
     0
291
     1
 45
0.0
1001
ACAD
1000
AcDbSavedByObjectVersion
1070
     0
  0
VISUALSTYLE
  5
F0
102
{ACAD_REACTORS
330
EF
102
}
330
EF
100
AcDbVisualStyle
  2
Flat
 70
     0
 71
     2
 72
     1
 73
     1
 90
        2
 40
-0.6
 41
30.0
 62
     5
 63
     7
 74
     0
 91
        4
 64
     7
 65
   257
 75
     1
175
     1
 42
1.0
 92
        8
 66
     7
 43
1.0
 76
     1
 77
     6
 78
     2
 67
     7
 79
     5
170
     0
171
     0
290
     0
174
     0
 93
        1
 44
0.0
173
     0
291
     1
 45
0.0
1001
ACAD
1000
AcDbSavedByObjectVersion
1070
     0
  0
VISUALSTYLE
  5
F1
102
{ACAD_REACTORS
330
EF
102
}
330
EF
100
AcDbVisualStyle
  2
FlatWithEdges
 70
     1
 71
     2
 72
     1
 73
     1
 90
        2
 40
-0.6
 41
30.0
 62
     5
 63
     7
 74
     1
 91
        4
 64
     7
 65
   257
 75
     1
175
     1
 42
1.0
 92
        0
 66
   257
 43
1.0
 76
     1
 77
     6
 78
     2
 67
     7
 79
     5
170
     0
171
     0
290
     0
174
     0
 93
        1
 44
0.0
173
     0
291
     1
 45
0.0
1001
ACAD
1000
AcDbSavedByObjectVersion
1070
     0
  0
VISUALSTYLE
  5
F2
102
{ACAD_REACTORS
330
EF
102
}
330
EF
100
AcDbVisualStyle
  2
Gouraud
 70
     2
 71
     2
 72
     2
 73
     1
 90
        2
 40
-0.6
 41
30.0
 62
     5
 63
     7
 74
     0
 91
        4
 64
     7
 65
   257
 75
     1
175
     1
 42
1.0
 92
        0
 66
     7
 43
1.0
 76
     1
 77
     6
 78
     2
 67
     7
 79
     5
170
     0
171
     0
290
     0
174
     0
 93
        1
 44
0.0
173
     0
291
     1
 45
0.0
1001
ACAD
1000
AcDbSavedByObjectVersion
1070
     0
  0
VISUALSTYLE
  5
F3
102
{ACAD_REACTORS
330
EF
102
}
330
EF
100
AcDbVisualStyle
  2
GouraudWithEdges
 70
     3
 71
     2
 72
     2
 73
     1
 90
        2
 40
-0.6
 41
30.0
 62
     5
 63
     7
 74
     1
 91
        4
 64
     7
 65
   257
 75
     1
175
     1
 42
1.0
 92
        0
 66
   257
 43
1.0
 76
     1
 77
     6
 78
     2
 67
     7
 79
     5
170
     0
171
     0
290
     0
174
     0
 93
        1
 44
0.0
173
     0
291
     1
 45
0.0
1001
ACAD
1000
AcDbSavedByObjectVersion
1070
     0
  0
VISUALSTYLE
  5
FD
102
{ACAD_REACTORS
330
EF
102
}
330
EF
100
AcDbVisualStyle
  2
Linepattern
 70
    14
 71
     2
 72
     2
 73
     1
 90
        0
 40
-0.6
 41
-30.0
 62
     5
 63
     7
 74
     1
 91
        4
 64
     7
 65
   257
 75
     7
175
     7
 42
1.0
 92
        8
 66
     7
 43
1.0
 76
     1
 77
     6
 78
     2
 67
     7
 79
     5
170
     0
171
     0
290
     0
174
     0
 93
        1
 44
0.0
173
     0
291
     1
 45
0.0
1001
ACAD
1000
AcDbSavedByObjectVersion
1070
     0
  0
VISUALSTYLE
  5
F9
102
{ACAD_REACTORS
330
EF
102
}
330
EF
100
AcDbVisualStyle
  2
Realistic
 70
     8
 71
     2
 72
     2
 73
     1
 90
        0
 40
-0.6
 41
-30.0
 62
     5
 63
     7
 74
     1
 91
        0
 64
     7
 65
   257
 75
     1
175
     1
 42
1.0
 92
        8
 66
     8
 43
1.0
 76
     1
 77
     6
 78
     2
 67
     7
 79
     5
170
     0
171
     0
290
     0
174
     0
 93
       13
 44
0.0
173
     0
291
     0
 45
0.0
1001
ACAD
1000
AcDbSavedByObjectVersion
1070
     0
  0
VISUALSTYLE
  5
FC
102
{ACAD_REACTORS
330
EF
102
}
330
EF
100
AcDbVisualStyle
  2
Thicken
 70
    13
 71
     2
 72
     2
 73
     1
 90
        0
 40
-0.6
 41
-30.0
 62
     5
 63
     7
 74
     1
 91
        4
 64
     7
 65
   257
 75
     1
175
     1
 42
1.0
 92
       12
 66
     7
 43
1.0
 76
     1
 77
     6
 78
     2
 67
     7
 79
     5
170
     0
171
     0
290
     0
174
     0
 93
        1
 44
0.0
173
     0
291
     1
 45
0.0
1001
ACAD
1000
AcDbSavedByObjectVersion
1070
     0
  0
DICTIONARYVAR
  5
146
102
{ACAD_REACTORS
330
5E
102
}
330
5E
100
DictionaryVariables
280
     0
  1
1:1
  0
DICTIONARYVAR
  5
145
102
{ACAD_REACTORS
330
5E
102
}
330
5E
100
DictionaryVariables
280
     0
  1
STANDARD
  0
DICTIONARYVAR
  5
84
102
{ACAD_REACTORS
330
5E
102
}
330
5E
100
DictionaryVariables
280
     0
  1
STANDARD
  0
DICTIONARYVAR
  5
5F
102
{ACAD_REACTORS
330
5E
102
}
330
5E
100
DictionaryVariables
280
     0
  1
2
  0
DICTIONARYVAR
  5
63
102
{ACAD_REACTORS
330
5E
102
}
330
5E
100
DictionaryVariables
280
     0
  1
1
  0
DICTIONARYVAR
  5
466
102
{ACAD_REACTORS
330
5E
102
}
330
5E
100
DictionaryVariables
280
     0
  1
0
  0
DICTIONARYVAR
  5
464
102
{ACAD_REACTORS
330
5E
102
}
330
5E
100
DictionaryVariables
280
     0
  1
2
  0
DICTIONARYVAR
  5
463
102
{ACAD_REACTORS
330
5E
102
}
330
5E
100
DictionaryVariables
280
     0
  1
1
  0
DICTIONARYVAR
  5
7F7D
102
{ACAD_REACTORS
330
5E
102
}
330
5E
100
DictionaryVariables
280
     0
  1
80.000000
  0
DICTIONARYVAR
  5
7F7C
102
{ACAD_REACTORS
330
5E
102
}
330
5E
100
DictionaryVariables
280
     0
  1
5.000000
  0
DICTIONARYVAR
  5
465
102
{ACAD_REACTORS
330
5E
102
}
330
5E
100
DictionaryVariables
280
     0
  1
127
  0
DICTIONARY
  5
7F82
330
D3
100
AcDbDictionary
280
     1
281
     1
  3
ACAD_XREC_ROUNDTRIP
360
7F83
  0
DICTIONARY
  5
7F84
330
D7
100
AcDbDictionary
280
     1
281
     1
  3
ACAD_XREC_ROUNDTRIP
360
7F85
  0
DICTIONARY
  5
7F7F
330
22
100
AcDbDictionary
280
     1
281
     1
  3
ACAD_XREC_ROUNDTRIP
360
7F80
  0
DICTIONARY
  5
7F88
330
ED
100
AcDbDictionary
280
     1
281
     1
  3
ACAD_XREC_ROUNDTRIP
360
7F89
  0
DICTIONARY
  5
7F86
330
EC
100
AcDbDictionary
280
     1
281
     1
  3
ACAD_XREC_ROUNDTRIP
360
7F87
  0
DICTIONARY
  5
173
330
EE
100
AcDbDictionary
280
     1
281
     1
  3
ACAD_XREC_ROUNDTRIP
360
7F8A
  3
BUMPTILE
360
175
  3
DIFFUSETILE
360
174
  3
OPACITYTILE
360
176
  3
REFLECTIONTILE
360
177
  0
DICTIONARY
  5
7F8B
330
4FA3
100
AcDbDictionary
280
     1
281
     1
  3
ACAD_XREC_ROUNDTRIP
360
7F8C
  0
DICTIONARY
  5
162
330
7F
100
AcDbDictionary
280
     1
281
     1
  3
ACAD_ROUNDTRIP_2008_TABLESTYLE_CELLSTYLEMAP
360
7E63
  3
ACAD_XREC_ROUNDTRIP
360
7F81
  0
XRECORD
  5
7F83
102
{ACAD_REACTORS
330
7F82
102
}
330
7F82
100
AcDbXrecord
280
     1
102
SHADEPLOT
 70
     0
102
SHADEPLOTRESLEVEL
 70
     2
102
SHADEPLOTCUSTOMDPI
 70
   300
  0
XRECORD
  5
7F85
102
{ACAD_REACTORS
330
7F84
102
}
330
7F84
100
AcDbXrecord
280
     1
102
SHADEPLOT
 70
     0
102
SHADEPLOTRESLEVEL
 70
     2
102
SHADEPLOTCUSTOMDPI
 70
   300
  0
XRECORD
  5
7F80
102
{ACAD_REACTORS
330
7F7F
102
}
330
7F7F
100
AcDbXrecord
280
     1
102
SHADEPLOT
 70
     0
102
SHADEPLOTRESLEVEL
 70
     2
102
SHADEPLOTCUSTOMDPI
 70
   300
  0
XRECORD
  5
7F89
102
{ACAD_REACTORS
330
7F88
102
}
330
7F88
100
AcDbXrecord
280
     1
102
MATERIAL
148
0.0
149
0.0
149
0.0
 93
        0
 94
       63
282
     0
 72
     1
 77
     1
171
     1
175
     1
179
     1
273
     0
  0
XRECORD
  5
7F87
102
{ACAD_REACTORS
330
7F86
102
}
330
7F86
100
AcDbXrecord
280
     1
102
MATERIAL
148
0.0
149
0.0
149
0.0
 93
        0
 94
       63
282
     0
 72
     1
 77
     1
171
     1
175
     1
179
     1
273
     0
  0
XRECORD
  5
7F8A
102
{ACAD_REACTORS
330
173
102
}
330
173
100
AcDbXrecord
280
     1
102
MATERIAL
148
0.0
149
0.0
149
0.0
 93
        0
 94
       63
282
     0
 72
     1
 77
     1
171
     1
175
     1
179
     1
273
     0
  0
XRECORD
  5
175
102
{ACAD_REACTORS
330
173
102
}
330
173
100
AcDbXrecord
280
     1
270
     1
271
     1
  0
XRECORD
  5
174
102
{ACAD_REACTORS
330
173
102
}
330
173
100
AcDbXrecord
280
     1
270
     1
271
     1
  0
XRECORD
  5
176
102
{ACAD_REACTORS
330
173
102
}
330
173
100
AcDbXrecord
280
     1
270
     1
271
     1
  0
XRECORD
  5
177
102
{ACAD_REACTORS
330
173
102
}
330
173
100
AcDbXrecord
280
     1
270
     1
271
     1
  0
XRECORD
  5
7F8C
102
{ACAD_REACTORS
330
7F8B
102
}
330
7F8B
100
AcDbXrecord
280
     1
102
SHADEPLOT
 70
     0
102
SHADEPLOTRESLEVEL
 70
     2
102
SHADEPLOTCUSTOMDPI
 70
   300
  0
ACAD_PROXY_OBJECT
  5
7E63
102
{ACAD_REACTORS
330
162
102
}
330
162
100
AcDbProxyObject
 90
      499
 91
      509
 95
       23
 70
     0
 93
     5304
310
40D054060020000020000003200101A000080002A5058000000C10000000000000006101010000000000003E0FC000000000000F83F0000000000003E0FC000000000000F83F000000000000049000000000000001240419019018000000C1003FBFFFFFE0000000000003C8FD029018000000C1003FBFFFFFE00000000000
310
03C8FD049018000000C1003FBFFFFFE0000000000003C8FD089018000000C1003FBFFFFFE0000000000003C8FD109018000000C1003FBFFFFFE0000000000003C8FD209018000000C1003FBFFFFFE0000000000003C8FD01405075F5449544C450041501A8000000C800406800020000A94160000003040000000000000012
310
40404000000000000F83F0000000000003E0FC000000000000F83F0000000000003E0FC0000000000001240000000000000049010640640600000030400FEFFFFFF8000000000000F23F40A40600000030400FEFFFFFF8000000000000F23F41240600000030400FEFFFFFF8000000000000F23F42240600000030400FEFFF
310
FFF8000000000000F23F44240600000030400FEFFFFFF8000000000000F23F48240600000030400FEFFFFFF8000000000000F23F409014217D2115051115480105406A0000003200101A000080002A5028000000C10000000000000004901010000000000003E0FC000000000000F83F0000000000003E0FC000000000000F
310
83F000000000000049000000000000001240419019018000000C1003FBFFFFFE0000000000003C8FD029018000000C1003FBFFFFFE0000000000003C8FD049018000000C1003FBFFFFFE0000000000003C8FD089018000000C1003FBFFFFFE0000000000003C8FD109018000000C1003FBFFFFFE0000000000003C8FD20901
310
8000000C1003FBFFFFFE0000000000003C8FD03409065F444154410000
340
11
340
14
340
14
340
14
340
14
340
14
340
14
340
11
340
14
340
14
340
14
340
14
340
14
340
14
340
11
340
14
340
14
340
14
340
14
340
14
340
14
 94
        0
1001
ACAD
1000
AcRTDxfName
1000
CELLSTYLEMAP
1000
AcRTDxfName
1000
CELLSTYLEMAP
1000
AcRTDxfName
1000
CELLSTYLEMAP
  0
XRECORD
  5
7F81
102
{ACAD_REACTORS
330
162
102
}
330
162
100
AcDbXrecord
280
     1
102
ACAD_ROUNDTRIP_PRE2007_TABLESTYLE
 90
      512
 91
        0
  1

 92
      512
 93
        0
  2

 94
      512
 95
        0
  3

  0
ENDSEC
  0
EOF
