  0
SECTION
  2
HEADER
  9
$ACADVER
  1
AC1015
  9
$ACADMAINTVER
 70
    20
  9
$DWGCODEPAGE
  3
ANSI_1250
  9
$INSBASE
 10
0.0
 20
0.0
 30
0.0
  9
$EXTMIN
 10
-0.0050982220222977
 20
-0.004528679247187
 30
-0.0000000000112498
  9
$EXTMAX
 10
334.3568769852378
 20
297.0045328285427
 30
0.0000000000002956
  9
$LIMMIN
 10
0.0
 20
0.0
  9
$LIMMAX
 10
334.35177409209
 20
297.0
  9
$ORTHOMODE
 70
     1
  9
$REGENMODE
 70
     1
  9
$FILLMODE
 70
     1
  9
$QTEXTMODE
 70
     0
  9
$MIRRTEXT
 70
     0
  9
$LTSCALE
 40
1.0
  9
$ATTMODE
 70
     2
  9
$TEXTSIZE
 40
5.0
  9
$TRACEWID
 40
1.0
  9
$TEXTSTYLE
  7
Solbet_5
  9
$CLAYER
  8
SOLBET_Bloczki
  9
$CELTYPE
  6
ByLayer
  9
$CECOLOR
 62
   256
  9
$CELTSCALE
 40
1.0
  9
$DISPSILH
 70
     0
  9
$DIMSCALE
 40
1.0
  9
$DIMASZ
 40
2.5
  9
$DIMEXO
 40
0.0
  9
$DIMDLI
 40
3.75
  9
$DIMRND
 40
0.0
  9
$DIMDLE
 40
0.0
  9
$DIMEXE
 40
1.25
  9
$DIMTP
 40
0.0
  9
$DIMTM
 40
0.0
  9
$DIMTXT
 40
2.5
  9
$DIMCEN
 40
2.5
  9
$DIMTSZ
 40
0.0
  9
$DIMTOL
 70
     0
  9
$DIMLIM
 70
     0
  9
$DIMTIH
 70
     0
  9
$DIMTOH
 70
     0
  9
$DIMSE1
 70
     0
  9
$DIMSE2
 70
     0
  9
$DIMTAD
 70
     1
  9
$DIMZIN
 70
     8
  9
$DIMBLK
  1

  9
$DIMASO
 70
     1
  9
$DIMSHO
 70
     1
  9
$DIMPOST
  1

  9
$DIMAPOST
  1

  9
$DIMALT
 70
     0
  9
$DIMALTD
 70
     3
  9
$DIMALTF
 40
0.03937007874016
  9
$DIMLFAC
 40
1.0
  9
$DIMTOFL
 70
     1
  9
$DIMTVP
 40
0.0
  9
$DIMTIX
 70
     0
  9
$DIMSOXD
 70
     0
  9
$DIMSAH
 70
     0
  9
$DIMBLK1
  1

  9
$DIMBLK2
  1

  9
$DIMSTYLE
  2
Solbet
  9
$DIMCLRD
 70
     0
  9
$DIMCLRE
 70
     0
  9
$DIMCLRT
 70
     0
  9
$DIMTFAC
 40
1.0
  9
$DIMGAP
 40
0.625
  9
$DIMJUST
 70
     0
  9
$DIMSD1
 70
     0
  9
$DIMSD2
 70
     0
  9
$DIMTOLJ
 70
     0
  9
$DIMTZIN
 70
     8
  9
$DIMALTZ
 70
     0
  9
$DIMALTTZ
 70
     0
  9
$DIMUPT
 70
     0
  9
$DIMDEC
 70
     2
  9
$DIMTDEC
 70
     2
  9
$DIMALTU
 70
     2
  9
$DIMALTTD
 70
     3
  9
$DIMTXSTY
  7
Solbet_2_5
  9
$DIMAUNIT
 70
     0
  9
$DIMADEC
 70
     0
  9
$DIMALTRND
 40
0.0
  9
$DIMAZIN
 70
     0
  9
$DIMDSEP
 70
    44
  9
$DIMATFIT
 70
     3
  9
$DIMFRAC
 70
     0
  9
$DIMLDRBLK
  1

  9
$DIMLUNIT
 70
     2
  9
$DIMLWD
 70
    -2
  9
$DIMLWE
 70
    -2
  9
$DIMTMOVE
 70
     0
  9
$LUNITS
 70
     2
  9
$LUPREC
 70
     4
  9
$SKETCHINC
 40
1.0
  9
$FILLETRAD
 40
0.0
  9
$AUNITS
 70
     0
  9
$AUPREC
 70
     0
  9
$MENU
  1
.
  9
$ELEVATION
 40
0.0
  9
$PELEVATION
 40
0.0
  9
$THICKNESS
 40
0.0
  9
$LIMCHECK
 70
     0
  9
$CHAMFERA
 40
0.0
  9
$CHAMFERB
 40
0.0
  9
$CHAMFERC
 40
0.0
  9
$CHAMFERD
 40
0.0
  9
$SKPOLY
 70
     0
  9
$TDCREATE
 40
2454690.075573148
  9
$TDUCREATE
 40
2454690.033906482
  9
$TDUPDATE
 40
2454848.875551667
  9
$TDUUPDATE
 40
2454848.833885000
  9
$TDINDWG
 40
0.5842549421
  9
$TDUSRTIMER
 40
0.5842504167
  9
$USRTIMER
 70
     1
  9
$ANGBASE
 50
0.0
  9
$ANGDIR
 70
     0
  9
$PDMODE
 70
     0
  9
$PDSIZE
 40
0.0
  9
$PLINEWID
 40
0.0
  9
$SPLFRAME
 70
     0
  9
$SPLINETYPE
 70
     6
  9
$SPLINESEGS
 70
     8
  9
$HANDSEED
  5
36EC
  9
$SURFTAB1
 70
     6
  9
$SURFTAB2
 70
     6
  9
$SURFTYPE
 70
     6
  9
$SURFU
 70
     6
  9
$SURFV
 70
     6
  9
$UCSBASE
  2

  9
$UCSNAME
  2

  9
$UCSORG
 10
0.0
 20
0.0
 30
0.0
  9
$UCSXDIR
 10
1.0
 20
0.0
 30
0.0
  9
$UCSYDIR
 10
0.0
 20
1.0
 30
0.0
  9
$UCSORTHOREF
  2

  9
$UCSORTHOVIEW
 70
     0
  9
$UCSORGTOP
 10
0.0
 20
0.0
 30
0.0
  9
$UCSORGBOTTOM
 10
0.0
 20
0.0
 30
0.0
  9
$UCSORGLEFT
 10
0.0
 20
0.0
 30
0.0
  9
$UCSORGRIGHT
 10
0.0
 20
0.0
 30
0.0
  9
$UCSORGFRONT
 10
0.0
 20
0.0
 30
0.0
  9
$UCSORGBACK
 10
0.0
 20
0.0
 30
0.0
  9
$PUCSBASE
  2

  9
$PUCSNAME
  2

  9
$PUCSORG
 10
0.0
 20
0.0
 30
0.0
  9
$PUCSXDIR
 10
1.0
 20
0.0
 30
0.0
  9
$PUCSYDIR
 10
0.0
 20
1.0
 30
0.0
  9
$PUCSORTHOREF
  2

  9
$PUCSORTHOVIEW
 70
     0
  9
$PUCSORGTOP
 10
0.0
 20
0.0
 30
0.0
  9
$PUCSORGBOTTOM
 10
0.0
 20
0.0
 30
0.0
  9
$PUCSORGLEFT
 10
0.0
 20
0.0
 30
0.0
  9
$PUCSORGRIGHT
 10
0.0
 20
0.0
 30
0.0
  9
$PUCSORGFRONT
 10
0.0
 20
0.0
 30
0.0
  9
$PUCSORGBACK
 10
0.0
 20
0.0
 30
0.0
  9
$USERI1
 70
     0
  9
$USERI2
 70
     0
  9
$USERI3
 70
     0
  9
$USERI4
 70
     0
  9
$USERI5
 70
     0
  9
$USERR1
 40
0.0
  9
$USERR2
 40
0.0
  9
$USERR3
 40
0.0
  9
$USERR4
 40
0.0
  9
$USERR5
 40
0.0
  9
$WORLDVIEW
 70
     1
  9
$SHADEDGE
 70
     3
  9
$SHADEDIF
 70
    70
  9
$TILEMODE
 70
     1
  9
$MAXACTVP
 70
    64
  9
$PINSBASE
 10
0.0
 20
0.0
 30
0.0
  9
$PLIMCHECK
 70
     0
  9
$PEXTMIN
 10
0.0
 20
0.0
 30
0.0
  9
$PEXTMAX
 10
0.0
 20
0.0
 30
0.0
  9
$PLIMMIN
 10
0.0
 20
0.0
  9
$PLIMMAX
 10
12.0
 20
9.0
  9
$UNITMODE
 70
     0
  9
$VISRETAIN
 70
     1
  9
$PLINEGEN
 70
     0
  9
$PSLTSCALE
 70
     1
  9
$TREEDEPTH
 70
  3020
  9
$CMLSTYLE
  2
SOLBET_IZOLACJA
  9
$CMLJUST
 70
     0
  9
$CMLSCALE
 40
20.0
  9
$PROXYGRAPHICS
 70
     1
  9
$MEASUREMENT
 70
     1
  9
$CELWEIGHT
370
    -1
  9
$ENDCAPS
280
     0
  9
$JOINSTYLE
280
     0
  9
$LWDISPLAY
290
     1
  9
$INSUNITS
 70
     4
  9
$HYPERLINKBASE
  1

  9
$STYLESHEET
  1

  9
$XEDIT
290
     1
  9
$CEPSNTYPE
380
     0
  9
$PSTYLEMODE
290
     1
  9
$FINGERPRINTGUID
  2
{6B12AB33-8E39-428E-8E85-461C8D99A3CB}
  9
$VERSIONGUID
  2
{13E741BB-A8A4-474C-A6B6-915FF1F4E7FF}
  9
$EXTNAMES
290
     1
  9
$PSVPSCALE
 40
0.0
  9
$OLESTARTUP
290
     0
  0
ENDSEC
  0
SECTION
  2
CLASSES
  0
CLASS
  1
ACDBDICTIONARYWDFLT
  2
AcDbDictionaryWithDefault
  3
ObjectDBX Classes
 90
        0
280
     0
281
     0
  0
CLASS
  1
ACDBPLACEHOLDER
  2
AcDbPlaceHolder
  3
ObjectDBX Classes
 90
        0
280
     0
281
     0
  0
CLASS
  1
LAYOUT
  2
AcDbLayout
  3
ObjectDBX Classes
 90
        0
280
     0
281
     0
  0
CLASS
  1
DICTIONARYVAR
  2
AcDbDictionaryVar
  3
ObjectDBX Classes
 90
        0
280
     0
281
     0
  0
CLASS
  1
TABLESTYLE
  2
AcDbTableStyle
  3
ObjectDBX Classes
 90
     4095
280
     0
281
     0
  0
CLASS
  1
MATERIAL
  2
AcDbMaterial
  3
ObjectDBX Classes
 90
     1024
280
     0
281
     0
  0
CLASS
  1
VISUALSTYLE
  2
AcDbVisualStyle
  3
ObjectDBX Classes
 90
     4095
280
     0
281
     0
  0
CLASS
  1
SCALE
  2
AcDbScale
  3
ObjectDBX Classes
 90
     1153
280
     0
281
     0
  0
CLASS
  1
MLEADERSTYLE
  2
AcDbMLeaderStyle
  3
ACDB_MLEADERSTYLE_CLASS
 90
     4095
280
     0
281
     0
  0
CLASS
  1
CELLSTYLEMAP
  2
AcDbCellStyleMap
  3
ObjectDBX Classes
 90
     1152
280
     0
281
     0
  0
CLASS
  1
DIMASSOC
  2
AcDbDimAssoc
  3
"AcDbDimAssoc|Product Desc:     AcDim ARX App For Dimension|Company:          Autodesk, Inc.|WEB Address:      www.autodesk.com"
 90
    32768
280
     0
281
     0
  0
CLASS
  1
SORTENTSTABLE
  2
AcDbSortentsTable
  3
ObjectDBX Classes
 90
        0
280
     0
281
     0
  0
CLASS
  1
MULTILEADER
  2
AcDbMLeader
  3
ACDB_MLEADER_CLASS
 90
    33793
280
     0
281
     1
  0
CLASS
  1
ACDB_MTEXTOBJECTCONTEXTDATA_CLASS
  2
AcDbMTextObjectContextData
  3
ObjectDBX Classes
 90
    33921
280
     0
281
     0
  0
ENDSEC
  0
SECTION
  2
TABLES
  0
TABLE
  2
VPORT
  5
8
102
{ACAD_XDICTIONARY
360
443
102
}
330
0
100
AcDbSymbolTable
 70
     1
  0
VPORT
  5
EA
330
8
100
AcDbSymbolTableRecord
100
AcDbViewportTableRecord
  2
*Active
 70
     0
 10
0.0
 20
0.0
 11
1.0
 21
1.0
 12
167.1758893816077
 22
148.5000020746477
 13
0.0
 23
0.0
 14
10.0
 24
10.0
 15
10.0
 25
10.0
 16
0.0
 26
0.0
 36
1.0
 17
0.0
 27
0.0
 37
0.0
 40
300.3091621912098
 41
1.74582560296846
 42
50.0
 43
0.0
 44
0.0
 50
0.0
 51
0.0
 71
     0
 72
  1000
 73
     1
 74
     3
 75
     0
 76
     0
 77
     0
 78
     0
281
     0
 65
     1
110
0.0
120
0.0
130
0.0
111
1.0
121
0.0
131
0.0
112
0.0
122
1.0
132
0.0
 79
     0
146
0.0
  0
ENDTAB
  0
TABLE
  2
LTYPE
  5
5
330
0
100
AcDbSymbolTable
 70
     2
  0
LTYPE
  5
14
330
5
100
AcDbSymbolTableRecord
100
AcDbLinetypeTableRecord
  2
ByBlock
 70
     0
  3

 72
    65
 73
     0
 40
0.0
  0
LTYPE
  5
15
330
5
100
AcDbSymbolTableRecord
100
AcDbLinetypeTableRecord
  2
ByLayer
 70
     0
  3

 72
    65
 73
     0
 40
0.0
  0
LTYPE
  5
16
330
5
100
AcDbSymbolTableRecord
100
AcDbLinetypeTableRecord
  2
Continuous
 70
     0
  3
Solid line
 72
    65
 73
     0
 40
0.0
  0
LTYPE
  5
982
330
5
100
AcDbSymbolTableRecord
100
AcDbLinetypeTableRecord
  2
BATTING
 70
     0
  3
Batting SSSSSSSSSSSSSSSSSSSSSSSSSSSSSSSSSSSSSSSSSSSSSSS
 72
    65
 73
     4
 40
10.16254
 49
0.00254
 74
     0
 49
-2.54
 74
     4
 75
   134
340
7E7
 46
2.54
 50
0.0
 44
-2.54
 45
0.0
 49
-5.08
 74
     4
 75
   134
340
7E7
 46
2.54
 50
180.0
 44
2.54
 45
0.0
 49
-2.54
 74
     0
  0
ENDTAB
  0
TABLE
  2
LAYER
  5
2
102
{ACAD_XDICTIONARY
360
3E5
102
}
330
0
100
AcDbSymbolTable
 70
    13
  0
LAYER
  5
10
102
{ACAD_XDICTIONARY
360
13C
102
}
330
2
100
AcDbSymbolTableRecord
100
AcDbLayerTableRecord
  2
0
 70
     0
 62
     7
  6
Continuous
370
    -3
390
F
  0
LAYER
  5
2BB
330
2
100
AcDbSymbolTableRecord
100
AcDbLayerTableRecord
  2
DEFPOINTS
 70
     0
 62
     7
  6
Continuous
290
     0
370
    -3
390
F
  0
LAYER
  5
3DD
102
{ACAD_XDICTIONARY
360
403
102
}
330
2
100
AcDbSymbolTableRecord
100
AcDbLayerTableRecord
  2
SOLBET_Bloczki
 70
     0
 62
   140
  6
Continuous
370
    -3
390
F
1001
AcAecLayerStandard
1000

1000

  0
LAYER
  5
3DF
102
{ACAD_XDICTIONARY
360
405
102
}
330
2
100
AcDbSymbolTableRecord
100
AcDbLayerTableRecord
  2
SOLBET_Wymiary_Opisy
 70
     0
 62
     1
  6
Continuous
370
    -3
390
F
1001
AcAecLayerStandard
1000

1000

  0
LAYER
  5
3E0
102
{ACAD_XDICTIONARY
360
407
102
}
330
2
100
AcDbSymbolTableRecord
100
AcDbLayerTableRecord
  2
SOLBET_Beton
 70
     0
 62
     9
  6
Continuous
370
    -3
390
F
1001
AcAecLayerStandard
1000

1000

  0
LAYER
  5
3E1
102
{ACAD_XDICTIONARY
360
409
102
}
330
2
100
AcDbSymbolTableRecord
100
AcDbLayerTableRecord
  2
SOLBET_Izolacja
 70
     0
 62
    40
  6
Continuous
370
    -3
390
F
1001
AcAecLayerStandard
1000

1000

  0
LAYER
  5
3E2
102
{ACAD_XDICTIONARY
360
40B
102
}
330
2
100
AcDbSymbolTableRecord
100
AcDbLayerTableRecord
  2
SOLBET_Zbrojenie_Konstrukcja
 70
     0
 62
     7
  6
Continuous
370
    -3
390
F
1001
AcAecLayerStandard
1000

1000

  0
LAYER
  5
3E4
102
{ACAD_XDICTIONARY
360
40F
102
}
330
2
100
AcDbSymbolTableRecord
100
AcDbLayerTableRecord
  2
SOLBET_Tynki_Posadzki
 70
     0
 62
     3
  6
Continuous
370
    -3
390
F
1001
AcAecLayerStandard
1000

1000

  0
LAYER
  5
3E8
102
{ACAD_XDICTIONARY
360
411
102
}
330
2
100
AcDbSymbolTableRecord
100
AcDbLayerTableRecord
  2
SOLBET_Ramka_05
 70
     0
 62
     2
  6
Continuous
370
    -3
390
F
1001
AcAecLayerStandard
1000

1000

  0
LAYER
  5
472
330
2
100
AcDbSymbolTableRecord
100
AcDbLayerTableRecord
  2
SOLBET_Zaprawy
 70
     0
 62
     4
  6
Continuous
370
    -3
390
F
1001
AcAecLayerStandard
1000

1000

  0
LAYER
  5
4E2
330
2
100
AcDbSymbolTableRecord
100
AcDbLayerTableRecord
  2
SOLBET_Emulsje_Folie
 70
     0
 62
     6
  6
Continuous
370
    -3
390
F
1001
AcAecLayerStandard
1000

1000

  0
LAYER
  5
2207
330
2
100
AcDbSymbolTableRecord
100
AcDbLayerTableRecord
  2
SOLBET_Stolarka_Okna
 70
     0
 62
     2
  6
Continuous
370
    -3
390
F
1001
AcAecLayerStandard
1000

1000

  0
LAYER
  5
351E
102
{ACAD_XDICTIONARY
360
351F
102
}
330
2
100
AcDbSymbolTableRecord
100
AcDbLayerTableRecord
  2
SOLBET_Wymiary_Opisy @ 1
 70
     0
 62
     1
  6
Continuous
370
    -3
390
F
1001
AcAecLayerStandard
1000

1000

1001
AcadAnnotativeDecomposition
1000
AnnotativeData
1002
{
1070
     1
1070
     1
1002
}
  0
ENDTAB
  0
TABLE
  2
STYLE
  5
3
330
0
100
AcDbSymbolTable
 70
     5
  0
STYLE
  5
11
330
3
100
AcDbSymbolTableRecord
100
AcDbTextStyleTableRecord
  2
Standard
 70
     0
 40
0.0
 41
1.0
 50
0.0
 71
     0
 42
2.5
  3
txt.shx
  4

  0
STYLE
  5
7D7
330
3
100
AcDbSymbolTableRecord
100
AcDbTextStyleTableRecord
  2
Solbet_5
 70
     0
 40
5.0
 41
1.0
 50
0.0
 71
     0
 42
5.0
  3
isocpeur.ttf
  4

1001
ACAD
1000
ISOCPEUR
1071
       34
  0
STYLE
  5
7D9
330
3
100
AcDbSymbolTableRecord
100
AcDbTextStyleTableRecord
  2
Solbet_2_5
 70
     0
 40
2.5
 41
1.0
 50
0.0
 71
     0
 42
2.5
  3
isocpeur.ttf
  4

1001
ACAD
1000
ISOCPEUR
1071
       34
  0
STYLE
  5
7E7
330
3
100
AcDbSymbolTableRecord
100
AcDbTextStyleTableRecord
  2

 70
     1
 40
0.0
 41
1.0
 50
0.0
 71
     0
 42
2.5
  3
ltypeshp.shx
  4

  0
STYLE
  5
21E1
330
3
100
AcDbSymbolTableRecord
100
AcDbTextStyleTableRecord
  2
Solbet_1
 70
     0
 40
1.0
 41
1.0
 50
0.0
 71
     0
 42
2.5
  3
isocpeur.ttf
  4

1001
ACAD
1000
ISOCPEUR
1071
       34
  0
ENDTAB
  0
TABLE
  2
VIEW
  5
6
330
0
100
AcDbSymbolTable
 70
     0
  0
ENDTAB
  0
TABLE
  2
UCS
  5
7
330
0
100
AcDbSymbolTable
 70
     0
  0
ENDTAB
  0
TABLE
  2
APPID
  5
9
330
0
100
AcDbSymbolTable
 70
    13
  0
APPID
  5
12
330
9
100
AcDbSymbolTableRecord
100
AcDbRegAppTableRecord
  2
ACAD
 70
     0
  0
APPID
  5
9E
330
9
100
AcDbSymbolTableRecord
100
AcDbRegAppTableRecord
  2
ACAD_PSEXT
 70
     0
  0
APPID
  5
133
330
9
100
AcDbSymbolTableRecord
100
AcDbRegAppTableRecord
  2
AcadAnnoPO
 70
     0
  0
APPID
  5
134
330
9
100
AcDbSymbolTableRecord
100
AcDbRegAppTableRecord
  2
AcadAnnotative
 70
     0
  0
APPID
  5
135
330
9
100
AcDbSymbolTableRecord
100
AcDbRegAppTableRecord
  2
ACAD_DSTYLE_DIMJAG
 70
     0
  0
APPID
  5
136
330
9
100
AcDbSymbolTableRecord
100
AcDbRegAppTableRecord
  2
ACAD_DSTYLE_DIMTALN
 70
     0
  0
APPID
  5
165
330
9
100
AcDbSymbolTableRecord
100
AcDbRegAppTableRecord
  2
ACAD_MLEADERVER
 70
     0
  0
APPID
  5
2C4
330
9
100
AcDbSymbolTableRecord
100
AcDbRegAppTableRecord
  2
ASO_SCHRAFF
 70
     0
  0
APPID
  5
3DE
330
9
100
AcDbSymbolTableRecord
100
AcDbRegAppTableRecord
  2
AcAecLayerStandard
 70
     0
  0
APPID
  5
7DE
330
9
100
AcDbSymbolTableRecord
100
AcDbRegAppTableRecord
  2
ACAD_EXEMPT_FROM_CAD_STANDARDS
 70
     0
  0
APPID
  5
948
330
9
100
AcDbSymbolTableRecord
100
AcDbRegAppTableRecord
  2
ACAD_DSTYLE_DIMBREAK
 70
     0
  0
APPID
  5
1D0A
330
9
100
AcDbSymbolTableRecord
100
AcDbRegAppTableRecord
  2
AcadAnnotativeDecomposition
 70
     0
  0
APPID
  5
21E2
330
9
100
AcDbSymbolTableRecord
100
AcDbRegAppTableRecord
  2
AcDbAttr
 70
     0
  0
ENDTAB
  0
TABLE
  2
DIMSTYLE
  5
A
330
0
100
AcDbSymbolTable
 70
     2
100
AcDbDimStyleTable
 71
     1
340
949
  0
DIMSTYLE
105
949
102
{ACAD_REACTORS
330
2B46
330
2B5E
102
}
330
A
100
AcDbSymbolTableRecord
100
AcDbDimStyleTableRecord
  2
Solbet
 70
     0
 41
2.5
 42
0.0
 43
3.75
 44
1.25
 73
     0
 74
     0
 77
     1
 78
     8
140
2.5
141
2.5
143
0.03937007874016
147
0.625
171
     3
172
     1
271
     2
272
     2
274
     3
278
    44
283
     0
284
     8
340
7D9
1001
ACAD_DSTYLE_DIMBREAK
1070
   391
1040
3.75
1001
ACAD_DSTYLE_DIMJAG
1070
   388
1040
1.5
1001
ACAD_DSTYLE_DIMTALN
1070
   392
1070
     0
  0
DIMSTYLE
105
954
330
A
100
AcDbSymbolTableRecord
100
AcDbDimStyleTableRecord
  2
Solbet$7
 70
     0
 41
2.5
 42
0.0
 43
3.75
 44
1.25
 73
     0
 74
     0
 77
     1
 78
     8
140
2.5
141
2.5
143
0.03937007874016
147
0.625
171
     3
172
     1
271
     2
272
     2
274
     3
278
    44
283
     0
284
     8
340
7D9
341
958
1001
ACAD_DSTYLE_DIMBREAK
1070
   391
1040
3.75
1001
ACAD_DSTYLE_DIMJAG
1070
   388
1040
1.5
1001
ACAD_DSTYLE_DIMTALN
1070
   392
1070
     0
  0
ENDTAB
  0
TABLE
  2
BLOCK_RECORD
  5
1
330
0
100
AcDbSymbolTable
 70
    27
  0
BLOCK_RECORD
  5
1F
102
{ACAD_XDICTIONARY
360
4A3
102
}
330
1
100
AcDbSymbolTableRecord
100
AcDbBlockTableRecord
  2
*Model_Space
340
22
  0
BLOCK_RECORD
  5
D2
330
1
100
AcDbSymbolTableRecord
100
AcDbBlockTableRecord
  2
*Paper_Space
340
D3
  0
BLOCK_RECORD
  5
D6
330
1
100
AcDbSymbolTableRecord
100
AcDbBlockTableRecord
  2
*Paper_Space0
340
D7
  0
BLOCK_RECORD
  5
958
330
1
100
AcDbSymbolTableRecord
100
AcDbBlockTableRecord
  2
_DotSmall
340
0
102
{BLKREFS
331
2A8F
331
2AA6
331
3456
331
3458
331
345A
102
}
  0
BLOCK_RECORD
  5
22B3
330
1
100
AcDbSymbolTableRecord
100
AcDbBlockTableRecord
  2
ASOWDBLK
340
0
102
{BLKREFS
331
2773
331
2774
331
2775
331
2776
331
2777
331
2778
331
2779
331
277A
331
277B
331
277C
331
277D
331
277E
331
277F
331
2780
102
}
  0
BLOCK_RECORD
  5
22C9
330
1
100
AcDbSymbolTableRecord
100
AcDbBlockTableRecord
  2
*X3
340
0
102
{BLKREFS
331
25B4
102
}
  0
BLOCK_RECORD
  5
22F1
330
1
100
AcDbSymbolTableRecord
100
AcDbBlockTableRecord
  2
*X4
340
0
102
{BLKREFS
331
2742
102
}
  0
BLOCK_RECORD
  5
237D
330
1
100
AcDbSymbolTableRecord
100
AcDbBlockTableRecord
  2
*U5
340
0
102
{BLKREFS
331
255F
331
2562
102
}
  0
BLOCK_RECORD
  5
23B2
330
1
100
AcDbSymbolTableRecord
100
AcDbBlockTableRecord
  2
*U6
340
0
102
{BLKREFS
331
2593
331
2599
102
}
  0
BLOCK_RECORD
  5
23B7
330
1
100
AcDbSymbolTableRecord
100
AcDbBlockTableRecord
  2
*U7
340
0
102
{BLKREFS
331
25A1
102
}
  0
BLOCK_RECORD
  5
2787
102
{ACAD_XDICTIONARY
360
2793
102
}
330
1
100
AcDbSymbolTableRecord
100
AcDbBlockTableRecord
  2
SOLBET_Bloczek_Optimal_420x240x590_P+W_PRA
340
0
1001
ACAD
1000
DesignCenter Data
1002
{
1070
     1
1070
     4
1002
}
  0
BLOCK_RECORD
  5
27A3
102
{ACAD_XDICTIONARY
360
27AD
102
}
330
1
100
AcDbSymbolTableRecord
100
AcDbBlockTableRecord
  2
SOLBET_Plytka_60x240x590_brak_PRA
340
0
1001
ACAD
1000
DesignCenter Data
1002
{
1070
     1
1070
     4
1002
}
  0
BLOCK_RECORD
  5
2B47
330
1
100
AcDbSymbolTableRecord
100
AcDbBlockTableRecord
  2
*D10
340
0
  0
BLOCK_RECORD
  5
2B5F
330
1
100
AcDbSymbolTableRecord
100
AcDbBlockTableRecord
  2
*D11
340
0
  0
BLOCK_RECORD
  5
2FD7
102
{ACAD_XDICTIONARY
360
2FE3
102
}
330
1
100
AcDbSymbolTableRecord
100
AcDbBlockTableRecord
  2
SOLBET_Bloczek_Optimal_420x240x590_P+W_GOR
340
0
1001
ACAD
1000
DesignCenter Data
1002
{
1070
     1
1070
     4
1002
}
  0
BLOCK_RECORD
  5
3025
102
{ACAD_XDICTIONARY
360
3031
102
}
330
1
100
AcDbSymbolTableRecord
100
AcDbBlockTableRecord
  2
SOLBET_Bloczek_Optimal_420x240x590_P+W_PRZ
340
0
1001
ACAD
1000
DesignCenter Data
1002
{
1070
     1
1070
     4
1002
}
  0
BLOCK_RECORD
  5
3123
102
{ACAD_XDICTIONARY
360
312D
102
}
330
1
100
AcDbSymbolTableRecord
100
AcDbBlockTableRecord
  2
SOLBET_Nadproze_200_18_2000x240x180_PRZ
340
0
102
{BLKREFS
331
3131
102
}
1001
ACAD
1000
DesignCenter Data
1002
{
1070
     1
1070
     4
1002
}
  0
BLOCK_RECORD
  5
3132
102
{ACAD_XDICTIONARY
360
313C
102
}
330
1
100
AcDbSymbolTableRecord
100
AcDbBlockTableRecord
  2
SOLBET_Nadproze_200_18_2000x240x180_PRA
340
0
1001
ACAD
1000
DesignCenter Data
1002
{
1070
     1
1070
     4
1002
}
  0
BLOCK_RECORD
  5
3141
102
{ACAD_XDICTIONARY
360
314B
102
}
330
1
100
AcDbSymbolTableRecord
100
AcDbBlockTableRecord
  2
SOLBET_Nadproze_200_12_2000x240x120_PRA
340
0
1001
ACAD
1000
DesignCenter Data
1002
{
1070
     1
1070
     4
1002
}
  0
BLOCK_RECORD
  5
31E9
102
{ACAD_XDICTIONARY
360
31F5
102
}
330
1
100
AcDbSymbolTableRecord
100
AcDbBlockTableRecord
  2
SOLBET_Bloczek_Ideal_420x240x590_P+W_PRA
340
0
1001
ACAD
1000
DesignCenter Data
1002
{
1070
     1
1070
     4
1002
}
  0
BLOCK_RECORD
  5
3208
102
{ACAD_XDICTIONARY
360
3214
102
}
330
1
100
AcDbSymbolTableRecord
100
AcDbBlockTableRecord
  2
SOLBET_Bloczek_Ideal_420x240x590_P+W_GOR
340
0
1001
ACAD
1000
DesignCenter Data
1002
{
1070
     1
1070
     4
1002
}
  0
BLOCK_RECORD
  5
322A
102
{ACAD_XDICTIONARY
360
3236
102
}
330
1
100
AcDbSymbolTableRecord
100
AcDbBlockTableRecord
  2
SOLBET_Bloczek_Ideal_420x240x590_P+W_PRZ
340
0
1001
ACAD
1000
DesignCenter Data
1002
{
1070
     1
1070
     4
1002
}
  0
BLOCK_RECORD
  5
3595
102
{ACAD_XDICTIONARY
360
35A1
102
}
330
1
100
AcDbSymbolTableRecord
100
AcDbBlockTableRecord
  2
SOLBET_Bloczek_Ideal_420x240x590_P+W_KG400_PRA
340
0
102
{BLKREFS
331
35A5
331
35A6
331
35A7
331
35A8
331
35A9
102
}
1001
ACAD
1000
DesignCenter Data
1002
{
1070
     1
1070
     4
1002
}
  0
BLOCK_RECORD
  5
35AA
102
{ACAD_XDICTIONARY
360
35B4
102
}
330
1
100
AcDbSymbolTableRecord
100
AcDbBlockTableRecord
  2
SOLBET_Plytka_60x240x590_KG600_PRA
340
0
102
{BLKREFS
331
35B8
102
}
1001
ACAD
1000
DesignCenter Data
1002
{
1070
     1
1070
     4
1002
}
  0
BLOCK_RECORD
  5
35B9
102
{ACAD_XDICTIONARY
360
35CA
102
}
330
1
100
AcDbSymbolTableRecord
100
AcDbBlockTableRecord
  2
SOLBET_Nadproze_120x240x2300_zz_PRA
340
0
102
{BLKREFS
331
35CE
331
35CF
102
}
1001
ACAD
1000
DesignCenter Data
1002
{
1070
     1
1070
     4
1002
}
  0
BLOCK_RECORD
  5
35FB
102
{ACAD_XDICTIONARY
360
360C
102
}
330
1
100
AcDbSymbolTableRecord
100
AcDbBlockTableRecord
  2
SOLBET_Nadproze_180x240x2000_zz_PRA
340
0
102
{BLKREFS
331
3610
102
}
1001
ACAD
1000
DesignCenter Data
1002
{
1070
     1
1070
     4
1002
}
  0
BLOCK_RECORD
  5
3611
102
{ACAD_XDICTIONARY
360
361D
102
}
330
1
100
AcDbSymbolTableRecord
100
AcDbBlockTableRecord
  2
SOLBET_Bloczek_Ideal_420x240x590_P+W_KG400_PRZ
340
0
102
{BLKREFS
331
3621
331
3622
331
3623
331
3624
331
3625
331
3626
331
3627
331
3628
331
3629
331
362A
331
362B
331
362C
331
362D
331
362E
331
362F
331
3630
331
3631
331
3632
331
3633
331
3634
331
3635
331
3636
331
3637
331
3638
331
3639
331
363A
331
363B
331
363C
331
363D
331
363E
331
363F
331
3640
331
3641
331
3642
331
3643
331
3644
331
3645
331
3646
331
3647
331
3648
331
3649
102
}
1001
ACAD
1000
DesignCenter Data
1002
{
1070
     1
1070
     4
1002
}
  0
BLOCK_RECORD
  5
364A
102
{ACAD_XDICTIONARY
360
3656
102
}
330
1
100
AcDbSymbolTableRecord
100
AcDbBlockTableRecord
  2
SOLBET_Bloczek_Ideal_420x240x590_P+W_KG400_GOR
340
0
102
{BLKREFS
331
365A
331
365B
331
365C
331
365D
331
365E
331
365F
102
}
1001
ACAD
1000
DesignCenter Data
1002
{
1070
     1
1070
     4
1002
}
  0
ENDTAB
  0
ENDSEC
  0
SECTION
  2
BLOCKS
  0
BLOCK
  5
20
330
1F
100
AcDbEntity
  8
0
100
AcDbBlockBegin
  2
*Model_Space
 70
     0
 10
0.0
 20
0.0
 30
0.0
  3
*Model_Space
  1

  0
ENDBLK
  5
21
330
1F
100
AcDbEntity
  8
0
100
AcDbBlockEnd
  0
BLOCK
  5
D4
330
D2
100
AcDbEntity
 67
     1
  8
0
100
AcDbBlockBegin
  2
*Paper_Space
 70
     0
 10
0.0
 20
0.0
 30
0.0
  3
*Paper_Space
  1

  0
ENDBLK
  5
D5
330
D2
100
AcDbEntity
 67
     1
  8
0
100
AcDbBlockEnd
  0
BLOCK
  5
D8
330
D6
100
AcDbEntity
 67
     1
  8
0
100
AcDbBlockBegin
  2
*Paper_Space0
 70
     0
 10
0.0
 20
0.0
 30
0.0
  3
*Paper_Space0
  1

  0
ENDBLK
  5
D9
330
D6
100
AcDbEntity
 67
     1
  8
0
100
AcDbBlockEnd
  0
BLOCK
  5
95A
330
958
100
AcDbEntity
  8
0
100
AcDbBlockBegin
  2
_DotSmall
 70
     0
 10
0.0
 20
0.0
 30
0.0
  3
_DotSmall
  1

  0
LWPOLYLINE
  5
959
330
958
100
AcDbEntity
  8
0
  6
ByBlock
 62
     0
100
AcDbPolyline
 90
        2
 70
     1
 43
0.5
 10
-0.0625
 20
0.0
 42
1.0
 10
0.0625
 20
0.0
 42
1.0
  0
ENDBLK
  5
95B
330
958
100
AcDbEntity
  8
0
100
AcDbBlockEnd
  0
BLOCK
  5
22B4
330
22B3
100
AcDbEntity
  8
0
100
AcDbBlockBegin
  2
ASOWDBLK
 70
     0
 10
0.0
 20
0.0
 30
0.0
  3
ASOWDBLK
  1
ASOWDBLK
  0
ARC
  5
22B5
330
22B3
100
AcDbEntity
  8
0
  6
Continuous
 62
     0
100
AcDbCircle
 10
0.0
 20
0.25
 30
0.0
 40
0.25
100
AcDbArc
 50
270.0000011238745
 51
36.86989141244799
  0
ARC
  5
22B6
330
22B3
100
AcDbEntity
  8
0
  6
Continuous
 62
     0
100
AcDbCircle
 10
0.25
 20
0.75
 30
0.0
 40
0.25
100
AcDbArc
 50
323.1300909874582
 51
216.8699112602908
  0
LINE
  5
22B7
330
22B3
100
AcDbEntity
  8
0
  6
Continuous
 62
     0
100
AcDbLine
 10
0.05
 20
0.6
 30
0.0
 11
0.2
 21
0.4
 31
0.0
  0
ARC
  5
22B8
330
22B3
100
AcDbEntity
  8
0
  6
Continuous
 62
     0
100
AcDbCircle
 10
0.5
 20
0.25
 30
0.0
 40
0.25
100
AcDbArc
 50
143.1301284353948
 51
270.0000011238745
  0
LINE
  5
22B9
330
22B3
100
AcDbEntity
  8
0
  6
Continuous
 62
     0
100
AcDbLine
 10
0.45
 20
0.6
 30
0.0
 11
0.3
 21
0.4
 31
0.0
  0
ENDBLK
  5
22BA
330
22B3
100
AcDbEntity
  8
0
100
AcDbBlockEnd
  0
BLOCK
  5
22CA
330
22C9
100
AcDbEntity
  8
0
100
AcDbBlockBegin
  2
*X3
 70
     1
 10
0.0
 20
0.0
 30
0.0
  3
*X3
  1
ASOWDBLK
  0
LINE
  5
22CB
330
22C9
100
AcDbEntity
  8
0
 62
     0
100
AcDbLine
 10
12.3679971441842
 20
9.463695206850969
 30
0.0
 11
12.37947492774574
 21
9.477373896645453
 31
0.0
  0
LINE
  5
22CC
330
22C9
100
AcDbEntity
  8
0
 62
     0
100
AcDbLine
 10
12.54731218983439
 20
9.448007173105322
 30
0.0
 11
12.55936445751601
 21
9.462370506413803
 31
0.0
  0
LINE
  5
22CD
330
22C9
100
AcDbEntity
  8
0
 62
     0
100
AcDbLine
 10
12.36799714853588
 20
9.463695209658894
 30
0.0
 11
12.38294006900726
 21
9.462387873517679
 31
0.0
  0
LINE
  5
22CE
330
22C9
100
AcDbEntity
  8
0
 62
     0
100
AcDbLine
 10
12.54731219419239
 20
9.448007175964315
 30
0.0
 11
12.56225511466377
 21
9.4466998398231
 31
0.0
  0
LINE
  5
22CF
330
22C9
100
AcDbEntity
  8
0
 62
     0
100
AcDbLine
 10
12.38294734493005
 20
9.4623781245925
 30
0.0
 11
12.38018119759329
 21
9.477373896645453
 31
0.0
  0
LINE
  5
22D0
330
22C9
100
AcDbEntity
  8
0
 62
     0
100
AcDbLine
 10
12.56226237690854
 20
9.446689950037018
 30
0.0
 11
12.55937173644585
 21
9.462360621258849
 31
0.0
  0
LINE
  5
22D1
330
22C9
100
AcDbEntity
  8
0
 62
     0
100
AcDbLine
 10
11.75616891039773
 20
9.427373896645452
 30
0.0
 11
11.76738393501053
 21
9.439062362340582
 31
0.0
  0
LINE
  5
22D2
330
22C9
100
AcDbEntity
  8
0
 62
     0
100
AcDbLine
 10
11.7687499570032
 20
9.427373896645452
 30
0.0
 11
11.76739122001888
 21
9.43905355256455
 31
0.0
  0
LINE
  5
22D3
330
22C9
100
AcDbEntity
  8
0
 62
     0
100
AcDbLine
 10
12.14321939628071
 20
9.427373896645452
 30
0.0
 11
12.16009382309612
 21
9.433851382211726
 31
0.0
  0
LINE
  5
22D4
330
22C9
100
AcDbEntity
  8
0
 62
     0
100
AcDbLine
 10
11.78330683110781
 20
9.447153917176395
 30
0.0
 11
11.80081146410463
 21
9.453873316230369
 31
0.0
  0
LINE
  5
22D5
330
22C9
100
AcDbEntity
  8
0
 62
     0
100
AcDbLine
 10
11.78330683628649
 20
9.447153915051121
 30
0.0
 11
11.79574239987482
 21
9.438766021499059
 31
0.0
  0
LINE
  5
22D6
330
22C9
100
AcDbEntity
  8
0
 62
     0
100
AcDbLine
 10
12.15793081287172
 20
9.427373896645452
 30
0.0
 11
12.16010106960009
 21
9.433841872497813
 31
0.0
  0
LINE
  5
22D7
330
22C9
100
AcDbEntity
  8
0
 62
     0
100
AcDbLine
 10
11.79574964859947
 20
9.438756799333843
 30
0.0
 11
11.8008187296486
 21
9.453864087513544
 31
0.0
  0
LINE
  5
22D8
330
22C9
100
AcDbEntity
  8
0
 62
     0
100
AcDbLine
 10
12.20471516834098
 20
9.445898146433325
 30
0.0
 11
12.20471516834098
 21
9.445898146433325
 31
0.0
  0
LINE
  5
22D9
330
22C9
100
AcDbEntity
  8
0
 62
     0
100
AcDbLine
 10
12.07635598518457
 20
9.428295498211584
 30
0.0
 11
12.07635598518457
 21
9.428295498211584
 31
0.0
  0
LINE
  5
22DA
330
22C9
100
AcDbEntity
  8
0
 62
     0
100
AcDbLine
 10
11.82327259770628
 20
9.476770236297685
 30
0.0
 11
11.82327259770628
 21
9.476770236297685
 31
0.0
  0
LINE
  5
22DB
330
22C9
100
AcDbEntity
  8
0
 62
     0
100
AcDbLine
 10
11.69491341454987
 20
9.459167588075944
 30
0.0
 11
11.69491341454987
 21
9.459167588075944
 31
0.0
  0
LINE
  5
22DC
330
22C9
100
AcDbEntity
  8
0
 62
     0
100
AcDbLine
 10
11.56506669388041
 20
9.44042351217481
 30
0.0
 11
11.56506669388041
 21
9.44042351217481
 31
0.0
  0
LINE
  5
22DD
330
22C9
100
AcDbEntity
  8
0
 62
     0
100
AcDbLine
 10
12.33099179897913
 20
9.461902795903919
 30
0.0
 11
12.33099179897913
 21
9.461902795903919
 31
0.0
  0
LINE
  5
22DE
330
22C9
100
AcDbEntity
  8
0
 62
     0
100
AcDbLine
 10
12.27744372398571
 20
9.441526547948372
 30
0.0
 11
12.27744372398571
 21
9.441526547948372
 31
0.0
  0
LINE
  5
22DF
330
22C9
100
AcDbEntity
  8
0
 62
     0
100
AcDbLine
 10
12.34002868085993
 20
9.449766013832263
 30
0.0
 11
12.34002868085993
 21
9.449766013832263
 31
0.0
  0
LINE
  5
22E0
330
22C9
100
AcDbEntity
  8
0
 62
     0
100
AcDbLine
 10
12.43471166512113
 20
9.462231265189277
 30
0.0
 11
12.43471166512113
 21
9.462231265189277
 31
0.0
  0
LINE
  5
22E1
330
22C9
100
AcDbEntity
  8
0
 62
     0
100
AcDbLine
 10
11.55501244355407
 20
9.436361153104019
 30
0.0
 11
11.55501244355407
 21
9.436361153104019
 31
0.0
  0
LINE
  5
22E2
330
22C9
100
AcDbEntity
  8
0
 62
     0
100
AcDbLine
 10
11.71290003772785
 20
9.457147449215062
 30
0.0
 11
11.71290003772785
 21
9.457147449215062
 31
0.0
  0
LINE
  5
22E3
330
22C9
100
AcDbEntity
  8
0
 62
     0
100
AcDbLine
 10
11.77548499460207
 20
9.465386915098953
 30
0.0
 11
11.77548499460207
 21
9.465386915098953
 31
0.0
  0
LINE
  5
22E4
330
22C9
100
AcDbEntity
  8
0
 62
     0
100
AcDbLine
 10
12.00720232847171
 20
9.461538266747048
 30
0.0
 11
12.00720232847171
 21
9.461538266747048
 31
0.0
  0
LINE
  5
22E5
330
22C9
100
AcDbEntity
  8
0
 62
     0
100
AcDbLine
 10
12.14065793751482
 20
9.455899548813453
 30
0.0
 11
12.14065793751482
 21
9.455899548813453
 31
0.0
  0
LINE
  5
22E6
330
22C9
100
AcDbEntity
  8
0
 62
     0
100
AcDbLine
 10
12.27411354655792
 20
9.450260830879859
 30
0.0
 11
12.27411354655792
 21
9.450260830879859
 31
0.0
  0
LINE
  5
22E7
330
22C9
100
AcDbEntity
  8
0
 62
     0
100
AcDbLine
 10
12.40756915560102
 20
9.444622112946266
 30
0.0
 11
12.40756915560102
 21
9.444622112946266
 31
0.0
  0
LINE
  5
22E8
330
22C9
100
AcDbEntity
  8
0
 62
     0
100
AcDbLine
 10
12.54102476464413
 20
9.438983395012668
 30
0.0
 11
12.54102476464413
 21
9.438983395012668
 31
0.0
  0
LINE
  5
22E9
330
22C9
100
AcDbEntity
  8
0
 62
     0
100
AcDbLine
 10
12.67448037368723
 20
9.433344677079073
 30
0.0
 11
12.67448037368723
 21
9.433344677079073
 31
0.0
  0
LINE
  5
22EA
330
22C9
100
AcDbEntity
  8
0
 62
     0
100
AcDbLine
 10
11.87374671942861
 20
9.467176984680643
 30
0.0
 11
11.87374671942861
 21
9.467176984680643
 31
0.0
  0
LINE
  5
22EB
330
22C9
100
AcDbEntity
  8
0
 62
     0
100
AcDbLine
 10
11.74029111038551
 20
9.472815702614237
 30
0.0
 11
11.74029111038551
 21
9.472815702614237
 31
0.0
  0
LINE
  5
22EC
330
22C9
100
AcDbEntity
  8
0
 62
     0
100
AcDbLine
 10
12.47470767275208
 20
9.433432165767177
 30
0.0
 11
12.47470767275208
 21
9.433432165767177
 31
0.0
  0
LINE
  5
22ED
330
22C9
100
AcDbEntity
  8
0
 62
     0
100
AcDbLine
 10
12.62050421508768
 20
9.458458411350253
 30
0.0
 11
12.62050421508768
 21
9.458458411350253
 31
0.0
  0
LINE
  5
22EE
330
22C9
100
AcDbEntity
  8
0
 62
     0
100
AcDbLine
 10
11.75604679277084
 20
9.457466884084235
 30
0.0
 11
11.75604679277084
 21
9.457466884084235
 31
0.0
  0
LINE
  5
22EF
330
22C9
100
AcDbEntity
  8
0
 62
     0
100
AcDbLine
 10
11.61025025043524
 20
9.432440638501157
 30
0.0
 11
11.61025025043524
 21
9.432440638501157
 31
0.0
  0
ENDBLK
  5
22F0
330
22C9
100
AcDbEntity
  8
0
100
AcDbBlockEnd
  0
BLOCK
  5
22F2
330
22F1
100
AcDbEntity
  8
0
100
AcDbBlockBegin
  2
*X4
 70
     1
 10
0.0
 20
0.0
 30
0.0
  3
*X4
  1
ASOWDBLK
  0
LINE
  5
22F3
330
22F1
100
AcDbEntity
  8
0
 62
     0
100
AcDbLine
 10
11.99304811965889
 20
9.120426821088543
 30
0.0
 11
12.03304811965889
 21
9.16042682108854
 31
0.0
  0
LINE
  5
22F4
330
22F1
100
AcDbEntity
  8
0
 62
     0
100
AcDbLine
 10
11.94885394583473
 20
9.120426821088543
 30
0.0
 11
11.98885394583473
 21
9.16042682108854
 31
0.0
  0
LINE
  5
22F5
330
22F1
100
AcDbEntity
  8
0
 62
     0
100
AcDbLine
 10
11.90465977201057
 20
9.120426821088543
 30
0.0
 11
11.94465977201057
 21
9.16042682108854
 31
0.0
  0
LINE
  5
22F6
330
22F1
100
AcDbEntity
  8
0
 62
     0
100
AcDbLine
 10
11.86046559818641
 20
9.120426821088543
 30
0.0
 11
11.90046559818641
 21
9.16042682108854
 31
0.0
  0
LINE
  5
22F7
330
22F1
100
AcDbEntity
  8
0
 62
     0
100
AcDbLine
 10
11.81627142436225
 20
9.120426821088543
 30
0.0
 11
11.85627142436225
 21
9.16042682108854
 31
0.0
  0
LINE
  5
22F8
330
22F1
100
AcDbEntity
  8
0
 62
     0
100
AcDbLine
 10
11.77207725053809
 20
9.120426821088543
 30
0.0
 11
11.81207725053809
 21
9.16042682108854
 31
0.0
  0
LINE
  5
22F9
330
22F1
100
AcDbEntity
  8
0
 62
     0
100
AcDbLine
 10
11.72788307671393
 20
9.120426821088543
 30
0.0
 11
11.76788307671393
 21
9.16042682108854
 31
0.0
  0
LINE
  5
22FA
330
22F1
100
AcDbEntity
  8
0
 62
     0
100
AcDbLine
 10
11.68368890288977
 20
9.120426821088543
 30
0.0
 11
11.72368890288977
 21
9.16042682108854
 31
0.0
  0
LINE
  5
22FB
330
22F1
100
AcDbEntity
  8
0
 62
     0
100
AcDbLine
 10
11.63949472906562
 20
9.120426821088543
 30
0.0
 11
11.67949472906562
 21
9.16042682108854
 31
0.0
  0
LINE
  5
22FC
330
22F1
100
AcDbEntity
  8
0
 62
     0
100
AcDbLine
 10
11.59530055524146
 20
9.120426821088543
 30
0.0
 11
11.63530055524145
 21
9.16042682108854
 31
0.0
  0
LINE
  5
22FD
330
22F1
100
AcDbEntity
  8
0
 62
     0
100
AcDbLine
 10
11.5511063814173
 20
9.120426821088543
 30
0.0
 11
11.59110638141729
 21
9.16042682108854
 31
0.0
  0
LINE
  5
22FE
330
22F1
100
AcDbEntity
  8
0
 62
     0
100
AcDbLine
 10
11.50691220759314
 20
9.120426821088543
 30
0.0
 11
11.54691220759314
 21
9.16042682108854
 31
0.0
  0
LINE
  5
22FF
330
22F1
100
AcDbEntity
  8
0
 62
     0
100
AcDbLine
 10
11.46271803376898
 20
9.120426821088543
 30
0.0
 11
11.50271803376898
 21
9.16042682108854
 31
0.0
  0
LINE
  5
2300
330
22F1
100
AcDbEntity
  8
0
 62
     0
100
AcDbLine
 10
11.41852385994482
 20
9.120426821088543
 30
0.0
 11
11.45852385994482
 21
9.16042682108854
 31
0.0
  0
LINE
  5
2301
330
22F1
100
AcDbEntity
  8
0
 62
     0
100
AcDbLine
 10
11.39401831761913
 20
9.140115452587011
 30
0.0
 11
11.41432968612066
 21
9.16042682108854
 31
0.0
  0
LINE
  5
2302
330
22F1
100
AcDbEntity
  8
0
 62
     0
100
AcDbLine
 10
12.03724229348305
 20
9.120426821088543
 30
0.0
 11
12.07724229348305
 21
9.16042682108854
 31
0.0
  0
LINE
  5
2303
330
22F1
100
AcDbEntity
  8
0
 62
     0
100
AcDbLine
 10
12.08143646730721
 20
9.120426821088543
 30
0.0
 11
12.12143646730721
 21
9.16042682108854
 31
0.0
  0
LINE
  5
2304
330
22F1
100
AcDbEntity
  8
0
 62
     0
100
AcDbLine
 10
12.12563064113137
 20
9.120426821088543
 30
0.0
 11
12.16563064113137
 21
9.16042682108854
 31
0.0
  0
LINE
  5
2305
330
22F1
100
AcDbEntity
  8
0
 62
     0
100
AcDbLine
 10
12.16982481495553
 20
9.120426821088543
 30
0.0
 11
12.20982481495552
 21
9.16042682108854
 31
0.0
  0
LINE
  5
2306
330
22F1
100
AcDbEntity
  8
0
 62
     0
100
AcDbLine
 10
12.21401898877969
 20
9.120426821088543
 30
0.0
 11
12.25401898877968
 21
9.16042682108854
 31
0.0
  0
LINE
  5
2307
330
22F1
100
AcDbEntity
  8
0
 62
     0
100
AcDbLine
 10
12.25821316260385
 20
9.120426821088543
 30
0.0
 11
12.29821316260384
 21
9.16042682108854
 31
0.0
  0
LINE
  5
2308
330
22F1
100
AcDbEntity
  8
0
 62
     0
100
AcDbLine
 10
12.302407336428
 20
9.120426821088543
 30
0.0
 11
12.342407336428
 21
9.16042682108854
 31
0.0
  0
LINE
  5
2309
330
22F1
100
AcDbEntity
  8
0
 62
     0
100
AcDbLine
 10
12.34660151025216
 20
9.120426821088543
 30
0.0
 11
12.38660151025216
 21
9.16042682108854
 31
0.0
  0
LINE
  5
230A
330
22F1
100
AcDbEntity
  8
0
 62
     0
100
AcDbLine
 10
12.39079568407632
 20
9.120426821088543
 30
0.0
 11
12.43079568407632
 21
9.16042682108854
 31
0.0
  0
LINE
  5
230B
330
22F1
100
AcDbEntity
  8
0
 62
     0
100
AcDbLine
 10
12.43498985790048
 20
9.120426821088543
 30
0.0
 11
12.47498985790048
 21
9.16042682108854
 31
0.0
  0
LINE
  5
230C
330
22F1
100
AcDbEntity
  8
0
 62
     0
100
AcDbLine
 10
12.47918403172464
 20
9.120426821088543
 30
0.0
 11
12.51918403172464
 21
9.16042682108854
 31
0.0
  0
LINE
  5
230D
330
22F1
100
AcDbEntity
  8
0
 62
     0
100
AcDbLine
 10
12.5233782055488
 20
9.120426821088543
 30
0.0
 11
12.5633782055488
 21
9.16042682108854
 31
0.0
  0
LINE
  5
230E
330
22F1
100
AcDbEntity
  8
0
 62
     0
100
AcDbLine
 10
12.56757237937296
 20
9.120426821088543
 30
0.0
 11
12.60757237937296
 21
9.16042682108854
 31
0.0
  0
LINE
  5
230F
330
22F1
100
AcDbEntity
  8
0
 62
     0
100
AcDbLine
 10
12.61176655319712
 20
9.120426821088543
 30
0.0
 11
12.65176655319712
 21
9.16042682108854
 31
0.0
  0
LINE
  5
2310
330
22F1
100
AcDbEntity
  8
0
 62
     0
100
AcDbLine
 10
12.65596072702128
 20
9.120426821088543
 30
0.0
 11
12.68399674713724
 21
9.1484628412045
 31
0.0
  0
LINE
  5
2311
330
22F1
100
AcDbEntity
  8
0
 62
     0
100
AcDbLine
 10
12.04858244068372
 20
9.120426821088543
 30
0.0
 11
12.00858244068372
 21
9.16042682108854
 31
0.0
  0
LINE
  5
2312
330
22F1
100
AcDbEntity
  8
0
 62
     0
100
AcDbLine
 10
12.00438826685956
 20
9.120426821088543
 30
0.0
 11
11.96438826685956
 21
9.16042682108854
 31
0.0
  0
LINE
  5
2313
330
22F1
100
AcDbEntity
  8
0
 62
     0
100
AcDbLine
 10
11.9601940930354
 20
9.120426821088543
 30
0.0
 11
11.9201940930354
 21
9.16042682108854
 31
0.0
  0
LINE
  5
2314
330
22F1
100
AcDbEntity
  8
0
 62
     0
100
AcDbLine
 10
11.91599991921124
 20
9.120426821088543
 30
0.0
 11
11.87599991921124
 21
9.16042682108854
 31
0.0
  0
LINE
  5
2315
330
22F1
100
AcDbEntity
  8
0
 62
     0
100
AcDbLine
 10
11.87180574538708
 20
9.120426821088543
 30
0.0
 11
11.83180574538708
 21
9.16042682108854
 31
0.0
  0
LINE
  5
2316
330
22F1
100
AcDbEntity
  8
0
 62
     0
100
AcDbLine
 10
11.82761157156292
 20
9.120426821088543
 30
0.0
 11
11.78761157156293
 21
9.16042682108854
 31
0.0
  0
LINE
  5
2317
330
22F1
100
AcDbEntity
  8
0
 62
     0
100
AcDbLine
 10
11.78341739773876
 20
9.120426821088543
 30
0.0
 11
11.74341739773877
 21
9.16042682108854
 31
0.0
  0
LINE
  5
2318
330
22F1
100
AcDbEntity
  8
0
 62
     0
100
AcDbLine
 10
11.7392232239146
 20
9.120426821088543
 30
0.0
 11
11.69922322391461
 21
9.16042682108854
 31
0.0
  0
LINE
  5
2319
330
22F1
100
AcDbEntity
  8
0
 62
     0
100
AcDbLine
 10
11.69502905009045
 20
9.120426821088543
 30
0.0
 11
11.65502905009045
 21
9.16042682108854
 31
0.0
  0
LINE
  5
231A
330
22F1
100
AcDbEntity
  8
0
 62
     0
100
AcDbLine
 10
11.65083487626629
 20
9.120426821088543
 30
0.0
 11
11.61083487626629
 21
9.16042682108854
 31
0.0
  0
LINE
  5
231B
330
22F1
100
AcDbEntity
  8
0
 62
     0
100
AcDbLine
 10
11.60664070244213
 20
9.120426821088543
 30
0.0
 11
11.56664070244213
 21
9.16042682108854
 31
0.0
  0
LINE
  5
231C
330
22F1
100
AcDbEntity
  8
0
 62
     0
100
AcDbLine
 10
11.56244652861797
 20
9.120426821088543
 30
0.0
 11
11.52244652861797
 21
9.16042682108854
 31
0.0
  0
LINE
  5
231D
330
22F1
100
AcDbEntity
  8
0
 62
     0
100
AcDbLine
 10
11.51825235479381
 20
9.120426821088543
 30
0.0
 11
11.47825235479381
 21
9.16042682108854
 31
0.0
  0
LINE
  5
231E
330
22F1
100
AcDbEntity
  8
0
 62
     0
100
AcDbLine
 10
11.47405818096965
 20
9.120426821088543
 30
0.0
 11
11.43405818096965
 21
9.16042682108854
 31
0.0
  0
LINE
  5
231F
330
22F1
100
AcDbEntity
  8
0
 62
     0
100
AcDbLine
 10
11.42986400714549
 20
9.120426821088543
 30
0.0
 11
11.39401831761913
 21
9.156272510614906
 31
0.0
  0
LINE
  5
2320
330
22F1
100
AcDbEntity
  8
0
 62
     0
100
AcDbLine
 10
12.09277661450788
 20
9.120426821088543
 30
0.0
 11
12.05277661450788
 21
9.16042682108854
 31
0.0
  0
LINE
  5
2321
330
22F1
100
AcDbEntity
  8
0
 62
     0
100
AcDbLine
 10
12.13697078833203
 20
9.120426821088543
 30
0.0
 11
12.09697078833204
 21
9.16042682108854
 31
0.0
  0
LINE
  5
2322
330
22F1
100
AcDbEntity
  8
0
 62
     0
100
AcDbLine
 10
12.1811649621562
 20
9.120426821088543
 30
0.0
 11
12.1411649621562
 21
9.16042682108854
 31
0.0
  0
LINE
  5
2323
330
22F1
100
AcDbEntity
  8
0
 62
     0
100
AcDbLine
 10
12.22535913598036
 20
9.120426821088543
 30
0.0
 11
12.18535913598036
 21
9.16042682108854
 31
0.0
  0
LINE
  5
2324
330
22F1
100
AcDbEntity
  8
0
 62
     0
100
AcDbLine
 10
12.26955330980451
 20
9.120426821088543
 30
0.0
 11
12.22955330980451
 21
9.16042682108854
 31
0.0
  0
LINE
  5
2325
330
22F1
100
AcDbEntity
  8
0
 62
     0
100
AcDbLine
 10
12.31374748362867
 20
9.120426821088543
 30
0.0
 11
12.27374748362868
 21
9.16042682108854
 31
0.0
  0
LINE
  5
2326
330
22F1
100
AcDbEntity
  8
0
 62
     0
100
AcDbLine
 10
12.35794165745283
 20
9.120426821088543
 30
0.0
 11
12.31794165745283
 21
9.16042682108854
 31
0.0
  0
LINE
  5
2327
330
22F1
100
AcDbEntity
  8
0
 62
     0
100
AcDbLine
 10
12.40213583127699
 20
9.120426821088543
 30
0.0
 11
12.36213583127699
 21
9.16042682108854
 31
0.0
  0
LINE
  5
2328
330
22F1
100
AcDbEntity
  8
0
 62
     0
100
AcDbLine
 10
12.44633000510115
 20
9.120426821088543
 30
0.0
 11
12.40633000510115
 21
9.16042682108854
 31
0.0
  0
LINE
  5
2329
330
22F1
100
AcDbEntity
  8
0
 62
     0
100
AcDbLine
 10
12.49052417892531
 20
9.120426821088543
 30
0.0
 11
12.45052417892531
 21
9.16042682108854
 31
0.0
  0
LINE
  5
232A
330
22F1
100
AcDbEntity
  8
0
 62
     0
100
AcDbLine
 10
12.53471835274947
 20
9.120426821088543
 30
0.0
 11
12.49471835274947
 21
9.16042682108854
 31
0.0
  0
LINE
  5
232B
330
22F1
100
AcDbEntity
  8
0
 62
     0
100
AcDbLine
 10
12.57891252657363
 20
9.120426821088543
 30
0.0
 11
12.53891252657363
 21
9.16042682108854
 31
0.0
  0
LINE
  5
232C
330
22F1
100
AcDbEntity
  8
0
 62
     0
100
AcDbLine
 10
12.62310670039779
 20
9.120426821088543
 30
0.0
 11
12.58310670039779
 21
9.16042682108854
 31
0.0
  0
LINE
  5
232D
330
22F1
100
AcDbEntity
  8
0
 62
     0
100
AcDbLine
 10
12.66730087422195
 20
9.120426821088543
 30
0.0
 11
12.62730087422195
 21
9.16042682108854
 31
0.0
  0
LINE
  5
232E
330
22F1
100
AcDbEntity
  8
0
 62
     0
100
AcDbLine
 10
12.68399674713724
 20
9.147925121997415
 30
0.0
 11
12.67149504804611
 21
9.16042682108854
 31
0.0
  0
ENDBLK
  5
232F
330
22F1
100
AcDbEntity
  8
0
100
AcDbBlockEnd
  0
BLOCK
  5
237E
330
237D
100
AcDbEntity
  8
0
100
AcDbBlockBegin
  2
*U5
 70
     1
 10
0.0
 20
0.0
 30
0.0
  3
*U5
  1
*ANON
  0
SOLID
  5
237F
330
237D
100
AcDbEntity
  8
0
 62
     0
100
AcDbTrace
 10
8.138963202893219
 20
4.153110275044026
 30
0.0
 11
8.139143255728106
 21
4.152782880701087
 31
0.0
 12
8.138963202893224
 22
4.152372156093623
 32
0.0
 13
8.138963202893224
 23
4.152372156093623
 33
0.0
  0
SOLID
  5
2380
330
237D
100
AcDbEntity
  8
0
 62
     0
100
AcDbTrace
 10
8.138963202893224
 20
4.152372156093623
 30
0.0
 11
8.138028867975624
 21
4.151884078297518
 31
0.0
 12
8.136896703462809
 22
4.151631537884072
 32
0.0
 13
8.136896703462809
 23
4.151631537884072
 33
0.0
  0
SOLID
  5
2381
330
237D
100
AcDbEntity
  8
0
 62
     0
100
AcDbTrace
 10
8.138963202893224
 20
4.152372156093623
 30
0.0
 11
8.136896703462809
 21
4.151631537884072
 31
0.0
 12
8.135333985407216
 22
4.151529040414927
 32
0.0
 13
8.135333985407216
 23
4.151529040414927
 33
0.0
  0
SOLID
  5
2382
330
237D
100
AcDbEntity
  8
0
 62
     0
100
AcDbTrace
 10
8.138963202893224
 20
4.152372156093623
 30
0.0
 11
8.135333985407216
 21
4.151529040414927
 31
0.0
 12
8.133771267351626
 22
4.151631537884071
 32
0.0
 13
8.133771267351626
 23
4.151631537884071
 33
0.0
  0
SOLID
  5
2383
330
237D
100
AcDbEntity
  8
0
 62
     0
100
AcDbTrace
 10
8.138963202893224
 20
4.152372156093623
 30
0.0
 11
8.133771267351626
 21
4.151631537884071
 31
0.0
 12
8.132639102838806
 22
4.15188407829752
 32
0.0
 13
8.132639102838806
 23
4.15188407829752
 33
0.0
  0
SOLID
  5
2384
330
237D
100
AcDbEntity
  8
0
 62
     0
100
AcDbTrace
 10
8.138963202893224
 20
4.152372156093623
 30
0.0
 11
8.132639102838806
 21
4.15188407829752
 31
0.0
 12
8.131704767921211
 22
4.152372156093618
 32
0.0
 13
8.131704767921211
 23
4.152372156093618
 33
0.0
  0
SOLID
  5
2385
330
237D
100
AcDbEntity
  8
0
 62
     0
100
AcDbTrace
 10
8.138963202893224
 20
4.152372156093623
 30
0.0
 11
8.131704767921211
 21
4.152372156093618
 31
0.0
 12
8.131522845929975
 22
4.152741215568822
 32
0.0
 13
8.131522845929975
 23
4.152741215568822
 33
0.0
  0
SOLID
  5
2386
330
237D
100
AcDbEntity
  8
0
 62
     0
100
AcDbTrace
 10
8.138963202893224
 20
4.152372156093623
 30
0.0
 11
8.131522845929975
 21
4.152741215568822
 31
0.0
 12
8.13170476792121
 22
4.153110275044022
 32
0.0
 13
8.13170476792121
 23
4.153110275044022
 33
0.0
  0
SOLID
  5
2387
330
237D
100
AcDbEntity
  8
0
 62
     0
100
AcDbTrace
 10
8.138963202893224
 20
4.152372156093623
 30
0.0
 11
8.13170476792121
 21
4.153110275044022
 31
0.0
 12
8.132639102838815
 22
4.153598352840128
 32
0.0
 13
8.132639102838815
 23
4.153598352840128
 33
0.0
  0
SOLID
  5
2388
330
237D
100
AcDbEntity
  8
0
 62
     0
100
AcDbTrace
 10
8.138963202893224
 20
4.152372156093623
 30
0.0
 11
8.132639102838815
 21
4.153598352840128
 31
0.0
 12
8.133771267351617
 22
4.153850893253571
 32
0.0
 13
8.133771267351617
 23
4.153850893253571
 33
0.0
  0
SOLID
  5
2389
330
237D
100
AcDbEntity
  8
0
 62
     0
100
AcDbTrace
 10
8.138963202893224
 20
4.152372156093623
 30
0.0
 11
8.133771267351617
 21
4.153850893253571
 31
0.0
 12
8.135333985407216
 22
4.153953390722717
 32
0.0
 13
8.135333985407216
 23
4.153953390722717
 33
0.0
  0
SOLID
  5
238A
330
237D
100
AcDbEntity
  8
0
 62
     0
100
AcDbTrace
 10
8.138963202893224
 20
4.152372156093623
 30
0.0
 11
8.135333985407216
 21
4.153953390722717
 31
0.0
 12
8.136896703462786
 22
4.153850893253575
 32
0.0
 13
8.136896703462786
 23
4.153850893253575
 33
0.0
  0
SOLID
  5
238B
330
237D
100
AcDbEntity
  8
0
 62
     0
100
AcDbTrace
 10
8.138963202893224
 20
4.152372156093623
 30
0.0
 11
8.136896703462786
 21
4.153850893253575
 31
0.0
 12
8.138028867975622
 22
4.153598352840125
 32
0.0
 13
8.138028867975622
 23
4.153598352840125
 33
0.0
  0
SOLID
  5
238C
330
237D
100
AcDbEntity
  8
0
 62
     0
100
AcDbTrace
 10
8.138963202893224
 20
4.152372156093623
 30
0.0
 11
8.138028867975622
 21
4.153598352840125
 31
0.0
 12
8.138963202829472
 22
4.153110275044026
 32
0.0
 13
8.138963202829472
 23
4.153110275044026
 33
0.0
  0
ENDBLK
  5
238D
330
237D
100
AcDbEntity
  8
0
100
AcDbBlockEnd
  0
BLOCK
  5
23B3
330
23B2
100
AcDbEntity
  8
0
100
AcDbBlockBegin
  2
*U6
 70
     1
 10
0.0
 20
0.0
 30
0.0
  3
*U6
  1
*ANON
  0
SOLID
  5
23B4
330
23B2
100
AcDbEntity
  8
0
 62
     0
100
AcDbTrace
 10
7.91857274013904
 20
2.701391938321373
 30
0.0
 11
7.972731263906927
 21
2.701391938321373
 31
0.0
 12
7.972731263906926
 22
2.711391938321373
 32
0.0
 13
7.972731263906926
 23
2.711391938321373
 33
0.0
  0
SOLID
  5
23B5
330
23B2
100
AcDbEntity
  8
0
 62
     0
100
AcDbTrace
 10
7.91857274013904
 20
2.701391938321373
 30
0.0
 11
7.972731263906926
 21
2.711391938321373
 31
0.0
 12
7.91857274013904
 22
2.711391938321373
 32
0.0
 13
7.91857274013904
 23
2.711391938321373
 33
0.0
  0
ENDBLK
  5
23B6
330
23B2
100
AcDbEntity
  8
0
100
AcDbBlockEnd
  0
BLOCK
  5
23B8
330
23B7
100
AcDbEntity
  8
0
100
AcDbBlockBegin
  2
*U7
 70
     1
 10
0.0
 20
0.0
 30
0.0
  3
*U7
  1
*ANON
  0
ARC
  5
23B9
330
23B7
100
AcDbEntity
  8
0
  6
ByBlock
 62
     0
100
AcDbCircle
 10
8.315693713036786
 20
2.754725271654707
 30
0.0
 40
0.0273333333333335
100
AcDbArc
 50
209.196404409679
 51
270.0
  0
ARC
  5
23BA
330
23B7
100
AcDbEntity
  8
0
  6
ByBlock
 62
     0
100
AcDbCircle
 10
8.315693713036786
 20
2.754725271654707
 30
0.0
 40
0.0553333333333335
100
AcDbArc
 50
193.943434860838
 51
254.5483065693509
  0
ARC
  5
23BB
330
23B7
100
AcDbEntity
  8
0
  6
ByBlock
 62
     0
100
AcDbCircle
 10
8.315693713036786
 20
2.754725271654707
 30
0.0
 40
0.0833333333333335
100
AcDbArc
 50
189.206896221348
 51
219.791819499578
  0
ARC
  5
23BC
330
23B7
100
AcDbEntity
  8
0
  6
ByBlock
 62
     0
100
AcDbCircle
 10
8.315693713036786
 20
2.754725271654707
 30
0.0
 40
0.1113333333333335
100
AcDbArc
 50
186.8782793511646
 51
208.6228467300183
  0
ARC
  5
23BD
330
23B7
100
AcDbEntity
  8
0
  6
ByBlock
 62
     0
100
AcDbCircle
 10
8.315693713036786
 20
2.754725271654707
 30
0.0
 40
0.1393333333333335
100
AcDbArc
 50
185.4912524022716
 51
202.5056862398087
  0
ARC
  5
23BE
330
23B7
100
AcDbEntity
  8
0
  6
ByBlock
 62
     0
100
AcDbCircle
 10
8.315693713036786
 20
2.754725271654707
 30
0.0
 40
0.1673333333333335
100
AcDbArc
 50
184.5702456483737
 51
198.5858418267902
  0
ARC
  5
23BF
330
23B7
100
AcDbEntity
  8
0
  6
ByBlock
 62
     0
100
AcDbCircle
 10
8.315693713036786
 20
2.754725271654707
 30
0.0
 40
0.1953333333333335
100
AcDbArc
 50
183.9140181923182
 51
195.8450985955664
  0
ARC
  5
23C0
330
23B7
100
AcDbEntity
  8
0
  6
ByBlock
 62
     0
100
AcDbCircle
 10
8.315693713036786
 20
2.754725271654707
 30
0.0
 40
0.2233333333333335
100
AcDbArc
 50
183.4226788343221
 51
193.8160784752646
  0
ARC
  5
23C1
330
23B7
100
AcDbEntity
  8
0
  6
ByBlock
 62
     0
100
AcDbCircle
 10
8.315693713036786
 20
2.754725271654707
 30
0.0
 40
0.2513333333333335
100
AcDbArc
 50
183.0409914386517
 51
192.2514024131567
  0
ARC
  5
23C2
330
23B7
100
AcDbEntity
  8
0
  6
ByBlock
 62
     0
100
AcDbCircle
 10
8.315693713036786
 20
2.754725271654707
 30
0.0
 40
0.2793333333333336
100
AcDbArc
 50
182.7359216738391
 51
191.0071088739845
  0
ARC
  5
23C3
330
23B7
100
AcDbEntity
  8
0
  6
ByBlock
 62
     0
100
AcDbCircle
 10
8.315693713036786
 20
2.754725271654707
 30
0.0
 40
0.3073333333333336
100
AcDbArc
 50
182.4864975324721
 51
189.9934614918277
  0
ENDBLK
  5
23C4
330
23B7
100
AcDbEntity
  8
0
100
AcDbBlockEnd
  0
BLOCK
  5
2795
330
2787
100
AcDbEntity
  8
0
100
AcDbBlockBegin
  2
SOLBET_Bloczek_Optimal_420x240x590_P+W_PRA
 70
     2
 10
0.0
 20
0.0
 30
0.0
  3
SOLBET_Bloczek_Optimal_420x240x590_P+W_PRA
  1

  0
ATTDEF
  5
27B2
330
2787
100
AcDbEntity
  8
SOLBET_Wymiary_Opisy
100
AcDbText
 10
-0.0000000703746536
 20
6.303237281370451
 30
0.0
 40
0.9913121336814832
  1
420x240x590
  7
Solbet_1
100
AcDbAttributeDefinition
  3

  2
WYMIARY
 70
     3
1001
AcDbAttr
1070
     0
1070
     1
  0
ATTDEF
  5
27B3
330
2787
100
AcDbEntity
  8
SOLBET_Wymiary_Opisy
100
AcDbText
 10
-0.0000000703746536
 20
4.790717873654354
 30
0.0
 40
0.9913121336814832
  1
400
  7
Solbet_1
100
AcDbAttributeDefinition
  3

  2
KLASA_GĘSTOŚCI
 70
     9
1001
AcDbAttr
1070
     0
1070
     1
  0
ATTDEF
  5
27B4
330
2787
100
AcDbEntity
  8
SOLBET_Wymiary_Opisy
100
AcDbText
 10
-0.0000000703746536
 20
3.269569038442127
 30
0.0
 40
0.9913121336814832
  1
Pióra+Wpusty
  7
Solbet_1
100
AcDbAttributeDefinition
  3

  2
PROFILOWANIE
 70
     3
1001
AcDbAttr
1070
     0
1070
     1
  0
ATTDEF
  5
27B5
330
2787
100
AcDbEntity
  8
SOLBET_Wymiary_Opisy
100
AcDbText
 10
-0.0000000703746536
 20
0.2448646291013483
 30
0.0
 40
0.9913121336814832
  1
SOLBET
  7
Solbet_1
100
AcDbAttributeDefinition
  3

  2
FIRMA
 70
     3
1001
AcDbAttr
1070
     0
1070
     1
  0
ATTDEF
  5
27B6
330
2787
100
AcDbEntity
  8
SOLBET_Wymiary_Opisy
100
AcDbText
 10
-0.0000000703746536
 20
9.333547279718283
 30
0.0
 40
0.9913121336814832
  1
Bloczek
  7
Solbet_1
100
AcDbAttributeDefinition
  3
Nazwa
  2
NAZWA
 70
     3
1001
AcDbAttr
1070
     0
1070
     1
  0
ATTDEF
  5
27B7
330
2787
100
AcDbEntity
  8
SOLBET_Wymiary_Opisy
100
AcDbText
 10
-0.0000000703746536
 20
7.794499099484078
 30
0.0
 40
0.9913121336814832
  1
OPTIMAL
  7
Solbet_1
100
AcDbAttributeDefinition
  3

  2
SYSTEM
 70
     3
1001
AcDbAttr
1070
     0
1070
     1
  0
ATTDEF
  5
27B8
330
2787
100
AcDbEntity
  8
SOLBET_Wymiary_Opisy
100
AcDbText
 10
-0.0000000703746536
 20
1.74418138862846
 30
0.0
 40
0.9913121336814832
  1
Prawo
  7
Solbet_1
100
AcDbAttributeDefinition
  3

  2
WIDOK
 70
    11
1001
AcDbAttr
1070
     0
1070
     1
  0
LINE
  5
27B9
330
2787
100
AcDbEntity
  8
SOLBET_Bloczki
100
AcDbLine
 10
21.00000014074931
 20
12.00000020414847
 30
0.0
 11
21.00000014074931
 21
0.000000204148364
 31
0.0
  0
LINE
  5
27BA
330
2787
100
AcDbEntity
  8
SOLBET_Bloczki
100
AcDbLine
 10
21.00000014074931
 20
12.00000020414847
 30
0.0
 11
0.0000001407493072
 21
12.00000020414847
 31
0.0
  0
LINE
  5
27BB
330
2787
100
AcDbEntity
  8
SOLBET_Bloczki
100
AcDbLine
 10
0.0000001407493072
 20
12.00000020414847
 30
0.0
 11
0.0000001407493072
 21
0.000000204148364
 31
0.0
  0
LINE
  5
27BC
330
2787
100
AcDbEntity
  8
SOLBET_Bloczki
100
AcDbLine
 10
0.0000001407493072
 20
0.000000204148364
 30
0.0
 11
21.00000014074931
 21
0.000000204148364
 31
0.0
  0
ENDBLK
  5
2796
330
2787
100
AcDbEntity
  8
0
100
AcDbBlockEnd
  0
BLOCK
  5
27AF
330
27A3
100
AcDbEntity
  8
0
100
AcDbBlockBegin
  2
SOLBET_Plytka_60x240x590_brak_PRA
 70
     2
 10
0.0
 20
0.0
 30
0.0
  3
SOLBET_Plytka_60x240x590_brak_PRA
  1

  0
ATTDEF
  5
27A4
330
27A3
100
AcDbEntity
  8
SOLBET_Wymiary_Opisy
100
AcDbText
 10
0.0000000428741699
 20
4.865619229844077
 30
0.0
 40
1.006810973315101
  1
60x240x590
  7
Solbet_1
100
AcDbAttributeDefinition
  3

  2
WYMIARY
 70
     3
1001
AcDbAttr
1070
     0
1070
     1
  0
ATTDEF
  5
27A5
330
27A3
100
AcDbEntity
  8
SOLBET_Wymiary_Opisy
100
AcDbText
 10
0.0000000428741699
 20
3.329452077944857
 30
0.0
 40
1.006810973315101
  1
600
  7
Solbet_1
100
AcDbAttributeDefinition
  3

  2
KLASA_GĘSTOŚCI
 70
     3
1001
AcDbAttr
1070
     0
1070
     1
  0
ATTDEF
  5
27A6
330
27A3
100
AcDbEntity
  8
SOLBET_Wymiary_Opisy
100
AcDbText
 10
0.0000000428741699
 20
0.2486930628063702
 30
0.0
 40
1.006810973315101
  1
SOLBET
  7
Solbet_1
100
AcDbAttributeDefinition
  3

  2
FIRMA
 70
     3
1001
AcDbAttr
1070
     0
1070
     1
  0
ATTDEF
  5
27A7
330
27A3
100
AcDbEntity
  8
SOLBET_Wymiary_Opisy
100
AcDbText
 10
0.0000000428741699
 20
6.498884010242274
 30
0.0
 40
1.006810973315101
  1
Płytka
  7
Solbet_1
100
AcDbAttributeDefinition
  3
Nazwa
  2
NAZWA
 70
     3
1001
AcDbAttr
1070
     0
1070
     1
  0
ATTDEF
  5
27A8
330
27A3
100
AcDbEntity
  8
SOLBET_Wymiary_Opisy
100
AcDbText
 10
0.0000000428741699
 20
1.771451147448315
 30
0.0
 40
1.006810973315101
  1
Prawo
  7
Solbet_1
100
AcDbAttributeDefinition
  3

  2
WIDOK
 70
    11
1001
AcDbAttr
1070
     0
1070
     1
  0
LINE
  5
27A9
330
27A3
100
AcDbEntity
  8
SOLBET_Bloczki
100
AcDbLine
 10
2.99999991809318
 20
12.00000009173755
 30
0.0
 11
2.999999918093408
 21
0.0000000917375473
 31
0.0
  0
LINE
  5
27AA
330
27A3
100
AcDbEntity
  8
SOLBET_Bloczki
100
AcDbLine
 10
2.999999918093408
 20
0.0000000917375473
 30
0.0
 11
-0.0000000819065917
 21
0.0000000917375473
 31
0.0
  0
LINE
  5
27AB
330
27A3
100
AcDbEntity
  8
SOLBET_Bloczki
100
AcDbLine
 10
-0.0000000819065917
 20
0.0000000917375473
 30
0.0
 11
-0.0000000819065917
 21
12.00000009173755
 31
0.0
  0
LINE
  5
27AC
330
27A3
100
AcDbEntity
  8
SOLBET_Bloczki
100
AcDbLine
 10
-0.0000000819065917
 20
12.00000009173755
 30
0.0
 11
2.99999991809318
 21
12.00000009173755
 31
0.0
  0
ENDBLK
  5
27B0
330
27A3
100
AcDbEntity
  8
0
100
AcDbBlockEnd
  0
BLOCK
  5
2B48
330
2B47
100
AcDbEntity
  8
0
100
AcDbBlockBegin
  2
*D10
 70
     1
 10
0.0
 20
0.0
 30
0.0
  3
*D10
  1

  0
LINE
  5
33B4
330
2B47
100
AcDbEntity
  8
SOLBET_Wymiary_Opisy
 62
     0
370
    -2
100
AcDbLine
 10
167.766836838173
 20
99.9094009296407
 30
0.0
 11
167.766836838173
 21
92.05757363842954
 31
0.0
  0
LINE
  5
33B5
330
2B47
100
AcDbEntity
  8
SOLBET_Wymiary_Opisy
 62
     0
370
    -2
100
AcDbLine
 10
192.766836838173
 20
99.9094009296407
 30
0.0
 11
192.766836838173
 21
92.05757363842954
 31
0.0
  0
LINE
  5
33B6
330
2B47
100
AcDbEntity
  8
SOLBET_Wymiary_Opisy
 62
     0
370
    -2
100
AcDbLine
 10
170.266836838173
 20
93.30757363842954
 30
0.0
 11
190.266836838173
 21
93.30757363842954
 31
0.0
  0
SOLID
  5
33B7
330
2B47
100
AcDbEntity
  8
SOLBET_Wymiary_Opisy
 62
     0
100
AcDbTrace
 10
170.266836838173
 20
93.7242403050962
 30
0.0
 11
170.266836838173
 21
92.89090697176286
 31
0.0
 12
167.766836838173
 22
93.30757363842954
 32
0.0
 13
167.766836838173
 23
93.30757363842954
 33
0.0
  0
SOLID
  5
33B8
330
2B47
100
AcDbEntity
  8
SOLBET_Wymiary_Opisy
 62
     0
100
AcDbTrace
 10
190.266836838173
 20
93.7242403050962
 30
0.0
 11
190.266836838173
 21
92.89090697176286
 31
0.0
 12
192.766836838173
 22
93.30757363842954
 32
0.0
 13
192.766836838173
 23
93.30757363842954
 33
0.0
  0
MTEXT
  5
33B9
330
2B47
100
AcDbEntity
  8
SOLBET_Wymiary_Opisy
 62
     0
100
AcDbMText
 10
180.266836838173
 20
95.18257363842954
 30
0.0
 40
2.5
 41
0.0
 71
     5
 72
     1
  1
50
  7
Solbet_2_5
 73
     1
 44
1.0
1001
ACAD
1000
MTEXTBEGIN
1070
    73
1070
     1
1070
    44
1040
1.0
1070
    74
1070
     0
1000
MTEXTEND
  0
POINT
  5
33BA
330
2B47
100
AcDbEntity
  8
DEFPOINTS
 62
     0
100
AcDbPoint
 10
167.766836838173
 20
99.9094009296407
 30
0.0
  0
POINT
  5
33BB
330
2B47
100
AcDbEntity
  8
DEFPOINTS
 62
     0
100
AcDbPoint
 10
192.766836838173
 20
99.9094009296407
 30
0.0
  0
POINT
  5
33BC
330
2B47
100
AcDbEntity
  8
DEFPOINTS
 62
     0
100
AcDbPoint
 10
192.766836838173
 20
93.30757363842954
 30
0.0
  0
ENDBLK
  5
2B49
330
2B47
100
AcDbEntity
  8
0
100
AcDbBlockEnd
  0
BLOCK
  5
2B60
330
2B5F
100
AcDbEntity
  8
0
100
AcDbBlockBegin
  2
*D11
 70
     1
 10
0.0
 20
0.0
 30
0.0
  3
*D11
  1

  0
LINE
  5
33BD
330
2B5F
100
AcDbEntity
  8
SOLBET_Wymiary_Opisy
 62
     0
370
    -2
100
AcDbLine
 10
267.7668368381731
 20
99.9094009296407
 30
0.0
 11
267.7668368381731
 21
92.47238821074279
 31
0.0
  0
LINE
  5
33BE
330
2B5F
100
AcDbEntity
  8
SOLBET_Wymiary_Opisy
 62
     0
370
    -2
100
AcDbLine
 10
292.7668368381731
 20
99.9094009296407
 30
0.0
 11
292.7668368381731
 21
92.47238821074279
 31
0.0
  0
LINE
  5
33BF
330
2B5F
100
AcDbEntity
  8
SOLBET_Wymiary_Opisy
 62
     0
370
    -2
100
AcDbLine
 10
270.266836838173
 20
93.72238821074279
 30
0.0
 11
290.2668368381731
 21
93.72238821074279
 31
0.0
  0
SOLID
  5
33C0
330
2B5F
100
AcDbEntity
  8
SOLBET_Wymiary_Opisy
 62
     0
100
AcDbTrace
 10
270.266836838173
 20
94.13905487740946
 30
0.0
 11
270.266836838173
 21
93.30572154407612
 31
0.0
 12
267.7668368381731
 22
93.72238821074279
 32
0.0
 13
267.7668368381731
 23
93.72238821074279
 33
0.0
  0
SOLID
  5
33C1
330
2B5F
100
AcDbEntity
  8
SOLBET_Wymiary_Opisy
 62
     0
100
AcDbTrace
 10
290.2668368381731
 20
94.13905487740946
 30
0.0
 11
290.2668368381731
 21
93.30572154407612
 31
0.0
 12
292.7668368381731
 22
93.72238821074279
 32
0.0
 13
292.7668368381731
 23
93.72238821074279
 33
0.0
  0
MTEXT
  5
33C2
330
2B5F
100
AcDbEntity
  8
SOLBET_Wymiary_Opisy
 62
     0
100
AcDbMText
 10
280.3884086018241
 20
95.59738821074279
 30
0.0
 40
2.5
 41
0.0
 71
     5
 72
     1
  1
50
  7
Solbet_2_5
 73
     1
 44
1.0
1001
ACAD
1000
MTEXTBEGIN
1070
    73
1070
     1
1070
    44
1040
1.0
1070
    74
1070
     0
1000
MTEXTEND
  0
POINT
  5
33C3
330
2B5F
100
AcDbEntity
  8
DEFPOINTS
 62
     0
100
AcDbPoint
 10
267.7668368381731
 20
99.9094009296407
 30
0.0
  0
POINT
  5
33C4
330
2B5F
100
AcDbEntity
  8
DEFPOINTS
 62
     0
100
AcDbPoint
 10
292.7668368381731
 20
99.9094009296407
 30
0.0
  0
POINT
  5
33C5
330
2B5F
100
AcDbEntity
  8
DEFPOINTS
 62
     0
100
AcDbPoint
 10
292.7668368381731
 20
93.72238821074279
 30
0.0
  0
ENDBLK
  5
2B61
330
2B5F
100
AcDbEntity
  8
0
100
AcDbBlockEnd
  0
BLOCK
  5
2FE5
330
2FD7
100
AcDbEntity
  8
0
100
AcDbBlockBegin
  2
SOLBET_Bloczek_Optimal_420x240x590_P+W_GOR
 70
     2
 10
0.0
 20
0.0
 30
0.0
  3
SOLBET_Bloczek_Optimal_420x240x590_P+W_GOR
  1

  0
ATTDEF
  5
2FD8
330
2FD7
100
AcDbEntity
  8
SOLBET_Wymiary_Opisy
100
AcDbText
 10
0.0000000363686468
 20
6.303237337433069
 30
0.0
 40
0.9913121336814832
  1
420x240x590
  7
Solbet_1
100
AcDbAttributeDefinition
  3

  2
WYMIARY
 70
     3
1001
AcDbAttr
1070
     0
1070
     1
  0
ATTDEF
  5
2FD9
330
2FD7
100
AcDbEntity
  8
SOLBET_Wymiary_Opisy
100
AcDbText
 10
0.0000000363686468
 20
4.790717929716971
 30
0.0
 40
0.9913121336814832
  1
400
  7
Solbet_1
100
AcDbAttributeDefinition
  3

  2
KLASA_GĘSTOŚCI
 70
     9
1001
AcDbAttr
1070
     0
1070
     1
  0
ATTDEF
  5
2FDA
330
2FD7
100
AcDbEntity
  8
SOLBET_Wymiary_Opisy
100
AcDbText
 10
0.0000000363686468
 20
3.269569094504745
 30
0.0
 40
0.9913121336814832
  1
Pióra+Wpusty
  7
Solbet_1
100
AcDbAttributeDefinition
  3

  2
PROFILOWANIE
 70
     3
1001
AcDbAttr
1070
     0
1070
     1
  0
ATTDEF
  5
2FDB
330
2FD7
100
AcDbEntity
  8
SOLBET_Wymiary_Opisy
100
AcDbText
 10
0.0000000363686468
 20
0.2448646851639659
 30
0.0
 40
0.9913121336814832
  1
SOLBET
  7
Solbet_1
100
AcDbAttributeDefinition
  3

  2
FIRMA
 70
     3
1001
AcDbAttr
1070
     0
1070
     1
  0
ATTDEF
  5
2FDC
330
2FD7
100
AcDbEntity
  8
SOLBET_Wymiary_Opisy
100
AcDbText
 10
0.0000000363686468
 20
9.333547335780901
 30
0.0
 40
0.9913121336814832
  1
Bloczek
  7
Solbet_1
100
AcDbAttributeDefinition
  3
Nazwa
  2
NAZWA
 70
     3
1001
AcDbAttr
1070
     0
1070
     1
  0
ATTDEF
  5
2FDD
330
2FD7
100
AcDbEntity
  8
SOLBET_Wymiary_Opisy
100
AcDbText
 10
0.0000000363686468
 20
7.794499155546696
 30
0.0
 40
0.9913121336814832
  1
OPTIMAL
  7
Solbet_1
100
AcDbAttributeDefinition
  3

  2
SYSTEM
 70
     3
1001
AcDbAttr
1070
     0
1070
     1
  0
ATTDEF
  5
2FDE
330
2FD7
100
AcDbEntity
  8
SOLBET_Wymiary_Opisy
100
AcDbText
 10
0.0000000363686468
 20
1.744181444691078
 30
0.0
 40
0.9913121336814832
  1
Góra
  7
Solbet_1
100
AcDbAttributeDefinition
  3

  2
WIDOK
 70
    11
1001
AcDbAttr
1070
     0
1070
     1
  0
LINE
  5
2FDF
330
2FD7
100
AcDbEntity
  8
SOLBET_Bloczki
100
AcDbLine
 10
-0.0000001473426892
 20
0.0000000920231287
 30
0.0
 11
29.49999992726271
 21
0.0000000585339421
 31
0.0
  0
LINE
  5
2FE0
330
2FD7
100
AcDbEntity
  8
SOLBET_Bloczki
100
AcDbLine
 10
29.49999992726271
 20
0.0000000585339421
 30
0.0
 11
29.49999985265754
 21
21.00000009202324
 31
0.0
  0
LINE
  5
2FE1
330
2FD7
100
AcDbEntity
  8
SOLBET_Bloczki
100
AcDbLine
 10
29.49999985265754
 20
21.00000009202324
 30
0.0
 11
-0.0000001473426892
 21
21.00000009202324
 31
0.0
  0
LINE
  5
2FE2
330
2FD7
100
AcDbEntity
  8
SOLBET_Bloczki
100
AcDbLine
 10
-0.0000001473426892
 20
21.00000009202324
 30
0.0
 11
-0.0000000727372935
 21
0.0000000585339421
 31
0.0
  0
ENDBLK
  5
2FE6
330
2FD7
100
AcDbEntity
  8
0
100
AcDbBlockEnd
  0
BLOCK
  5
3033
330
3025
100
AcDbEntity
  8
0
100
AcDbBlockBegin
  2
SOLBET_Bloczek_Optimal_420x240x590_P+W_PRZ
 70
     2
 10
0.0
 20
0.0
 30
0.0
  3
SOLBET_Bloczek_Optimal_420x240x590_P+W_PRZ
  1

  0
ATTDEF
  5
3026
330
3025
100
AcDbEntity
  8
SOLBET_Wymiary_Opisy
100
AcDbText
 10
0.0000000363686468
 20
6.303237354177662
 30
0.0
 40
0.9913121336814832
  1
420x240x590
  7
Solbet_1
100
AcDbAttributeDefinition
  3

  2
WYMIARY
 70
     3
1001
AcDbAttr
1070
     0
1070
     1
  0
ATTDEF
  5
3027
330
3025
100
AcDbEntity
  8
SOLBET_Wymiary_Opisy
100
AcDbText
 10
0.0000000363686468
 20
4.790717946461565
 30
0.0
 40
0.9913121336814832
  1
400
  7
Solbet_1
100
AcDbAttributeDefinition
  3

  2
KLASA_GĘSTOŚCI
 70
     9
1001
AcDbAttr
1070
     0
1070
     1
  0
ATTDEF
  5
3028
330
3025
100
AcDbEntity
  8
SOLBET_Wymiary_Opisy
100
AcDbText
 10
0.0000000363686468
 20
3.269569111249338
 30
0.0
 40
0.9913121336814832
  1
Pióra+Wpusty
  7
Solbet_1
100
AcDbAttributeDefinition
  3

  2
PROFILOWANIE
 70
     3
1001
AcDbAttr
1070
     0
1070
     1
  0
ATTDEF
  5
3029
330
3025
100
AcDbEntity
  8
SOLBET_Wymiary_Opisy
100
AcDbText
 10
0.0000000363686468
 20
0.2448647019085592
 30
0.0
 40
0.9913121336814832
  1
SOLBET
  7
Solbet_1
100
AcDbAttributeDefinition
  3

  2
FIRMA
 70
     3
1001
AcDbAttr
1070
     0
1070
     1
  0
ATTDEF
  5
302A
330
3025
100
AcDbEntity
  8
SOLBET_Wymiary_Opisy
100
AcDbText
 10
0.0000000363686468
 20
9.333547352525494
 30
0.0
 40
0.9913121336814832
  1
Bloczek
  7
Solbet_1
100
AcDbAttributeDefinition
  3
Nazwa
  2
NAZWA
 70
     3
1001
AcDbAttr
1070
     0
1070
     1
  0
ATTDEF
  5
302B
330
3025
100
AcDbEntity
  8
SOLBET_Wymiary_Opisy
100
AcDbText
 10
0.0000000363686468
 20
7.794499172291289
 30
0.0
 40
0.9913121336814832
  1
OPTIMAL
  7
Solbet_1
100
AcDbAttributeDefinition
  3

  2
SYSTEM
 70
     3
1001
AcDbAttr
1070
     0
1070
     1
  0
ATTDEF
  5
302C
330
3025
100
AcDbEntity
  8
SOLBET_Wymiary_Opisy
100
AcDbText
 10
0.0000000363686468
 20
1.744181461435671
 30
0.0
 40
0.9913121336814832
  1
Przód
  7
Solbet_1
100
AcDbAttributeDefinition
  3

  2
WIDOK
 70
    11
1001
AcDbAttr
1070
     0
1070
     1
  0
LINE
  5
302D
330
3025
100
AcDbEntity
  8
SOLBET_Bloczki
100
AcDbLine
 10
-0.0000000727372935
 20
0.0000000585339421
 30
0.0
 11
29.49999992726271
 21
0.0000000585339421
 31
0.0
  0
LINE
  5
302E
330
3025
100
AcDbEntity
  8
SOLBET_Bloczki
100
AcDbLine
 10
29.49999992726271
 20
0.0000000585339421
 30
0.0
 11
29.49999992726271
 21
12.00000005853394
 31
0.0
  0
LINE
  5
302F
330
3025
100
AcDbEntity
  8
SOLBET_Bloczki
100
AcDbLine
 10
29.49999992726271
 20
12.00000005853394
 30
0.0
 11
-0.0000000727372935
 21
12.00000005853394
 31
0.0
  0
LINE
  5
3030
330
3025
100
AcDbEntity
  8
SOLBET_Bloczki
100
AcDbLine
 10
-0.0000000727372935
 20
12.00000005853394
 30
0.0
 11
-0.0000000727372935
 21
0.0000000585339421
 31
0.0
  0
ENDBLK
  5
3034
330
3025
100
AcDbEntity
  8
0
100
AcDbBlockEnd
  0
BLOCK
  5
312F
330
3123
100
AcDbEntity
  8
0
100
AcDbBlockBegin
  2
SOLBET_Nadproze_200_18_2000x240x180_PRZ
 70
     2
 10
0.0
 20
0.0
 30
0.0
  3
SOLBET_Nadproze_200_18_2000x240x180_PRZ
  1

  0
ATTDEF
  5
3124
330
3123
100
AcDbEntity
  8
SOLBET_Wymiary_Opisy
100
AcDbText
 10
-0.0000002754209163
 20
4.914367003308234
 30
0.0
 40
0.9913121336814832
  1
2000x240x180
  7
Solbet_1
100
AcDbAttributeDefinition
  3

  2
WYMIARY
 70
     3
1001
AcDbAttr
1070
     0
1070
     1
  0
ATTDEF
  5
3125
330
3123
100
AcDbEntity
  8
SOLBET_Wymiary_Opisy
100
AcDbText
 10
0.0000001377104581
 20
3.269569171638422
 30
0.0
 40
0.9913121336814832
  1
25
  7
Solbet_1
100
AcDbAttributeDefinition
  3

  2
DŁUGOŚĆ_PODPARCIA_2
 70
    11
1001
AcDbAttr
1070
     0
1070
     1
  0
ATTDEF
  5
3126
330
3123
100
AcDbEntity
  8
SOLBET_Wymiary_Opisy
100
AcDbText
 10
0.0000001377104581
 20
0.2448647622976432
 30
0.0
 40
0.9913121336814832
  1
SOLBET
  7
Solbet_1
100
AcDbAttributeDefinition
  3

  2
FIRMA
 70
     3
1001
AcDbAttr
1070
     0
1070
     1
  0
ATTDEF
  5
3127
330
3123
100
AcDbEntity
  8
SOLBET_Wymiary_Opisy
100
AcDbText
 10
-0.0000002754209163
 20
6.505718915794942
 30
0.0
 40
0.9913121336814832
  1
Nadproże 200/18
  7
Solbet_1
100
AcDbAttributeDefinition
  3
Nazwa
  2
NAZWA
 70
     3
1001
AcDbAttr
1070
     0
1070
     1
  0
ATTDEF
  5
3128
330
3123
100
AcDbEntity
  8
SOLBET_Wymiary_Opisy
100
AcDbText
 10
0.0000001377104581
 20
1.744181521824755
 30
0.0
 40
0.9913121336814832
  1
Przód
  7
Solbet_1
100
AcDbAttributeDefinition
  3

  2
WIDOK
 70
    11
1001
AcDbAttr
1070
     0
1070
     1
  0
LINE
  5
3129
330
3123
100
AcDbEntity
  8
SOLBET_Bloczki
100
AcDbLine
 10
0.0000002609563126
 20
11.99999995775988
 30
0.0
 11
100.0000002609563
 21
11.99999995775988
 31
0.0
  0
LINE
  5
312A
330
3123
100
AcDbEntity
  8
SOLBET_Bloczki
100
AcDbLine
 10
100.0000002609563
 20
11.99999995775988
 30
0.0
 11
100.0000002609563
 21
-0.0000000422401172
 31
0.0
  0
LINE
  5
312B
330
3123
100
AcDbEntity
  8
SOLBET_Bloczki
100
AcDbLine
 10
100.0000002609563
 20
-0.0000000422401172
 30
0.0
 11
0.0000002609563126
 21
-0.0000000422403446
 31
0.0
  0
LINE
  5
312C
330
3123
100
AcDbEntity
  8
SOLBET_Bloczki
100
AcDbLine
 10
0.0000002609563126
 20
-0.0000000422403446
 30
0.0
 11
0.0000002609563126
 21
11.99999995775988
 31
0.0
  0
ENDBLK
  5
3130
330
3123
100
AcDbEntity
  8
0
100
AcDbBlockEnd
  0
BLOCK
  5
313E
330
3132
100
AcDbEntity
  8
0
100
AcDbBlockBegin
  2
SOLBET_Nadproze_200_18_2000x240x180_PRA
 70
     2
 10
0.0
 20
0.0
 30
0.0
  3
SOLBET_Nadproze_200_18_2000x240x180_PRA
  1

  0
ATTDEF
  5
3133
330
3132
100
AcDbEntity
  8
SOLBET_Wymiary_Opisy
100
AcDbText
 10
-0.0000002754209163
 20
4.914367003308234
 30
0.0
 40
0.9913121336814832
  1
2000x240x180
  7
Solbet_1
100
AcDbAttributeDefinition
  3

  2
WYMIARY
 70
     3
1001
AcDbAttr
1070
     0
1070
     1
  0
ATTDEF
  5
3134
330
3132
100
AcDbEntity
  8
SOLBET_Wymiary_Opisy
100
AcDbText
 10
0.0000001377104581
 20
3.269569171638422
 30
0.0
 40
0.9913121336814832
  1
25
  7
Solbet_1
100
AcDbAttributeDefinition
  3

  2
DŁUGOŚĆ_PODPARCIA_2
 70
    11
1001
AcDbAttr
1070
     0
1070
     1
  0
ATTDEF
  5
3135
330
3132
100
AcDbEntity
  8
SOLBET_Wymiary_Opisy
100
AcDbText
 10
0.0000001377104581
 20
0.2448647622976432
 30
0.0
 40
0.9913121336814832
  1
SOLBET
  7
Solbet_1
100
AcDbAttributeDefinition
  3

  2
FIRMA
 70
     3
1001
AcDbAttr
1070
     0
1070
     1
  0
ATTDEF
  5
3136
330
3132
100
AcDbEntity
  8
SOLBET_Wymiary_Opisy
100
AcDbText
 10
-0.0000002754209163
 20
6.505718915794942
 30
0.0
 40
0.9913121336814832
  1
Nadproże 200/18
  7
Solbet_1
100
AcDbAttributeDefinition
  3
Nazwa
  2
NAZWA
 70
     3
1001
AcDbAttr
1070
     0
1070
     1
  0
ATTDEF
  5
3137
330
3132
100
AcDbEntity
  8
SOLBET_Wymiary_Opisy
100
AcDbText
 10
0.0000001377104581
 20
1.744181521824755
 30
0.0
 40
0.9913121336814832
  1
Prawo
  7
Solbet_1
100
AcDbAttributeDefinition
  3

  2
WIDOK
 70
    11
1001
AcDbAttr
1070
     0
1070
     1
  0
LINE
  5
3138
330
3132
100
AcDbEntity
  8
SOLBET_Bloczki
100
AcDbLine
 10
9.000000391142748
 20
11.99999999119632
 30
0.0
 11
9.000000391142748
 21
-0.0000000088036813
 31
0.0
  0
LINE
  5
3139
330
3132
100
AcDbEntity
  8
SOLBET_Bloczki
100
AcDbLine
 10
9.000000391142748
 20
-0.0000000088036813
 30
0.0
 11
0.0000003911427484
 21
-0.0000000088036813
 31
0.0
  0
LINE
  5
313A
330
3132
100
AcDbEntity
  8
SOLBET_Bloczki
100
AcDbLine
 10
0.0000003911427484
 20
-0.0000000088036813
 30
0.0
 11
0.0000003911427484
 21
11.99999999119632
 31
0.0
  0
LINE
  5
313B
330
3132
100
AcDbEntity
  8
SOLBET_Bloczki
100
AcDbLine
 10
0.0000003911427484
 20
11.99999999119632
 30
0.0
 11
9.000000391142748
 21
11.99999999119632
 31
0.0
  0
ENDBLK
  5
313F
330
3132
100
AcDbEntity
  8
0
100
AcDbBlockEnd
  0
BLOCK
  5
314D
330
3141
100
AcDbEntity
  8
0
100
AcDbBlockBegin
  2
SOLBET_Nadproze_200_12_2000x240x120_PRA
 70
     2
 10
0.0
 20
0.0
 30
0.0
  3
SOLBET_Nadproze_200_12_2000x240x120_PRA
  1

  0
ATTDEF
  5
3142
330
3141
100
AcDbEntity
  8
SOLBET_Wymiary_Opisy
100
AcDbText
 10
-0.0000002754209163
 20
4.914367003308234
 30
0.0
 40
0.9913121336814832
  1
2000x240x120
  7
Solbet_1
100
AcDbAttributeDefinition
  3

  2
WYMIARY
 70
     3
1001
AcDbAttr
1070
     0
1070
     1
  0
ATTDEF
  5
3143
330
3141
100
AcDbEntity
  8
SOLBET_Wymiary_Opisy
100
AcDbText
 10
0.0000001377104581
 20
3.269569171638422
 30
0.0
 40
0.9913121336814832
  1
25
  7
Solbet_1
100
AcDbAttributeDefinition
  3

  2
DŁUGOŚĆ_PODPARCIA_2
 70
    11
1001
AcDbAttr
1070
     0
1070
     1
  0
ATTDEF
  5
3144
330
3141
100
AcDbEntity
  8
SOLBET_Wymiary_Opisy
100
AcDbText
 10
0.0000001377104581
 20
0.2448647622976432
 30
0.0
 40
0.9913121336814832
  1
SOLBET
  7
Solbet_1
100
AcDbAttributeDefinition
  3

  2
FIRMA
 70
     3
1001
AcDbAttr
1070
     0
1070
     1
  0
ATTDEF
  5
3145
330
3141
100
AcDbEntity
  8
SOLBET_Wymiary_Opisy
100
AcDbText
 10
-0.0000002754209163
 20
6.505718915794942
 30
0.0
 40
0.9913121336814832
  1
Nadproże 200/12
  7
Solbet_1
100
AcDbAttributeDefinition
  3
Nazwa
  2
NAZWA
 70
     3
1001
AcDbAttr
1070
     0
1070
     1
  0
ATTDEF
  5
3146
330
3141
100
AcDbEntity
  8
SOLBET_Wymiary_Opisy
100
AcDbText
 10
0.0000001377104581
 20
1.744181521824755
 30
0.0
 40
0.9913121336814832
  1
Prawo
  7
Solbet_1
100
AcDbAttributeDefinition
  3

  2
WIDOK
 70
    11
1001
AcDbAttr
1070
     0
1070
     1
  0
LINE
  5
3147
330
3141
100
AcDbEntity
  8
SOLBET_Bloczki
100
AcDbLine
 10
6.000000284205952
 20
12.00000009473342
 30
0.0
 11
6.000000284205952
 21
0.0000000947327408
 31
0.0
  0
LINE
  5
3148
330
3141
100
AcDbEntity
  8
SOLBET_Bloczki
100
AcDbLine
 10
6.000000284205952
 20
0.0000000947327408
 30
0.0
 11
0.000000284205953
 21
0.0000000947327408
 31
0.0
  0
LINE
  5
3149
330
3141
100
AcDbEntity
  8
SOLBET_Bloczki
100
AcDbLine
 10
0.000000284205953
 20
0.0000000947327408
 30
0.0
 11
0.000000284205953
 21
12.00000009473342
 31
0.0
  0
LINE
  5
314A
330
3141
100
AcDbEntity
  8
SOLBET_Bloczki
100
AcDbLine
 10
0.000000284205953
 20
12.00000009473342
 30
0.0
 11
6.000000284205952
 21
12.00000009473342
 31
0.0
  0
ENDBLK
  5
314E
330
3141
100
AcDbEntity
  8
0
100
AcDbBlockEnd
  0
BLOCK
  5
31F7
330
31E9
100
AcDbEntity
  8
0
100
AcDbBlockBegin
  2
SOLBET_Bloczek_Ideal_420x240x590_P+W_PRA
 70
     2
 10
0.0
 20
0.0
 30
0.0
  3
SOLBET_Bloczek_Ideal_420x240x590_P+W_PRA
  1

  0
ATTDEF
  5
31EA
330
31E9
100
AcDbEntity
  8
SOLBET_Wymiary_Opisy
100
AcDbText
 10
-0.0000000703746536
 20
6.303237281370451
 30
0.0
 40
0.9913121336814832
  1
420x240x590
  7
Solbet_1
100
AcDbAttributeDefinition
  3

  2
WYMIARY
 70
     3
1001
AcDbAttr
1070
     0
1070
     1
  0
ATTDEF
  5
31EB
330
31E9
100
AcDbEntity
  8
SOLBET_Wymiary_Opisy
100
AcDbText
 10
-0.0000000703746536
 20
4.790717873654354
 30
0.0
 40
0.9913121336814832
  1
400
  7
Solbet_1
100
AcDbAttributeDefinition
  3

  2
KLASA_GĘSTOŚCI
 70
     9
1001
AcDbAttr
1070
     0
1070
     1
  0
ATTDEF
  5
31EC
330
31E9
100
AcDbEntity
  8
SOLBET_Wymiary_Opisy
100
AcDbText
 10
-0.0000000703746536
 20
3.269569038442127
 30
0.0
 40
0.9913121336814832
  1
Pióra+Wpusty
  7
Solbet_1
100
AcDbAttributeDefinition
  3

  2
PROFILOWANIE
 70
     3
1001
AcDbAttr
1070
     0
1070
     1
  0
ATTDEF
  5
31ED
330
31E9
100
AcDbEntity
  8
SOLBET_Wymiary_Opisy
100
AcDbText
 10
-0.0000000703746536
 20
0.2448646291013483
 30
0.0
 40
0.9913121336814832
  1
SOLBET
  7
Solbet_1
100
AcDbAttributeDefinition
  3

  2
FIRMA
 70
     3
1001
AcDbAttr
1070
     0
1070
     1
  0
ATTDEF
  5
31EE
330
31E9
100
AcDbEntity
  8
SOLBET_Wymiary_Opisy
100
AcDbText
 10
-0.0000000703746536
 20
9.333547279718283
 30
0.0
 40
0.9913121336814832
  1
Bloczek
  7
Solbet_1
100
AcDbAttributeDefinition
  3
Nazwa
  2
NAZWA
 70
     3
1001
AcDbAttr
1070
     0
1070
     1
  0
ATTDEF
  5
31EF
330
31E9
100
AcDbEntity
  8
SOLBET_Wymiary_Opisy
100
AcDbText
 10
-0.0000000703746536
 20
7.794499099484078
 30
0.0
 40
0.9913121336814832
  1
SOLBET IDEAL
  7
Solbet_1
100
AcDbAttributeDefinition
  3

  2
SYSTEM
 70
     3
1001
AcDbAttr
1070
     0
1070
     1
  0
ATTDEF
  5
31F0
330
31E9
100
AcDbEntity
  8
SOLBET_Wymiary_Opisy
100
AcDbText
 10
-0.0000000703746536
 20
1.74418138862846
 30
0.0
 40
0.9913121336814832
  1
Prawo
  7
Solbet_1
100
AcDbAttributeDefinition
  3

  2
WIDOK
 70
    11
1001
AcDbAttr
1070
     0
1070
     1
  0
LINE
  5
31F1
330
31E9
100
AcDbEntity
  8
SOLBET_Bloczki
100
AcDbLine
 10
21.00000014074931
 20
12.00000020414847
 30
0.0
 11
21.00000014074931
 21
0.000000204148364
 31
0.0
  0
LINE
  5
31F2
330
31E9
100
AcDbEntity
  8
SOLBET_Bloczki
100
AcDbLine
 10
21.00000014074931
 20
12.00000020414847
 30
0.0
 11
0.0000001407493072
 21
12.00000020414847
 31
0.0
  0
LINE
  5
31F3
330
31E9
100
AcDbEntity
  8
SOLBET_Bloczki
100
AcDbLine
 10
0.0000001407493072
 20
12.00000020414847
 30
0.0
 11
0.0000001407493072
 21
0.000000204148364
 31
0.0
  0
LINE
  5
31F4
330
31E9
100
AcDbEntity
  8
SOLBET_Bloczki
100
AcDbLine
 10
0.0000001407493072
 20
0.000000204148364
 30
0.0
 11
21.00000014074931
 21
0.000000204148364
 31
0.0
  0
ENDBLK
  5
31F8
330
31E9
100
AcDbEntity
  8
0
100
AcDbBlockEnd
  0
BLOCK
  5
3216
330
3208
100
AcDbEntity
  8
0
100
AcDbBlockBegin
  2
SOLBET_Bloczek_Ideal_420x240x590_P+W_GOR
 70
     2
 10
0.0
 20
0.0
 30
0.0
  3
SOLBET_Bloczek_Ideal_420x240x590_P+W_GOR
  1

  0
ATTDEF
  5
3209
330
3208
100
AcDbEntity
  8
SOLBET_Wymiary_Opisy
100
AcDbText
 10
0.0000000363686468
 20
6.303237354177662
 30
0.0
 40
0.9913121336814832
  1
420x240x590
  7
Solbet_1
100
AcDbAttributeDefinition
  3

  2
WYMIARY
 70
     3
1001
AcDbAttr
1070
     0
1070
     1
  0
ATTDEF
  5
320A
330
3208
100
AcDbEntity
  8
SOLBET_Wymiary_Opisy
100
AcDbText
 10
0.0000000363686468
 20
4.790717946461565
 30
0.0
 40
0.9913121336814832
  1
400
  7
Solbet_1
100
AcDbAttributeDefinition
  3

  2
KLASA_GĘSTOŚCI
 70
     9
1001
AcDbAttr
1070
     0
1070
     1
  0
ATTDEF
  5
320B
330
3208
100
AcDbEntity
  8
SOLBET_Wymiary_Opisy
100
AcDbText
 10
0.0000000363686468
 20
3.269569111249338
 30
0.0
 40
0.9913121336814832
  1
Pióra+Wpusty
  7
Solbet_1
100
AcDbAttributeDefinition
  3

  2
PROFILOWANIE
 70
     3
1001
AcDbAttr
1070
     0
1070
     1
  0
ATTDEF
  5
320C
330
3208
100
AcDbEntity
  8
SOLBET_Wymiary_Opisy
100
AcDbText
 10
0.0000000363686468
 20
0.2448647019085592
 30
0.0
 40
0.9913121336814832
  1
SOLBET
  7
Solbet_1
100
AcDbAttributeDefinition
  3

  2
FIRMA
 70
     3
1001
AcDbAttr
1070
     0
1070
     1
  0
ATTDEF
  5
320D
330
3208
100
AcDbEntity
  8
SOLBET_Wymiary_Opisy
100
AcDbText
 10
0.0000000363686468
 20
9.333547352525494
 30
0.0
 40
0.9913121336814832
  1
Bloczek
  7
Solbet_1
100
AcDbAttributeDefinition
  3
Nazwa
  2
NAZWA
 70
     3
1001
AcDbAttr
1070
     0
1070
     1
  0
ATTDEF
  5
320E
330
3208
100
AcDbEntity
  8
SOLBET_Wymiary_Opisy
100
AcDbText
 10
0.0000000363686468
 20
7.794499172291289
 30
0.0
 40
0.9913121336814832
  1
SOLBET IDEAL
  7
Solbet_1
100
AcDbAttributeDefinition
  3

  2
SYSTEM
 70
     3
1001
AcDbAttr
1070
     0
1070
     1
  0
ATTDEF
  5
320F
330
3208
100
AcDbEntity
  8
SOLBET_Wymiary_Opisy
100
AcDbText
 10
0.0000000363686468
 20
1.744181461435671
 30
0.0
 40
0.9913121336814832
  1
Góra
  7
Solbet_1
100
AcDbAttributeDefinition
  3

  2
WIDOK
 70
    11
1001
AcDbAttr
1070
     0
1070
     1
  0
LINE
  5
3210
330
3208
100
AcDbEntity
  8
SOLBET_Bloczki
100
AcDbLine
 10
-0.0000001473426892
 20
0.0000000920231287
 30
0.0
 11
29.49999992726271
 21
0.0000000585339421
 31
0.0
  0
LINE
  5
3211
330
3208
100
AcDbEntity
  8
SOLBET_Bloczki
100
AcDbLine
 10
29.49999992726271
 20
0.0000000585339421
 30
0.0
 11
29.49999985265754
 21
21.00000009202324
 31
0.0
  0
LINE
  5
3212
330
3208
100
AcDbEntity
  8
SOLBET_Bloczki
100
AcDbLine
 10
29.49999985265754
 20
21.00000009202324
 30
0.0
 11
-0.0000001473426892
 21
21.00000009202324
 31
0.0
  0
LINE
  5
3213
330
3208
100
AcDbEntity
  8
SOLBET_Bloczki
100
AcDbLine
 10
-0.0000001473426892
 20
21.00000009202324
 30
0.0
 11
-0.0000000727372935
 21
0.0000000585339421
 31
0.0
  0
ENDBLK
  5
3217
330
3208
100
AcDbEntity
  8
0
100
AcDbBlockEnd
  0
BLOCK
  5
3238
330
322A
100
AcDbEntity
  8
0
100
AcDbBlockBegin
  2
SOLBET_Bloczek_Ideal_420x240x590_P+W_PRZ
 70
     2
 10
0.0
 20
0.0
 30
0.0
  3
SOLBET_Bloczek_Ideal_420x240x590_P+W_PRZ
  1

  0
ATTDEF
  5
322B
330
322A
100
AcDbEntity
  8
SOLBET_Wymiary_Opisy
100
AcDbText
 10
0.0
 20
6.303237354177662
 30
0.0
 40
0.9913121336814832
  1
420x240x590
  7
Solbet_1
100
AcDbAttributeDefinition
  3

  2
WYMIARY
 70
     3
1001
AcDbAttr
1070
     0
1070
     1
  0
ATTDEF
  5
322C
330
322A
100
AcDbEntity
  8
SOLBET_Wymiary_Opisy
100
AcDbText
 10
0.0
 20
4.790717946461565
 30
0.0
 40
0.9913121336814832
  1
400
  7
Solbet_1
100
AcDbAttributeDefinition
  3

  2
KLASA_GĘSTOŚCI
 70
     9
1001
AcDbAttr
1070
     0
1070
     1
  0
ATTDEF
  5
322D
330
322A
100
AcDbEntity
  8
SOLBET_Wymiary_Opisy
100
AcDbText
 10
0.0
 20
3.269569111249338
 30
0.0
 40
0.9913121336814832
  1
Pióra+Wpusty
  7
Solbet_1
100
AcDbAttributeDefinition
  3

  2
PROFILOWANIE
 70
     3
1001
AcDbAttr
1070
     0
1070
     1
  0
ATTDEF
  5
322E
330
322A
100
AcDbEntity
  8
SOLBET_Wymiary_Opisy
100
AcDbText
 10
0.0
 20
0.2448647019085592
 30
0.0
 40
0.9913121336814832
  1
SOLBET
  7
Solbet_1
100
AcDbAttributeDefinition
  3

  2
FIRMA
 70
     3
1001
AcDbAttr
1070
     0
1070
     1
  0
ATTDEF
  5
322F
330
322A
100
AcDbEntity
  8
SOLBET_Wymiary_Opisy
100
AcDbText
 10
0.0
 20
9.333547352525494
 30
0.0
 40
0.9913121336814832
  1
Bloczek
  7
Solbet_1
100
AcDbAttributeDefinition
  3
Nazwa
  2
NAZWA
 70
     3
1001
AcDbAttr
1070
     0
1070
     1
  0
ATTDEF
  5
3230
330
322A
100
AcDbEntity
  8
SOLBET_Wymiary_Opisy
100
AcDbText
 10
0.0
 20
7.794499172291289
 30
0.0
 40
0.9913121336814832
  1
SOLBET IDEAL
  7
Solbet_1
100
AcDbAttributeDefinition
  3

  2
SYSTEM
 70
     3
1001
AcDbAttr
1070
     0
1070
     1
  0
ATTDEF
  5
3231
330
322A
100
AcDbEntity
  8
SOLBET_Wymiary_Opisy
100
AcDbText
 10
0.0
 20
1.744181461435671
 30
0.0
 40
0.9913121336814832
  1
Przód
  7
Solbet_1
100
AcDbAttributeDefinition
  3

  2
WIDOK
 70
    11
1001
AcDbAttr
1070
     0
1070
     1
  0
LINE
  5
3232
330
322A
100
AcDbEntity
  8
SOLBET_Bloczki
100
AcDbLine
 10
-0.0000000727372935
 20
0.0000000585339421
 30
0.0
 11
29.49999992726271
 21
0.0000000585339421
 31
0.0
  0
LINE
  5
3233
330
322A
100
AcDbEntity
  8
SOLBET_Bloczki
100
AcDbLine
 10
29.49999992726271
 20
0.0000000585339421
 30
0.0
 11
29.49999992726271
 21
12.00000005853394
 31
0.0
  0
LINE
  5
3234
330
322A
100
AcDbEntity
  8
SOLBET_Bloczki
100
AcDbLine
 10
29.49999992726271
 20
12.00000005853394
 30
0.0
 11
-0.0000000727372935
 21
12.00000005853394
 31
0.0
  0
LINE
  5
3235
330
322A
100
AcDbEntity
  8
SOLBET_Bloczki
100
AcDbLine
 10
-0.0000000727372935
 20
12.00000005853394
 30
0.0
 11
-0.0000000727372935
 21
0.0000000585339421
 31
0.0
  0
ENDBLK
  5
3239
330
322A
100
AcDbEntity
  8
0
100
AcDbBlockEnd
  0
BLOCK
  5
35A3
330
3595
100
AcDbEntity
  8
0
100
AcDbBlockBegin
  2
SOLBET_Bloczek_Ideal_420x240x590_P+W_KG400_PRA
 70
     2
 10
0.0
 20
0.0
 30
0.0
  3
SOLBET_Bloczek_Ideal_420x240x590_P+W_KG400_PRA
  1

  0
ATTDEF
  5
3596
330
3595
100
AcDbEntity
  8
SOLBET_Wymiary_Opisy
100
AcDbText
 10
-0.0000000703746536
 20
6.303237281370451
 30
0.0
 40
0.9913121336814832
  1
420x240x590
  7
Solbet_1
100
AcDbAttributeDefinition
  3

  2
WYMIARY
 70
    11
1001
AcDbAttr
1070
     0
1070
     1
  0
ATTDEF
  5
3597
330
3595
100
AcDbEntity
  8
SOLBET_Wymiary_Opisy
100
AcDbText
 10
-0.0000000703746536
 20
4.790717873654354
 30
0.0
 40
0.9913121336814832
  1
400
  7
Solbet_1
100
AcDbAttributeDefinition
  3

  2
KLASA_GĘSTOŚCI
 70
    11
1001
AcDbAttr
1070
     0
1070
     1
  0
ATTDEF
  5
3598
330
3595
100
AcDbEntity
  8
SOLBET_Wymiary_Opisy
100
AcDbText
 10
-0.0000000703746536
 20
3.269569038442127
 30
0.0
 40
0.9913121336814832
  1
Pióra+Wpusty
  7
Solbet_1
100
AcDbAttributeDefinition
  3

  2
PROFILOWANIE
 70
    11
1001
AcDbAttr
1070
     0
1070
     1
  0
ATTDEF
  5
3599
330
3595
100
AcDbEntity
  8
SOLBET_Wymiary_Opisy
100
AcDbText
 10
-0.0000000703746536
 20
0.2448646291013483
 30
0.0
 40
0.9913121336814832
  1
SOLBET
  7
Solbet_1
100
AcDbAttributeDefinition
  3

  2
FIRMA
 70
    11
1001
AcDbAttr
1070
     0
1070
     1
  0
ATTDEF
  5
359A
330
3595
100
AcDbEntity
  8
SOLBET_Wymiary_Opisy
100
AcDbText
 10
-0.0000000703746536
 20
9.333547279718283
 30
0.0
 40
0.9913121336814832
  1
Bloczek
  7
Solbet_1
100
AcDbAttributeDefinition
  3
Nazwa
  2
NAZWA
 70
    11
1001
AcDbAttr
1070
     0
1070
     1
  0
ATTDEF
  5
359B
330
3595
100
AcDbEntity
  8
SOLBET_Wymiary_Opisy
100
AcDbText
 10
-0.0000000703746536
 20
7.794499099484078
 30
0.0
 40
0.9913121336814832
  1
SOLBET Ideal
  7
Solbet_1
100
AcDbAttributeDefinition
  3

  2
SYSTEM
 70
    11
1001
AcDbAttr
1070
     0
1070
     1
  0
ATTDEF
  5
359C
330
3595
100
AcDbEntity
  8
SOLBET_Wymiary_Opisy
100
AcDbText
 10
-0.0000000703746536
 20
1.74418138862846
 30
0.0
 40
0.9913121336814832
  1
Prawo
  7
Solbet_1
100
AcDbAttributeDefinition
  3

  2
WIDOK
 70
    11
1001
AcDbAttr
1070
     0
1070
     1
  0
LINE
  5
359D
330
3595
100
AcDbEntity
  8
SOLBET_Bloczki
100
AcDbLine
 10
21.00000014074931
 20
12.00000020414847
 30
0.0
 11
21.00000014074931
 21
0.000000204148364
 31
0.0
  0
LINE
  5
359E
330
3595
100
AcDbEntity
  8
SOLBET_Bloczki
100
AcDbLine
 10
21.00000014074931
 20
12.00000020414847
 30
0.0
 11
0.0000001407493072
 21
12.00000020414847
 31
0.0
  0
LINE
  5
359F
330
3595
100
AcDbEntity
  8
SOLBET_Bloczki
100
AcDbLine
 10
0.0000001407493072
 20
12.00000020414847
 30
0.0
 11
0.0000001407493072
 21
0.000000204148364
 31
0.0
  0
LINE
  5
35A0
330
3595
100
AcDbEntity
  8
SOLBET_Bloczki
100
AcDbLine
 10
0.0000001407493072
 20
0.000000204148364
 30
0.0
 11
21.00000014074931
 21
0.000000204148364
 31
0.0
  0
ENDBLK
  5
35A4
330
3595
100
AcDbEntity
  8
0
100
AcDbBlockEnd
  0
BLOCK
  5
35B6
330
35AA
100
AcDbEntity
  8
0
100
AcDbBlockBegin
  2
SOLBET_Plytka_60x240x590_KG600_PRA
 70
     2
 10
0.0
 20
0.0
 30
0.0
  3
SOLBET_Plytka_60x240x590_KG600_PRA
  1

  0
ATTDEF
  5
35AB
330
35AA
100
AcDbEntity
  8
SOLBET_Wymiary_Opisy
100
AcDbText
 10
0.0000000428741699
 20
4.865619229844077
 30
0.0
 40
1.006810973315101
  1
60x240x590
  7
Solbet_1
100
AcDbAttributeDefinition
  3

  2
WYMIARY
 70
    11
1001
AcDbAttr
1070
     0
1070
     1
  0
ATTDEF
  5
35AC
330
35AA
100
AcDbEntity
  8
SOLBET_Wymiary_Opisy
100
AcDbText
 10
0.0000000428741699
 20
3.329452077944857
 30
0.0
 40
1.006810973315101
  1
600
  7
Solbet_1
100
AcDbAttributeDefinition
  3

  2
KLASA_GĘSTOŚCI
 70
    11
1001
AcDbAttr
1070
     0
1070
     1
  0
ATTDEF
  5
35AD
330
35AA
100
AcDbEntity
  8
SOLBET_Wymiary_Opisy
100
AcDbText
 10
0.0000000428741699
 20
0.2486930628063702
 30
0.0
 40
1.006810973315101
  1
SOLBET
  7
Solbet_1
100
AcDbAttributeDefinition
  3

  2
FIRMA
 70
    11
1001
AcDbAttr
1070
     0
1070
     1
  0
ATTDEF
  5
35AE
330
35AA
100
AcDbEntity
  8
SOLBET_Wymiary_Opisy
100
AcDbText
 10
0.0000000428741699
 20
6.498884010242274
 30
0.0
 40
1.006810973315101
  1
Płytka
  7
Solbet_1
100
AcDbAttributeDefinition
  3
Nazwa
  2
NAZWA
 70
    11
1001
AcDbAttr
1070
     0
1070
     1
  0
ATTDEF
  5
35AF
330
35AA
100
AcDbEntity
  8
SOLBET_Wymiary_Opisy
100
AcDbText
 10
0.0000000428741699
 20
1.771451147448315
 30
0.0
 40
1.006810973315101
  1
Prawo
  7
Solbet_1
100
AcDbAttributeDefinition
  3

  2
WIDOK
 70
    11
1001
AcDbAttr
1070
     0
1070
     1
  0
LINE
  5
35B0
330
35AA
100
AcDbEntity
  8
SOLBET_Bloczki
100
AcDbLine
 10
2.99999991809318
 20
12.00000009173755
 30
0.0
 11
2.999999918093408
 21
0.0000000917375473
 31
0.0
  0
LINE
  5
35B1
330
35AA
100
AcDbEntity
  8
SOLBET_Bloczki
100
AcDbLine
 10
2.999999918093408
 20
0.0000000917375473
 30
0.0
 11
-0.0000000819065917
 21
0.0000000917375473
 31
0.0
  0
LINE
  5
35B2
330
35AA
100
AcDbEntity
  8
SOLBET_Bloczki
100
AcDbLine
 10
-0.0000000819065917
 20
0.0000000917375473
 30
0.0
 11
-0.0000000819065917
 21
12.00000009173755
 31
0.0
  0
LINE
  5
35B3
330
35AA
100
AcDbEntity
  8
SOLBET_Bloczki
100
AcDbLine
 10
-0.0000000819065917
 20
12.00000009173755
 30
0.0
 11
2.99999991809318
 21
12.00000009173755
 31
0.0
  0
ENDBLK
  5
35B7
330
35AA
100
AcDbEntity
  8
0
100
AcDbBlockEnd
  0
BLOCK
  5
35CC
330
35B9
100
AcDbEntity
  8
0
100
AcDbBlockBegin
  2
SOLBET_Nadproze_120x240x2300_zz_PRA
 70
     2
 10
0.0
 20
0.0
 30
0.0
  3
SOLBET_Nadproze_120x240x2300_zz_PRA
  1

  0
ATTDEF
  5
35BA
330
35B9
100
AcDbEntity
  8
SOLBET_Wymiary_Opisy
100
AcDbText
 10
-0.0000002754209163
 20
4.914367003308234
 30
0.0
 40
0.9913121336814832
  1
120x240x2300
  7
Solbet_1
100
AcDbAttributeDefinition
  3

  2
WYMIARY
 70
    11
1001
AcDbAttr
1070
     0
1070
     1
  0
ATTDEF
  5
35BB
330
35B9
100
AcDbEntity
  8
SOLBET_Wymiary_Opisy
100
AcDbText
 10
0.0000001377104581
 20
3.269569171638422
 30
0.0
 40
0.9913121336814832
  1
25
  7
Solbet_1
100
AcDbAttributeDefinition
  3

  2
DŁUGOŚĆ_PODPARCIA_2
 70
    11
1001
AcDbAttr
1070
     0
1070
     1
  0
ATTDEF
  5
35BC
330
35B9
100
AcDbEntity
  8
SOLBET_Wymiary_Opisy
100
AcDbText
 10
0.0000001377104581
 20
0.2448647622976432
 30
0.0
 40
0.9913121336814832
  1
SOLBET
  7
Solbet_1
100
AcDbAttributeDefinition
  3

  2
FIRMA
 70
    11
1001
AcDbAttr
1070
     0
1070
     1
  0
ATTDEF
  5
35BD
330
35B9
100
AcDbEntity
  8
SOLBET_Wymiary_Opisy
100
AcDbText
 10
-0.0000002754209163
 20
6.505718915794942
 30
0.0
 40
0.9913121336814832
  1
Nadproże 230/12
  7
Solbet_1
100
AcDbAttributeDefinition
  3
Nazwa
  2
NAZWA
 70
    11
1001
AcDbAttr
1070
     0
1070
     1
  0
ATTDEF
  5
35BE
330
35B9
100
AcDbEntity
  8
SOLBET_Wymiary_Opisy
100
AcDbText
 10
0.0000001377104581
 20
1.744181521824755
 30
0.0
 40
0.9913121336814832
  1
Prawo
  7
Solbet_1
100
AcDbAttributeDefinition
  3

  2
WIDOK
 70
    11
1001
AcDbAttr
1070
     0
1070
     1
  0
LINE
  5
35BF
330
35B9
100
AcDbEntity
  8
SOLBET_Bloczki
100
AcDbLine
 10
6.000000148903609
 20
11.9999997238217
 30
0.0
 11
6.000000148903609
 21
-0.0000002761789801
 31
0.0
  0
LINE
  5
35C0
330
35B9
100
AcDbEntity
  8
SOLBET_Bloczki
100
AcDbLine
 10
6.000000148903609
 20
-0.0000002761789801
 30
0.0
 11
0.0000001489036094
 21
-0.0000002761789801
 31
0.0
  0
LINE
  5
35C1
330
35B9
100
AcDbEntity
  8
SOLBET_Bloczki
100
AcDbLine
 10
0.0000001489036094
 20
-0.0000002761789801
 30
0.0
 11
0.0000001489036094
 21
11.9999997238217
 31
0.0
  0
LINE
  5
35C2
330
35B9
100
AcDbEntity
  8
SOLBET_Bloczki
100
AcDbLine
 10
0.0000001489036094
 20
11.9999997238217
 30
0.0
 11
6.000000148903609
 21
11.9999997238217
 31
0.0
  0
LWPOLYLINE
  5
35C3
330
35B9
100
AcDbEntity
  8
SOLBET_Zbrojenie_Konstrukcja
  6
Continuous
100
AcDbPolyline
 90
        4
 70
     0
 43
0.0
 10
5.249999473554908
 20
10.74999972382113
 10
5.249999473554908
 20
0.7499997238210199
 10
0.7499994735549081
 20
0.7499997238210199
 10
0.7499994735549081
 20
10.74999972382113
  0
LWPOLYLINE
  5
35C4
330
35B9
100
AcDbEntity
  8
SOLBET_Zbrojenie_Konstrukcja
  6
Continuous
100
AcDbPolyline
 90
        2
 70
     1
 43
0.3
 10
5.104413004896059
 20
10.42241371625562
 42
-1.0
 10
4.804413004895877
 20
10.42241371625562
 42
-1.0
  0
LWPOLYLINE
  5
35C5
330
35B9
100
AcDbEntity
  8
SOLBET_Zbrojenie_Konstrukcja
  6
Continuous
100
AcDbPolyline
 90
        2
 70
     1
 43
0.3
 10
0.8955859422139837
 20
10.42241371625562
 42
1.0
 10
1.195585942213938
 20
10.42241371625562
 42
1.0
  0
LWPOLYLINE
  5
35C6
330
35B9
100
AcDbEntity
  8
SOLBET_Zbrojenie_Konstrukcja
  6
Continuous
100
AcDbPolyline
 90
        2
 70
     1
 43
0.3
 10
5.104413004896059
 20
2.418618926192948
 42
-1.0
 10
4.804413004895877
 20
2.418618926192948
 42
-1.0
  0
LWPOLYLINE
  5
35C7
330
35B9
100
AcDbEntity
  8
SOLBET_Zbrojenie_Konstrukcja
  6
Continuous
100
AcDbPolyline
 90
        2
 70
     1
 43
0.3
 10
0.8955859422139837
 20
2.418618926192948
 42
1.0
 10
1.195585942213938
 20
2.418618926192948
 42
1.0
  0
LWPOLYLINE
  5
35C8
330
35B9
100
AcDbEntity
  8
SOLBET_Zbrojenie_Konstrukcja
  6
Continuous
100
AcDbPolyline
 90
        2
 70
     1
 43
0.3
 10
4.18508432983117
 20
1.061574971204436
 42
-1.0
 10
3.885084329831215
 20
1.061574971204436
 42
-1.0
  0
LWPOLYLINE
  5
35C9
330
35B9
100
AcDbEntity
  8
SOLBET_Zbrojenie_Konstrukcja
  6
Continuous
100
AcDbPolyline
 90
        2
 70
     1
 43
0.3
 10
1.814914617278418
 20
1.061574971204436
 42
1.0
 10
2.1149146172786
 20
1.061574971204436
 42
1.0
  0
ENDBLK
  5
35CD
330
35B9
100
AcDbEntity
  8
0
100
AcDbBlockEnd
  0
BLOCK
  5
360E
330
35FB
100
AcDbEntity
  8
0
100
AcDbBlockBegin
  2
SOLBET_Nadproze_180x240x2000_zz_PRA
 70
     2
 10
0.0
 20
0.0
 30
0.0
  3
SOLBET_Nadproze_180x240x2000_zz_PRA
  1

  0
ATTDEF
  5
35FC
330
35FB
100
AcDbEntity
  8
SOLBET_Wymiary_Opisy
100
AcDbText
 10
-0.0000002754209163
 20
4.914367003308234
 30
0.0
 40
0.9913121336814832
  1
180x240x2000
  7
Solbet_1
100
AcDbAttributeDefinition
  3

  2
WYMIARY
 70
    11
1001
AcDbAttr
1070
     0
1070
     1
  0
ATTDEF
  5
35FD
330
35FB
100
AcDbEntity
  8
SOLBET_Wymiary_Opisy
100
AcDbText
 10
0.0000001377104581
 20
3.269569171638422
 30
0.0
 40
0.9913121336814832
  1
25
  7
Solbet_1
100
AcDbAttributeDefinition
  3

  2
DŁUGOŚĆ_PODPARCIA_2
 70
    11
1001
AcDbAttr
1070
     0
1070
     1
  0
ATTDEF
  5
35FE
330
35FB
100
AcDbEntity
  8
SOLBET_Wymiary_Opisy
100
AcDbText
 10
0.0000001377104581
 20
0.2448647622976432
 30
0.0
 40
0.9913121336814832
  1
SOLBET
  7
Solbet_1
100
AcDbAttributeDefinition
  3

  2
FIRMA
 70
    11
1001
AcDbAttr
1070
     0
1070
     1
  0
ATTDEF
  5
35FF
330
35FB
100
AcDbEntity
  8
SOLBET_Wymiary_Opisy
100
AcDbText
 10
-0.0000002754209163
 20
6.505718915794942
 30
0.0
 40
0.9913121336814832
  1
Nadproże 200/18
  7
Solbet_1
100
AcDbAttributeDefinition
  3
Nazwa
  2
NAZWA
 70
    11
1001
AcDbAttr
1070
     0
1070
     1
  0
ATTDEF
  5
3600
330
35FB
100
AcDbEntity
  8
SOLBET_Wymiary_Opisy
100
AcDbText
 10
0.0000001377104581
 20
1.744181521824755
 30
0.0
 40
0.9913121336814832
  1
Prawo
  7
Solbet_1
100
AcDbAttributeDefinition
  3

  2
WIDOK
 70
    11
1001
AcDbAttr
1070
     0
1070
     1
  0
LINE
  5
3601
330
35FB
100
AcDbEntity
  8
SOLBET_Bloczki
100
AcDbLine
 10
9.000000391142748
 20
11.99999999119632
 30
0.0
 11
9.000000391142748
 21
-0.0000000088036813
 31
0.0
  0
LINE
  5
3602
330
35FB
100
AcDbEntity
  8
SOLBET_Bloczki
100
AcDbLine
 10
9.000000391142748
 20
-0.0000000088036813
 30
0.0
 11
0.0000003911427484
 21
-0.0000000088036813
 31
0.0
  0
LINE
  5
3603
330
35FB
100
AcDbEntity
  8
SOLBET_Bloczki
100
AcDbLine
 10
0.0000003911427484
 20
-0.0000000088036813
 30
0.0
 11
0.0000003911427484
 21
11.99999999119632
 31
0.0
  0
LINE
  5
3604
330
35FB
100
AcDbEntity
  8
SOLBET_Bloczki
100
AcDbLine
 10
0.0000003911427484
 20
11.99999999119632
 30
0.0
 11
9.000000391142748
 21
11.99999999119632
 31
0.0
  0
LWPOLYLINE
  5
3605
330
35FB
100
AcDbEntity
  8
SOLBET_Zbrojenie_Konstrukcja
  6
Continuous
100
AcDbPolyline
 90
        4
 70
     0
 43
0.0
 10
8.249999715794047
 20
10.74999999119643
 10
8.249999715794047
 20
0.7499999911963187
 10
0.749999715794047
 20
0.7499999911963187
 10
0.749999715794047
 20
10.74999999119643
  0
LWPOLYLINE
  5
3606
330
35FB
100
AcDbEntity
  8
SOLBET_Zbrojenie_Konstrukcja
  6
Continuous
100
AcDbPolyline
 90
        2
 70
     1
 43
0.3
 10
8.104413247135198
 20
10.42241398363092
 42
-1.0
 10
7.804413247135016
 20
10.42241398363092
 42
-1.0
  0
LWPOLYLINE
  5
3607
330
35FB
100
AcDbEntity
  8
SOLBET_Zbrojenie_Konstrukcja
  6
Continuous
100
AcDbPolyline
 90
        2
 70
     1
 43
0.3
 10
0.8955861844528953
 20
10.42241398363092
 42
1.0
 10
1.195586184453077
 20
10.42241398363092
 42
1.0
  0
LWPOLYLINE
  5
3608
330
35FB
100
AcDbEntity
  8
SOLBET_Zbrojenie_Konstrukcja
  6
Continuous
100
AcDbPolyline
 90
        2
 70
     1
 43
0.3
 10
8.104413247135198
 20
2.418619193568247
 42
-1.0
 10
7.804413247135016
 20
2.418619193568247
 42
-1.0
  0
LWPOLYLINE
  5
3609
330
35FB
100
AcDbEntity
  8
SOLBET_Zbrojenie_Konstrukcja
  6
Continuous
100
AcDbPolyline
 90
        2
 70
     1
 43
0.3
 10
0.8955861844528953
 20
2.418619193568247
 42
1.0
 10
1.195586184453077
 20
2.418619193568247
 42
1.0
  0
LWPOLYLINE
  5
360A
330
35FB
100
AcDbEntity
  8
SOLBET_Zbrojenie_Konstrukcja
  6
Continuous
100
AcDbPolyline
 90
        2
 70
     1
 43
0.3
 10
6.026518456964367
 20
1.061575238579735
 42
-1.0
 10
5.726518456964413
 20
1.061575238579735
 42
-1.0
  0
LWPOLYLINE
  5
360B
330
35FB
100
AcDbEntity
  8
SOLBET_Zbrojenie_Konstrukcja
  6
Continuous
100
AcDbPolyline
 90
        2
 70
     1
 43
0.3
 10
2.973480974623726
 20
1.061575238579735
 42
1.0
 10
3.27348097462368
 20
1.061575238579735
 42
1.0
  0
ENDBLK
  5
360F
330
35FB
100
AcDbEntity
  8
0
100
AcDbBlockEnd
  0
BLOCK
  5
361F
330
3611
100
AcDbEntity
  8
0
100
AcDbBlockBegin
  2
SOLBET_Bloczek_Ideal_420x240x590_P+W_KG400_PRZ
 70
     2
 10
0.0
 20
0.0
 30
0.0
  3
SOLBET_Bloczek_Ideal_420x240x590_P+W_KG400_PRZ
  1

  0
ATTDEF
  5
3612
330
3611
100
AcDbEntity
  8
SOLBET_Wymiary_Opisy
100
AcDbText
 10
0.0
 20
6.303237354177662
 30
0.0
 40
0.9913121336814832
  1
420x240x590
  7
Solbet_1
100
AcDbAttributeDefinition
  3

  2
WYMIARY
 70
    11
1001
AcDbAttr
1070
     0
1070
     1
  0
ATTDEF
  5
3613
330
3611
100
AcDbEntity
  8
SOLBET_Wymiary_Opisy
100
AcDbText
 10
0.0
 20
4.790717946461565
 30
0.0
 40
0.9913121336814832
  1
400
  7
Solbet_1
100
AcDbAttributeDefinition
  3

  2
KLASA_GĘSTOŚCI
 70
    11
1001
AcDbAttr
1070
     0
1070
     1
  0
ATTDEF
  5
3614
330
3611
100
AcDbEntity
  8
SOLBET_Wymiary_Opisy
100
AcDbText
 10
0.0
 20
3.269569111249338
 30
0.0
 40
0.9913121336814832
  1
Pióra+Wpusty
  7
Solbet_1
100
AcDbAttributeDefinition
  3

  2
PROFILOWANIE
 70
    11
1001
AcDbAttr
1070
     0
1070
     1
  0
ATTDEF
  5
3615
330
3611
100
AcDbEntity
  8
SOLBET_Wymiary_Opisy
100
AcDbText
 10
0.0
 20
0.2448647019085592
 30
0.0
 40
0.9913121336814832
  1
SOLBET
  7
Solbet_1
100
AcDbAttributeDefinition
  3

  2
FIRMA
 70
    11
1001
AcDbAttr
1070
     0
1070
     1
  0
ATTDEF
  5
3616
330
3611
100
AcDbEntity
  8
SOLBET_Wymiary_Opisy
100
AcDbText
 10
0.0
 20
9.333547352525494
 30
0.0
 40
0.9913121336814832
  1
Bloczek
  7
Solbet_1
100
AcDbAttributeDefinition
  3
Nazwa
  2
NAZWA
 70
    11
1001
AcDbAttr
1070
     0
1070
     1
  0
ATTDEF
  5
3617
330
3611
100
AcDbEntity
  8
SOLBET_Wymiary_Opisy
100
AcDbText
 10
0.0
 20
7.794499172291289
 30
0.0
 40
0.9913121336814832
  1
SOLBET Ideal
  7
Solbet_1
100
AcDbAttributeDefinition
  3

  2
SYSTEM
 70
    11
1001
AcDbAttr
1070
     0
1070
     1
  0
ATTDEF
  5
3618
330
3611
100
AcDbEntity
  8
SOLBET_Wymiary_Opisy
100
AcDbText
 10
0.0
 20
1.744181461435671
 30
0.0
 40
0.9913121336814832
  1
Przód
  7
Solbet_1
100
AcDbAttributeDefinition
  3

  2
WIDOK
 70
    11
1001
AcDbAttr
1070
     0
1070
     1
  0
LINE
  5
3619
330
3611
100
AcDbEntity
  8
SOLBET_Bloczki
100
AcDbLine
 10
-0.0000000727372935
 20
0.0000000585339421
 30
0.0
 11
29.49999992726271
 21
0.0000000585339421
 31
0.0
  0
LINE
  5
361A
330
3611
100
AcDbEntity
  8
SOLBET_Bloczki
100
AcDbLine
 10
29.49999992726271
 20
0.0000000585339421
 30
0.0
 11
29.49999992726271
 21
12.00000005853394
 31
0.0
  0
LINE
  5
361B
330
3611
100
AcDbEntity
  8
SOLBET_Bloczki
100
AcDbLine
 10
29.49999992726271
 20
12.00000005853394
 30
0.0
 11
-0.0000000727372935
 21
12.00000005853394
 31
0.0
  0
LINE
  5
361C
330
3611
100
AcDbEntity
  8
SOLBET_Bloczki
100
AcDbLine
 10
-0.0000000727372935
 20
12.00000005853394
 30
0.0
 11
-0.0000000727372935
 21
0.0000000585339421
 31
0.0
  0
ENDBLK
  5
3620
330
3611
100
AcDbEntity
  8
0
100
AcDbBlockEnd
  0
BLOCK
  5
3658
330
364A
100
AcDbEntity
  8
0
100
AcDbBlockBegin
  2
SOLBET_Bloczek_Ideal_420x240x590_P+W_KG400_GOR
 70
     2
 10
0.0
 20
0.0
 30
0.0
  3
SOLBET_Bloczek_Ideal_420x240x590_P+W_KG400_GOR
  1

  0
ATTDEF
  5
364B
330
364A
100
AcDbEntity
  8
SOLBET_Wymiary_Opisy
100
AcDbText
 10
0.0000000363686468
 20
6.303237354177662
 30
0.0
 40
0.9913121336814832
  1
420x240x590
  7
Solbet_1
100
AcDbAttributeDefinition
  3

  2
WYMIARY
 70
    11
1001
AcDbAttr
1070
     0
1070
     1
  0
ATTDEF
  5
364C
330
364A
100
AcDbEntity
  8
SOLBET_Wymiary_Opisy
100
AcDbText
 10
0.0000000363686468
 20
4.790717946461565
 30
0.0
 40
0.9913121336814832
  1
400
  7
Solbet_1
100
AcDbAttributeDefinition
  3

  2
KLASA_GĘSTOŚCI
 70
    11
1001
AcDbAttr
1070
     0
1070
     1
  0
ATTDEF
  5
364D
330
364A
100
AcDbEntity
  8
SOLBET_Wymiary_Opisy
100
AcDbText
 10
0.0000000363686468
 20
3.269569111249338
 30
0.0
 40
0.9913121336814832
  1
Pióra+Wpusty
  7
Solbet_1
100
AcDbAttributeDefinition
  3

  2
PROFILOWANIE
 70
    11
1001
AcDbAttr
1070
     0
1070
     1
  0
ATTDEF
  5
364E
330
364A
100
AcDbEntity
  8
SOLBET_Wymiary_Opisy
100
AcDbText
 10
0.0000000363686468
 20
0.2448647019085592
 30
0.0
 40
0.9913121336814832
  1
SOLBET
  7
Solbet_1
100
AcDbAttributeDefinition
  3

  2
FIRMA
 70
    11
1001
AcDbAttr
1070
     0
1070
     1
  0
ATTDEF
  5
364F
330
364A
100
AcDbEntity
  8
SOLBET_Wymiary_Opisy
100
AcDbText
 10
0.0000000363686468
 20
9.333547352525494
 30
0.0
 40
0.9913121336814832
  1
Bloczek
  7
Solbet_1
100
AcDbAttributeDefinition
  3
Nazwa
  2
NAZWA
 70
    11
1001
AcDbAttr
1070
     0
1070
     1
  0
ATTDEF
  5
3650
330
364A
100
AcDbEntity
  8
SOLBET_Wymiary_Opisy
100
AcDbText
 10
0.0000000363686468
 20
7.794499172291289
 30
0.0
 40
0.9913121336814832
  1
SOLBET Ideal
  7
Solbet_1
100
AcDbAttributeDefinition
  3

  2
SYSTEM
 70
    11
1001
AcDbAttr
1070
     0
1070
     1
  0
ATTDEF
  5
3651
330
364A
100
AcDbEntity
  8
SOLBET_Wymiary_Opisy
100
AcDbText
 10
0.0000000363686468
 20
1.744181461435671
 30
0.0
 40
0.9913121336814832
  1
Góra
  7
Solbet_1
100
AcDbAttributeDefinition
  3

  2
WIDOK
 70
    11
1001
AcDbAttr
1070
     0
1070
     1
  0
LINE
  5
3652
330
364A
100
AcDbEntity
  8
SOLBET_Bloczki
100
AcDbLine
 10
-0.0000001473426892
 20
0.0000000920231287
 30
0.0
 11
29.49999992726271
 21
0.0000000585339421
 31
0.0
  0
LINE
  5
3653
330
364A
100
AcDbEntity
  8
SOLBET_Bloczki
100
AcDbLine
 10
29.49999992726271
 20
0.0000000585339421
 30
0.0
 11
29.49999985265754
 21
21.00000009202324
 31
0.0
  0
LINE
  5
3654
330
364A
100
AcDbEntity
  8
SOLBET_Bloczki
100
AcDbLine
 10
29.49999985265754
 20
21.00000009202324
 30
0.0
 11
-0.0000001473426892
 21
21.00000009202324
 31
0.0
  0
LINE
  5
3655
330
364A
100
AcDbEntity
  8
SOLBET_Bloczki
100
AcDbLine
 10
-0.0000001473426892
 20
21.00000009202324
 30
0.0
 11
-0.0000000727372935
 21
0.0000000585339421
 31
0.0
  0
ENDBLK
  5
3659
330
364A
100
AcDbEntity
  8
0
100
AcDbBlockEnd
  0
ENDSEC
  0
SECTION
  2
ENTITIES
  0
INSERT
  5
255F
330
1F
100
AcDbEntity
  8
SOLBET_Zbrojenie_Konstrukcja
100
AcDbBlockReference
  2
*U5
 10
-343.9504379482878
 20
-107.6965000885002
 30
0.0
 41
50.0
 42
50.0
 43
50.0
1001
ASO_SCHRAFF
1005
0
1070
     0
1005
0
  0
INSERT
  5
2562
330
1F
100
AcDbEntity
  8
SOLBET_Zbrojenie_Konstrukcja
100
AcDbBlockReference
  2
*U5
 10
459.4234498466894
 20
-107.6965000885002
 30
0.0
 41
-50.0
 42
50.0
 43
50.0
1001
ASO_SCHRAFF
1005
0
1070
     0
1005
0
  0
LWPOLYLINE
  5
2566
330
1F
100
AcDbEntity
  8
SOLBET_Zbrojenie_Konstrukcja
  6
Continuous
100
AcDbPolyline
 90
        2
 70
     1
 43
0.3
 10
54.27690620239037
 20
215.8341538801038
 42
1.0
 10
54.57690620239055
 20
215.8341538801038
 42
1.0
  0
LWPOLYLINE
  5
2567
330
1F
100
AcDbEntity
  8
SOLBET_Zbrojenie_Konstrukcja
  6
Continuous
100
AcDbPolyline
 90
        2
 70
     1
 43
0.3
 10
62.67155016561173
 20
215.8125342050223
 42
1.0
 10
62.97155016561191
 20
215.8125342050223
 42
1.0
  0
LWPOLYLINE
  5
2568
330
1F
100
AcDbEntity
  8
SOLBET_Zbrojenie_Konstrukcja
  6
Continuous
100
AcDbPolyline
 90
        2
 70
     1
 43
0.3
 10
62.67155016561173
 20
205.9756223299612
 42
1.0
 10
62.97155016561191
 20
205.9756223299612
 42
1.0
  0
LWPOLYLINE
  5
2569
330
1F
100
AcDbEntity
  8
SOLBET_Zbrojenie_Konstrukcja
  6
Continuous
100
AcDbPolyline
 90
        2
 70
     1
 43
0.3
 10
54.27690620239037
 20
205.9756223299612
 42
1.0
 10
54.57690620239055
 20
205.9756223299612
 42
1.0
  0
LINE
  5
256A
330
1F
100
AcDbEntity
  8
SOLBET_Zbrojenie_Konstrukcja
  6
Continuous
100
AcDbLine
 10
56.72182627366328
 20
214.7451873672681
 30
0.0
 11
55.30761271129041
 21
216.159400929642
 31
0.0
  0
LINE
  5
256B
330
1F
100
AcDbEntity
  8
SOLBET_Zbrojenie_Konstrukcja
  6
Continuous
100
AcDbLine
 10
55.52182627366301
 20
213.5451873672688
 30
0.0
 11
54.10761271129058
 21
214.9594009296421
 31
0.0
  0
LWPOLYLINE
  5
256C
330
1F
100
AcDbEntity
  8
SOLBET_Zbrojenie_Konstrukcja
  6
Continuous
100
AcDbPolyline
 90
        5
 70
     0
 43
0.0
 10
63.11324400539206
 20
205.6594009296414
 10
63.11324400539206
 20
216.159400929642
 10
54.10761271129058
 20
216.159400929642
 10
54.10761271129058
 20
205.6594009296414
 10
63.11324400539206
 20
205.6594009296414
  0
LINE
  5
2572
330
1F
100
AcDbEntity
  8
SOLBET_Wymiary_Opisy
 62
     1
100
AcDbLine
 10
44.13261695642177
 20
246.6250525303248
 30
0.0
 11
128.7354274251038
 21
246.6250525303248
 31
0.0
  0
LWPOLYLINE
  5
2575
330
1F
100
AcDbEntity
  8
SOLBET_Stolarka_Okna
100
AcDbPolyline
 90
        4
 70
     1
 43
0.0
 10
56.31743647564462
 20
115.4332168682964
 10
57.6792422153294
 20
115.0841684924647
 10
57.6792422153294
 20
114.2318127038639
 10
56.31743647564462
 20
114.2318127038639
  0
LWPOLYLINE
  5
2576
330
1F
100
AcDbEntity
  8
SOLBET_Stolarka_Okna
100
AcDbPolyline
 90
       15
 70
     1
 43
0.0
 10
53.23650594920081
 20
107.4094009296413
 10
56.73650594920082
 20
107.4094009296413
 10
56.73650594920082
 20
110.5357216273316
 10
55.65237761819753
 20
110.5357216273316
 10
55.65237761819753
 20
111.4077890482503
 10
54.57865622371946
 20
111.4077890482503
 10
54.57865622371946
 20
112.3586673452989
 10
54.23298829945906
 20
112.3586673452989
 10
53.23650594920081
 20
112.1400332000017
 10
53.23650594920081
 20
110.5694708821369
 10
52.7733493301207
 20
110.307405714852
 10
52.7733493301207
 20
108.9017095774337
 10
53.03373039567986
 20
108.9017095774337
 10
53.03373039567986
 20
109.4222767066579
 10
53.23650594920081
 20
109.4222767066579
  0
LINE
  5
257A
330
1F
100
AcDbEntity
  8
SOLBET_Stolarka_Okna
100
AcDbLine
 10
56.73650594920082
 20
180.4094009296413
 30
0.0
 11
56.73650594920082
 21
177.2830802319511
 31
0.0
  0
LINE
  5
257B
330
1F
100
AcDbEntity
  8
SOLBET_Stolarka_Okna
100
AcDbLine
 10
56.73650594920082
 20
177.2830802319511
 30
0.0
 11
55.65237761819753
 21
177.2830802319511
 31
0.0
  0
LINE
  5
257C
330
1F
100
AcDbEntity
  8
SOLBET_Stolarka_Okna
100
AcDbLine
 10
55.65237761819753
 20
177.2830802319511
 30
0.0
 11
55.65237761819753
 21
176.411012811033
 31
0.0
  0
LINE
  5
257D
330
1F
100
AcDbEntity
  8
SOLBET_Stolarka_Okna
100
AcDbLine
 10
55.65237761819753
 20
176.411012811033
 30
0.0
 11
54.57865622371946
 21
176.411012811033
 31
0.0
  0
LINE
  5
257E
330
1F
100
AcDbEntity
  8
SOLBET_Stolarka_Okna
100
AcDbLine
 10
54.57865622371946
 20
176.411012811033
 30
0.0
 11
54.57865622371946
 21
175.4601345139844
 31
0.0
  0
LINE
  5
2580
330
1F
100
AcDbEntity
  8
SOLBET_Stolarka_Okna
100
AcDbLine
 10
54.23298829945906
 20
175.4601345139844
 30
0.0
 11
53.23650594920081
 21
175.678768659281
 31
0.0
  0
LINE
  5
2581
330
1F
100
AcDbEntity
  8
SOLBET_Stolarka_Okna
100
AcDbLine
 10
53.23650594920081
 20
175.678768659281
 30
0.0
 11
53.23650594920081
 21
180.4094009296413
 31
0.0
  0
LWPOLYLINE
  5
2582
330
1F
100
AcDbEntity
  8
SOLBET_Stolarka_Okna
100
AcDbPolyline
 90
       15
 70
     1
 43
0.0
 10
54.57865622371946
 20
113.1745867080177
 10
54.57865622371946
 20
112.4698451551869
 10
53.23650594920081
 20
112.4698451551869
 10
53.23650594920081
 20
115.2736171893708
 10
54.49679369808928
 20
115.7106955567482
 10
54.49679369808928
 20
114.1398808843753
 10
56.13918227999284
 20
114.1398808843753
 10
57.6792422153294
 20
114.1398808843753
 10
57.6792422153294
 20
110.2432718537396
 10
56.98445148069914
 20
110.2432718537396
 10
56.98445148069914
 20
112.4698451551869
 10
55.81965663132177
 20
112.4698451551869
 10
55.81965663132177
 20
111.7344639789799
 10
54.96138756675691
 20
111.7344639789799
 10
54.96138756675691
 20
113.1745867080177
  0
LWPOLYLINE
  5
2583
330
1F
100
AcDbEntity
  8
SOLBET_Stolarka_Okna
100
AcDbPolyline
 90
        4
 70
     1
 43
0.0
 10
56.31743647564462
 20
172.3855849909856
 10
57.6792422153294
 20
172.7346333668172
 10
57.6792422153294
 20
173.5869891554188
 10
56.31743647564462
 20
173.5869891554188
  0
LWPOLYLINE
  5
2584
330
1F
100
AcDbEntity
  8
SOLBET_Stolarka_Okna
100
AcDbPolyline
 90
       15
 70
     1
 43
0.0
 10
54.57865622371946
 20
174.644215151265
 10
54.57865622371946
 20
175.3489567040951
 10
53.23650594920081
 20
175.3489567040951
 10
53.23650594920081
 20
172.5451846699119
 10
54.49679369808928
 20
172.1081063025337
 10
54.49679369808928
 20
173.6789209749082
 10
56.13918227999284
 20
173.6789209749082
 10
57.6792422153294
 20
173.6789209749082
 10
57.6792422153294
 20
177.5755300055431
 10
56.98445148069914
 20
177.5755300055431
 10
56.98445148069914
 20
175.3489567040951
 10
55.81965663132177
 20
175.3489567040951
 10
55.81965663132177
 20
176.0843378803029
 10
54.96138756675691
 20
176.0843378803029
 10
54.96138756675691
 20
174.644215151265
  0
LINE
  5
2588
330
1F
100
AcDbEntity
  8
SOLBET_Stolarka_Okna
100
AcDbLine
 10
53.13249062899877
 20
109.3226320681066
 30
0.0
 11
53.13249062899877
 21
106.9976479509705
 31
0.0
  0
LINE
  5
2589
330
1F
100
AcDbEntity
  8
SOLBET_Stolarka_Okna
100
AcDbLine
 10
53.13249062899877
 20
106.9976479509705
 30
0.0
 11
47.43612025719539
 21
106.9976479509705
 31
0.0
  0
LINE
  5
258A
330
1F
100
AcDbEntity
  8
SOLBET_Stolarka_Okna
100
AcDbLine
 10
47.43612025719539
 20
106.9976479509705
 30
0.0
 11
47.43612025719539
 21
107.611011629136
 31
0.0
  0
LINE
  5
258B
330
1F
100
AcDbEntity
  8
SOLBET_Stolarka_Okna
100
AcDbLine
 10
53.0926255547447
 20
109.3259557370429
 30
0.0
 11
53.0926255547447
 21
108.5850969817699
 31
0.0
  0
LINE
  5
258C
330
1F
100
AcDbEntity
  8
SOLBET_Stolarka_Okna
100
AcDbLine
 10
53.0926255547447
 20
108.5850969817699
 30
0.0
 11
42.95534619205318
 21
106.8856087275946
 31
0.0
  0
LINE
  5
258D
330
1F
100
AcDbEntity
  8
SOLBET_Stolarka_Okna
100
AcDbLine
 10
42.12838784154792
 20
105.9006942198624
 30
0.0
 11
42.12838784154792
 21
105.3282759568768
 31
0.0
  0
LINE
  5
258E
330
1F
100
AcDbEntity
  8
SOLBET_Stolarka_Okna
100
AcDbLine
 10
42.12838784154792
 20
105.3282759568768
 30
0.0
 11
42.43546972840022
 21
105.3282759568768
 31
0.0
  0
LINE
  5
258F
330
1F
100
AcDbEntity
  8
SOLBET_Stolarka_Okna
100
AcDbLine
 10
42.43546972840022
 20
105.3282759568768
 30
0.0
 11
42.43546972840022
 21
105.8603493114196
 31
0.0
  0
ARC
  5
2590
330
1F
100
AcDbEntity
  8
SOLBET_Stolarka_Okna
100
AcDbCircle
 10
43.12838784154791
 20
105.9006942198624
 30
0.0
 40
1.0
100
AcDbArc
 50
99.96471431078404
 51
180.0
  0
LINE
  5
2591
330
1F
100
AcDbEntity
  8
SOLBET_Stolarka_Okna
100
AcDbLine
 10
48.17311796050671
 20
107.7207786047859
 30
0.0
 11
48.17311796050671
 21
106.9976479509705
 31
0.0
  0
CIRCLE
  5
2592
330
1F
100
AcDbEntity
  8
SOLBET_Izolacja
100
AcDbCircle
 10
56.34447717093917
 20
107.1618443905156
 30
0.0
 40
0.25244346087405
  0
INSERT
  5
2593
330
1F
100
AcDbEntity
  8
SOLBET_Izolacja
100
AcDbBlockReference
  2
*U6
 10
-342.5481797026409
 20
-28.1601959864272
 30
0.0
 41
50.0
 42
50.0
 43
50.0
1001
ASO_SCHRAFF
1005
0
1070
     0
1005
0
  0
ARC
  5
2594
330
1F
100
AcDbEntity
  8
SOLBET_Izolacja
100
AcDbCircle
 10
57.05525111836641
 20
107.1564258029769
 30
0.0
 40
0.4069335296814501
100
AcDbArc
 50
141.5623929961548
 51
217.3757720391833
  0
LINE
  5
2596
330
1F
100
AcDbEntity
  8
SOLBET_Izolacja
100
AcDbLine
 10
56.08838349271128
 20
180.4094009296413
 30
0.0
 11
56.08838349271128
 21
180.9094009296414
 31
0.0
  0
LWPOLYLINE
  5
2597
330
1F
100
AcDbEntity
  8
SOLBET_Izolacja
 62
     6
100
AcDbPolyline
 90
        4
 70
     1
 43
0.0
 10
53.3804573043135
 20
180.9094009296414
 10
56.08838349271128
 20
180.9094009296414
 10
56.08838349271128
 20
180.4094009296413
 10
53.3804573043135
 20
180.4094009296413
1001
ASO_SCHRAFF
1005
0
1070
     1
1002
{
1070
     1
1005
0
1002
}
1002
{
1070
     2
1005
0
1002
}
1002
{
1070
     4
1000
SOFIFUELL
1040
1.0
1040
0.0
1070
     0
1000
T__SCHR
1070
   256
1000
VONLAYER
1040
50.0
1070
     1
1002
}
  0
CIRCLE
  5
2598
330
1F
100
AcDbEntity
  8
SOLBET_Izolacja
100
AcDbCircle
 10
56.34447717093917
 20
180.6569574687671
 30
0.0
 40
0.25244346087405
  0
INSERT
  5
2599
330
1F
100
AcDbEntity
  8
SOLBET_Izolacja
100
AcDbBlockReference
  2
*U6
 10
-342.5481797026409
 20
315.9789978457104
 30
0.0
 41
-50.0
 42
50.0
 43
50.0
 50
180.0
1001
ASO_SCHRAFF
1005
0
1070
     0
1005
0
  0
ARC
  5
259A
330
1F
100
AcDbEntity
  8
SOLBET_Izolacja
100
AcDbCircle
 10
57.05525111836641
 20
180.6623760563058
 30
0.0
 40
0.4069335296814501
100
AcDbArc
 50
142.6242279608167
 51
218.4376070038451
  0
LINE
  5
259B
330
1F
100
AcDbEntity
  8
SOLBET_Stolarka_Okna
100
AcDbLine
 10
54.69473198587684
 20
173.417835025674
 30
0.0
 11
54.69473198587684
 21
152.5712977506189
 31
0.0
  0
LINE
  5
259C
330
1F
100
AcDbEntity
  8
SOLBET_Stolarka_Okna
100
AcDbLine
 10
56.15280799303491
 20
173.417835025674
 30
0.0
 11
56.15280799303491
 21
152.5712977506189
 31
0.0
  0
LINE
  5
259D
330
1F
100
AcDbEntity
  8
SOLBET_Stolarka_Okna
100
AcDbLine
 10
54.69473198587684
 20
150.1294221360533
 30
0.0
 11
54.69473198587684
 21
114.3459821339768
 31
0.0
  0
LINE
  5
259E
330
1F
100
AcDbEntity
  8
SOLBET_Stolarka_Okna
100
AcDbLine
 10
56.15280799303491
 20
150.1294221360533
 30
0.0
 11
56.15280799303491
 21
114.3459821339768
 31
0.0
  0
LWPOLYLINE
  5
259F
330
1F
100
AcDbEntity
  8
SOLBET_Stolarka_Okna
100
AcDbPolyline
 90
        4
 70
     1
 43
0.0
 10
56.773991575727
 20
108.9094009296414
 10
73.23650594920081
 20
108.9094009296414
 10
73.23650594920081
 20
106.9094009296414
 10
56.773991575727
 20
106.9094009296414
  0
INSERT
  5
25A1
330
1F
100
AcDbEntity
  8
SOLBET_Stolarka_Okna
100
AcDbBlockReference
  2
*U7
 10
-342.5481797026409
 20
-28.1601959864272
 30
0.0
 41
50.0
 42
50.0
 43
50.0
1001
ASO_SCHRAFF
1005
25A1
1070
     0
1005
25A0
  0
LINE
  5
25A2
330
1F
100
AcDbEntity
  8
SOLBET_Wymiary_Opisy
 62
     1
100
AcDbLine
 10
44.13261695642177
 20
68.15320598064477
 30
0.0
 11
128.7354274251038
 21
68.15320598064477
 31
0.0
  0
LINE
  5
25A3
330
1F
100
AcDbEntity
  8
SOLBET_Tynki_Posadzki
100
AcDbLine
 10
69.53457214038962
 20
222.7827077631967
 30
0.0
 11
69.53457214038962
 21
222.2827077631968
 31
0.0
  0
ARC
  5
25A4
330
1F
100
AcDbEntity
  8
SOLBET_Tynki_Posadzki
100
AcDbCircle
 10
68.73650594920082
 20
222.7827077631967
 30
0.0
 40
1.5000521396288
100
AcDbArc
 50
0.0
 51
90.0
  0
LINE
  5
25A6
330
1F
100
AcDbEntity
  8
SOLBET_Izolacja
  6
Continuous
100
AcDbLine
 10
69.23650594920082
 20
222.2827077631968
 30
0.0
 11
68.23650594919491
 21
222.2827077631968
 31
0.0
  0
LINE
  5
25A7
330
1F
100
AcDbEntity
  8
SOLBET_Izolacja
  6
Continuous
100
AcDbLine
 10
68.23650594919491
 20
217.2353539853515
 30
0.0
 11
68.23650594919491
 21
216.9094009296414
 31
0.0
  0
LINE
  5
25A9
330
1F
100
AcDbEntity
  8
SOLBET_Tynki_Posadzki
100
AcDbLine
 10
69.53457214038962
 20
222.7827077631967
 30
0.0
 11
128.7354274251038
 21
222.7827077631967
 31
0.0
  0
LINE
  5
25AC
330
1F
100
AcDbEntity
  8
SOLBET_Izolacja
  6
Continuous
100
AcDbLine
 10
69.23650594920082
 20
216.9094009296414
 30
0.0
 11
69.23650594920082
 21
222.2827077631968
 31
0.0
  0
LINE
  5
25AD
330
1F
100
AcDbEntity
  8
SOLBET_Izolacja
  6
Continuous
100
AcDbLine
 10
69.23650594920082
 20
219.4094009296414
 30
0.0
 11
128.7354274251038
 21
219.4094009296414
 31
0.0
  0
LINE
  5
25AE
330
1F
100
AcDbEntity
  8
SOLBET_Tynki_Posadzki
100
AcDbLine
 10
68.73650594920082
 20
222.2827077631968
 30
0.0
 11
68.73650594920082
 21
246.6250525303248
 31
0.0
  0
LINE
  5
25B0
330
1F
100
AcDbEntity
  8
SOLBET_Emulsje_Folie
100
AcDbLine
 10
69.35132199886766
 20
222.5327077631968
 30
0.0
 11
69.35132199886766
 21
219.855240243214
 31
0.0
  0
LINE
  5
25B1
330
1F
100
AcDbEntity
  8
SOLBET_Emulsje_Folie
100
AcDbLine
 10
69.60132199886766
 20
219.605240243214
 30
0.0
 11
128.7354274251038
 21
219.6052402432133
 31
0.0
  0
ARC
  5
25B2
330
1F
100
AcDbEntity
  8
SOLBET_Emulsje_Folie
100
AcDbCircle
 10
69.60132199886766
 20
219.855240243214
 30
0.0
 40
0.25
100
AcDbArc
 50
180.0
 51
270.0
  0
LWPOLYLINE
  5
25B3
330
1F
100
AcDbEntity
  8
SOLBET_Tynki_Posadzki
100
AcDbPolyline
 90
        5
 70
     1
 43
0.0
 10
69.35132199886766
 20
219.855240243214
 42
0.0737237824442244
 10
69.36207518208584
 20
219.7827077631968
 10
128.7354274251038
 20
219.7827077631968
 10
128.7354274251038
 20
222.2827077631968
 10
69.35132199886766
 20
222.2827077631968
1001
ASO_SCHRAFF
1005
0
1070
     1
1002
{
1070
     1
1005
0
1002
}
1002
{
1070
     2
1005
0
1002
}
1002
{
1070
     4
1000
AR-CONC
1040
0.01
1040
0.0
1070
     0
1000
T__SCHR
1070
   256
1000
_bylayer
1040
50.0
1070
     1
1002
}
  0
INSERT
  5
25B4
330
1F
100
AcDbEntity
  8
SOLBET_Tynki_Posadzki
100
AcDbBlockReference
  2
*X3
 10
-505.4644099317547
 20
-251.5859870690761
 30
0.0
 41
50.0
 42
50.0
 43
50.0
1001
ASO_SCHRAFF
1005
0
1070
     0
1005
0
1001
ACAD
1000
HATCH
1002
{
1070
    16
1000
AR-CONC
1040
0.025
1040
0.0
1002
}
  0
LWPOLYLINE
  5
25B6
330
1F
100
AcDbEntity
  8
SOLBET_Beton
100
AcDbPolyline
 90
        6
 70
     1
 43
0.0
 10
53.23650594920081
 20
216.9094009590639
 10
53.23650594920081
 20
204.9094009443534
 10
64.23650594920082
 20
204.9094009443534
 10
64.23650594920082
 20
206.9094009443527
 10
128.7354274251038
 20
206.9094009443527
 10
128.7354274372633
 20
216.9094009443527
  0
LINE
  5
25B7
330
1F
100
AcDbEntity
  8
SOLBET_Zaprawy
100
AcDbLine
 10
46.95318414266239
 20
68.15320598064477
 30
0.0
 11
46.95318414266239
 21
107.5064459307808
 31
0.0
  0
LINE
  5
25B8
330
1F
100
AcDbEntity
  8
SOLBET_Tynki_Posadzki
100
AcDbLine
 10
46.48650594920082
 20
68.15320598064477
 30
0.0
 11
46.48650594920082
 21
150.1294221360533
 31
0.0
  0
LINE
  5
25BB
330
1F
100
AcDbEntity
  8
SOLBET_Zaprawy
100
AcDbLine
 10
46.95318414266239
 20
180.6173240827359
 30
0.0
 11
46.95318414266239
 21
246.6250525303248
 31
0.0
  0
LINE
  5
25BC
330
1F
100
AcDbEntity
  8
SOLBET_Tynki_Posadzki
100
AcDbLine
 10
46.48650594920082
 20
152.5712977506189
 30
0.0
 11
46.48650594920082
 21
246.6250525303248
 31
0.0
  0
LINE
  5
25BD
330
1F
100
AcDbEntity
  8
SOLBET_Tynki_Posadzki
100
AcDbLine
 10
68.73650594920082
 20
204.4094009296414
 30
0.0
 11
68.73650594920082
 21
152.5712977506189
 31
0.0
  0
LINE
  5
25BE
330
1F
100
AcDbEntity
  8
SOLBET_Tynki_Posadzki
100
AcDbLine
 10
68.73650594920082
 20
150.1294221360533
 30
0.0
 11
68.73650594920082
 21
108.9094009296414
 31
0.0
  0
LINE
  5
25BF
330
1F
100
AcDbEntity
  8
SOLBET_Tynki_Posadzki
100
AcDbLine
 10
68.73650594920082
 20
106.9094009296414
 30
0.0
 11
68.73650594920082
 21
68.15320598064477
 31
0.0
  0
LINE
  5
25C0
330
1F
100
AcDbEntity
  8
SOLBET_Tynki_Posadzki
100
AcDbLine
 10
68.73650594920082
 20
204.4094009296414
 30
0.0
 11
128.7354274251038
 21
204.4094009296414
 31
0.0
  0
LINE
  5
25C1
330
1F
100
AcDbEntity
  8
SOLBET_Tynki_Posadzki
100
AcDbLine
 10
68.73650594920082
 20
204.4094009296414
 30
0.0
 11
68.23849911672914
 21
204.9094009296414
 31
0.0
  0
LWPOLYLINE
  5
25C3
330
1F
100
AcDbEntity
  8
SOLBET_Zbrojenie_Konstrukcja
100
AcDbPolyline
 90
        3
 70
     0
 43
0.05
 10
68.45809257539258
 20
182.1173240827359
 10
68.45809257539258
 20
180.6173240827359
 10
66.95809257539258
 20
180.6173240827359
  0
LWPOLYLINE
  5
25C4
330
1F
100
AcDbEntity
  8
SOLBET_Zbrojenie_Konstrukcja
100
AcDbPolyline
 90
        3
 70
     0
 43
0.05
 10
46.73275041516217
 20
182.1173240827359
 10
46.73275041516217
 20
180.6173240827359
 10
48.23275041516808
 20
180.6173240827359
  0
LINE
  5
25CC
330
1F
100
AcDbEntity
  8
SOLBET_Beton
100
AcDbLine
 10
126.9721781624657
 20
210.4094009296414
 30
0.0
 11
128.7374205926321
 21
210.4094009296414
 31
0.0
  0
LWPOLYLINE
  5
25CD
330
1F
100
AcDbEntity
  8
SOLBET_Beton
100
AcDbPolyline
 90
        3
 70
     0
 43
0.0
 10
128.7374205926321
 20
215.4094009296414
 10
126.9721781624657
 20
215.4094009296414
 10
126.9721781624657
 20
206.9094009296414
  0
LINE
  5
25CE
330
1F
100
AcDbEntity
  8
SOLBET_Stolarka_Okna
100
AcDbLine
 10
53.23650594920081
 20
172.5451846699119
 30
0.0
 11
53.23650594920081
 21
152.5712977506189
 31
0.0
  0
LINE
  5
25CF
330
1F
100
AcDbEntity
  8
SOLBET_Stolarka_Okna
100
AcDbLine
 10
57.6792422153294
 20
172.7346333668172
 30
0.0
 11
57.6792422153294
 21
152.5712977506189
 31
0.0
  0
LINE
  5
25D0
330
1F
100
AcDbEntity
  8
SOLBET_Stolarka_Okna
100
AcDbLine
 10
57.6792422153294
 20
150.1294221360533
 30
0.0
 11
57.6792422153294
 21
115.0841684924647
 31
0.0
  0
LINE
  5
25D1
330
1F
100
AcDbEntity
  8
SOLBET_Stolarka_Okna
100
AcDbLine
 10
53.23650594920081
 20
150.1294221360533
 30
0.0
 11
53.23650594920081
 21
115.2736171893708
 31
0.0
  0
LWPOLYLINE
  5
25E0
102
{ACAD_REACTORS
330
3455
102
}
330
1F
100
AcDbEntity
  8
SOLBET_Zbrojenie_Konstrukcja
100
AcDbPolyline
 90
       16
 70
     1
 43
0.0
 10
64.5974096374648
 20
217.0877388276907
 42
-0.0869419154568836
 10
64.55069289158018
 20
217.0633349378853
 42
-0.04426695874853
 10
64.49408466594196
 20
217.0507079172136
 42
-0.0327594189474477
 10
64.41594876315821
 20
217.0455830437565
 42
-0.0327594189473721
 10
64.33781286038629
 20
217.0507079172136
 42
-0.0442669587487512
 10
64.28120463474215
 20
217.0633349378853
 42
-0.0869419154555393
 10
64.23448788886344
 20
217.0877388276907
 42
-0.233077666948955
 10
64.22539178929901
 20
217.1061918014514
 42
-0.2330776669476068
 10
64.23448788886344
 20
217.1246447752104
 42
-0.0869419154571649
 10
64.28120463474215
 20
217.1490486650158
 42
-0.0442669587478621
 10
64.33781286038629
 20
217.1616756856884
 42
-0.032759418947709
 10
64.41594876315821
 20
217.1668005591461
 42
-0.0327594189469762
 10
64.49408466594196
 20
217.161675685689
 42
-0.0442669587489952
 10
64.55069289158018
 20
217.1490486650158
 42
-0.0869419154555225
 10
64.5974096374648
 20
217.1246447752112
 42
-0.2095631734287794
 10
64.60641227921041
 20
217.1082750580642
 42
-0.256839199828224
1001
ASO_SCHRAFF
1005
0
1070
     1
1002
{
1070
     1
1005
0
1002
}
1002
{
1070
     2
1005
0
1002
}
1002
{
1070
     4
1000
SOFIFUELL
1040
1.0
1040
0.0
1070
     0
1000
T__SCHR
1070
   256
1000
_bylayer
1040
50.0
1070
     1
1002
}
  0
LWPOLYLINE
  5
25E1
330
1F
100
AcDbEntity
  8
SOLBET_Zbrojenie_Konstrukcja
100
AcDbPolyline
 90
       16
 70
     1
 43
0.0
 10
54.25643801742172
 20
217.0455830437565
 42
-0.0327594189470737
 10
54.17830211463751
 20
217.0507079172136
 42
-0.0442669587490688
 10
54.12169388899974
 20
217.0633349378853
 42
-0.0869419154566485
 10
54.07497714312103
 20
217.0877388276907
 42
-0.2330776669510323
 10
54.0658810435566
 20
217.1061918014514
 42
-0.2330776669455295
 10
54.07497714312103
 20
217.1246447752104
 42
-0.086941915456222
 10
54.12169388899974
 20
217.1490486650158
 42
-0.0442669587489878
 10
54.17830211463751
 20
217.161675685689
 42
-0.032759418946939
 10
54.25643801742172
 20
217.1668005591461
 42
-0.032759418947148
 10
54.33457392019954
 20
217.161675685689
 42
-0.0442669587490284
 10
54.39118214583777
 20
217.1490486650158
 42
-0.0869419154566317
 10
54.43789889171648
 20
217.1246447752104
 42
-0.233077666949109
 10
54.44699499128091
 20
217.1061918014514
 42
-0.2330776669474527
 10
54.43789889171648
 20
217.0877388276907
 42
-0.0869419154562388
 10
54.39118214583777
 20
217.0633349378853
 42
-0.0442669587490685
 10
54.33457392019954
 20
217.0507079172136
 42
-0.0327594189470737
  0
LWPOLYLINE
  5
25E2
102
{ACAD_REACTORS
330
3455
102
}
330
1F
100
AcDbEntity
  8
SOLBET_Zbrojenie_Konstrukcja
100
AcDbPolyline
 90
       16
 70
     1
 43
0.0
 10
54.07497714312103
 20
217.0877388276907
 42
0.0869419154568836
 10
54.12169388899974
 20
217.0633349378853
 42
0.04426695874853
 10
54.17830211463751
 20
217.0507079172136
 42
0.0327594189474477
 10
54.25643801742172
 20
217.0455830437565
 42
0.0327594189473721
 10
54.33457392019954
 20
217.0507079172136
 42
0.0442669587487512
 10
54.39118214583777
 20
217.0633349378853
 42
0.0869419154555393
 10
54.43789889171648
 20
217.0877388276907
 42
0.233077666948955
 10
54.44699499128091
 20
217.1061918014514
 42
0.2330776669476068
 10
54.43789889171648
 20
217.1246447752104
 42
0.0869419154571649
 10
54.39118214583777
 20
217.1490486650158
 42
0.0442669587478621
 10
54.33457392019954
 20
217.1616756856884
 42
0.032759418947709
 10
54.25643801742172
 20
217.1668005591461
 42
0.0327594189469762
 10
54.17830211463751
 20
217.161675685689
 42
0.0442669587489952
 10
54.12169388899974
 20
217.1490486650158
 42
0.0869419154555225
 10
54.07497714312103
 20
217.1246447752112
 42
0.2095631734287794
 10
54.06597450136951
 20
217.1082750580642
 42
0.256839199828224
1001
ASO_SCHRAFF
1005
0
1070
     1
1002
{
1070
     1
1005
0
1002
}
1002
{
1070
     2
1005
0
1002
}
1002
{
1070
     4
1000
SOFIFUELL
1040
1.0
1040
0.0
1070
     0
1000
T__SCHR
1070
   256
1000
_bylayer
1040
50.0
1070
     1
1002
}
  0
LINE
  5
25EE
330
1F
100
AcDbEntity
  8
SOLBET_Wymiary_Opisy
100
AcDbLine
 10
138.9523534611964
 20
248.7181391354497
 30
0.0
 11
138.9523534611964
 21
152.5712977506189
 31
0.0
  0
LINE
  5
25F0
330
1F
100
AcDbEntity
  8
SOLBET_Wymiary_Opisy
100
AcDbLine
 10
135.9034786154573
 20
68.15320598064477
 30
0.0
 11
325.3661093628755
 21
68.15320598064477
 31
0.0
  0
LINE
  5
25F3
330
1F
100
AcDbEntity
  8
SOLBET_Wymiary_Opisy
100
AcDbLine
 10
138.0367991397559
 20
152.5712977506189
 30
0.0
 11
322.7719711227028
 21
152.5712977506189
 31
0.0
  0
LINE
  5
25F4
330
1F
100
AcDbEntity
  8
SOLBET_Wymiary_Opisy
100
AcDbLine
 10
137.6823045072754
 20
150.1294221360533
 30
0.0
 11
322.7719711227028
 21
150.1294221360533
 31
0.0
  0
LINE
  5
25F6
330
1F
100
AcDbEntity
  8
SOLBET_Wymiary_Opisy
 62
     1
100
AcDbLine
 10
321.5813202151555
 20
248.651180838636
 30
0.0
 11
321.5813202151555
 21
152.5712977506189
 31
0.0
  0
LINE
  5
25F7
330
1F
100
AcDbEntity
  8
SOLBET_Wymiary_Opisy
100
AcDbLine
 10
321.5813202151555
 20
150.1294221360533
 30
0.0
 11
321.5813202151555
 21
63.99318469395303
 31
0.0
  0
LINE
  5
25F8
330
1F
100
AcDbEntity
  8
SOLBET_Wymiary_Opisy
100
AcDbLine
 10
138.9523534611964
 20
150.1294221360533
 30
0.0
 11
138.9523534611964
 21
65.07202827817764
 31
0.0
  0
LWPOLYLINE
  5
261A
330
1F
100
AcDbEntity
  8
SOLBET_Wymiary_Opisy
  6
Continuous
100
AcDbPolyline
 90
        2
 70
     0
 43
0.0
 10
192.766836838173
 20
108.1532059806455
 10
197.4308608554409
 20
150.1294221360533
  0
LWPOLYLINE
  5
261B
330
1F
100
AcDbEntity
  8
SOLBET_Wymiary_Opisy
  6
Continuous
100
AcDbPolyline
 90
        3
 70
     0
 43
0.0
 10
200.6495801710924
 20
152.5712977506189
 10
202.9898561359957
 20
173.6337814347416
 10
267.7668368381731
 20
180.9094009296414
  0
LWPOLYLINE
  5
261C
330
1F
100
AcDbEntity
  8
SOLBET_Stolarka_Okna
  6
Continuous
 62
     2
100
AcDbPolyline
 90
        2
 70
     0
 43
0.0
 10
192.766836838173
 20
150.1294221360533
 10
192.7668366926985
 20
106.9094009296414
  0
LWPOLYLINE
  5
261D
330
1F
100
AcDbEntity
  8
SOLBET_Stolarka_Okna
  6
Continuous
 62
     2
100
AcDbPolyline
 90
        3
 70
     0
 43
0.0
 10
192.7668366926985
 20
106.9094009296414
 10
267.7668370651042
 20
106.9094009296414
 10
267.7668368381731
 20
150.1294221360533
  0
LWPOLYLINE
  5
261E
330
1F
100
AcDbEntity
  8
SOLBET_Stolarka_Okna
  6
Continuous
 62
     2
100
AcDbPolyline
 90
        4
 70
     0
 43
0.0
 10
267.7668368381731
 20
152.5712977506189
 10
267.7668368381731
 20
180.9094009296414
 10
192.766836838173
 20
180.9094009296414
 10
192.766836838173
 20
152.5712977506189
  0
LINE
  5
2637
330
1F
100
AcDbEntity
  8
SOLBET_Wymiary_Opisy
100
AcDbLine
 10
137.1181508372112
 20
246.6250525303248
 30
0.0
 11
324.8447508971228
 21
246.6250525303248
 31
0.0
  0
LINE
  5
265D
330
1F
100
AcDbEntity
  8
SOLBET_Wymiary_Opisy
 62
     1
100
AcDbLine
 10
228.6440541951849
 20
77.1202573057583
 30
0.0
 11
176.9406685649176
 21
77.1202573057583
 31
0.0
  0
LINE
  5
2664
330
1F
100
AcDbEntity
  8
SOLBET_Wymiary_Opisy
 62
     1
100
AcDbLine
 10
321.5813202151555
 20
55.54243961997009
 30
0.0
 11
321.5813202151555
 21
17.38446341659961
 31
0.0
  0
LINE
  5
2665
330
1F
100
AcDbEntity
  8
SOLBET_Wymiary_Opisy
100
AcDbLine
 10
138.9523534611964
 20
55.54243961997078
 30
0.0
 11
138.9523534611964
 21
17.38446341659961
 31
0.0
  0
LINE
  5
2686
330
1F
100
AcDbEntity
  8
SOLBET_Zbrojenie_Konstrukcja
100
AcDbLine
 10
167.766836838173
 20
30.26151346077042
 30
0.0
 11
292.7668368381731
 21
30.26151346077042
 31
0.0
  0
LINE
  5
2687
330
1F
100
AcDbEntity
  8
SOLBET_Zbrojenie_Konstrukcja
100
AcDbLine
 10
167.766836838173
 20
42.76151346077042
 30
0.0
 11
292.7668368381731
 21
42.76151346077042
 31
0.0
  0
LINE
  5
2688
330
1F
100
AcDbEntity
  8
SOLBET_Zbrojenie_Konstrukcja
100
AcDbLine
 10
223.2857819154208
 20
30.26151346077042
 30
0.0
 11
210.7857819154208
 21
42.76151346077042
 31
0.0
  0
LINE
  5
2689
330
1F
100
AcDbEntity
  8
SOLBET_Zbrojenie_Konstrukcja
100
AcDbLine
 10
198.2857819154208
 20
30.26151346077042
 30
0.0
 11
210.7857819154208
 21
42.76151346077042
 31
0.0
  0
LINE
  5
268A
330
1F
100
AcDbEntity
  8
SOLBET_Zbrojenie_Konstrukcja
100
AcDbLine
 10
223.2857819154208
 20
30.26151346077042
 30
0.0
 11
235.7857819154208
 21
42.76151346077042
 31
0.0
  0
LINE
  5
268B
330
1F
100
AcDbEntity
  8
SOLBET_Zbrojenie_Konstrukcja
100
AcDbLine
 10
248.2857819154208
 20
30.26151346077042
 30
0.0
 11
235.7857819154208
 21
42.76151346077042
 31
0.0
  0
LINE
  5
268C
330
1F
100
AcDbEntity
  8
SOLBET_Zbrojenie_Konstrukcja
100
AcDbLine
 10
248.2857819154208
 20
30.26151346077042
 30
0.0
 11
260.7857819154208
 21
42.76151346077042
 31
0.0
  0
LINE
  5
268D
330
1F
100
AcDbEntity
  8
SOLBET_Zbrojenie_Konstrukcja
100
AcDbLine
 10
273.2857819154208
 20
30.26151346077042
 30
0.0
 11
260.7857819154208
 21
42.76151346077042
 31
0.0
  0
LINE
  5
268E
330
1F
100
AcDbEntity
  8
SOLBET_Zbrojenie_Konstrukcja
100
AcDbLine
 10
273.2857819154208
 20
30.26151346077042
 30
0.0
 11
285.7857819154208
 21
42.76151346077042
 31
0.0
  0
LINE
  5
268F
330
1F
100
AcDbEntity
  8
SOLBET_Zbrojenie_Konstrukcja
100
AcDbLine
 10
173.2857819154208
 20
30.26151346077042
 30
0.0
 11
167.766836838173
 21
35.78045853801974
 31
0.0
  0
LINE
  5
2690
330
1F
100
AcDbEntity
  8
SOLBET_Zbrojenie_Konstrukcja
100
AcDbLine
 10
173.2857819154208
 20
30.26151346077042
 30
0.0
 11
185.7857819154208
 21
42.76151346077042
 31
0.0
  0
LINE
  5
2691
330
1F
100
AcDbEntity
  8
SOLBET_Zbrojenie_Konstrukcja
100
AcDbLine
 10
198.2857819154208
 20
30.26151346077042
 30
0.0
 11
185.7857819154208
 21
42.76151346077042
 31
0.0
  0
LINE
  5
2692
330
1F
100
AcDbEntity
  8
SOLBET_Zbrojenie_Konstrukcja
100
AcDbLine
 10
292.7668368381731
 20
35.78045853801906
 30
0.0
 11
285.7857819154208
 21
42.76151346077042
 31
0.0
  0
LINE
  5
271F
330
1F
100
AcDbEntity
  8
SOLBET_Izolacja
  6
BATTING
 48
0.0485
100
AcDbLine
 10
68.73650594920082
 20
222.2827077631968
 30
0.0
 11
68.73650594920082
 21
216.9094009296414
 31
0.0
  0
LINE
  5
2722
330
1F
100
AcDbEntity
  8
SOLBET_Izolacja
  6
BATTING
 48
0.12
100
AcDbLine
 10
69.23650594920082
 20
218.1594009427938
 30
0.0
 11
128.7354274251038
 21
218.1594009427938
 31
0.0
  0
LINE
  5
2723
330
1F
100
AcDbEntity
  8
SOLBET_Beton
100
AcDbLine
 10
90.97217816246574
 20
210.4094009296414
 30
0.0
 11
102.9721781624657
 21
210.4094009296414
 31
0.0
  0
LWPOLYLINE
  5
2724
330
1F
100
AcDbEntity
  8
SOLBET_Beton
100
AcDbPolyline
 90
        4
 70
     1
 43
0.0
 10
90.97217816246574
 20
206.9094009296414
 10
102.9721781624657
 20
206.9094009296414
 10
102.9721781624657
 20
215.4094009296413
 10
90.97217816246574
 20
215.4094009296413
  0
LINE
  5
2725
330
1F
100
AcDbEntity
  8
SOLBET_Beton
100
AcDbLine
 10
66.97217816246575
 20
210.4094009296414
 30
0.0
 11
78.97217816246575
 21
210.4094009296414
 31
0.0
  0
LINE
  5
2727
330
1F
100
AcDbEntity
  8
SOLBET_Beton
100
AcDbLine
 10
114.9721781624657
 20
210.4094009296414
 30
0.0
 11
126.9721781624657
 21
210.4094009296414
 31
0.0
  0
LINE
  5
2729
330
1F
100
AcDbEntity
  8
SOLBET_Beton
100
AcDbLine
 10
102.9721781624657
 20
210.4094009296414
 30
0.0
 11
114.9721781624657
 21
210.4094009296414
 31
0.0
  0
LINE
  5
272B
330
1F
100
AcDbEntity
  8
SOLBET_Beton
100
AcDbLine
 10
78.97217816246575
 20
210.4094009296414
 30
0.0
 11
90.97217816246574
 21
210.4094009296414
 31
0.0
  0
LWPOLYLINE
  5
272C
330
1F
100
AcDbEntity
  8
SOLBET_Beton
100
AcDbPolyline
 90
        4
 70
     1
 43
0.0
 10
78.97217816246575
 20
206.9094009296414
 10
90.97217816246574
 20
206.9094009296414
 10
90.97217816246574
 20
215.4094009296413
 10
78.97217816246575
 20
215.4094009296413
  0
LINE
  5
272D
330
1F
100
AcDbEntity
  8
SOLBET_Beton
100
AcDbLine
 10
125.7365059492008
 20
213.4094009296415
 30
0.0
 11
128.7354274251061
 21
207.7864231623191
 31
0.0
  0
LINE
  5
272E
330
1F
100
AcDbEntity
  8
SOLBET_Beton
100
AcDbLine
 10
122.269839282534
 20
206.9094009296413
 30
0.0
 11
125.7365059492008
 21
213.4094009296415
 31
0.0
  0
LINE
  5
2730
330
1F
100
AcDbEntity
  8
SOLBET_Beton
100
AcDbLine
 10
98.26983928253401
 20
206.9094009296413
 30
0.0
 11
101.7365059492008
 21
213.4094009296415
 31
0.0
  0
LINE
  5
2731
330
1F
100
AcDbEntity
  8
SOLBET_Beton
100
AcDbLine
 10
106.269839282534
 20
206.9094009296413
 30
0.0
 11
109.7365059492006
 21
213.4094009296415
 31
0.0
  0
LINE
  5
2732
330
1F
100
AcDbEntity
  8
SOLBET_Beton
100
AcDbLine
 10
114.269839282534
 20
206.9094009296413
 30
0.0
 11
117.7365059492007
 21
213.4094009296415
 31
0.0
  0
LINE
  5
2733
330
1F
100
AcDbEntity
  8
SOLBET_Beton
100
AcDbLine
 10
90.269839282534
 20
206.9094009296413
 30
0.0
 11
93.73650594920082
 21
213.4094009296415
 31
0.0
  0
LINE
  5
2734
330
1F
100
AcDbEntity
  8
SOLBET_Beton
100
AcDbLine
 10
82.26983928253401
 20
206.9094009296413
 30
0.0
 11
85.73650594920081
 21
213.4094009296415
 31
0.0
  0
LINE
  5
2735
330
1F
100
AcDbEntity
  8
SOLBET_Beton
100
AcDbLine
 10
74.26983928253401
 20
206.9094009296413
 30
0.0
 11
77.73650594920082
 21
213.4094009296415
 31
0.0
  0
LINE
  5
2736
330
1F
100
AcDbEntity
  8
SOLBET_Beton
100
AcDbLine
 10
66.26983928253412
 20
206.9094009296413
 30
0.0
 11
69.73650594920082
 21
213.4094009296415
 31
0.0
  0
LINE
  5
2737
330
1F
100
AcDbEntity
  8
SOLBET_Beton
100
AcDbLine
 10
69.73650594920082
 20
213.4094009296415
 30
0.0
 11
73.2031726158674
 21
206.9094009296413
 31
0.0
  0
LINE
  5
2738
330
1F
100
AcDbEntity
  8
SOLBET_Beton
100
AcDbLine
 10
77.73650594920082
 20
213.4094009296415
 30
0.0
 11
81.20317261586739
 21
206.9094009296413
 31
0.0
  0
LINE
  5
2739
330
1F
100
AcDbEntity
  8
SOLBET_Beton
100
AcDbLine
 10
85.73650594920081
 20
213.4094009296415
 30
0.0
 11
89.20317261586763
 21
206.9094009296413
 31
0.0
  0
LINE
  5
273A
330
1F
100
AcDbEntity
  8
SOLBET_Beton
100
AcDbLine
 10
93.73650594920082
 20
213.4094009296415
 30
0.0
 11
97.20317261586764
 21
206.9094009296413
 31
0.0
  0
LINE
  5
273B
330
1F
100
AcDbEntity
  8
SOLBET_Beton
  6
Continuous
100
AcDbLine
 10
128.7354274251061
 20
213.4094009296416
 30
0.0
 11
64.23650594920082
 21
213.4094009296413
 31
0.0
  0
LINE
  5
273C
330
1F
100
AcDbEntity
  8
SOLBET_Beton
100
AcDbLine
 10
117.7365059492007
 20
213.4094009296415
 30
0.0
 11
121.2031726158675
 21
206.9094009296413
 31
0.0
  0
LINE
  5
273D
330
1F
100
AcDbEntity
  8
SOLBET_Beton
100
AcDbLine
 10
109.7365059492006
 20
213.4094009296415
 30
0.0
 11
113.2031726158675
 21
206.9094009296413
 31
0.0
  0
LINE
  5
273E
330
1F
100
AcDbEntity
  8
SOLBET_Beton
100
AcDbLine
 10
101.7365059492008
 20
213.4094009296415
 30
0.0
 11
105.2031726158675
 21
206.9094009296413
 31
0.0
  0
LINE
  5
273F
330
1F
100
AcDbEntity
  8
SOLBET_Beton
100
AcDbLine
 10
64.23650594920082
 20
206.9094009296413
 30
0.0
 11
128.7354274251061
 21
206.9094009296413
 31
0.0
  0
LWPOLYLINE
  5
2741
330
1F
100
AcDbEntity
  8
SOLBET_Beton
100
AcDbPolyline
 90
        5
 70
     1
 43
0.0
 10
64.23650594920082
 20
204.9094009296414
 10
68.23650594920071
 20
204.9094009296414
 10
128.7354274251061
 20
204.9094009296414
 10
128.7354274251061
 20
206.9094009296413
 10
64.23650594920082
 20
206.9094009296413
1001
ASO_SCHRAFF
1005
0
1070
     1
1002
{
1070
     1
1005
0
1002
}
1002
{
1070
     2
1005
0
1002
}
1002
{
1070
     4
1000
NET
1040
0.1
1040
45.0
1070
     0
1000
T__SCHR
1070
   256
1000
VONLAYER
1040
50.0
1070
     1
1002
}
  0
INSERT
  5
2742
330
1F
100
AcDbEntity
  8
SOLBET_Beton
100
AcDbBlockReference
  2
*X4
 10
-505.4644099317557
 20
-251.1119401247857
 30
0.0
 41
50.0
 42
50.0
 43
50.0
1001
ASO_SCHRAFF
1005
0
1070
     0
1005
0
1001
ACAD
1000
HATCH
1002
{
1070
    16
1000
NET
1040
0.25
1040
0.7853981633974483
1002
}
  0
LINE
  5
2743
330
1F
100
AcDbEntity
  8
SOLBET_Beton
100
AcDbLine
 10
66.97217816246575
 20
206.9094009296414
 30
0.0
 11
78.97217816246575
 21
206.9094009296414
 31
0.0
  0
LINE
  5
2744
330
1F
100
AcDbEntity
  8
SOLBET_Beton
100
AcDbLine
 10
78.97217816246575
 20
206.9094009296414
 30
0.0
 11
78.97217816246575
 21
215.4094009296413
 31
0.0
  0
LINE
  5
2745
330
1F
100
AcDbEntity
  8
SOLBET_Beton
100
AcDbLine
 10
78.97217816246575
 20
215.4094009296413
 30
0.0
 11
66.97217816246575
 21
215.4094009296413
 31
0.0
  0
LINE
  5
2746
330
1F
100
AcDbEntity
  8
SOLBET_Beton
100
AcDbLine
 10
66.97217816246575
 20
215.4094009296413
 30
0.0
 11
66.97217816246575
 21
206.9094009296414
 31
0.0
  0
LINE
  5
2747
330
1F
100
AcDbEntity
  8
SOLBET_Beton
100
AcDbLine
 10
102.9721781624657
 20
206.9094009296414
 30
0.0
 11
114.9721781624657
 21
206.9094009296414
 31
0.0
  0
LINE
  5
2748
330
1F
100
AcDbEntity
  8
SOLBET_Beton
100
AcDbLine
 10
114.9721781624657
 20
206.9094009296414
 30
0.0
 11
114.9721781624657
 21
215.4094009296413
 31
0.0
  0
LINE
  5
2749
330
1F
100
AcDbEntity
  8
SOLBET_Beton
100
AcDbLine
 10
114.9721781624657
 20
215.4094009296413
 30
0.0
 11
102.9721781624657
 21
215.4094009296413
 31
0.0
  0
LINE
  5
274A
330
1F
100
AcDbEntity
  8
SOLBET_Beton
100
AcDbLine
 10
102.9721781624657
 20
215.4094009296413
 30
0.0
 11
102.9721781624657
 21
206.9094009296414
 31
0.0
  0
LINE
  5
274B
330
1F
100
AcDbEntity
  8
SOLBET_Beton
100
AcDbLine
 10
114.9721781624657
 20
206.9094009296414
 30
0.0
 11
126.9721781624657
 21
206.9094009296414
 31
0.0
  0
LINE
  5
274C
330
1F
100
AcDbEntity
  8
SOLBET_Beton
 62
     1
100
AcDbLine
 10
126.9721781624657
 20
206.9094009296414
 30
0.0
 11
126.9721781624657
 21
215.4094009296413
 31
0.0
  0
LINE
  5
274D
330
1F
100
AcDbEntity
  8
SOLBET_Beton
100
AcDbLine
 10
126.9721781624657
 20
215.4094009296413
 30
0.0
 11
114.9721781624657
 21
215.4094009296413
 31
0.0
  0
LINE
  5
274E
330
1F
100
AcDbEntity
  8
SOLBET_Beton
100
AcDbLine
 10
114.9721781624657
 20
215.4094009296413
 30
0.0
 11
114.9721781624657
 21
206.9094009296414
 31
0.0
  0
INSERT
  5
2773
330
1F
100
AcDbEntity
  8
SOLBET_Izolacja
  6
Continuous
100
AcDbBlockReference
  2
ASOWDBLK
 10
48.17311796050308
 20
106.9976479509712
 30
0.0
 41
0.7084818097841321
 42
0.749571428571457
 43
0.70848180978415
  0
INSERT
  5
2774
330
1F
100
AcDbEntity
  8
SOLBET_Izolacja
  6
Continuous
100
AcDbBlockReference
  2
ASOWDBLK
 10
48.52735886539517
 20
106.9976479509712
 30
0.0
 41
0.7084818097841321
 42
0.811000000000007
 43
0.70848180978415
  0
INSERT
  5
2775
330
1F
100
AcDbEntity
  8
SOLBET_Izolacja
  6
Continuous
100
AcDbBlockReference
  2
ASOWDBLK
 10
48.88159977028727
 20
106.9976479509712
 30
0.0
 41
0.7084818097841321
 42
0.8724285714285429
 43
0.70848180978415
  0
INSERT
  5
2776
330
1F
100
AcDbEntity
  8
SOLBET_Izolacja
  6
Continuous
100
AcDbBlockReference
  2
ASOWDBLK
 10
49.23584067517936
 20
106.9976479509712
 30
0.0
 41
0.7084818097841321
 42
0.9338571428571498
 43
0.70848180978415
  0
INSERT
  5
2777
330
1F
100
AcDbEntity
  8
SOLBET_Izolacja
  6
Continuous
100
AcDbBlockReference
  2
ASOWDBLK
 10
49.59008158007145
 20
106.9976479509712
 30
0.0
 41
0.7084818097841321
 42
0.9952857142856998
 43
0.70848180978415
  0
INSERT
  5
2778
330
1F
100
AcDbEntity
  8
SOLBET_Izolacja
  6
Continuous
100
AcDbBlockReference
  2
ASOWDBLK
 10
49.94432248496355
 20
106.9976479509712
 30
0.0
 41
0.7084818097841321
 42
1.056714285714306
 43
0.70848180978415
  0
INSERT
  5
2779
330
1F
100
AcDbEntity
  8
SOLBET_Izolacja
  6
Continuous
100
AcDbBlockReference
  2
ASOWDBLK
 10
50.29856338985564
 20
106.9976479509712
 30
0.0
 41
0.7084818097841321
 42
1.118142857142856
 43
0.70848180978415
  0
INSERT
  5
277A
330
1F
100
AcDbEntity
  8
SOLBET_Izolacja
  6
Continuous
100
AcDbBlockReference
  2
ASOWDBLK
 10
50.65280429474774
 20
106.9976479509712
 30
0.0
 41
0.7084818097841321
 42
1.179571428571449
 43
0.70848180978415
  0
INSERT
  5
277B
330
1F
100
AcDbEntity
  8
SOLBET_Izolacja
  6
Continuous
100
AcDbBlockReference
  2
ASOWDBLK
 10
51.00704519963983
 20
106.9976479509712
 30
0.0
 41
0.7084818097841321
 42
1.240999999999999
 43
0.70848180978415
  0
INSERT
  5
277C
330
1F
100
AcDbEntity
  8
SOLBET_Izolacja
  6
Continuous
100
AcDbBlockReference
  2
ASOWDBLK
 10
51.36128610453193
 20
106.9976479509712
 30
0.0
 41
0.7084818097841321
 42
1.302428571428549
 43
0.70848180978415
  0
INSERT
  5
277D
330
1F
100
AcDbEntity
  8
SOLBET_Izolacja
  6
Continuous
100
AcDbBlockReference
  2
ASOWDBLK
 10
51.71552700942402
 20
106.9976479509712
 30
0.0
 41
0.7084818097841321
 42
1.363857142857156
 43
0.70848180978415
  0
INSERT
  5
277E
330
1F
100
AcDbEntity
  8
SOLBET_Izolacja
  6
Continuous
100
AcDbBlockReference
  2
ASOWDBLK
 10
52.06976791431611
 20
106.9976479509712
 30
0.0
 41
0.7084818097841321
 42
1.425285714285706
 43
0.70848180978415
  0
INSERT
  5
277F
330
1F
100
AcDbEntity
  8
SOLBET_Izolacja
  6
Continuous
100
AcDbBlockReference
  2
ASOWDBLK
 10
52.42400881920821
 20
106.9976479509712
 30
0.0
 41
0.7084818097841321
 42
1.486714285714299
 43
0.70848180978415
  0
INSERT
  5
2780
330
1F
100
AcDbEntity
  8
SOLBET_Izolacja
  6
Continuous
100
AcDbBlockReference
  2
ASOWDBLK
 10
52.7782497241003
 20
106.9976479509712
 30
0.0
 41
0.7084818097841321
 42
1.548142857142849
 43
0.70848180978415
  0
LINE
  5
27CE
330
1F
100
AcDbEntity
  8
SOLBET_Bloczki
100
AcDbLine
 10
68.23650623069943
 20
246.6250525303248
 30
0.0
 11
68.23650623069943
 21
240.9094018379728
 31
0.0
  0
LINE
  5
27D0
330
1F
100
AcDbEntity
  8
SOLBET_Bloczki
100
AcDbLine
 10
47.23650623069943
 20
246.6250525303248
 30
0.0
 11
47.23650623069943
 21
240.9094018379728
 31
0.0
  0
LINE
  5
27D1
330
1F
100
AcDbEntity
  8
SOLBET_Bloczki
100
AcDbLine
 10
47.23650623069943
 20
240.9094018379728
 30
0.0
 11
68.23650623069943
 21
240.9094018379728
 31
0.0
  0
LINE
  5
285F
330
1F
100
AcDbEntity
  8
SOLBET_Bloczki
100
AcDbLine
 10
68.23650637144874
 20
106.9094009296414
 30
0.0
 11
47.23650637144873
 21
106.9094009296414
 31
0.0
  0
LINE
  5
2861
330
1F
100
AcDbEntity
  8
SOLBET_Bloczki
100
AcDbLine
 10
47.23650637144873
 20
99.90940154208601
 30
0.0
 11
68.23650637144874
 21
99.90940154208601
 31
0.0
  0
LINE
  5
2862
330
1F
100
AcDbEntity
  8
SOLBET_Bloczki
100
AcDbLine
 10
47.23650637144873
 20
107.6033339849159
 30
0.0
 11
47.23650637144873
 21
99.90940154208601
 31
0.0
  0
LINE
  5
2863
330
1F
100
AcDbEntity
  8
SOLBET_Bloczki
100
AcDbLine
 10
68.23650637144874
 20
106.9094009296414
 30
0.0
 11
68.23650637144874
 21
99.90940154208601
 31
0.0
  0
LINE
  5
2864
330
1F
100
AcDbEntity
  8
SOLBET_Izolacja
100
AcDbLine
 10
50.23650594920082
 20
216.9094009296414
 30
0.0
 11
50.23650586729423
 21
204.9094012255275
 31
0.0
  0
LINE
  5
2865
330
1F
100
AcDbEntity
  8
SOLBET_Izolacja
100
AcDbLine
 10
50.23650586729423
 20
204.9094012255275
 30
0.0
 11
53.23650594920081
 21
204.9094012255275
 31
0.0
  0
LINE
  5
2866
330
1F
100
AcDbEntity
  8
SOLBET_Izolacja
100
AcDbLine
 10
53.23650594920081
 20
204.9094012255275
 30
0.0
 11
53.23650594920081
 21
216.9094009296414
 31
0.0
  0
LINE
  5
2867
330
1F
100
AcDbEntity
  8
SOLBET_Izolacja
100
AcDbLine
 10
53.23650594920081
 20
216.9094009296414
 30
0.0
 11
50.23650594920082
 21
216.9094014296759
 31
0.0
  0
LINE
  5
2868
330
1F
100
AcDbEntity
  8
SOLBET_Izolacja
  6
BATTING
 48
0.14
100
AcDbLine
 10
51.73650594920082
 20
216.6461580375681
 30
0.0
 11
51.7365059492007
 21
205.2113122830633
 31
0.0
  0
LINE
  5
287C
330
1F
100
AcDbEntity
  8
SOLBET_Wymiary_Opisy
 62
     1
100
AcDbLine
 10
44.59932252594796
 20
152.5712977506197
 30
0.0
 11
129.5795598132974
 21
152.5712977506197
 31
0.0
  0
LINE
  5
287D
330
1F
100
AcDbEntity
  8
SOLBET_Wymiary_Opisy
 62
     1
100
AcDbLine
 10
128.7354274251038
 20
246.6250525303248
 30
0.0
 11
128.7354274251038
 21
152.5712977506197
 31
0.0
  0
LINE
  5
287E
330
1F
100
AcDbEntity
  8
SOLBET_Wymiary_Opisy
 62
     1
100
AcDbLine
 10
44.59932252594796
 20
150.1294221360562
 30
0.0
 11
129.6302024831204
 21
150.1294221360562
 31
0.0
  0
MTEXT
  5
2A62
330
1F
100
AcDbEntity
  8
SOLBET_Wymiary_Opisy
100
AcDbMText
 10
13.85197026873743
 20
230.4999224092409
 30
0.0
 40
2.5
 41
0.0
 71
     1
 72
     1
  1
Zbrojenie MURFOR
  7
Solbet_2_5
 73
     1
 44
1.0
1001
ACAD
1000
MTEXTBEGIN
1070
    73
1070
     1
1070
    44
1040
1.0
1070
    74
1070
     0
1000
MTEXTEND
  0
MTEXT
  5
2A7A
330
1F
100
AcDbEntity
  8
SOLBET_Wymiary_Opisy
100
AcDbMText
 10
10.3942099409212
 20
224.770113824291
 30
0.0
 40
2.5
 41
0.0
 71
     1
 72
     1
  1
Warstwa docieplenia
  7
Solbet_2_5
 73
     1
 44
1.0
1001
ACAD
1000
MTEXTBEGIN
1070
    73
1070
     1
1070
    44
1040
1.0
1070
    74
1070
     0
1000
MTEXTEND
  0
MTEXT
  5
2A7C
102
{ACAD_XDICTIONARY
360
36DF
102
}
330
1F
100
AcDbEntity
  8
SOLBET_Wymiary_Opisy
100
AcDbMText
 10
18.16002149214227
 20
218.6325750393878
 30
0.0
 40
2.5
 41
0.0
 71
     1
 72
     1
  1
P\U+0142ytka SOLBET
  7
Solbet_2_5
 73
     1
 44
1.0
1001
ACAD
1000
MTEXTBEGIN
1070
    73
1070
     1
1070
    44
1040
1.0
1070
    74
1070
     0
1000
MTEXTEND
  0
LEADER
  5
2A7D
330
1F
100
AcDbEntity
  8
SOLBET_Wymiary_Opisy
100
AcDbLeader
  3
Solbet$7
 73
     0
 75
     1
 40
3.25
 41
27.0
 76
     3
 10
64.30583022810288
 20
185.6187175314498
 30
0.0
 10
43.8730773826087
 20
196.1696341635688
 30
0.0
 10
41.3730773826087
 20
196.1696341635688
 30
0.0
340
2A7E
213
-0.7602772237803493
223
-0.1753245211093599
233
0.0
1001
ACAD
1000
DSTYLE
1002
{
1070
   147
1040
0.625
1070
    77
1070
     1
1002
}
  0
MTEXT
  5
2A7E
102
{ACAD_XDICTIONARY
360
36E1
102
}
102
{ACAD_REACTORS
330
2A7D
102
}
330
1F
100
AcDbEntity
  8
SOLBET_Wymiary_Opisy
100
AcDbMText
 10
14.50835460638905
 20
200.2199586846782
 30
0.0
 40
2.5
 41
0.0
 71
     1
 72
     1
  1
Nadpro\U+017Ca SOLBET
  7
Solbet_2_5
 73
     1
 44
1.0
1001
ACAD
1000
MTEXTBEGIN
1070
    73
1070
     1
1070
    44
1040
1.0
1070
    74
1070
     0
1000
MTEXTEND
  0
LEADER
  5
2A7F
330
1F
100
AcDbEntity
  8
SOLBET_Wymiary_Opisy
100
AcDbLeader
  3
Solbet$7
 73
     0
 75
     1
 40
3.25
 41
37.25
 76
     3
 10
68.45809257539258
 20
180.6173240827359
 30
0.0
 10
42.07148121293835
 20
168.402530990463
 30
0.0
 10
39.57148121293835
 20
168.402530990463
 30
0.0
340
2A80
213
-0.7602772237803493
223
-0.1753245211093599
233
0.0
1001
ACAD
1000
DSTYLE
1002
{
1070
   147
1040
0.625
1070
    77
1070
     1
1002
}
  0
MTEXT
  5
2A80
102
{ACAD_XDICTIONARY
360
36E3
102
}
102
{ACAD_REACTORS
330
2A7F
102
}
330
1F
100
AcDbEntity
  8
SOLBET_Wymiary_Opisy
100
AcDbMText
 10
2.4567584367187
 20
172.4528555115723
 30
0.0
 40
2.5
 41
0.0
 71
     1
 72
     1
  1
Profil tynkarski naro\U+017Cny
  7
Solbet_2_5
 73
     1
 44
1.0
1001
ACAD
1000
MTEXTBEGIN
1070
    73
1070
     1
1070
    44
1040
1.0
1070
    74
1070
     0
1000
MTEXTEND
  0
MTEXT
  5
2A82
330
1F
100
AcDbEntity
  8
SOLBET_Wymiary_Opisy
100
AcDbMText
 10
13.85197026873743
 20
114.8891346694056
 30
0.0
 40
2.5
 41
0.0
 71
     1
 72
     1
  1
Zbrojenie MURFOR
  7
Solbet_2_5
 73
     1
 44
1.0
1001
ACAD
1000
MTEXTBEGIN
1070
    73
1070
     1
1070
    44
1040
1.0
1070
    74
1070
     0
1000
MTEXTEND
  0
LINE
  5
2A8E
330
1F
100
AcDbEntity
  8
SOLBET_Wymiary_Opisy
100
AcDbLine
 10
52.58268028988869
 20
100.0980315576089
 30
0.0
 11
43.46669304495708
 21
110.8388101482962
 31
0.0
1001
ACAD
1000
DSTYLE
1002
{
1070
   147
1040
0.625
1070
    77
1070
     1
1002
}
  0
INSERT
  5
2A8F
330
1F
100
AcDbEntity
  8
SOLBET_Wymiary_Opisy
100
AcDbBlockReference
  2
_DotSmall
 10
46.73275041516217
 20
180.6173240827359
 30
0.0
 41
2.500000000000009
 42
2.5
 43
2.5
 50
338.6382633035
1001
ACAD
1000
DSTYLE
1002
{
1070
   147
1040
0.625
1070
    77
1070
     1
1002
}
  0
LINE
  5
2A90
330
1F
100
AcDbEntity
  8
SOLBET_Wymiary_Opisy
100
AcDbLine
 10
46.73275041516217
 20
180.6173240827359
 30
0.0
 11
42.90298665587591
 21
168.558954337565
 31
0.0
1001
ACAD
1000
DSTYLE
1002
{
1070
   147
1040
0.625
1070
    77
1070
     1
1002
}
  0
LWPOLYLINE
  5
2A93
330
1F
100
AcDbEntity
  8
SOLBET_Wymiary_Opisy
100
AcDbPolyline
 90
        3
 70
     0
 43
0.0
 10
62.7564619391876
 20
100.0050916429288
 10
43.46669304495708
 20
110.8388101482962
 10
13.09169304495708
 20
110.8388101482962
1001
ACAD
1000
DSTYLE
1002
{
1070
   147
1040
0.625
1070
    77
1070
     1
1002
}
  0
LWPOLYLINE
  5
2A95
330
1F
100
AcDbEntity
  8
SOLBET_Wymiary_Opisy
100
AcDbPolyline
 90
        3
 70
     0
 43
0.0
 10
59.02459544185944
 20
217.3472735552574
 10
41.31607339200354
 20
226.9526113416466
 10
13.09169304495708
 20
226.9526113416466
1001
ACAD
1000
DSTYLE
1002
{
1070
   147
1040
0.625
1070
    77
1070
     1
1002
}
  0
MTEXT
  5
2AA3
102
{ACAD_XDICTIONARY
360
351C
102
}
330
1F
100
AcDbEntity
  8
SOLBET_Wymiary_Opisy
100
AcDbMText
 10
77.05657725063656
 20
242.2277135688944
 30
0.0
 40
2.5
 41
29.39720527325198
 71
     1
 72
     1
  1
Wieniec \U+017Celbetowy
  7
Solbet_2_5
 73
     1
 44
1.0
1001
ACAD
1000
MTEXTBEGIN
1070
    73
1070
     1
1070
    44
1040
1.0
1070
    74
1070
     0
1000
MTEXTEND
1000
ACAD_MTEXT_DEFINED_HEIGHT_BEGIN
1070
    46
1040
3.561864732894832
1000
ACAD_MTEXT_DEFINED_HEIGHT_END
  0
INSERT
  5
2AA6
330
1F
100
AcDbEntity
  8
SOLBET_Wymiary_Opisy
100
AcDbBlockReference
  2
_DotSmall
 10
59.26427328550971
 20
211.8146918984803
 30
0.0
 41
2.500000000000008
 42
2.5
 43
2.5
 50
238.7305708751723
1001
ACAD
1000
DSTYLE
1002
{
1070
   147
1040
0.625
1070
    77
1070
     1
1002
}
  0
LWPOLYLINE
  5
2AA7
330
1F
100
AcDbEntity
  8
SOLBET_Wymiary_Opisy
100
AcDbPolyline
 90
        3
 70
     0
 43
0.0
 10
59.26427328550971
 20
211.8146918984803
 10
75.57041593723761
 20
238.6658488359996
 10
106.4963315964186
 20
238.6658488359996
1001
ACAD
1000
DSTYLE
1002
{
1070
   147
1040
0.625
1070
    77
1070
     1
1002
}
  0
MTEXT
  5
2ADB
102
{ACAD_XDICTIONARY
360
2ADC
102
}
330
1F
100
AcDbEntity
  8
SOLBET_Wymiary_Opisy @ 1
100
AcDbMText
 10
211.9858265384171
 20
190.6465206465388
 30
0.0
 40
7.0
 41
124.2624847080697
 71
     1
 72
     5
  1
SOLBET
  7
Solbet_5
 73
     1
 44
1.0
1001
AcadAnnotative
1000
AnnotativeData
1002
{
1070
     1
1070
     0
1002
}
1001
ACAD
1000
MTEXTBEGIN
1070
    73
1070
     1
1070
    44
1040
1.0
1070
    74
1070
     0
1000
MTEXTEND
  0
MTEXT
  5
2AE0
102
{ACAD_XDICTIONARY
360
2AE1
102
}
330
1F
100
AcDbEntity
  8
SOLBET_Wymiary_Opisy @ 1
100
AcDbMText
 10
198.4850301378242
 20
220.7829924915316
 30
0.0
 40
5.0
 41
124.2624847080697
 71
     1
 72
     5
  1
{\L\P\H0.5x;\lP\U+0142ytki SOLBETjako element obudowy wie\U+0144ca}
  7
Solbet_5
 73
     1
 44
1.0
1001
AcadAnnotative
1000
AnnotativeData
1002
{
1070
     1
1070
     0
1002
}
1001
ACAD
1000
MTEXTBEGIN
1070
    73
1070
     1
1070
    44
1040
1.0
1070
    74
1070
     0
1000
MTEXTEND
  0
MTEXT
  5
2AED
102
{ACAD_XDICTIONARY
360
2AEE
102
}
330
1F
100
AcDbEntity
  8
SOLBET_Wymiary_Opisy @ 1
100
AcDbMText
 10
276.7281809186873
 20
134.4720875661264
 30
0.0
 40
2.5
 41
124.2624847080697
 71
     1
 72
     5
  1
12 cm minimalna d\U+0142ugo\U+015B\U+0107 bloczka\Pprzy zako\U+0144czeniu \U+015Bciany 
  7
Solbet_5
 73
     1
 44
1.0
1001
AcadAnnotative
1000
AnnotativeData
1002
{
1070
     1
1070
     0
1002
}
1001
ACAD
1000
MTEXTBEGIN
1070
    73
1070
     1
1070
    44
1040
1.0
1070
    74
1070
     0
1000
MTEXTEND
  0
LINE
  5
2B38
330
1F
100
AcDbEntity
  8
SOLBET_Wymiary_Opisy
100
AcDbLine
 10
276.2668368381731
 20
126.7624677184958
 30
0.0
 11
320.9773237724546
 21
126.7624677184958
 31
0.0
  0
SOLID
  5
2B3B
330
1F
100
AcDbEntity
  8
SOLBET_Wymiary_Opisy
100
AcDbTrace
 10
276.2668368381731
 20
127.1791343851625
 30
0.0
 11
276.2668368381731
 21
126.3458010518291
 31
0.0
 12
273.7668368381731
 22
126.7624677184958
 32
0.0
 13
273.7668368381731
 23
126.7624677184958
 33
0.0
  0
LEADER
  5
2B3D
330
1F
100
AcDbEntity
  8
SOLBET_Wymiary_Opisy
100
AcDbLeader
  3
Solbet$7
 73
     0
 74
     0
 75
     1
 40
3.5
 41
37.25
 76
     3
 10
212.3382229077236
 20
103.4518722762131
 30
0.0
 10
233.6046876146529
 20
115.4828762199346
 30
0.0
 10
236.1046876146529
 20
115.4828762199346
 30
0.0
213
1.177601578005123
223
-0.1753245211093599
233
0.0
1001
ACAD
1000
DSTYLE
1002
{
1070
   147
1040
0.625
1070
    77
1070
     1
1002
}
  0
MTEXT
  5
2B3E
102
{ACAD_XDICTIONARY
360
36E8
102
}
102
{ACAD_REACTORS
330
2B3D
102
}
330
1F
100
AcDbEntity
  8
SOLBET_Wymiary_Opisy
100
AcDbMText
 10
235.5520860366478
 20
119.783200741044
 30
0.0
 40
2.5
 41
0.0
 71
     1
 72
     1
  1
Bloczki doci\U+0119te do wysoko\U+015Bci strefy podokiennej
  7
Solbet_2_5
 73
     1
 44
1.0
1001
ACAD
1000
MTEXTBEGIN
1070
    73
1070
     1
1070
    44
1040
1.0
1070
    74
1070
     0
1000
MTEXTEND
  0
DIMENSION
  5
2B46
330
1F
100
AcDbEntity
  8
SOLBET_Wymiary_Opisy
100
AcDbDimension
  2
*D10
 10
192.766836838173
 20
93.30757363842954
 30
0.0
 11
180.266836838173
 21
95.18257363842954
 31
0.0
 70
    32
  1
50
 71
     5
 42
25.0
  3
Solbet
100
AcDbAlignedDimension
 13
167.766836838173
 23
99.9094009296407
 33
0.0
 14
192.766836838173
 24
99.9094009296407
 34
0.0
100
AcDbRotatedDimension
  0
DIMENSION
  5
2B5E
330
1F
100
AcDbEntity
  8
SOLBET_Wymiary_Opisy
100
AcDbDimension
  2
*D11
 10
292.7668368381731
 20
93.72238821074279
 30
0.0
 11
280.3884086018241
 21
93.72238821074279
 31
0.0
 70
   160
  1
50
 71
     5
 42
25.0
  3
Solbet
100
AcDbAlignedDimension
 13
267.7668368381731
 23
99.9094009296407
 33
0.0
 14
292.7668368381731
 24
99.9094009296407
 34
0.0
100
AcDbRotatedDimension
  0
MTEXT
  5
2BAC
102
{ACAD_XDICTIONARY
360
2BAD
102
}
330
1F
100
AcDbEntity
  8
SOLBET_Wymiary_Opisy @ 1
100
AcDbMText
 10
178.6085207171788
 20
92.81498482839911
 30
0.0
 40
5.0
 41
124.2624847080697
 71
     1
 72
     5
  1
{\L\P\H0.5x;\lZasi\U+0119g zbrojenia MURFOR}
  7
Solbet_5
 73
     1
 44
1.0
1001
AcadAnnotative
1000
AnnotativeData
1002
{
1070
     1
1070
     0
1002
}
1001
ACAD
1000
MTEXTBEGIN
1070
    73
1070
     1
1070
    44
1040
1.0
1070
    74
1070
     0
1000
MTEXTEND
  0
MTEXT
  5
2BB1
102
{ACAD_XDICTIONARY
360
2BB2
102
}
330
1F
100
AcDbEntity
  8
SOLBET_Wymiary_Opisy @ 1
100
AcDbMText
 10
178.6085207171788
 20
88.95359063909163
 30
0.0
 40
5.0
 41
124.2624847080697
 71
     1
 72
     5
  1
{\L\P\H0.5x;\l(minimalna d\U+0142ugo\U+015B\U+0107 zakotwienia)}
  7
Solbet_5
 73
     1
 44
1.0
1001
AcadAnnotative
1000
AnnotativeData
1002
{
1070
     1
1070
     0
1002
}
1001
ACAD
1000
MTEXTBEGIN
1070
    73
1070
     1
1070
    44
1040
1.0
1070
    74
1070
     0
1000
MTEXTEND
  0
LINE
  5
2D33
330
1F
100
AcDbEntity
  8
SOLBET_Bloczki
100
AcDbLine
 10
139.6484396594685
 20
68.15320598064475
 30
0.0
 11
139.6484396594685
 21
75.90940092964138
 31
0.0
  0
LINE
  5
2D34
330
1F
100
AcDbEntity
  8
SOLBET_Bloczki
100
AcDbLine
 10
139.6484396594685
 20
75.90940092964138
 30
0.0
 11
138.9523534611964
 21
75.90940092964139
 31
0.0
  0
LINE
  5
2D3D
330
1F
100
AcDbEntity
  8
SOLBET_Bloczki
100
AcDbLine
 10
138.9523534611964
 20
75.90940092906159
 30
0.0
 11
157.9735451442673
 21
75.90940092906158
 31
0.0
  0
LINE
  5
2D3E
330
1F
100
AcDbEntity
  8
SOLBET_Bloczki
100
AcDbLine
 10
157.811482443936
 20
75.90940092906158
 30
0.0
 11
157.811482443936
 21
87.90940092906158
 31
0.0
  0
LINE
  5
2D3F
330
1F
100
AcDbEntity
  8
SOLBET_Bloczki
100
AcDbLine
 10
157.9735451442673
 20
87.90940092906158
 30
0.0
 11
138.9523534611964
 21
87.9094009290616
 31
0.0
  0
LINE
  5
2D49
330
1F
100
AcDbEntity
  8
SOLBET_Bloczki
100
AcDbLine
 10
143.2235449173361
 20
87.90940092964069
 30
0.0
 11
143.2235449173361
 21
99.9094009296407
 31
0.0
  0
LINE
  5
2D4A
330
1F
100
AcDbEntity
  8
SOLBET_Bloczki
100
AcDbLine
 10
143.2235449173361
 20
99.9094009296407
 30
0.0
 11
138.9523534611964
 21
99.9094009296407
 31
0.0
  0
LINE
  5
2D54
330
1F
100
AcDbEntity
  8
SOLBET_Bloczki
100
AcDbLine
 10
157.266836838173
 20
135.9094009296414
 30
0.0
 11
157.266836838173
 21
147.9094009296414
 31
0.0
  0
LINE
  5
2D55
330
1F
100
AcDbEntity
  8
SOLBET_Bloczki
100
AcDbLine
 10
157.266836838173
 20
147.9094009296414
 30
0.0
 11
138.9523534611964
 21
147.9094009296414
 31
0.0
  0
LINE
  5
2D5E
330
1F
100
AcDbEntity
  8
SOLBET_Bloczki
100
AcDbLine
 10
138.9523534611964
 20
123.9094009290615
 30
0.0
 11
163.266836838173
 21
123.9094009290615
 31
0.0
  0
LINE
  5
2D5F
330
1F
100
AcDbEntity
  8
SOLBET_Bloczki
100
AcDbLine
 10
163.266836838173
 20
123.9094009290615
 30
0.0
 11
163.266836838173
 21
135.9094009290616
 31
0.0
  0
LINE
  5
2D60
330
1F
100
AcDbEntity
  8
SOLBET_Bloczki
100
AcDbLine
 10
163.266836838173
 20
135.9094009290616
 30
0.0
 11
138.9523534611964
 21
135.9094009290616
 31
0.0
  0
LINE
  5
2D6A
330
1F
100
AcDbEntity
  8
SOLBET_Bloczki
100
AcDbLine
 10
157.2668370651042
 20
111.9094009290616
 30
0.0
 11
157.2668370651042
 21
123.9094009290615
 31
0.0
  0
LINE
  5
2D6B
330
1F
100
AcDbEntity
  8
SOLBET_Bloczki
100
AcDbLine
 10
157.2668370651042
 20
123.9094009290615
 30
0.0
 11
138.9523534611964
 21
123.9094009290615
 31
0.0
  0
LINE
  5
2D74
330
1F
100
AcDbEntity
  8
SOLBET_Bloczki
100
AcDbLine
 10
138.9523534611964
 20
99.90940092964137
 30
0.0
 11
163.266836838173
 21
99.90940092964137
 31
0.0
  0
LINE
  5
2D75
330
1F
100
AcDbEntity
  8
SOLBET_Bloczki
100
AcDbLine
 10
163.266836838173
 20
99.90940092964137
 30
0.0
 11
163.266836838173
 21
111.9094009296414
 31
0.0
  0
LINE
  5
2D76
330
1F
100
AcDbEntity
  8
SOLBET_Bloczki
100
AcDbLine
 10
163.266836838173
 20
111.9094009296414
 30
0.0
 11
138.9523534611964
 21
111.9094009296414
 31
0.0
  0
LINE
  5
2D7F
330
1F
100
AcDbEntity
  8
SOLBET_Bloczki
100
AcDbLine
 10
138.9523534611964
 20
168.9094009296414
 30
0.0
 11
163.266836838173
 21
168.9094009296414
 31
0.0
  0
LINE
  5
2D80
330
1F
100
AcDbEntity
  8
SOLBET_Bloczki
100
AcDbLine
 10
163.266836838173
 20
168.9094009296414
 30
0.0
 11
163.266836838173
 21
180.9094009296414
 31
0.0
  0
LINE
  5
2D81
330
1F
100
AcDbEntity
  8
SOLBET_Bloczki
100
AcDbLine
 10
163.266836838173
 20
180.9094009296414
 30
0.0
 11
138.9523534611964
 21
180.9094009296414
 31
0.0
  0
LINE
  5
2D8A
330
1F
100
AcDbEntity
  8
SOLBET_Bloczki
100
AcDbLine
 10
138.9523534611964
 20
156.9094009296414
 30
0.0
 11
150.2034337322859
 21
156.9094009296414
 31
0.0
  0
LINE
  5
2D8B
330
1F
100
AcDbEntity
  8
SOLBET_Bloczki
100
AcDbLine
 10
150.2034337322859
 20
156.9094009296414
 30
0.0
 11
150.2034337322859
 21
168.9094009296414
 31
0.0
  0
LINE
  5
2D8C
330
1F
100
AcDbEntity
  8
SOLBET_Bloczki
100
AcDbLine
 10
150.2034337322859
 20
168.9094009296414
 30
0.0
 11
138.9523534611964
 21
168.9094009296414
 31
0.0
  0
LINE
  5
2D96
330
1F
100
AcDbEntity
  8
SOLBET_Bloczki
100
AcDbLine
 10
149.0910340046441
 20
240.9094009296414
 30
0.0
 11
149.0910340046441
 21
246.6250525303248
 31
0.0
  0
LINE
  5
2DA0
330
1F
100
AcDbEntity
  8
SOLBET_Bloczki
100
AcDbLine
 10
138.9523534611964
 20
228.9094009296414
 30
0.0
 11
160.4709675744718
 21
228.9094009296414
 31
0.0
  0
LINE
  5
2DA1
330
1F
100
AcDbEntity
  8
SOLBET_Bloczki
100
AcDbLine
 10
160.4709675744718
 20
228.9094009296414
 30
0.0
 11
160.4709675744718
 21
240.9094009296414
 31
0.0
  0
LINE
  5
2DA2
330
1F
100
AcDbEntity
  8
SOLBET_Bloczki
100
AcDbLine
 10
160.4709675744718
 20
240.9094009296414
 30
0.0
 11
138.9523534611964
 21
240.9094009296414
 31
0.0
  0
LINE
  5
2DAC
330
1F
100
AcDbEntity
  8
SOLBET_Bloczki
100
AcDbLine
 10
147.128976225433
 20
216.9094009290616
 30
0.0
 11
147.128976225433
 21
228.9094009290616
 31
0.0
  0
LINE
  5
2DAD
330
1F
100
AcDbEntity
  8
SOLBET_Bloczki
100
AcDbLine
 10
147.128976225433
 20
228.9094009290616
 30
0.0
 11
138.9523534611964
 21
228.9094009290616
 31
0.0
  0
LINE
  5
2DB6
330
1F
100
AcDbEntity
  8
SOLBET_Bloczki
100
AcDbLine
 10
138.9523534611964
 20
204.9094009290616
 30
0.0
 11
156.9392606801286
 21
204.9094009290616
 31
0.0
  0
LINE
  5
2DB7
330
1F
100
AcDbEntity
  8
SOLBET_Bloczki
100
AcDbLine
 10
156.9392606801286
 20
204.9094009290616
 30
0.0
 11
156.9392606801286
 21
216.9094009290616
 31
0.0
  0
LINE
  5
2DB8
330
1F
100
AcDbEntity
  8
SOLBET_Bloczki
100
AcDbLine
 10
156.9392606801286
 20
216.9094009290616
 30
0.0
 11
138.9523534611964
 21
216.9094009290616
 31
0.0
  0
LINE
  5
2DC1
330
1F
100
AcDbEntity
  8
SOLBET_Bloczki
100
AcDbLine
 10
138.9523534611964
 20
192.9094009296413
 30
0.0
 11
143.2235449173361
 21
192.9094009296413
 31
0.0
  0
LINE
  5
2DC2
330
1F
100
AcDbEntity
  8
SOLBET_Bloczki
100
AcDbLine
 10
143.2235449173361
 20
192.9094009296413
 30
0.0
 11
143.2235449173361
 21
204.9094009296414
 31
0.0
  0
LINE
  5
2DC3
330
1F
100
AcDbEntity
  8
SOLBET_Bloczki
100
AcDbLine
 10
143.2235449173361
 20
204.9094009296414
 30
0.0
 11
138.9523534611964
 21
204.9094009296414
 31
0.0
  0
LINE
  5
2DCC
330
1F
100
AcDbEntity
  8
SOLBET_Bloczki
100
AcDbLine
 10
320.2235451442673
 20
192.9094009296413
 30
0.0
 11
321.5813202151555
 21
192.9094009296413
 31
0.0
  0
LINE
  5
2DCE
330
1F
100
AcDbEntity
  8
SOLBET_Bloczki
100
AcDbLine
 10
321.5813202151555
 20
204.9094009296414
 30
0.0
 11
320.2235451442673
 21
204.9094009296414
 31
0.0
  0
LINE
  5
2DCF
330
1F
100
AcDbEntity
  8
SOLBET_Bloczki
100
AcDbLine
 10
320.2235451442673
 20
204.9094009296414
 30
0.0
 11
320.2235451442673
 21
192.9094009296413
 31
0.0
  0
LINE
  5
2DD7
330
1F
100
AcDbEntity
  8
SOLBET_Bloczki
100
AcDbLine
 10
304.4392609070599
 20
204.9094009290616
 30
0.0
 11
321.5813202151554
 21
204.9094009290616
 31
0.0
  0
LINE
  5
2DDA
330
1F
100
AcDbEntity
  8
SOLBET_Bloczki
100
AcDbLine
 10
304.4392609070599
 20
216.9094009290616
 30
0.0
 11
304.4392609070599
 21
204.9094009290616
 31
0.0
  0
LINE
  5
2DE2
330
1F
100
AcDbEntity
  8
SOLBET_Bloczki
100
AcDbLine
 10
307.9709675744719
 20
228.9094009290616
 30
0.0
 11
321.5813202151554
 21
228.9094009290616
 31
0.0
  0
LINE
  5
2DE4
330
1F
100
AcDbEntity
  8
SOLBET_Bloczki
100
AcDbLine
 10
321.5813202151555
 20
240.9094009290616
 30
0.0
 11
307.9709675744719
 21
240.9094009290616
 31
0.0
  0
LINE
  5
2DE5
330
1F
100
AcDbEntity
  8
SOLBET_Bloczki
100
AcDbLine
 10
307.9709675744719
 20
240.9094009290616
 30
0.0
 11
307.9709675744719
 21
228.9094009290616
 31
0.0
  0
LINE
  5
2DED
330
1F
100
AcDbEntity
  8
SOLBET_Bloczki
100
AcDbLine
 10
296.5910342315813
 20
240.9094009290616
 30
0.0
 11
321.5813202151554
 21
240.9094009290616
 31
0.0
  0
LINE
  5
2DF0
330
1F
100
AcDbEntity
  8
SOLBET_Bloczki
100
AcDbLine
 10
296.5910342315813
 20
246.6250525303248
 30
0.0
 11
296.5910342315813
 21
240.9094009290616
 31
0.0
  0
LINE
  5
2DF8
330
1F
100
AcDbEntity
  8
SOLBET_Bloczki
100
AcDbLine
 10
305.3114826708672
 20
75.90940092906158
 30
0.0
 11
321.5813202151555
 21
75.90940092906159
 31
0.0
  0
LINE
  5
2DFA
330
1F
100
AcDbEntity
  8
SOLBET_Bloczki
100
AcDbLine
 10
321.5813202151555
 20
87.9094009290616
 30
0.0
 11
305.3114826708672
 21
87.90940092906158
 31
0.0
  0
LINE
  5
2DFB
330
1F
100
AcDbEntity
  8
SOLBET_Bloczki
100
AcDbLine
 10
305.3114826708672
 20
87.90940092906158
 30
0.0
 11
305.3114826708672
 21
75.90940092906158
 31
0.0
  0
LINE
  5
2E03
330
1F
100
AcDbEntity
  8
SOLBET_Bloczki
100
AcDbLine
 10
320.2235453711985
 20
87.90940092906158
 30
0.0
 11
321.5813202151554
 21
87.90940092906154
 31
0.0
  0
LINE
  5
2E05
330
1F
100
AcDbEntity
  8
SOLBET_Bloczki
100
AcDbLine
 10
321.5813202151555
 20
99.90940092906157
 30
0.0
 11
320.2235453711985
 21
99.90940092906157
 31
0.0
  0
LINE
  5
2E06
330
1F
100
AcDbEntity
  8
SOLBET_Bloczki
100
AcDbLine
 10
320.2235453711985
 20
99.90940092906157
 30
0.0
 11
320.2235453711985
 21
87.90940092906158
 31
0.0
  0
LINE
  5
2E0E
330
1F
100
AcDbEntity
  8
SOLBET_Bloczki
100
AcDbLine
 10
303.2668370651042
 20
111.9094009290616
 30
0.0
 11
321.5813202151555
 21
111.9094009290616
 31
0.0
  0
LINE
  5
2E11
330
1F
100
AcDbEntity
  8
SOLBET_Bloczki
100
AcDbLine
 10
303.2668370651042
 20
123.9094009290615
 30
0.0
 11
303.2668370651042
 21
111.9094009290616
 31
0.0
  0
LINE
  5
2E19
330
1F
100
AcDbEntity
  8
SOLBET_Bloczki
100
AcDbLine
 10
303.2668372920355
 20
135.9094009290616
 30
0.0
 11
321.5813202151555
 21
135.9094009290616
 31
0.0
  0
LINE
  5
2E1B
330
1F
100
AcDbEntity
  8
SOLBET_Bloczki
100
AcDbLine
 10
321.5813202151555
 20
147.9094009290616
 30
0.0
 11
303.2668372920355
 21
147.9094009290616
 31
0.0
  0
LINE
  5
2E1C
330
1F
100
AcDbEntity
  8
SOLBET_Bloczki
100
AcDbLine
 10
303.2668372920355
 20
147.9094009290616
 30
0.0
 11
303.2668372920355
 21
135.9094009290616
 31
0.0
  0
LINE
  5
2E24
330
1F
100
AcDbEntity
  8
SOLBET_Bloczki
100
AcDbLine
 10
310.3302401709914
 20
156.9094009290616
 30
0.0
 11
321.5813202151554
 21
156.9094009290616
 31
0.0
  0
LINE
  5
2E26
330
1F
100
AcDbEntity
  8
SOLBET_Bloczki
100
AcDbLine
 10
321.5813202151554
 20
168.9094009290616
 30
0.0
 11
310.3302401709914
 21
168.9094009290615
 31
0.0
  0
LINE
  5
2E27
330
1F
100
AcDbEntity
  8
SOLBET_Bloczki
100
AcDbLine
 10
310.3302401709914
 20
168.9094009290615
 30
0.0
 11
310.3302401709914
 21
156.9094009290616
 31
0.0
  0
LINE
  5
2E28
330
1F
100
AcDbEntity
  8
SOLBET_Bloczki
100
AcDbLine
 10
138.9523534611964
 20
240.9094009296414
 30
0.0
 11
149.0910340046441
 21
240.9094009296414
 31
0.0
  0
LINE
  5
2E2A
330
1F
100
AcDbEntity
  8
SOLBET_Bloczki
100
AcDbLine
 10
138.9523534611964
 20
216.9094009290616
 30
0.0
 11
147.128976225433
 21
216.9094009290616
 31
0.0
  0
LINE
  5
2E2D
330
1F
100
AcDbEntity
  8
SOLBET_Bloczki
100
AcDbLine
 10
138.9523534611964
 20
135.9094009296414
 30
0.0
 11
157.266836838173
 21
135.9094009296414
 31
0.0
  0
LINE
  5
2E2F
330
1F
100
AcDbEntity
  8
SOLBET_Bloczki
100
AcDbLine
 10
138.9523534611964
 20
111.9094009290616
 30
0.0
 11
157.2668370651042
 21
111.9094009290616
 31
0.0
  0
LINE
  5
2E31
330
1F
100
AcDbEntity
  8
SOLBET_Bloczki
100
AcDbLine
 10
138.9523534611964
 20
87.90940092964069
 30
0.0
 11
143.2235449173361
 21
87.90940092964069
 31
0.0
  0
LINE
  5
2E4A
330
1F
100
AcDbEntity
  8
SOLBET_Bloczki
100
AcDbLine
 10
267.09103400465
 20
240.9094009296414
 30
0.0
 11
296.5910340046501
 21
240.9094009296414
 31
0.0
  0
LINE
  5
2E4B
330
1F
100
AcDbEntity
  8
SOLBET_Bloczki
100
AcDbLine
 10
296.5910340046501
 20
240.9094009296414
 30
0.0
 11
296.5910340046501
 21
246.6250525303248
 31
0.0
  0
LINE
  5
2E4D
330
1F
100
AcDbEntity
  8
SOLBET_Bloczki
100
AcDbLine
 10
267.09103400465
 20
246.6250525303248
 30
0.0
 11
267.09103400465
 21
240.9094009296414
 31
0.0
  0
LINE
  5
2E55
330
1F
100
AcDbEntity
  8
SOLBET_Bloczki
100
AcDbLine
 10
237.59103400465
 20
240.9094009296414
 30
0.0
 11
267.09103400465
 21
240.9094009296414
 31
0.0
  0
LINE
  5
2E56
330
1F
100
AcDbEntity
  8
SOLBET_Bloczki
100
AcDbLine
 10
267.09103400465
 20
240.9094009296414
 30
0.0
 11
267.09103400465
 21
246.6250525303248
 31
0.0
  0
LINE
  5
2E58
330
1F
100
AcDbEntity
  8
SOLBET_Bloczki
100
AcDbLine
 10
237.59103400465
 20
246.6250525303248
 30
0.0
 11
237.59103400465
 21
240.9094009296414
 31
0.0
  0
LINE
  5
2E60
330
1F
100
AcDbEntity
  8
SOLBET_Bloczki
100
AcDbLine
 10
208.0910340046441
 20
240.9094009296414
 30
0.0
 11
237.5910340046441
 21
240.9094009296414
 31
0.0
  0
LINE
  5
2E61
330
1F
100
AcDbEntity
  8
SOLBET_Bloczki
100
AcDbLine
 10
237.5910340046441
 20
240.9094009296414
 30
0.0
 11
237.5910340046441
 21
246.6250525303248
 31
0.0
  0
LINE
  5
2E63
330
1F
100
AcDbEntity
  8
SOLBET_Bloczki
100
AcDbLine
 10
208.0910340046441
 20
246.6250525303248
 30
0.0
 11
208.0910340046441
 21
240.9094009296414
 31
0.0
  0
LINE
  5
2E6B
330
1F
100
AcDbEntity
  8
SOLBET_Bloczki
100
AcDbLine
 10
178.59103400465
 20
240.9094009290616
 30
0.0
 11
208.09103400465
 21
240.9094009290616
 31
0.0
  0
LINE
  5
2E6C
330
1F
100
AcDbEntity
  8
SOLBET_Bloczki
100
AcDbLine
 10
208.09103400465
 20
240.9094009290616
 30
0.0
 11
208.09103400465
 21
246.6250525303248
 31
0.0
  0
LINE
  5
2E6E
330
1F
100
AcDbEntity
  8
SOLBET_Bloczki
100
AcDbLine
 10
178.59103400465
 20
246.6250525303248
 30
0.0
 11
178.59103400465
 21
240.9094009290616
 31
0.0
  0
LINE
  5
2E76
330
1F
100
AcDbEntity
  8
SOLBET_Bloczki
100
AcDbLine
 10
149.09103400465
 20
240.9094009296414
 30
0.0
 11
178.59103400465
 21
240.9094009296414
 31
0.0
  0
LINE
  5
2E77
330
1F
100
AcDbEntity
  8
SOLBET_Bloczki
100
AcDbLine
 10
178.59103400465
 20
240.9094009296414
 30
0.0
 11
178.59103400465
 21
246.6250525303248
 31
0.0
  0
LINE
  5
2E79
330
1F
100
AcDbEntity
  8
SOLBET_Bloczki
100
AcDbLine
 10
149.09103400465
 20
246.6250525303248
 30
0.0
 11
149.09103400465
 21
240.9094009296414
 31
0.0
  0
LINE
  5
2E7A
330
1F
100
AcDbEntity
  8
SOLBET_Bloczki
100
AcDbLine
 10
321.5813202151555
 20
216.9094009290617
 30
0.0
 11
304.4392609070599
 21
216.9094009290616
 31
0.0
  0
LINE
  5
2E82
330
1F
100
AcDbEntity
  8
SOLBET_Bloczki
100
AcDbLine
 10
294.6289764523642
 20
216.9094009290616
 30
0.0
 11
321.5813202151554
 21
216.9094009290616
 31
0.0
  0
LINE
  5
2E84
330
1F
100
AcDbEntity
  8
SOLBET_Bloczki
100
AcDbLine
 10
321.5813202151554
 20
228.9094009290616
 30
0.0
 11
294.6289764523642
 21
228.9094009290616
 31
0.0
  0
LINE
  5
2E85
330
1F
100
AcDbEntity
  8
SOLBET_Bloczki
100
AcDbLine
 10
294.6289764523642
 20
228.9094009290616
 30
0.0
 11
294.6289764523642
 21
216.9094009290616
 31
0.0
  0
LINE
  5
2E8D
330
1F
100
AcDbEntity
  8
SOLBET_Bloczki
100
AcDbLine
 10
297.2668370651042
 20
168.9094009284817
 30
0.0
 11
321.5813202151554
 21
168.9094009284817
 31
0.0
  0
LINE
  5
2E8F
330
1F
100
AcDbEntity
  8
SOLBET_Bloczki
100
AcDbLine
 10
321.5813202151554
 20
180.9094009284818
 30
0.0
 11
297.2668370651042
 21
180.9094009284818
 31
0.0
  0
LINE
  5
2E90
330
1F
100
AcDbEntity
  8
SOLBET_Bloczki
100
AcDbLine
 10
297.2668370651042
 20
180.9094009284818
 30
0.0
 11
297.2668370651042
 21
168.9094009284817
 31
0.0
  0
LINE
  5
2E91
330
1F
100
AcDbEntity
  8
SOLBET_Bloczki
100
AcDbLine
 10
321.5813202151555
 20
123.9094009290615
 30
0.0
 11
303.2668370651042
 21
123.9094009290615
 31
0.0
  0
LINE
  5
2E9B
330
1F
100
AcDbEntity
  8
SOLBET_Bloczki
100
AcDbLine
 10
297.2668370651042
 20
99.9094009290609
 30
0.0
 11
321.5813202151555
 21
99.9094009290609
 31
0.0
  0
LINE
  5
2E9D
330
1F
100
AcDbEntity
  8
SOLBET_Bloczki
100
AcDbLine
 10
321.5813202151555
 20
111.9094009290609
 30
0.0
 11
297.2668370651042
 21
111.9094009290609
 31
0.0
  0
LINE
  5
2E9E
330
1F
100
AcDbEntity
  8
SOLBET_Bloczki
100
AcDbLine
 10
297.2668370651042
 20
111.9094009290609
 30
0.0
 11
297.2668370651042
 21
99.9094009290609
 31
0.0
  0
LINE
  5
2EA6
330
1F
100
AcDbEntity
  8
SOLBET_Bloczki
100
AcDbLine
 10
297.2668372920355
 20
123.9094009290615
 30
0.0
 11
321.5813202151555
 21
123.9094009290615
 31
0.0
  0
LINE
  5
2EA8
330
1F
100
AcDbEntity
  8
SOLBET_Bloczki
100
AcDbLine
 10
321.5813202151555
 20
135.9094009290616
 30
0.0
 11
297.2668372920355
 21
135.9094009290616
 31
0.0
  0
LINE
  5
2EA9
330
1F
100
AcDbEntity
  8
SOLBET_Bloczki
100
AcDbLine
 10
297.2668372920355
 20
135.9094009290616
 30
0.0
 11
297.2668372920355
 21
123.9094009290615
 31
0.0
  0
LINE
  5
2ED7
330
1F
100
AcDbEntity
  8
SOLBET_Bloczki
100
AcDbLine
 10
179.7034341861483
 20
156.9094009284818
 30
0.0
 11
192.766836838173
 21
156.9094009284818
 31
0.0
  0
LINE
  5
2EDA
330
1F
100
AcDbEntity
  8
SOLBET_Bloczki
100
AcDbLine
 10
179.7034341861483
 20
168.9094009284817
 30
0.0
 11
179.7034341861483
 21
156.9094009284818
 31
0.0
  0
LINE
  5
2EE2
330
1F
100
AcDbEntity
  8
SOLBET_Bloczki
100
AcDbLine
 10
267.7668368381731
 20
156.9094009290616
 30
0.0
 11
280.8302401709914
 21
156.9094009290616
 31
0.0
  0
LINE
  5
2EE3
330
1F
100
AcDbEntity
  8
SOLBET_Bloczki
100
AcDbLine
 10
280.8302401709914
 20
156.9094009290616
 30
0.0
 11
280.8302401709914
 21
168.9094009290615
 31
0.0
  0
LINE
  5
2EE4
330
1F
100
AcDbEntity
  8
SOLBET_Bloczki
100
AcDbLine
 10
280.8302401709914
 20
168.9094009290615
 30
0.0
 11
267.7668368381731
 21
168.9094009290615
 31
0.0
  0
LINE
  5
2EE6
330
1F
100
AcDbEntity
  8
SOLBET_Bloczki
100
AcDbLine
 10
192.766836838173
 20
168.9094009284817
 30
0.0
 11
179.7034341861483
 21
168.9094009284817
 31
0.0
  0
LINE
  5
2EEF
330
1F
100
AcDbEntity
  8
SOLBET_Bloczki
100
AcDbLine
 10
186.7668372920354
 20
135.9094009290616
 30
0.0
 11
192.766836838173
 21
135.9094009290616
 31
0.0
  0
LINE
  5
2EF2
330
1F
100
AcDbEntity
  8
SOLBET_Bloczki
100
AcDbLine
 10
186.7668372920354
 20
147.9094009290616
 30
0.0
 11
186.7668372920354
 21
135.9094009290616
 31
0.0
  0
LINE
  5
2EFA
330
1F
100
AcDbEntity
  8
SOLBET_Bloczki
100
AcDbLine
 10
186.7668372920354
 20
111.9094009290616
 30
0.0
 11
192.766836838173
 21
111.9094009290616
 31
0.0
  0
LINE
  5
2EFD
330
1F
100
AcDbEntity
  8
SOLBET_Bloczki
100
AcDbLine
 10
186.7668372920354
 20
123.9094009290615
 30
0.0
 11
186.7668372920354
 21
111.9094009290616
 31
0.0
  0
LINE
  5
2EFE
330
1F
100
AcDbEntity
  8
SOLBET_Bloczki
100
AcDbLine
 10
192.766836838173
 20
147.9094009290616
 30
0.0
 11
186.7668372920354
 21
147.9094009290616
 31
0.0
  0
LINE
  5
2F00
330
1F
100
AcDbEntity
  8
SOLBET_Bloczki
100
AcDbLine
 10
192.766836838173
 20
123.9094009290615
 30
0.0
 11
186.7668372920354
 21
123.9094009290615
 31
0.0
  0
LINE
  5
2F11
330
1F
100
AcDbEntity
  8
SOLBET_Bloczki
100
AcDbLine
 10
321.5813202151555
 20
75.90940092906159
 30
0.0
 11
316.6484396594685
 21
75.90940092906158
 31
0.0
  0
LINE
  5
2F12
330
1F
100
AcDbEntity
  8
SOLBET_Bloczki
100
AcDbLine
 10
316.6484396594685
 20
75.90940092906158
 30
0.0
 11
316.6484396594685
 21
68.15320598064475
 31
0.0
  0
LINE
  5
2F1A
330
1F
100
AcDbEntity
  8
SOLBET_Bloczki
100
AcDbLine
 10
267.7668368381731
 20
135.9094009290616
 30
0.0
 11
273.7668370651042
 21
135.9094009290616
 31
0.0
  0
LINE
  5
2F1B
330
1F
100
AcDbEntity
  8
SOLBET_Bloczki
100
AcDbLine
 10
273.7668370651042
 20
135.9094009290616
 30
0.0
 11
273.7668370651042
 21
147.9094009290616
 31
0.0
  0
LINE
  5
2F1C
330
1F
100
AcDbEntity
  8
SOLBET_Bloczki
100
AcDbLine
 10
273.7668370651042
 20
147.9094009290616
 30
0.0
 11
267.7668368381731
 21
147.9094009290616
 31
0.0
  0
LINE
  5
2F2B
330
1F
100
AcDbEntity
  8
SOLBET_Bloczki
100
AcDbLine
 10
168.4523539150589
 20
147.9094009284817
 30
0.0
 11
192.766836838173
 21
147.9094009284817
 31
0.0
  0
LINE
  5
2F2E
330
1F
100
AcDbEntity
  8
SOLBET_Bloczki
100
AcDbLine
 10
168.4523539150589
 20
150.1294221360533
 30
0.0
 11
168.4523539150589
 21
147.9094009284817
 31
0.0
  0
LINE
  5
2F36
330
1F
100
AcDbEntity
  8
SOLBET_Bloczki
100
AcDbLine
 10
138.9523536881277
 20
147.9094009290616
 30
0.0
 11
168.4523536881277
 21
147.9094009290616
 31
0.0
  0
LINE
  5
2F37
330
1F
100
AcDbEntity
  8
SOLBET_Bloczki
100
AcDbLine
 10
168.4523536881277
 20
147.9094009290616
 30
0.0
 11
168.4523536881277
 21
150.1294221360533
 31
0.0
  0
LINE
  5
2F47
330
1F
100
AcDbEntity
  8
SOLBET_Bloczki
100
AcDbLine
 10
297.2668372920355
 20
147.9094009284817
 30
0.0
 11
321.5813202151555
 21
147.9094009290616
 31
0.0
  0
LINE
  5
2F4A
330
1F
100
AcDbEntity
  8
SOLBET_Bloczki
100
AcDbLine
 10
297.2668372920355
 20
150.1294221360533
 30
0.0
 11
297.2668372920355
 21
147.9094009284817
 31
0.0
  0
LINE
  5
2F52
330
1F
100
AcDbEntity
  8
SOLBET_Bloczki
100
AcDbLine
 10
267.7668370651042
 20
147.9094009279019
 30
0.0
 11
297.2668370651042
 21
147.9094009279019
 31
0.0
  0
LINE
  5
2F70
330
1F
100
AcDbEntity
  8
SOLBET_Bloczki
100
AcDbLine
 10
192.766836838173
 20
156.9094009284818
 30
0.0
 11
163.266836838173
 21
156.9094009284818
 31
0.0
  0
LINE
  5
2F71
330
1F
100
AcDbEntity
  8
SOLBET_Bloczki
100
AcDbLine
 10
163.266836838173
 20
156.9094009284818
 30
0.0
 11
163.266836838173
 21
152.5712977506189
 31
0.0
  0
LINE
  5
2F73
330
1F
100
AcDbEntity
  8
SOLBET_Bloczki
100
AcDbLine
 10
163.266836838173
 20
156.9094009284818
 30
0.0
 11
138.9523534611964
 21
156.9094009284818
 31
0.0
  0
LINE
  5
2F77
330
1F
100
AcDbEntity
  8
SOLBET_Bloczki
100
AcDbLine
 10
297.266836838173
 20
156.9094009290616
 30
0.0
 11
267.7668368381731
 21
156.9094009290616
 31
0.0
  0
LINE
  5
2F7B
330
1F
100
AcDbEntity
  8
SOLBET_Bloczki
100
AcDbLine
 10
321.5813202151554
 20
156.9094009290616
 30
0.0
 11
297.266836838173
 21
156.9094009290616
 31
0.0
  0
LINE
  5
2F7C
330
1F
100
AcDbEntity
  8
SOLBET_Bloczki
100
AcDbLine
 10
297.266836838173
 20
156.9094009290616
 30
0.0
 11
297.266836838173
 21
152.5712977506189
 31
0.0
  0
LINE
  5
2F85
330
1F
100
AcDbEntity
  8
SOLBET_Bloczki
100
AcDbLine
 10
316.6484396594685
 20
68.15320598064475
 30
0.0
 11
316.6484396594685
 21
75.90940092906158
 31
0.0
  0
LINE
  5
2F86
330
1F
100
AcDbEntity
  8
SOLBET_Bloczki
100
AcDbLine
 10
316.6484396594685
 20
75.90940092906158
 30
0.0
 11
287.1484396594685
 21
75.90940092906158
 31
0.0
  0
LINE
  5
2F87
330
1F
100
AcDbEntity
  8
SOLBET_Bloczki
100
AcDbLine
 10
287.1484396594685
 20
75.90940092906158
 30
0.0
 11
287.1484396594685
 21
68.15320598064475
 31
0.0
  0
LINE
  5
2F90
330
1F
100
AcDbEntity
  8
SOLBET_Bloczki
100
AcDbLine
 10
287.1484396594685
 20
68.15320598064475
 30
0.0
 11
287.1484396594685
 21
75.90940092906158
 31
0.0
  0
LINE
  5
2F91
330
1F
100
AcDbEntity
  8
SOLBET_Bloczki
100
AcDbLine
 10
287.1484396594685
 20
75.90940092906158
 30
0.0
 11
257.6484396594685
 21
75.90940092906158
 31
0.0
  0
LINE
  5
2F92
330
1F
100
AcDbEntity
  8
SOLBET_Bloczki
100
AcDbLine
 10
257.6484396594685
 20
75.90940092906158
 30
0.0
 11
257.6484396594685
 21
68.15320598064475
 31
0.0
  0
LINE
  5
2F9B
330
1F
100
AcDbEntity
  8
SOLBET_Bloczki
100
AcDbLine
 10
257.6484396594626
 20
68.15320598064475
 30
0.0
 11
257.6484396594626
 21
75.90940092906158
 31
0.0
  0
LINE
  5
2F9C
330
1F
100
AcDbEntity
  8
SOLBET_Bloczki
100
AcDbLine
 10
257.6484396594626
 20
75.90940092906158
 30
0.0
 11
228.1484396594626
 21
75.90940092906158
 31
0.0
  0
LINE
  5
2F9D
330
1F
100
AcDbEntity
  8
SOLBET_Bloczki
100
AcDbLine
 10
228.1484396594626
 20
75.90940092906158
 30
0.0
 11
228.1484396594626
 21
68.15320598064475
 31
0.0
  0
LINE
  5
2FA6
330
1F
100
AcDbEntity
  8
SOLBET_Bloczki
100
AcDbLine
 10
228.1484396594685
 20
68.15320598064475
 30
0.0
 11
228.1484396594685
 21
75.90940092848177
 31
0.0
  0
LINE
  5
2FA7
330
1F
100
AcDbEntity
  8
SOLBET_Bloczki
100
AcDbLine
 10
228.1484396594685
 20
75.90940092848177
 30
0.0
 11
198.6484396594685
 21
75.90940092848177
 31
0.0
  0
LINE
  5
2FA8
330
1F
100
AcDbEntity
  8
SOLBET_Bloczki
100
AcDbLine
 10
198.6484396594685
 20
75.90940092848177
 30
0.0
 11
198.6484396594685
 21
68.15320598064475
 31
0.0
  0
LINE
  5
2FB1
330
1F
100
AcDbEntity
  8
SOLBET_Bloczki
100
AcDbLine
 10
198.6484396594685
 20
68.15320598064475
 30
0.0
 11
198.6484396594685
 21
75.90940092964138
 31
0.0
  0
LINE
  5
2FB2
330
1F
100
AcDbEntity
  8
SOLBET_Bloczki
100
AcDbLine
 10
198.6484396594685
 20
75.90940092964138
 30
0.0
 11
169.1484396594685
 21
75.90940092964138
 31
0.0
  0
LINE
  5
2FB3
330
1F
100
AcDbEntity
  8
SOLBET_Bloczki
100
AcDbLine
 10
169.1484396594685
 20
75.90940092964138
 30
0.0
 11
169.1484396594685
 21
68.15320598064475
 31
0.0
  0
LINE
  5
2FBC
330
1F
100
AcDbEntity
  8
SOLBET_Bloczki
100
AcDbLine
 10
169.1484396594685
 20
68.15320598064475
 30
0.0
 11
169.1484396594685
 21
75.90940092964138
 31
0.0
  0
LINE
  5
2FBD
330
1F
100
AcDbEntity
  8
SOLBET_Bloczki
100
AcDbLine
 10
169.1484396594685
 20
75.90940092964138
 30
0.0
 11
139.6484396594685
 21
75.90940092964138
 31
0.0
  0
LINE
  5
2FBE
330
1F
100
AcDbEntity
  8
SOLBET_Bloczki
100
AcDbLine
 10
139.6484396594685
 20
75.90940092964138
 30
0.0
 11
139.6484396594685
 21
68.15320598064475
 31
0.0
  0
LINE
  5
3006
330
1F
100
AcDbEntity
  8
SOLBET_Bloczki
100
AcDbLine
 10
320.2235447699934
 20
26.01151355279355
 30
0.0
 11
321.5813202151555
 21
26.01151355125216
 31
0.0
  0
LINE
  5
3008
330
1F
100
AcDbEntity
  8
SOLBET_Bloczki
100
AcDbLine
 10
321.5813202151554
 20
47.01151355279366
 30
0.0
 11
320.2235447699934
 21
47.01151355279366
 31
0.0
  0
LINE
  5
3009
330
1F
100
AcDbEntity
  8
SOLBET_Bloczki
100
AcDbLine
 10
320.2235447699934
 20
47.01151355279366
 30
0.0
 11
320.2235448445988
 21
26.01151351930436
 31
0.0
  0
LINE
  5
3011
330
1F
100
AcDbEntity
  8
SOLBET_Bloczki
100
AcDbLine
 10
138.9523534611964
 20
26.01151343212989
 30
0.0
 11
143.2235449919412
 21
26.01151342728112
 31
0.0
  0
LINE
  5
3012
330
1F
100
AcDbEntity
  8
SOLBET_Bloczki
100
AcDbLine
 10
143.2235449919412
 20
26.01151342728112
 30
0.0
 11
143.2235449173361
 21
47.01151346077041
 31
0.0
  0
LINE
  5
3013
330
1F
100
AcDbEntity
  8
SOLBET_Bloczki
100
AcDbLine
 10
143.2235449173361
 20
47.01151346077041
 30
0.0
 11
138.9523534611964
 21
47.01151346077041
 31
0.0
  0
LINE
  5
30D5
330
1F
100
AcDbEntity
  8
SOLBET_Bloczki
100
AcDbLine
 10
192.7668366926985
 20
99.9094011046634
 30
0.0
 11
222.2668366926985
 21
99.9094011046634
 31
0.0
  0
LINE
  5
30D6
330
1F
100
AcDbEntity
  8
SOLBET_Bloczki
100
AcDbLine
 10
222.2668366926985
 20
99.9094011046634
 30
0.0
 11
222.2668366926985
 21
106.9094009296414
 31
0.0
  0
LINE
  5
30D8
330
1F
100
AcDbEntity
  8
SOLBET_Bloczki
100
AcDbLine
 10
192.7668366926985
 20
111.9094011046634
 30
0.0
 11
192.7668366926985
 21
99.9094011046634
 31
0.0
  0
LINE
  5
30E0
330
1F
100
AcDbEntity
  8
SOLBET_Bloczki
100
AcDbLine
 10
238.2668370651042
 20
99.90940092906157
 30
0.0
 11
267.7668370651042
 21
99.90940092906157
 31
0.0
  0
LINE
  5
30E1
330
1F
100
AcDbEntity
  8
SOLBET_Bloczki
100
AcDbLine
 10
267.7668370651042
 20
99.90940092906157
 30
0.0
 11
267.7668370651042
 21
106.9094009296414
 31
0.0
  0
LINE
  5
30E3
330
1F
100
AcDbEntity
  8
SOLBET_Bloczki
100
AcDbLine
 10
238.2668370651042
 20
106.9094009296414
 30
0.0
 11
238.2668370651042
 21
99.90940092906157
 31
0.0
  0
LINE
  5
30EB
330
1F
100
AcDbEntity
  8
SOLBET_Bloczki
100
AcDbLine
 10
267.7668368381731
 20
111.9094009290616
 30
0.0
 11
273.7668370651042
 21
111.9094009290616
 31
0.0
  0
LINE
  5
30EC
330
1F
100
AcDbEntity
  8
SOLBET_Bloczki
100
AcDbLine
 10
273.7668370651042
 20
111.9094009290616
 30
0.0
 11
273.7668370651042
 21
123.9094009290615
 31
0.0
  0
LINE
  5
30ED
330
1F
100
AcDbEntity
  8
SOLBET_Bloczki
100
AcDbLine
 10
273.7668370651042
 20
123.9094009290615
 30
0.0
 11
267.7668368381731
 21
123.9094009290615
 31
0.0
  0
LINE
  5
30EE
330
1F
100
AcDbEntity
  8
SOLBET_Bloczki
100
AcDbLine
 10
244.2668370651045
 20
115.5025721252908
 30
0.0
 11
244.2668370651044
 21
115.4498674077107
 31
0.0
  0
LINE
  5
30EF
330
1F
100
AcDbEntity
  8
SOLBET_Zbrojenie_Konstrukcja
370
    30
100
AcDbLine
 10
167.7691925564165
 20
99.90940098817532
 30
0.0
 11
292.7668368381731
 21
99.90940092907502
 31
0.0
  0
MTEXT
  5
30F0
102
{ACAD_XDICTIONARY
360
30F1
102
}
330
1F
100
AcDbEntity
  8
SOLBET_Wymiary_Opisy @ 1
100
AcDbMText
 10
22.97196988284213
 20
286.926016673141
 30
0.0
 40
5.0
 41
124.2624847080697
 71
     1
 72
     5
  1
{\LDETAL 51\P}Dozbrojenie strefy podokiennej
  7
Solbet_5
 73
     1
 44
1.0
1001
AcadAnnotative
1000
AnnotativeData
1002
{
1070
     1
1070
     0
1002
}
1001
ACAD
1000
MTEXTBEGIN
1070
    73
1070
     1
1070
    44
1040
1.0
1070
    74
1070
     0
1000
MTEXTEND
  0
LWPOLYLINE
  5
30F5
330
1F
100
AcDbEntity
  8
SOLBET_Ramka_05
100
AcDbPolyline
 90
        4
 70
     1
 43
0.0
 10
0.0
 20
0.0
 10
334.35177409209
 20
0.0
 10
334.35177409209
 20
297.0
 10
0.0
 20
297.0
  0
INSERT
  5
3131
330
1F
100
AcDbEntity
  8
SOLBET_Izolacja
100
AcDbBlockReference
  2
SOLBET_Nadproze_200_18_2000x240x180_PRZ
 10
180.266836838173
 20
180.9094009296413
 30
0.0
  0
LINE
  5
3190
330
1F
100
AcDbEntity
  8
SOLBET_Bloczki
100
AcDbLine
 10
267.7668372920355
 20
123.9094009290615
 30
0.0
 11
297.2668372920355
 21
123.9094009290615
 31
0.0
  0
LINE
  5
3191
330
1F
100
AcDbEntity
  8
SOLBET_Bloczki
100
AcDbLine
 10
297.2668372920355
 20
123.9094009290615
 30
0.0
 11
297.2668372920355
 21
135.9094009290616
 31
0.0
  0
LINE
  5
3192
330
1F
100
AcDbEntity
  8
SOLBET_Bloczki
100
AcDbLine
 10
297.2668372920355
 20
135.9094009290616
 30
0.0
 11
267.7668372920355
 21
135.9094009290616
 31
0.0
  0
LINE
  5
31A1
330
1F
100
AcDbEntity
  8
SOLBET_Bloczki
100
AcDbLine
 10
163.2668367654357
 20
123.9094009875955
 30
0.0
 11
192.7668367654357
 21
123.9094009875955
 31
0.0
  0
LINE
  5
31A4
330
1F
100
AcDbEntity
  8
SOLBET_Bloczki
100
AcDbLine
 10
163.2668367654357
 20
135.9094009875955
 30
0.0
 11
163.2668367654357
 21
123.9094009875955
 31
0.0
  0
LINE
  5
31AC
330
1F
100
AcDbEntity
  8
SOLBET_Bloczki
100
AcDbLine
 10
163.2668367654357
 20
168.9094009881753
 30
0.0
 11
192.7668367654357
 21
168.9094009881753
 31
0.0
  0
LINE
  5
31AE
330
1F
100
AcDbEntity
  8
SOLBET_Bloczki
100
AcDbLine
 10
192.7668367654357
 20
180.9094009881753
 30
0.0
 11
163.2668367654357
 21
180.9094009881753
 31
0.0
  0
LINE
  5
31AF
330
1F
100
AcDbEntity
  8
SOLBET_Bloczki
100
AcDbLine
 10
163.2668367654357
 20
180.9094009881753
 30
0.0
 11
163.2668367654357
 21
168.9094009881753
 31
0.0
  0
LINE
  5
31B8
330
1F
100
AcDbEntity
  8
SOLBET_Bloczki
100
AcDbLine
 10
297.2668367654358
 20
168.9094009875955
 30
0.0
 11
297.2668367654358
 21
180.9094009875955
 31
0.0
  0
LINE
  5
31B9
330
1F
100
AcDbEntity
  8
SOLBET_Bloczki
100
AcDbLine
 10
297.2668367654358
 20
180.9094009875955
 30
0.0
 11
267.7668367654358
 21
180.9094009875955
 31
0.0
  0
LINE
  5
31C2
330
1F
100
AcDbEntity
  8
SOLBET_Bloczki
100
AcDbLine
 10
47.23650594920082
 20
75.9094009296407
 30
0.0
 11
47.23650594920082
 21
68.15320598064477
 31
0.0
  0
LINE
  5
31C3
330
1F
100
AcDbEntity
  8
SOLBET_Bloczki
100
AcDbLine
 10
68.23650608995013
 20
75.90940113378906
 30
0.0
 11
68.23650608995013
 21
68.15320598064477
 31
0.0
  0
LINE
  5
32C8
330
1F
100
AcDbEntity
  8
SOLBET_Bloczki
100
AcDbLine
 10
216.811482443936
 20
75.90940092906158
 30
0.0
 11
246.311482443936
 21
75.90940092906158
 31
0.0
  0
LINE
  5
32C9
330
1F
100
AcDbEntity
  8
SOLBET_Bloczki
100
AcDbLine
 10
246.311482443936
 20
75.90940092906158
 30
0.0
 11
246.311482443936
 21
87.90940092906158
 31
0.0
  0
LINE
  5
32CA
330
1F
100
AcDbEntity
  8
SOLBET_Bloczki
100
AcDbLine
 10
246.311482443936
 20
87.90940092906158
 30
0.0
 11
216.811482443936
 21
87.90940092906158
 31
0.0
  0
LINE
  5
32CB
330
1F
100
AcDbEntity
  8
SOLBET_Bloczki
100
AcDbLine
 10
216.811482443936
 20
87.90940092906158
 30
0.0
 11
216.811482443936
 21
75.90940092906158
 31
0.0
  0
LINE
  5
3319
330
1F
100
AcDbEntity
  8
SOLBET_Bloczki
100
AcDbLine
 10
273.7668370651042
 20
111.9094008705276
 30
0.0
 11
303.2668370651042
 21
111.9094008705276
 31
0.0
  0
LINE
  5
331A
330
1F
100
AcDbEntity
  8
SOLBET_Bloczki
100
AcDbLine
 10
303.2668370651042
 20
111.9094008705276
 30
0.0
 11
303.2668370651042
 21
123.9094008705275
 31
0.0
  0
LINE
  5
331B
330
1F
100
AcDbEntity
  8
SOLBET_Bloczki
100
AcDbLine
 10
303.2668370651042
 20
123.9094008705275
 30
0.0
 11
273.7668370651042
 21
123.9094008705275
 31
0.0
  0
LINE
  5
331C
330
1F
100
AcDbEntity
  8
SOLBET_Bloczki
100
AcDbLine
 10
273.7668370651042
 20
123.9094008705275
 30
0.0
 11
273.7668370651042
 21
111.9094008705276
 31
0.0
  0
LINE
  5
331D
330
1F
100
AcDbEntity
  8
SOLBET_Wymiary_Opisy
100
AcDbLine
 10
273.9796876146529
 20
115.4828762199346
 30
0.0
 11
309.3358221734369
 21
115.4828762199346
 31
0.0
  0
POINT
  5
335B
330
1F
100
AcDbEntity
  8
SOLBET_Bloczki
100
AcDbPoint
 10
0.0
 20
0.0
 30
0.0
  0
LINE
  5
337F
330
1F
100
AcDbEntity
  8
SOLBET_Wymiary_Opisy
100
AcDbLine
 10
176.9406685649176
 20
77.1202573057583
 30
0.0
 11
176.9406685649176
 21
95.08325581751511
 31
0.0
  0
LINE
  5
33D1
330
1F
100
AcDbEntity
  8
SOLBET_Wymiary_Opisy
 62
     1
100
AcDbLine
 10
128.7354274251038
 20
150.1294221360562
 30
0.0
 11
128.7354274251038
 21
107.2377308449792
 31
0.0
  0
MTEXT
  5
33E1
330
1F
100
AcDbEntity
  8
SOLBET_Wymiary_Opisy
100
AcDbMText
 10
235.3337242025234
 20
261.3518423414777
 30
0.0
 40
5.0
 41
0.0
 71
     3
 72
     1
  1
A
  7
Solbet_5
 73
     1
 44
1.0
1001
ACAD
1000
MTEXTBEGIN
1070
    73
1070
     1
1070
    44
1040
1.0
1070
    74
1070
     0
1000
MTEXTEND
  0
LINE
  5
33E2
330
1F
100
AcDbEntity
  8
SOLBET_Wymiary_Opisy
370
    35
100
AcDbLine
 10
228.4330345334972
 20
258.3576914010391
 30
0.0
 11
228.4330345334972
 21
247.8186712255872
 31
0.0
  0
LINE
  5
33E3
330
1F
100
AcDbEntity
  8
SOLBET_Wymiary_Opisy
100
AcDbLine
 10
231.1723639107905
 20
255.2260007407862
 30
0.0
 11
235.8477176689223
 21
255.2260007407862
 31
0.0
  0
SOLID
  5
33E4
330
1F
100
AcDbEntity
  8
SOLBET_Wymiary_Opisy
100
AcDbTrace
 10
231.1723639107905
 20
254.8093340741195
 30
0.0
 11
231.1723639107905
 21
255.6426674074528
 31
0.0
 12
228.6723639107905
 22
255.2260007407862
 32
0.0
 13
228.6723639107905
 23
255.2260007407862
 33
0.0
  0
MTEXT
  5
33E5
330
1F
100
AcDbEntity
  8
SOLBET_Wymiary_Opisy
100
AcDbMText
 10
58.81756346902625
 20
262.0475583667236
 30
0.0
 40
5.0
 41
0.0
 71
     3
 72
     1
  1
A-A
  7
Solbet_5
 73
     1
 44
1.0
1001
ACAD
1000
MTEXTBEGIN
1070
    73
1070
     1
1070
    44
1040
1.0
1070
    74
1070
     0
1000
MTEXTEND
  0
MTEXT
  5
33F0
330
1F
100
AcDbEntity
  8
SOLBET_Wymiary_Opisy
100
AcDbMText
 10
235.2248711943951
 20
60.05393344705272
 30
0.0
 40
5.0
 41
0.0
 71
     3
 72
     1
  1
A
  7
Solbet_5
 73
     1
 44
1.0
1001
ACAD
1000
MTEXTBEGIN
1070
    73
1070
     1
1070
    44
1040
1.0
1070
    74
1070
     0
1000
MTEXTEND
  0
LINE
  5
33F1
330
1F
100
AcDbEntity
  8
SOLBET_Wymiary_Opisy
370
    35
100
AcDbLine
 10
228.2126175693563
 20
66.61886820196059
 30
0.0
 11
228.2126175693563
 21
56.07984802650867
 31
0.0
  0
LINE
  5
33F2
330
1F
100
AcDbEntity
  8
SOLBET_Wymiary_Opisy
100
AcDbLine
 10
231.0635109026622
 20
60.89673075939322
 30
0.0
 11
235.738864660794
 21
60.89673075939322
 31
0.0
  0
SOLID
  5
33F3
330
1F
100
AcDbEntity
  8
SOLBET_Wymiary_Opisy
100
AcDbTrace
 10
231.0635109026622
 20
60.48006409272659
 30
0.0
 11
231.0635109026622
 21
61.31339742605985
 31
0.0
 12
228.5635109026622
 22
60.89673075939322
 32
0.0
 13
228.5635109026622
 23
60.89673075939322
 33
0.0
  0
MTEXT
  5
3403
330
1F
100
AcDbEntity
  8
SOLBET_Wymiary_Opisy
100
AcDbMText
 10
130.8381843046093
 20
105.5710641783125
 30
0.0
 40
5.0
 41
0.0
 71
     3
 72
     1
  1
B
  7
Solbet_5
 73
     1
 44
1.0
1001
ACAD
1000
MTEXTBEGIN
1070
    73
1070
     1
1070
    44
1040
1.0
1070
    74
1070
     0
1000
MTEXTEND
  0
LINE
  5
3404
330
1F
100
AcDbEntity
  8
SOLBET_Wymiary_Opisy
370
    35
100
AcDbLine
 10
125.7792719180581
 20
99.9094009296407
 30
0.0
 11
136.31829209351
 21
99.9094009296407
 31
0.0
  0
LINE
  5
3405
330
1F
100
AcDbEntity
  8
SOLBET_Wymiary_Opisy
100
AcDbLine
 10
131.4682346131296
 20
102.8277258803383
 30
0.0
 11
131.4682346131296
 21
106.3205640389532
 31
0.0
  0
SOLID
  5
3406
330
1F
100
AcDbEntity
  8
SOLBET_Wymiary_Opisy
100
AcDbTrace
 10
131.8849012797963
 20
102.8277258803383
 30
0.0
 11
131.051567946463
 21
102.8277258803383
 31
0.0
 12
131.4682346131296
 22
100.3277258803383
 32
0.0
 13
131.4682346131296
 23
100.3277258803383
 33
0.0
  0
MTEXT
  5
3407
330
1F
100
AcDbEntity
  8
SOLBET_Wymiary_Opisy
100
AcDbMText
 10
156.273755676081
 20
61.6540934412052
 30
0.0
 40
5.0
 41
0.0
 71
     3
 72
     1
  1
B-B
  7
Solbet_5
 73
     1
 44
1.0
1001
ACAD
1000
MTEXTBEGIN
1070
    73
1070
     1
1070
    44
1040
1.0
1070
    74
1070
     0
1000
MTEXTEND
  0
MTEXT
  5
3408
330
1F
100
AcDbEntity
  8
SOLBET_Wymiary_Opisy
100
AcDbMText
 10
332.6706214805727
 20
105.5710641777327
 30
0.0
 40
5.0
 41
0.0
 71
     3
 72
     1
  1
B
  7
Solbet_5
 73
     1
 44
1.0
1001
ACAD
1000
MTEXTBEGIN
1070
    73
1070
     1
1070
    44
1040
1.0
1070
    74
1070
     0
1000
MTEXTEND
  0
LINE
  5
3409
330
1F
100
AcDbEntity
  8
SOLBET_Wymiary_Opisy
370
    35
100
AcDbLine
 10
322.6644810250318
 20
99.9094009290609
 30
0.0
 11
333.2035012004837
 21
99.9094009290609
 31
0.0
  0
LINE
  5
340A
330
1F
100
AcDbEntity
  8
SOLBET_Wymiary_Opisy
100
AcDbLine
 10
328.0390588194421
 20
102.8952164813315
 30
0.0
 11
328.0390588194421
 21
106.3880546399464
 31
0.0
  0
SOLID
  5
340B
330
1F
100
AcDbEntity
  8
SOLBET_Wymiary_Opisy
100
AcDbTrace
 10
327.6223921527754
 20
102.8952164813315
 30
0.0
 11
328.4557254861087
 21
102.8952164813315
 31
0.0
 12
328.0390588194421
 22
100.3952164813315
 32
0.0
 13
328.0390588194421
 23
100.3952164813315
 33
0.0
  0
LINE
  5
340E
330
1F
100
AcDbEntity
  8
SOLBET_Wymiary_Opisy
 62
     1
100
AcDbLine
 10
128.7354274251038
 20
96.18341551285073
 30
0.0
 11
128.7354274251038
 21
68.15320598064914
 31
0.0
  0
LINE
  5
3438
330
1F
100
AcDbEntity
  8
SOLBET_Zbrojenie_Konstrukcja
100
AcDbLine
 10
54.44699499128091
 20
217.1061918014538
 30
0.0
 11
64.22539178929901
 21
217.1061918014482
 31
0.0
  0
HATCH
  5
3455
330
1F
100
AcDbEntity
  8
SOLBET_Zbrojenie_Konstrukcja
100
AcDbHatch
 10
0.0
 20
0.0
 30
0.0
210
0.0
220
0.0
230
1.0
  2
SOLID
 70
     1
 71
     1
 91
        2
 92
        1
 93
       16
 72
     2
 10
64.50440872445162
 20
217.2088546806143
 40
0.1527030440125176
 50
52.48051708846642
 51
72.35615760546181
 73
     0
 72
     2
 10
64.45121674900416
 20
217.376092919103
 40
0.3281966754205963
 50
72.35615760333033
 51
82.49477826888631
 73
     0
 72
     2
 10
64.41594876316222
 20
217.6437913392955
 40
0.5982082955389672
 50
82.49477826928893
 51
90.00000000038381
 73
     0
 72
     2
 10
64.4159487631602
 20
217.6437913392068
 40
0.5982082954502062
 50
90.00000000019053
 51
97.50522173126819
 73
     0
 72
     2
 10
64.38068077732078
 20
217.3760929191347
 40
0.3281966754516116
 50
97.50522172981732
 51
107.6438423954239
 73
     0
 72
     2
 10
64.32748880187476
 20
217.2088546805995
 40
0.1527030439996605
 50
107.6438423976671
 51
127.5194829143569
 73
     0
 72
     2
 10
64.24865732553168
 20
217.1061918014537
 40
0.0232655362326639
 50
127.5194829075437
 51
179.9999999941905
 73
     0
 72
     2
 10
64.24865732553019
 20
217.1061918014482
 40
0.0232655362311789
 50
180.0000000079093
 51
232.4805170942625
 73
     0
 72
     2
 10
64.32748880187344
 20
217.0035289223041
 40
0.1527030439968505
 50
232.4805170854584
 51
252.3561576025177
 73
     0
 72
     2
 10
64.3806807773267
 20
216.8362906837604
 40
0.3281966754591492
 50
252.356157603909
 51
262.4947782693125
 73
     0
 72
     2
 10
64.415948763165
 20
216.5685922637016
 40
0.5982082954444083
 50
262.4947782681946
 51
269.9999999993494
 73
     0
 72
     2
 10
64.41594876316165
 20
216.5685922635985
 40
0.5982082955475505
 50
269.9999999996706
 51
277.5052217306576
 73
     0
 72
     2
 10
64.45121674899657
 20
216.8362906838023
 40
0.3281966754189678
 50
277.5052217324874
 51
287.6438423981502
 73
     0
 72
     2
 10
64.50440872445279
 20
217.0035289222851
 40
0.1527030440137889
 50
287.6438423939276
 51
307.5194829106152
 73
     0
 72
     2
 10
64.58324020079634
 20
217.1061918014495
 40
0.0232655362317429
 50
307.5194829099913
 51
354.8627062164962
 73
     0
 72
     2
 10
64.58324020079621
 20
217.1061918014522
 40
0.0232655362316426
 50
354.8627062229379
 51
412.4805170894178
 73
     0
 97
        1
330
25E0
 92
        1
 93
       16
 72
     2
 10
54.16797805613126
 20
217.2088546805974
 40
0.1527030439973271
 50
232.4805170854882
 51
252.3561576024849
 73
     1
 72
     2
 10
54.22117003157555
 20
217.3760929191004
 40
0.3281966754180919
 50
252.3561576032316
 51
262.4947782687874
 73
     1
 72
     2
 10
54.25643801741748
 20
217.643791339299
 40
0.5982082955424346
 50
262.4947782693108
 51
270.0000000004056
 73
     1
 72
     2
 10
54.25643801742268
 20
217.6437913392518
 40
0.5982082954952546
 50
269.9999999999081
 51
277.505221730986
 73
     1
 72
     2
 10
54.29170600326211
 20
217.3760929191013
 40
0.3281966754189447
 50
277.5052217310892
 51
287.6438423966963
 73
     1
 72
     2
 10
54.34489797870517
 20
217.2088546805995
 40
0.1527030439996584
 50
287.6438423976646
 51
307.5194829143547
 73
     1
 72
     2
 10
54.42372945504825
 20
217.1061918014537
 40
0.0232655362326639
 50
307.5194829075437
 51
359.9999999941906
 73
     1
 72
     2
 10
54.42372945504974
 20
217.1061918014482
 40
0.0232655362311789
 50
0.0000000079093028
 51
52.48051709426253
 73
     1
 72
     2
 10
54.34489797870649
 20
217.0035289223041
 40
0.1527030439968462
 50
52.48051708546052
 51
72.35615760252028
 73
     1
 72
     2
 10
54.29170600325618
 20
216.8362906837938
 40
0.32819667542651
 50
72.35615760263818
 51
82.49477826804136
 73
     1
 72
     2
 10
54.25643801741788
 20
216.5685922636566
 40
0.5982082954894569
 50
82.49477826847749
 51
89.9999999996325
 73
     1
 72
     2
 10
54.25643801741804
 20
216.5685922635951
 40
0.598208295551018
 50
89.99999999964815
 51
97.50522173063517
 73
     1
 72
     2
 10
54.22117003158312
 20
216.8362906838049
 40
0.3281966754164606
 50
97.50522173258389
 51
107.6438423982465
 73
     1
 72
     2
 10
54.16797805613009
 20
217.003528922302
 40
0.1527030439986236
 50
107.6438423969012
 51
127.519482913587
 73
     1
 72
     2
 10
54.08914657978654
 20
217.1061918014428
 40
0.0232655362353078
 50
127.5194828940722
 51
174.8627062005563
 73
     1
 72
     2
 10
54.08914657978667
 20
217.1061918014575
 40
0.0232655362341056
 50
174.8627062367654
 51
232.4805171032482
 73
     1
 97
        1
330
25E2
 75
     0
 76
     1
 98
        1
 10
64.44587136569612
 20
217.1001501863831
1001
ACAD
1010
0.0
1020
0.0
1030
0.0
  0
INSERT
  5
3456
330
1F
100
AcDbEntity
  8
SOLBET_Wymiary_Opisy
100
AcDbBlockReference
  2
_DotSmall
 10
59.02459544185944
 20
217.3472735552574
 30
0.0
 41
2.500000000000008
 42
2.5
 43
2.5
 50
238.7305708751723
1001
ACAD
1000
DSTYLE
1002
{
1070
   147
1040
0.625
1070
    77
1070
     1
1002
}
  0
INSERT
  5
3458
330
1F
100
AcDbEntity
  8
SOLBET_Wymiary_Opisy
100
AcDbBlockReference
  2
_DotSmall
 10
52.22424589294951
 20
215.4115450908725
 30
0.0
 41
2.5
 42
2.5
 43
2.5
 50
333.1678628446217
1001
ACAD
1000
DSTYLE
1002
{
1070
   147
1040
0.625
1070
    77
1070
     1
1002
}
  0
LWPOLYLINE
  5
3459
330
1F
100
AcDbEntity
  8
SOLBET_Wymiary_Opisy
100
AcDbPolyline
 90
        3
 70
     0
 43
0.0
 10
52.22424589294951
 20
215.4115450908725
 10
41.730338219043
 20
220.7197893031816
 10
10.45874482945873
 20
220.7197893031816
1001
ACAD
1000
DSTYLE
1002
{
1070
   147
1040
0.625
1070
    77
1070
     1
1002
}
  0
INSERT
  5
345A
330
1F
100
AcDbEntity
  8
SOLBET_Wymiary_Opisy
100
AcDbBlockReference
  2
_DotSmall
 10
48.335533297153
 20
210.8150345544328
 30
0.0
 41
2.5
 42
2.5
 43
2.5
 50
332.1134182052453
1001
ACAD
1000
DSTYLE
1002
{
1070
   147
1040
0.625
1070
    77
1070
     1
1002
}
  0
LWPOLYLINE
  5
345B
330
1F
100
AcDbEntity
  8
SOLBET_Wymiary_Opisy
100
AcDbPolyline
 90
        3
 70
     0
 43
0.0
 10
48.335533297153
 20
210.8150345544328
 10
41.21646937357581
 20
214.5822505182784
 10
18.41040288634849
 20
214.5822505182784
1001
ACAD
1000
DSTYLE
1002
{
1070
   147
1040
0.625
1070
    77
1070
     1
1002
}
  0
LINE
  5
3467
330
1F
100
AcDbEntity
  8
SOLBET_Wymiary_Opisy
100
AcDbLine
 10
267.7668368381731
 20
135.9094009296407
 30
0.0
 11
267.7668368381731
 21
125.5124677184958
 31
0.0
  0
LINE
  5
3468
330
1F
100
AcDbEntity
  8
SOLBET_Wymiary_Opisy
100
AcDbLine
 10
273.7668368381731
 20
135.9094009296407
 30
0.0
 11
273.7668368381731
 21
125.5124677184958
 31
0.0
  0
LINE
  5
3469
330
1F
100
AcDbEntity
  8
SOLBET_Wymiary_Opisy
100
AcDbLine
 10
265.2668368381731
 20
126.7624677184958
 30
0.0
 11
262.766836838173
 21
126.7624677184958
 31
0.0
  0
LINE
  5
346A
330
1F
100
AcDbEntity
  8
SOLBET_Wymiary_Opisy
100
AcDbLine
 10
276.2668368381731
 20
126.7624677184958
 30
0.0
 11
278.766836838173
 21
126.7624677184958
 31
0.0
  0
LINE
  5
346B
330
1F
100
AcDbEntity
  8
SOLBET_Wymiary_Opisy
100
AcDbLine
 10
267.7668368381731
 20
126.7624677184958
 30
0.0
 11
273.7668368381731
 21
126.7624677184958
 31
0.0
  0
SOLID
  5
346C
330
1F
100
AcDbEntity
  8
SOLBET_Wymiary_Opisy
100
AcDbTrace
 10
265.2668368381731
 20
127.1791343851625
 30
0.0
 11
265.2668368381731
 21
126.3458010518291
 31
0.0
 12
267.7668368381731
 22
126.7624677184958
 32
0.0
 13
267.7668368381731
 23
126.7624677184958
 33
0.0
  0
SOLID
  5
346D
330
1F
100
AcDbEntity
  8
SOLBET_Wymiary_Opisy
100
AcDbTrace
 10
276.2668368381731
 20
127.1791343851625
 30
0.0
 11
276.2668368381731
 21
126.3458010518291
 31
0.0
 12
273.7668368381731
 22
126.7624677184958
 32
0.0
 13
273.7668368381731
 23
126.7624677184958
 33
0.0
  0
INSERT
  5
35A5
330
1F
100
AcDbEntity
  8
SOLBET_Bloczki
100
AcDbBlockReference
  2
SOLBET_Bloczek_Ideal_420x240x590_P+W_KG400_PRA
 10
47.23650594920082
 20
75.9094009296407
 30
0.0
  0
INSERT
  5
35A6
330
1F
100
AcDbEntity
  8
SOLBET_Bloczki
100
AcDbBlockReference
  2
SOLBET_Bloczek_Ideal_420x240x590_P+W_KG400_PRA
 10
47.23650608995012
 20
87.90940113378917
 30
0.0
  0
INSERT
  5
35A7
330
1F
100
AcDbEntity
  8
SOLBET_Bloczki
100
AcDbBlockReference
  2
SOLBET_Bloczek_Ideal_420x240x590_P+W_KG400_PRA
 10
47.23650623340676
 20
192.9094010243748
 30
0.0
  0
INSERT
  5
35A8
330
1F
100
AcDbEntity
  8
SOLBET_Bloczki
100
AcDbBlockReference
  2
SOLBET_Bloczek_Ideal_420x240x590_P+W_KG400_PRA
 10
47.23650623340676
 20
216.9094012255275
 30
0.0
  0
INSERT
  5
35A9
330
1F
100
AcDbEntity
  8
SOLBET_Bloczki
100
AcDbBlockReference
  2
SOLBET_Bloczek_Ideal_420x240x590_P+W_KG400_PRA
 10
47.23650623340677
 20
228.909401429676
 30
0.0
  0
INSERT
  5
35B8
330
1F
100
AcDbEntity
  8
SOLBET_Bloczki
100
AcDbBlockReference
  2
SOLBET_Plytka_60x240x590_KG600_PRA
 10
47.23650637415608
 20
204.9094012285233
 30
0.0
  0
INSERT
  5
35CE
330
1F
100
AcDbEntity
  8
SOLBET_Bloczki
100
AcDbBlockReference
  2
SOLBET_Nadproze_120x240x2300_zz_PRA
 10
47.23650619143995
 20
180.9094011970167
 30
0.0
  0
INSERT
  5
35CF
330
1F
100
AcDbEntity
  8
SOLBET_Bloczki
100
AcDbBlockReference
  2
SOLBET_Nadproze_120x240x2300_zz_PRA
 10
62.23650619143995
 20
180.9094011970167
 30
0.0
  0
INSERT
  5
3610
330
1F
100
AcDbEntity
  8
SOLBET_Bloczki
100
AcDbBlockReference
  2
SOLBET_Nadproze_180x240x2000_zz_PRA
 10
53.23650634034357
 20
180.9094009208377
 30
0.0
  0
INSERT
  5
3621
330
1F
100
AcDbEntity
  8
SOLBET_Bloczki
100
AcDbBlockReference
  2
SOLBET_Bloczek_Ideal_420x240x590_P+W_KG400_PRZ
 10
273.7668370651042
 20
135.9094009290616
 30
0.0
  0
INSERT
  5
3622
330
1F
100
AcDbEntity
  8
SOLBET_Bloczki
100
AcDbBlockReference
  2
SOLBET_Bloczek_Ideal_420x240x590_P+W_KG400_PRZ
 10
280.2668370991294
 20
180.9094009875955
 30
0.0
  0
INSERT
  5
3623
330
1F
100
AcDbEntity
  8
SOLBET_Bloczki
100
AcDbBlockReference
  2
SOLBET_Bloczek_Ideal_420x240x590_P+W_KG400_PRZ
 10
160.4709675744718
 20
228.9094009296414
 30
0.0
  0
INSERT
  5
3624
330
1F
100
AcDbEntity
  8
SOLBET_Bloczki
100
AcDbBlockReference
  2
SOLBET_Bloczek_Ideal_420x240x590_P+W_KG400_PRZ
 10
189.9709675017345
 20
228.9094009881753
 30
0.0
  0
INSERT
  5
3625
330
1F
100
AcDbEntity
  8
SOLBET_Bloczki
100
AcDbBlockReference
  2
SOLBET_Bloczek_Ideal_420x240x590_P+W_KG400_PRZ
 10
219.4709674289973
 20
228.9094010467092
 30
0.0
  0
INSERT
  5
3626
330
1F
100
AcDbEntity
  8
SOLBET_Bloczki
100
AcDbBlockReference
  2
SOLBET_Bloczek_Ideal_420x240x590_P+W_KG400_PRZ
 10
248.97096735626
 20
228.9094010467092
 30
0.0
  0
INSERT
  5
3627
330
1F
100
AcDbEntity
  8
SOLBET_Bloczki
100
AcDbBlockReference
  2
SOLBET_Bloczek_Ideal_420x240x590_P+W_KG400_PRZ
 10
278.4709672835226
 20
228.9094010467092
 30
0.0
  0
INSERT
  5
3628
330
1F
100
AcDbEntity
  8
SOLBET_Bloczki
100
AcDbBlockReference
  2
SOLBET_Bloczek_Ideal_420x240x590_P+W_KG400_PRZ
 10
147.128976225433
 20
216.9094009290616
 30
0.0
  0
INSERT
  5
3629
330
1F
100
AcDbEntity
  8
SOLBET_Bloczki
100
AcDbBlockReference
  2
SOLBET_Bloczek_Ideal_420x240x590_P+W_KG400_PRZ
 10
176.6289761526957
 20
216.9094009875955
 30
0.0
  0
INSERT
  5
362A
330
1F
100
AcDbEntity
  8
SOLBET_Bloczki
100
AcDbBlockReference
  2
SOLBET_Bloczek_Ideal_420x240x590_P+W_KG400_PRZ
 10
206.1289760799584
 20
216.9094009875955
 30
0.0
  0
INSERT
  5
362B
330
1F
100
AcDbEntity
  8
SOLBET_Bloczki
100
AcDbBlockReference
  2
SOLBET_Bloczek_Ideal_420x240x590_P+W_KG400_PRZ
 10
235.6289760072212
 20
216.9094009875955
 30
0.0
  0
INSERT
  5
362C
330
1F
100
AcDbEntity
  8
SOLBET_Bloczki
100
AcDbBlockReference
  2
SOLBET_Bloczek_Ideal_420x240x590_P+W_KG400_PRZ
 10
265.1289759344838
 20
216.9094009875955
 30
0.0
  0
INSERT
  5
362D
330
1F
100
AcDbEntity
  8
SOLBET_Bloczki
100
AcDbBlockReference
  2
SOLBET_Bloczek_Ideal_420x240x590_P+W_KG400_PRZ
 10
156.9392606801286
 20
204.9094009290616
 30
0.0
  0
INSERT
  5
362E
330
1F
100
AcDbEntity
  8
SOLBET_Bloczki
100
AcDbBlockReference
  2
SOLBET_Bloczek_Ideal_420x240x590_P+W_KG400_PRZ
 10
186.4392606073913
 20
204.9094009290616
 30
0.0
  0
INSERT
  5
362F
330
1F
100
AcDbEntity
  8
SOLBET_Bloczki
100
AcDbBlockReference
  2
SOLBET_Bloczek_Ideal_420x240x590_P+W_KG400_PRZ
 10
215.9392605346541
 20
204.9094009290616
 30
0.0
  0
INSERT
  5
3630
330
1F
100
AcDbEntity
  8
SOLBET_Bloczki
100
AcDbBlockReference
  2
SOLBET_Bloczek_Ideal_420x240x590_P+W_KG400_PRZ
 10
245.4392604619168
 20
204.9094009875955
 30
0.0
  0
INSERT
  5
3631
330
1F
100
AcDbEntity
  8
SOLBET_Bloczki
100
AcDbBlockReference
  2
SOLBET_Bloczek_Ideal_420x240x590_P+W_KG400_PRZ
 10
274.9392603891795
 20
204.9094009875955
 30
0.0
  0
INSERT
  5
3632
330
1F
100
AcDbEntity
  8
SOLBET_Bloczki
100
AcDbBlockReference
  2
SOLBET_Bloczek_Ideal_420x240x590_P+W_KG400_PRZ
 10
143.2235449173361
 20
192.9094009296413
 30
0.0
  0
INSERT
  5
3633
330
1F
100
AcDbEntity
  8
SOLBET_Bloczki
100
AcDbBlockReference
  2
SOLBET_Bloczek_Ideal_420x240x590_P+W_KG400_PRZ
 10
172.7235448445988
 20
192.9094009881753
 30
0.0
  0
INSERT
  5
3634
330
1F
100
AcDbEntity
  8
SOLBET_Bloczki
100
AcDbBlockReference
  2
SOLBET_Bloczek_Ideal_420x240x590_P+W_KG400_PRZ
 10
202.2235447718615
 20
192.9094010467092
 30
0.0
  0
INSERT
  5
3635
330
1F
100
AcDbEntity
  8
SOLBET_Bloczki
100
AcDbBlockReference
  2
SOLBET_Bloczek_Ideal_420x240x590_P+W_KG400_PRZ
 10
231.7235446991242
 20
192.9094011052432
 30
0.0
  0
INSERT
  5
3636
330
1F
100
AcDbEntity
  8
SOLBET_Bloczki
100
AcDbBlockReference
  2
SOLBET_Bloczek_Ideal_420x240x590_P+W_KG400_PRZ
 10
261.2235446263869
 20
192.9094011637771
 30
0.0
  0
INSERT
  5
3637
330
1F
100
AcDbEntity
  8
SOLBET_Bloczki
100
AcDbBlockReference
  2
SOLBET_Bloczek_Ideal_420x240x590_P+W_KG400_PRZ
 10
290.7235445536496
 20
192.909401222311
 30
0.0
  0
INSERT
  5
3638
330
1F
100
AcDbEntity
  8
SOLBET_Bloczki
100
AcDbBlockReference
  2
SOLBET_Bloczek_Ideal_420x240x590_P+W_KG400_PRZ
 10
163.2668367654357
 20
168.9094009296414
 30
0.0
  0
INSERT
  5
3639
330
1F
100
AcDbEntity
  8
SOLBET_Bloczki
100
AcDbBlockReference
  2
SOLBET_Bloczek_Ideal_420x240x590_P+W_KG400_PRZ
 10
157.266836838173
 20
135.9094009290616
 30
0.0
  0
INSERT
  5
363A
330
1F
100
AcDbEntity
  8
SOLBET_Bloczki
100
AcDbBlockReference
  2
SOLBET_Bloczek_Ideal_420x240x590_P+W_KG400_PRZ
 10
163.2668367654357
 20
123.9094009875955
 30
0.0
  0
INSERT
  5
363B
330
1F
100
AcDbEntity
  8
SOLBET_Bloczki
100
AcDbBlockReference
  2
SOLBET_Bloczek_Ideal_420x240x590_P+W_KG400_PRZ
 10
157.2668370651042
 20
111.9094009290616
 30
0.0
  0
INSERT
  5
363C
330
1F
100
AcDbEntity
  8
SOLBET_Bloczki
100
AcDbBlockReference
  2
SOLBET_Bloczek_Ideal_420x240x590_P+W_KG400_PRZ
 10
163.266836838173
 20
99.90940092964137
 30
0.0
  0
INSERT
  5
363D
330
1F
100
AcDbEntity
  8
SOLBET_Bloczki
100
AcDbBlockReference
  2
SOLBET_Bloczek_Ideal_420x240x590_P+W_KG400_PRZ
 10
143.2235449173361
 20
87.90940092964069
 30
0.0
  0
INSERT
  5
363E
330
1F
100
AcDbEntity
  8
SOLBET_Bloczki
100
AcDbBlockReference
  2
SOLBET_Bloczek_Ideal_420x240x590_P+W_KG400_PRZ
 10
172.7235448445988
 20
87.90940098817463
 30
0.0
  0
INSERT
  5
363F
330
1F
100
AcDbEntity
  8
SOLBET_Bloczki
100
AcDbBlockReference
  2
SOLBET_Bloczek_Ideal_420x240x590_P+W_KG400_PRZ
 10
202.2235447718615
 20
87.90940104670857
 30
0.0
  0
INSERT
  5
3640
330
1F
100
AcDbEntity
  8
SOLBET_Bloczki
100
AcDbBlockReference
  2
SOLBET_Bloczek_Ideal_420x240x590_P+W_KG400_PRZ
 10
231.7235446991242
 20
87.90940092906158
 30
0.0
  0
INSERT
  5
3641
330
1F
100
AcDbEntity
  8
SOLBET_Bloczki
100
AcDbBlockReference
  2
SOLBET_Bloczek_Ideal_420x240x590_P+W_KG400_PRZ
 10
261.2235446263869
 20
87.90940092906158
 30
0.0
  0
INSERT
  5
3642
330
1F
100
AcDbEntity
  8
SOLBET_Bloczki
100
AcDbBlockReference
  2
SOLBET_Bloczek_Ideal_420x240x590_P+W_KG400_PRZ
 10
290.7235445536496
 20
87.90940092906158
 30
0.0
  0
INSERT
  5
3643
330
1F
100
AcDbEntity
  8
SOLBET_Bloczki
100
AcDbBlockReference
  2
SOLBET_Bloczek_Ideal_420x240x590_P+W_KG400_PRZ
 10
267.7668370651042
 20
99.90940098759551
 30
0.0
  0
INSERT
  5
3644
330
1F
100
AcDbEntity
  8
SOLBET_Bloczki
100
AcDbBlockReference
  2
SOLBET_Bloczek_Ideal_420x240x590_P+W_KG400_PRZ
 10
246.311482443936
 20
75.90940092906158
 30
0.0
  0
INSERT
  5
3645
330
1F
100
AcDbEntity
  8
SOLBET_Bloczki
100
AcDbBlockReference
  2
SOLBET_Bloczek_Ideal_420x240x590_P+W_KG400_PRZ
 10
275.8114823711987
 20
75.90940092906158
 30
0.0
  0
INSERT
  5
3646
330
1F
100
AcDbEntity
  8
SOLBET_Bloczki
100
AcDbBlockReference
  2
SOLBET_Bloczek_Ideal_420x240x590_P+W_KG400_PRZ
 10
267.7668368381731
 20
168.9094009290615
 30
0.0
  0
INSERT
  5
3647
330
1F
100
AcDbEntity
  8
SOLBET_Bloczki
100
AcDbBlockReference
  2
SOLBET_Bloczek_Ideal_420x240x590_P+W_KG400_PRZ
 10
280.8302401709914
 20
156.9094009290616
 30
0.0
  0
INSERT
  5
3648
330
1F
100
AcDbEntity
  8
SOLBET_Bloczki
100
AcDbBlockReference
  2
SOLBET_Bloczek_Ideal_420x240x590_P+W_KG400_PRZ
 10
150.7668371718666
 20
180.909400828867
 30
0.0
  0
INSERT
  5
3649
330
1F
100
AcDbEntity
  8
SOLBET_Bloczki
100
AcDbBlockReference
  2
SOLBET_Bloczek_Ideal_420x240x590_P+W_KG400_PRZ
 10
150.2034338050232
 20
156.9094008711074
 30
0.0
  0
INSERT
  5
365A
330
1F
100
AcDbEntity
  8
SOLBET_Bloczki
100
AcDbBlockReference
  2
SOLBET_Bloczek_Ideal_420x240x590_P+W_KG400_GOR
 10
143.2235449919412
 20
26.01151342728112
 30
0.0
  0
INSERT
  5
365B
330
1F
100
AcDbEntity
  8
SOLBET_Bloczki
100
AcDbBlockReference
  2
SOLBET_Bloczek_Ideal_420x240x590_P+W_KG400_GOR
 10
172.7235449192039
 20
26.01151353208361
 30
0.0
  0
INSERT
  5
365C
330
1F
100
AcDbEntity
  8
SOLBET_Bloczki
100
AcDbBlockReference
  2
SOLBET_Bloczek_Ideal_420x240x590_P+W_KG400_GOR
 10
202.2235448464666
 20
26.01151359061756
 30
0.0
  0
INSERT
  5
365D
330
1F
100
AcDbEntity
  8
SOLBET_Bloczki
100
AcDbBlockReference
  2
SOLBET_Bloczek_Ideal_420x240x590_P+W_KG400_GOR
 10
231.7235447737294
 20
26.0115136491515
 30
0.0
  0
INSERT
  5
365E
330
1F
100
AcDbEntity
  8
SOLBET_Bloczki
100
AcDbBlockReference
  2
SOLBET_Bloczek_Ideal_420x240x590_P+W_KG400_GOR
 10
261.2235447009921
 20
26.01151370768544
 30
0.0
  0
INSERT
  5
365F
330
1F
100
AcDbEntity
  8
SOLBET_Bloczki
100
AcDbBlockReference
  2
SOLBET_Bloczek_Ideal_420x240x590_P+W_KG400_GOR
 10
290.7235446282548
 20
26.01151376621938
 30
0.0
  0
MTEXT
  5
369E
102
{ACAD_XDICTIONARY
360
369F
102
}
330
1F
100
AcDbEntity
  8
SOLBET_Wymiary_Opisy
100
AcDbMText
 10
301.2542633255816
 20
7.273150535415538
 30
0.0
 40
5.0
 41
0.0
 71
     1
 72
     5
  1
Skala 1:20
  7
Solbet_5
 73
     1
 44
1.0
1001
ACAD
1000
MTEXTBEGIN
1070
    73
1070
     1
1070
    44
1040
1.0
1070
    74
1070
     0
1000
MTEXTEND
1000
ACAD_MTEXT_DEFINED_HEIGHT_BEGIN
1070
    46
1040
5.395147572682731
1000
ACAD_MTEXT_DEFINED_HEIGHT_END
  0
LWPOLYLINE
  5
36A1
330
1F
100
AcDbEntity
  8
SOLBET_Ramka_05
100
AcDbPolyline
 90
        4
 70
     1
 43
0.0
 10
298.2355972046678
 20
9.804221198935465
 10
334.35177409209
 20
9.804221198935465
 10
334.35177409209
 20
0.0
 10
298.2355972046678
 20
0.0
  0
ENDSEC
  0
SECTION
  2
OBJECTS
  0
DICTIONARY
  5
C
330
0
100
AcDbDictionary
281
     1
  3
ACAD_COLOR
350
6B
  3
ACAD_GROUP
350
D
  3
ACAD_LAYOUT
350
1A
  3
ACAD_MATERIAL
350
6A
  3
ACAD_MLEADERSTYLE
350
12D
  3
ACAD_MLINESTYLE
350
17
  3
ACAD_PLOTSETTINGS
350
19
  3
ACAD_PLOTSTYLENAME
350
E
  3
ACAD_SCALELIST
350
10C
  3
ACAD_TABLESTYLE
350
7E
  3
ACAD_VISUALSTYLE
350
EF
  3
ACDB_RECOMPOSE_DATA
350
15D
  3
AcDbVariableDictionary
350
5E
  3
DWGPROPS
350
36D2
  0
DICTIONARY
  5
443
330
8
100
AcDbDictionary
280
     1
281
     1
  0
DICTIONARY
  5
3E5
330
2
100
AcDbDictionary
280
     1
281
     1
  3
ACAD_LAYERFILTERS
360
2209
  3
ACLYDICTIONARY
360
2208
  0
DICTIONARY
  5
13C
330
10
100
AcDbDictionary
280
     1
281
     1
  3
ADSK_XREC_LAYER_RECONCILED
360
3F4
  0
DICTIONARY
  5
403
330
3DD
100
AcDbDictionary
280
     1
281
     1
  3
ADSK_XREC_LAYER_RECONCILED
360
404
  0
DICTIONARY
  5
405
330
3DF
100
AcDbDictionary
280
     1
281
     1
  3
ADSK_XREC_LAYER_RECONCILED
360
406
  0
DICTIONARY
  5
407
330
3E0
100
AcDbDictionary
280
     1
281
     1
  3
ADSK_XREC_LAYER_RECONCILED
360
408
  0
DICTIONARY
  5
409
330
3E1
100
AcDbDictionary
280
     1
281
     1
  3
ADSK_XREC_LAYER_RECONCILED
360
40A
  0
DICTIONARY
  5
40B
330
3E2
100
AcDbDictionary
280
     1
281
     1
  3
ADSK_XREC_LAYER_RECONCILED
360
40C
  0
DICTIONARY
  5
40F
330
3E4
100
AcDbDictionary
280
     1
281
     1
  3
ADSK_XREC_LAYER_RECONCILED
360
410
  0
DICTIONARY
  5
411
330
3E8
100
AcDbDictionary
280
     1
281
     1
  3
ADSK_XREC_LAYER_RECONCILED
360
412
  0
DICTIONARY
  5
351F
330
351E
100
AcDbDictionary
280
     1
281
     1
  3
ASDK_XREC_ANNO_SCALE_INFO
360
3520
  0
DICTIONARY
  5
4A3
330
1F
100
AcDbDictionary
280
     1
281
     1
  3
ACAD_SORTENTS
360
4A4
  0
DICTIONARY
  5
2793
330
2787
100
AcDbDictionary
280
     1
281
     1
  3
ACAD_SORTENTS
360
27BD
  0
DICTIONARY
  5
27AD
330
27A3
100
AcDbDictionary
280
     1
281
     1
  3
ACAD_SORTENTS
360
27AE
  0
DICTIONARY
  5
2FE3
330
2FD7
100
AcDbDictionary
280
     1
281
     1
  3
ACAD_SORTENTS
360
2FE4
  0
DICTIONARY
  5
3031
330
3025
100
AcDbDictionary
280
     1
281
     1
  3
ACAD_SORTENTS
360
3032
  0
DICTIONARY
  5
312D
330
3123
100
AcDbDictionary
280
     1
281
     1
  3
ACAD_SORTENTS
360
312E
  0
DICTIONARY
  5
313C
330
3132
100
AcDbDictionary
280
     1
281
     1
  3
ACAD_SORTENTS
360
313D
  0
DICTIONARY
  5
314B
330
3141
100
AcDbDictionary
280
     1
281
     1
  3
ACAD_SORTENTS
360
314C
  0
DICTIONARY
  5
31F5
330
31E9
100
AcDbDictionary
280
     1
281
     1
  3
ACAD_SORTENTS
360
31F6
  0
DICTIONARY
  5
3214
330
3208
100
AcDbDictionary
280
     1
281
     1
  3
ACAD_SORTENTS
360
3215
  0
DICTIONARY
  5
3236
330
322A
100
AcDbDictionary
280
     1
281
     1
  3
ACAD_SORTENTS
360
3237
  0
DICTIONARY
  5
35A1
330
3595
100
AcDbDictionary
280
     1
281
     1
  3
ACAD_SORTENTS
360
35A2
  0
DICTIONARY
  5
35B4
330
35AA
100
AcDbDictionary
280
     1
281
     1
  3
ACAD_SORTENTS
360
35B5
  0
DICTIONARY
  5
35CA
330
35B9
100
AcDbDictionary
280
     1
281
     1
  3
ACAD_SORTENTS
360
35CB
  0
DICTIONARY
  5
360C
330
35FB
100
AcDbDictionary
280
     1
281
     1
  3
ACAD_SORTENTS
360
360D
  0
DICTIONARY
  5
361D
330
3611
100
AcDbDictionary
280
     1
281
     1
  3
ACAD_SORTENTS
360
361E
  0
DICTIONARY
  5
3656
330
364A
100
AcDbDictionary
280
     1
281
     1
  3
ACAD_SORTENTS
360
3657
  0
DICTIONARY
  5
36DF
330
2A7C
100
AcDbDictionary
280
     1
281
     1
  3
ACAD_MTEXT_RT
360
36E0
  0
DICTIONARY
  5
36E1
330
2A7E
100
AcDbDictionary
280
     1
281
     1
  3
ACAD_MTEXT_RT
360
36E2
  0
DICTIONARY
  5
36E3
330
2A80
100
AcDbDictionary
280
     1
281
     1
  3
ACAD_MTEXT_RT
360
36E4
  0
DICTIONARY
  5
351C
330
2AA3
100
AcDbDictionary
280
     1
281
     1
  3
ACAD_MTEXT_2008_RT
360
351D
  3
ACAD_MTEXT_RT
360
36E5
  0
DICTIONARY
  5
2ADC
330
2ADB
100
AcDbDictionary
280
     1
281
     1
  3
AcDbContextDataManager
360
2ADD
  0
DICTIONARY
  5
2AE1
330
2AE0
100
AcDbDictionary
280
     1
281
     1
  3
ACAD_MTEXT_RT
360
36E6
  3
AcDbContextDataManager
360
2AE2
  0
DICTIONARY
  5
2AEE
330
2AED
100
AcDbDictionary
280
     1
281
     1
  3
ACAD_MTEXT_RT
360
36E7
  3
AcDbContextDataManager
360
2AEF
  0
DICTIONARY
  5
36E8
330
2B3E
100
AcDbDictionary
280
     1
281
     1
  3
ACAD_MTEXT_RT
360
36E9
  0
DICTIONARY
  5
2BAD
330
2BAC
100
AcDbDictionary
280
     1
281
     1
  3
ACAD_MTEXT_RT
360
36EA
  3
AcDbContextDataManager
360
2BAE
  0
DICTIONARY
  5
2BB2
330
2BB1
100
AcDbDictionary
280
     1
281
     1
  3
ACAD_MTEXT_RT
360
36EB
  3
AcDbContextDataManager
360
2BB3
  0
DICTIONARY
  5
30F1
330
30F0
100
AcDbDictionary
280
     1
281
     1
  3
AcDbContextDataManager
360
30F2
  0
DICTIONARY
  5
369F
330
369E
100
AcDbDictionary
280
     1
281
     1
  3
ACAD_MTEXT_2008_RT
360
36A0
  0
DICTIONARY
  5
6B
102
{ACAD_REACTORS
330
C
102
}
330
C
100
AcDbDictionary
281
     1
  0
DICTIONARY
  5
D
102
{ACAD_REACTORS
330
C
102
}
330
C
100
AcDbDictionary
281
     1
  0
DICTIONARY
  5
1A
102
{ACAD_REACTORS
330
C
102
}
330
C
100
AcDbDictionary
281
     1
  3
Arkusz1
350
D3
  3
Arkusz2
350
D7
  3
Model
350
22
  0
DICTIONARY
  5
6A
102
{ACAD_REACTORS
330
C
102
}
330
C
100
AcDbDictionary
281
     1
  3
ByBlock
350
ED
  3
ByLayer
350
EC
  3
Global
350
EE
  0
DICTIONARY
  5
12D
102
{ACAD_REACTORS
330
C
102
}
330
C
100
AcDbDictionary
281
     1
  3
Standard
350
12E
  0
DICTIONARY
  5
17
102
{ACAD_REACTORS
330
C
102
}
330
C
100
AcDbDictionary
281
     1
  3
SOLBET_IZOLACJA
350
7E9
  3
Standard
350
18
  0
DICTIONARY
  5
19
102
{ACAD_REACTORS
330
C
102
}
330
C
100
AcDbDictionary
281
     1
  0
ACDBDICTIONARYWDFLT
  5
E
102
{ACAD_REACTORS
330
C
102
}
330
C
100
AcDbDictionary
281
     1
  3
Normal
350
F
100
AcDbDictionaryWithDefault
340
F
  0
DICTIONARY
  5
10C
102
{ACAD_REACTORS
330
C
102
}
330
C
100
AcDbDictionary
281
     1
  3
A0
350
10D
  3
A1
350
188
  3
A2
350
189
  3
A3
350
18A
  3
A4
350
18B
  3
A5
350
18C
  3
A6
350
18D
  3
A7
350
18E
  3
A8
350
18F
  3
A9
350
190
  3
B0
350
191
  3
B1
350
192
  3
B2
350
193
  3
B3
350
194
  3
B4
350
195
  3
B5
350
196
  3
B6
350
197
  3
B7
350
198
  3
B8
350
199
  3
B9
350
19A
  3
C0
350
19B
  3
C1
350
19C
  3
C2
350
19D
  3
C3
350
19E
  3
C4
350
19F
  3
C5
350
1A0
  3
C6
350
1A1
  3
C7
350
1A2
  3
C8
350
1A3
  3
C9
350
1A4
  3
D0
350
1A5
  3
D1
350
1A6
  3
D2
350
1A7
  0
DICTIONARY
  5
7E
102
{ACAD_REACTORS
330
C
102
}
330
C
100
AcDbDictionary
281
     1
  3
Standard
350
7F
  0
DICTIONARY
  5
EF
102
{ACAD_REACTORS
330
C
102
}
330
C
100
AcDbDictionary
281
     1
  3
2dWireframe
350
F5
  3
3D Hidden
350
F7
  3
3dWireframe
350
F6
  3
Basic
350
F4
  3
Brighten
350
FB
  3
ColorChange
350
FF
  3
Conceptual
350
F8
  3
Dim
350
FA
  3
Facepattern
350
FE
  3
Flat
350
F0
  3
FlatWithEdges
350
F1
  3
Gouraud
350
F2
  3
GouraudWithEdges
350
F3
  3
Linepattern
350
FD
  3
Realistic
350
F9
  3
Thicken
350
FC
  0
XRECORD
  5
15D
102
{ACAD_REACTORS
330
C
102
}
330
C
100
AcDbXrecord
280
     1
 90
        1
330
7F
330
2AA3
330
2ADB
330
2AE0
330
2AED
330
2BAC
330
2BB1
330
30F0
  0
DICTIONARY
  5
5E
102
{ACAD_REACTORS
330
C
102
}
330
C
100
AcDbDictionary
281
     1
  3
CANNOSCALE
350
146
  3
CMLEADERSTYLE
350
145
  3
CTABLESTYLE
350
84
  3
DIMASSOC
350
5F
  3
HIDETEXT
350
63
  3
INDEXCTL
350
466
  3
LIGHTINGUNITS
350
464
  3
MSLTSCALE
350
463
  3
PSOLHEIGHT
350
36D1
  3
PSOLWIDTH
350
36D0
  3
SORTENTS
350
465
  0
XRECORD
  5
36D2
102
{ACAD_REACTORS
330
C
102
}
330
C
100
AcDbXrecord
280
     1
  1
DWGPROPS COOKIE
  2

  3

  4

  6

  7

  8
Olus
  9

300
=
301
=
302
=
303
=
304
=
305
=
306
=
307
=
308
=
309
=
 40
0.5842545717592592
 41
2454690.075573148
 42
2454848.875551667
  1

 90
        0
  0
DICTIONARY
  5
2209
102
{ACAD_REACTORS
330
3E5
102
}
330
3E5
100
AcDbDictionary
281
     1
  0
DICTIONARY
  5
2208
102
{ACAD_REACTORS
330
3E5
102
}
330
3E5
100
AcDbDictionary
281
     1
1001
ACAD
1000
<All
  0
XRECORD
  5
3F4
102
{ACAD_REACTORS
330
13C
102
}
330
13C
100
AcDbXrecord
280
     1
290
     1
  0
XRECORD
  5
404
102
{ACAD_REACTORS
330
403
102
}
330
403
100
AcDbXrecord
280
     1
290
     1
  0
XRECORD
  5
406
102
{ACAD_REACTORS
330
405
102
}
330
405
100
AcDbXrecord
280
     1
290
     1
  0
XRECORD
  5
408
102
{ACAD_REACTORS
330
407
102
}
330
407
100
AcDbXrecord
280
     1
290
     1
  0
XRECORD
  5
40A
102
{ACAD_REACTORS
330
409
102
}
330
409
100
AcDbXrecord
280
     1
290
     1
  0
XRECORD
  5
40C
102
{ACAD_REACTORS
330
40B
102
}
330
40B
100
AcDbXrecord
280
     1
290
     1
  0
XRECORD
  5
410
102
{ACAD_REACTORS
330
40F
102
}
330
40F
100
AcDbXrecord
280
     1
290
     1
  0
XRECORD
  5
412
102
{ACAD_REACTORS
330
411
102
}
330
411
100
AcDbXrecord
280
     1
290
     1
  0
XRECORD
  5
3520
102
{ACAD_REACTORS
330
351F
102
}
330
351F
100
AcDbXrecord
280
     1
 70
     1
340
10D
340
3DF
 70
    -1
  0
SORTENTSTABLE
  5
4A4
102
{ACAD_REACTORS
330
4A3
102
}
330
4A3
100
AcDbSortentsTable
330
1F
331
257A
  5
25AD
331
25F8
  5
2670
331
2776
  5
2777
331
2A7C
  5
2A94
331
2582
  5
2586
331
25C1
  5
260A
331
271F
  5
279A
331
2B3B
  5
2C2F
331
277E
  5
2797
331
258A
  5
25BE
331
2727
  5
2618
331
2592
  5
25CA
331
2FA6
  5
2F1D
331
2F47
  5
30D0
331
32C9
  5
33F2
331
33F0
  5
3438
331
30EC
  5
31FC
331
3319
  5
3318
331
2DA1
  5
2F9B
331
2E9D
  5
2EA8
331
2E6E
  5
2FA5
331
2D6A
  5
2F83
331
2FBE
  5
2F18
331
2F77
  5
3191
331
3408
  5
3469
331
2E76
  5
2F9F
331
2E27
  5
2E4B
331
3469
  5
2D13
331
259A
  5
25D3
331
25D1
  5
2634
331
2865
  5
287D
331
2737
  5
2588
331
25A2
  5
25DB
331
25E1
  5
263C
331
273F
  5
2592
331
256B
  5
259E
331
2688
  5
2689
331
287D
  5
2891
331
2747
  5
2612
331
25B2
  5
25EC
331
2690
  5
2691
331
2DF0
  5
2FB1
331
3438
  5
346D
331
2DF8
  5
2EEC
331
2D33
  5
2EF7
331
2E2F
  5
2F82
331
2F87
  5
2F73
331
2F1C
  5
3005
331
31C3
  5
3246
331
2DC1
  5
2F91
331
30D5
  5
31B4
331
3458
  5
2A84
331
33D1
  5
2A7D
331
257B
  5
25AE
331
27CE
  5
2866
331
2A7D
  5
2A95
331
2583
  5
25B8
331
277F
  5
2858
331
258B
  5
25BF
331
2593
  5
2597
331
2A95
  5
2A80
331
33E1
  5
3409
331
2FA7
  5
2F2B
331
3006
  5
31A3
331
32CA
  5
33F3
331
2D8A
  5
2F8B
331
33F1
  5
3445
331
30ED
  5
31FF
331
331A
  5
3319
331
2F70
  5
30EC
331
30F5
  5
3224
331
2DA2
  5
2F9C
331
2E9E
  5
2EA9
331
2EFD
  5
2E93
331
3409
  5
346A
331
2D6B
  5
2F84
331
31A4
  5
31B3
331
2BAC
  5
2C77
331
2EA6
  5
2E7F
331
2E77
  5
2FA0
331
346A
  5
2D16
331
259B
  5
25D7
331
2730
  5
2735
331
2866
  5
287E
331
2738
  5
258A
331
25A3
  5
25DC
331
25E2
  5
2644
331
2689
  5
268A
331
256C
  5
259F
331
287E
  5
2A7F
331
2748
  5
2613
331
25B3
  5
25ED
331
2691
  5
2692
331
2AED
  5
2BB1
331
2E28
  5
2F9D
331
31AC
  5
31AE
331
2D34
  5
2F00
331
2F90
  5
2F4A
331
3459
  5
2A8E
331
2DC2
  5
2F92
331
30D6
  5
31B5
331
2E8F
  5
2E0A
331
2EE6
  5
2FB7
331
257C
  5
25AF
331
25BB
  5
25F5
331
2778
  5
2779
331
2A7E
  5
2AA3
331
2584
  5
25B9
331
25C3
  5
260B
331
261A
  5
2671
331
2780
  5
2859
331
258C
  5
25C0
331
2729
  5
2611
331
2B3D
  5
2C35
331
285F
  5
285F
331
2A8E
  5
2AED
331
2594
  5
25CB
331
33E2
  5
340A
331
32CB
  5
3403
331
2D54
  5
2F89
331
2D8B
  5
2F8C
331
2E58
  5
2FAB
331
2FA8
  5
2F2C
331
33F2
  5
3456
331
331B
  5
331A
331
2DDA
  5
2DEB
331
2E11
  5
2E9E
331
2E60
  5
2FA6
331
30EE
  5
3202
331
2E19
  5
2E76
331
335B
  5
3407
331
2DE2
  5
2D47
331
2EFE
  5
2E55
331
2F71
  5
30EE
331
340A
  5
346B
331
346B
  5
2D30
331
259C
  5
25D8
331
2731
  5
2584
331
2867
  5
288E
331
2AA6
  5
2B3D
331
25A4
  5
25DD
331
2739
  5
258C
331
2741
  5
2594
331
25AC
  5
25E4
331
268A
  5
268B
331
2749
  5
2614
331
2575
  5
25AA
331
25B4
  5
25EF
331
25F3
  5
264A
331
2692
  5
2730
331
2D74
  5
2F7F
331
2DFA
  5
2EF5
331
2E31
  5
2F7C
331
2ED7
  5
2FB6
331
2F91
  5
2F52
331
2F2E
  5
30CB
331
2D3D
  5
2F77
331
2DC3
  5
2F93
331
345A
  5
2A91
331
2F36
  5
3011
331
2EEF
  5
2E4D
331
257D
  5
25B0
331
25BC
  5
25F6
331
27D0
  5
2867
331
2779
  5
277A
331
2A7F
  5
2AA6
331
25C4
  5
260C
331
261B
  5
2672
331
2722
  5
285D
331
258D
  5
25C1
331
25CC
  5
2622
331
2B3E
  5
2C38
331
2A8F
  5
2B38
331
2B46
  5
2C6E
331
2E90
  5
2E0C
331
2D55
  5
2F8A
331
2D8C
  5
2F8D
331
2F4A
  5
30D3
331
3008
  5
31A4
331
33E3
  5
340B
331
2E61
  5
2FA7
331
33F3
  5
3458
331
2B5E
  5
2C74
331
30EF
  5
321E
331
2F52
  5
30CF
331
2FB1
  5
2F19
331
331C
  5
331B
331
3403
  5
3459
331
2EA8
  5
2E80
331
2DAC
  5
2F98
331
340B
  5
346C
331
346C
  5
2D32
331
259D
  5
25D9
331
2732
  5
2583
331
2868
  5
288F
331
2AA7
  5
2B3E
331
2566
  5
2598
331
273A
  5
258D
331
25AD
  5
25E6
331
268B
  5
268D
331
2742
  5
2595
331
274A
  5
2615
331
2576
  5
2579
331
25F4
  5
264C
331
2E79
  5
2FA1
331
2D75
  5
2F80
331
2E2A
  5
2F97
331
31AE
  5
31AF
331
2DFB
  5
2EF6
331
2F92
  5
2F55
331
2E03
  5
2EC7
331
2E4A
  5
2FAC
331
2D3E
  5
2F78
331
30D8
  5
31B6
331
345B
  5
2A92
331
2F37
  5
3012
331
2DCC
  5
2FB2
331
257E
  5
25B2
331
25BD
  5
25F7
331
27D1
  5
2868
331
277A
  5
277B
331
2A80
  5
2AA7
331
261C
  5
2673
331
2723
  5
2616
331
258E
  5
25C2
331
25CD
  5
2623
331
272B
  5
260F
331
2A90
  5
2B3B
331
2596
  5
25CF
331
30E0
  5
3205
331
2E91
  5
2E9D
331
3009
  5
31A8
331
33E4
  5
340C
331
2D5E
  5
2F85
331
3011
  5
31A9
331
2FB2
  5
2F1B
331
30F0
  5
3221
331
331D
  5
3406
331
2F00
  5
2E92
331
2E1B
  5
2E78
331
2DE4
  5
2D6E
331
2F73
  5
3190
331
3404
  5
345A
331
2DAD
  5
2F99
331
2EA9
  5
2E82
331
346D
  5
2D33
331
2861
  5
2862
331
2733
  5
2585
331
255F
  5
257C
331
259E
  5
25DA
331
2664
  5
2744
331
2567
  5
2599
331
25A6
  5
25DE
331
273B
  5
258E
331
2AE0
  5
2BAC
331
2743
  5
261E
331
25AE
  5
25E7
331
268C
  5
2776
331
25B6
  5
25F0
331
274B
  5
2619
331
2F7B
  5
3193
331
2E7A
  5
2DBB
331
2D76
  5
2F81
331
31AF
  5
31B0
331
2E82
  5
2DA4
331
2D3F
  5
2F7B
331
2E4B
  5
2FAE
331
2F9B
  5
2F36
331
2773
  5
2774
331
25BE
  5
2607
331
277B
  5
277C
331
2724
  5
2617
331
261D
  5
2674
331
2B38
  5
2BB6
331
258F
  5
25C4
331
25CE
  5
2631
331
272C
  5
2610
331
2597
  5
25D0
331
265D
  5
2743
331
30E1
  5
3218
331
33E5
  5
340D
331
2D5F
  5
2F86
331
2D96
  5
2F9E
331
2E63
  5
2FA8
331
3190
  5
31BA
331
3012
  5
31AA
331
2FB3
  5
2F1C
331
2E1C
  5
2E7E
331
2DE5
  5
2D9C
331
2E6B
  5
2FA2
331
3405
  5
345B
331
2DED
  5
2FB0
331
2E24
  5
2E0F
331
2F11
  5
3007
331
2862
  5
2860
331
2734
  5
2587
331
259F
  5
25A1
331
2665
  5
2763
331
2568
  5
259A
331
25A7
  5
25DF
331
273C
  5
258F
331
2744
  5
261F
331
25EE
  5
2646
331
268D
  5
268E
331
2A62
  5
2A82
331
274C
  5
261A
331
25B7
  5
25F1
331
25F6
  5
264D
331
2F7C
  5
31A2
331
2DB6
  5
2F94
331
3131
  5
3227
331
2EDA
  5
2FB8
331
2D7F
  5
2F8E
331
3455
  5
263A
331
2E05
  5
2EEA
331
2EE2
  5
2FB9
331
2F9C
  5
2F39
331
2DCE
  5
2FB3
331
2774
  5
2775
331
2A7A
  5
2A8F
331
2580
  5
25B4
331
25BF
  5
2608
331
277C
  5
277F
331
2A82
  5
2AE0
331
2725
  5
261D
331
2588
  5
25BC
331
261E
  5
2688
331
2590
  5
25C5
331
25CF
  5
2632
331
272D
  5
2580
331
2EF2
  5
2E6E
331
2D60
  5
2F87
331
2E9B
  5
2E9F
331
2EFA
  5
2E83
331
3191
  5
31C2
331
3013
  5
31AD
331
2E6C
  5
2FA4
331
2FBC
  5
2F01
331
31A1
  5
31B1
331
3406
  5
3467
331
340E
  5
2A7E
331
337F
  5
3408
331
2F12
  5
3008
331
3467
  5
2CC2
331
2598
  5
25D1
331
2863
  5
285E
331
2735
  5
273C
331
273D
  5
2590
331
2569
  5
259B
331
2686
  5
276C
331
2745
  5
2620
331
25B0
  5
25E9
331
268E
  5
268F
331
274D
  5
261B
331
25F7
  5
264E
331
2BB1
  5
2CB6
331
2DB7
  5
2F95
331
2E2D
  5
2F88
331
2F85
  5
2F70
331
2F1A
  5
2FBD
331
2E84
  5
2DA5
331
2D80
  5
2F8F
331
3456
  5
346E
331
2E06
  5
2EEB
331
2D49
  5
2F7D
331
2E4D
  5
2FAF
331
2EE3
  5
2FBA
331
2F9D
  5
2F47
331
2DCF
  5
2FB4
331
2E55
  5
2FA9
331
25B8
  5
25F2
331
2775
  5
2778
331
2581
  5
25B6
331
25C0
  5
2609
331
277D
  5
2780
331
2589
  5
25BD
331
2591
  5
25C6
331
272E
  5
2581
331
2A93
  5
2ADB
331
30E3
  5
321B
331
32C8
  5
33F1
331
2DD7
  5
2DB1
331
2E0E
  5
2E94
331
30EB
  5
31F9
331
2DA0
  5
2F9A
331
3192
  5
31C3
331
2FBD
  5
2F17
331
3407
  5
3468
331
2E26
  5
2E10
331
3468
  5
2D07
331
2599
  5
25D2
331
25D0
  5
2633
331
2736
  5
2589
331
2562
  5
257F
331
25A1
  5
25A7
331
25E0
  5
263B
331
2864
  5
287C
331
2AA3
  5
2B46
331
273E
  5
2591
331
256A
  5
259C
331
25A9
  5
25E1
331
2687
  5
2773
331
2ADB
  5
2B5E
331
2746
  5
2621
331
2572
  5
25A3
331
25B1
  5
25EA
331
25F0
  5
2649
331
268F
  5
2690
331
287C
  5
2890
331
274E
  5
261C
331
2DB8
  5
2F96
331
2F86
  5
2F71
331
2F1B
  5
2FBE
331
31C2
  5
3243
331
2D81
  5
2F90
331
2E85
  5
2DB0
331
2F2B
  5
3013
331
2E8D
  5
2E00
331
2D4A
  5
2F7E
331
2EE4
  5
2FBB
331
2E56
  5
2FAA
  0
SORTENTSTABLE
  5
27BD
102
{ACAD_REACTORS
330
2793
102
}
330
2793
100
AcDbSortentsTable
330
2787
  0
SORTENTSTABLE
  5
27AE
102
{ACAD_REACTORS
330
27AD
102
}
330
27AD
100
AcDbSortentsTable
330
27A3
  0
SORTENTSTABLE
  5
2FE4
102
{ACAD_REACTORS
330
2FE3
102
}
330
2FE3
100
AcDbSortentsTable
330
2FD7
  0
SORTENTSTABLE
  5
3032
102
{ACAD_REACTORS
330
3031
102
}
330
3031
100
AcDbSortentsTable
330
3025
  0
SORTENTSTABLE
  5
312E
102
{ACAD_REACTORS
330
312D
102
}
330
312D
100
AcDbSortentsTable
330
3123
  0
SORTENTSTABLE
  5
313D
102
{ACAD_REACTORS
330
313C
102
}
330
313C
100
AcDbSortentsTable
330
3132
  0
SORTENTSTABLE
  5
314C
102
{ACAD_REACTORS
330
314B
102
}
330
314B
100
AcDbSortentsTable
330
3141
  0
SORTENTSTABLE
  5
31F6
102
{ACAD_REACTORS
330
31F5
102
}
330
31F5
100
AcDbSortentsTable
330
31E9
  0
SORTENTSTABLE
  5
3215
102
{ACAD_REACTORS
330
3214
102
}
330
3214
100
AcDbSortentsTable
330
3208
  0
SORTENTSTABLE
  5
3237
102
{ACAD_REACTORS
330
3236
102
}
330
3236
100
AcDbSortentsTable
330
322A
  0
SORTENTSTABLE
  5
35A2
102
{ACAD_REACTORS
330
35A1
102
}
330
35A1
100
AcDbSortentsTable
330
3595
  0
SORTENTSTABLE
  5
35B5
102
{ACAD_REACTORS
330
35B4
102
}
330
35B4
100
AcDbSortentsTable
330
35AA
  0
SORTENTSTABLE
  5
35CB
102
{ACAD_REACTORS
330
35CA
102
}
330
35CA
100
AcDbSortentsTable
330
35B9
  0
SORTENTSTABLE
  5
360D
102
{ACAD_REACTORS
330
360C
102
}
330
360C
100
AcDbSortentsTable
330
35FB
  0
SORTENTSTABLE
  5
361E
102
{ACAD_REACTORS
330
361D
102
}
330
361D
100
AcDbSortentsTable
330
3611
  0
SORTENTSTABLE
  5
3657
102
{ACAD_REACTORS
330
3656
102
}
330
3656
100
AcDbSortentsTable
330
364A
  0
XRECORD
  5
36E0
102
{ACAD_REACTORS
330
36DF
102
}
330
36DF
100
AcDbXrecord
280
     1
 40
14518.0
  1
Płytka SOLBET
  0
XRECORD
  5
36E2
102
{ACAD_REACTORS
330
36E1
102
}
330
36E1
100
AcDbXrecord
280
     1
 40
16792.0
  1
Nadproża SOLBET
  0
XRECORD
  5
36E4
102
{ACAD_REACTORS
330
36E3
102
}
330
36E3
100
AcDbXrecord
280
     1
 40
40925.0
  1
Profil tynkarski narożny
  0
XRECORD
  5
351D
102
{ACAD_REACTORS
330
351C
102
}
330
351C
100
AcDbXrecord
280
     1
 40
18477.0
  1
\pxql;Wieniec żelbetowy
  0
XRECORD
  5
36E5
102
{ACAD_REACTORS
330
351C
102
}
330
351C
100
AcDbXrecord
280
     1
 40
25446.0
  1
Wieniec żelbetowy
  0
DICTIONARY
  5
2ADD
102
{ACAD_REACTORS
330
2ADC
102
}
330
2ADC
100
AcDbDictionary
281
     1
  3
ACDB_ANNOTATIONSCALES
350
2ADE
  0
XRECORD
  5
36E6
102
{ACAD_REACTORS
330
2AE1
102
}
330
2AE1
100
AcDbXrecord
280
     1
 40
197721.0
  1
{\L\P\H0.5x;\lPłytki SOLBETjako element obudowy wieńca}
  0
DICTIONARY
  5
2AE2
102
{ACAD_REACTORS
330
2AE1
102
}
330
2AE1
100
AcDbDictionary
281
     1
  3
ACDB_ANNOTATIONSCALES
350
2AE3
  0
XRECORD
  5
36E7
102
{ACAD_REACTORS
330
2AEE
102
}
330
2AEE
100
AcDbXrecord
280
     1
 40
313641.0
  1
12 cm minimalna długość bloczka\Pprzy zakończeniu ściany 
  0
DICTIONARY
  5
2AEF
102
{ACAD_REACTORS
330
2AEE
102
}
330
2AEE
100
AcDbDictionary
281
     1
  3
ACDB_ANNOTATIONSCALES
350
2AF0
  0
XRECORD
  5
36E9
102
{ACAD_REACTORS
330
36E8
102
}
330
36E8
100
AcDbXrecord
280
     1
 40
163709.0
  1
Bloczki docięte do wysokości strefy podokiennej
  0
XRECORD
  5
36EA
102
{ACAD_REACTORS
330
2BAD
102
}
330
2BAD
100
AcDbXrecord
280
     1
 40
84517.0
  1
{\L\P\H0.5x;\lZasięg zbrojenia MURFOR}
  0
DICTIONARY
  5
2BAE
102
{ACAD_REACTORS
330
2BAD
102
}
330
2BAD
100
AcDbDictionary
281
     1
  3
ACDB_ANNOTATIONSCALES
350
2BAF
  0
XRECORD
  5
36EB
102
{ACAD_REACTORS
330
2BB2
102
}
330
2BB2
100
AcDbXrecord
280
     1
 40
172136.0
  1
{\L\P\H0.5x;\l(minimalna długość zakotwienia)}
  0
DICTIONARY
  5
2BB3
102
{ACAD_REACTORS
330
2BB2
102
}
330
2BB2
100
AcDbDictionary
281
     1
  3
ACDB_ANNOTATIONSCALES
350
2BB4
  0
DICTIONARY
  5
30F2
102
{ACAD_REACTORS
330
30F1
102
}
330
30F1
100
AcDbDictionary
281
     1
  3
ACDB_ANNOTATIONSCALES
350
30F3
  0
XRECORD
  5
36A0
102
{ACAD_REACTORS
330
369F
102
}
330
369F
100
AcDbXrecord
280
     1
 40
24748.0
  1
\pxqc;C\P(5 : 1)
  0
LAYOUT
  5
D3
102
{ACAD_XDICTIONARY
360
36D6
102
}
102
{ACAD_REACTORS
330
1A
102
}
330
1A
100
AcDbPlotSettings
  1

  2
C:\Documents and Settings\basas\Application Data\Autodesk\AutoCAD 2005\R16.1\enu\plotters\Default Windows System Printer.pc3
  4

  6

 40
0.0
 41
0.0
 42
0.0
 43
0.0
 44
0.0
 45
0.0
 46
0.0
 47
0.0
 48
0.0
 49
0.0
140
0.0
141
0.0
142
1.0
143
1.0
 70
   688
 72
     0
 73
     0
 74
     5
  7

 75
    16
147
1.0
148
0.0
149
0.0
100
AcDbLayout
  1
Arkusz1
 70
     1
 71
     1
 10
0.0
 20
0.0
 11
12.0
 21
9.0
 12
0.0
 22
0.0
 32
0.0
 14
0.0
 24
0.0
 34
0.0
 15
0.0
 25
0.0
 35
0.0
146
0.0
 13
0.0
 23
0.0
 33
0.0
 16
1.0
 26
0.0
 36
0.0
 17
0.0
 27
1.0
 37
0.0
 76
     0
330
D2
  0
LAYOUT
  5
D7
102
{ACAD_XDICTIONARY
360
36D8
102
}
102
{ACAD_REACTORS
330
1A
102
}
330
1A
100
AcDbPlotSettings
  1

  2
C:\Documents and Settings\basas\Application Data\Autodesk\AutoCAD 2005\R16.1\enu\plotters\Default Windows System Printer.pc3
  4

  6

 40
0.0
 41
0.0
 42
0.0
 43
0.0
 44
0.0
 45
0.0
 46
0.0
 47
0.0
 48
0.0
 49
0.0
140
0.0
141
0.0
142
1.0
143
1.0
 70
   688
 72
     0
 73
     0
 74
     5
  7

 75
    16
147
1.0
148
0.0
149
0.0
100
AcDbLayout
  1
Arkusz2
 70
     1
 71
     2
 10
0.0
 20
0.0
 11
12.0
 21
9.0
 12
0.0
 22
0.0
 32
0.0
 14
0.0
 24
0.0
 34
0.0
 15
0.0
 25
0.0
 35
0.0
146
0.0
 13
0.0
 23
0.0
 33
0.0
 16
1.0
 26
0.0
 36
0.0
 17
0.0
 27
1.0
 37
0.0
 76
     0
330
D6
  0
LAYOUT
  5
22
102
{ACAD_XDICTIONARY
360
36D3
102
}
102
{ACAD_REACTORS
330
1A
102
}
330
1A
100
AcDbPlotSettings
  1

  2
none_device
  4
Letter_(8.50_x_11.00_Inches)
  6

 40
6.349999904632568
 41
6.349999904632568
 42
6.350006103515625
 43
6.350006103515625
 44
215.8999938964844
 45
279.3999938964844
 46
11.54999923706054
 47
-13.65000009536743
 48
0.0
 49
0.0
140
210.0
141
297.0
142
1.0
143
1.0
 70
 11936
 72
     1
 73
     0
 74
     4
  7

 75
     0
147
0.9999999999999998
148
0.0
149
0.0
100
AcDbLayout
  1
Model
 70
     1
 71
     0
 10
0.0
 20
0.0
 11
12.0
 21
9.0
 12
0.0
 22
0.0
 32
0.0
 14
0.0
 24
0.0
 34
0.0
 15
0.0
 25
0.0
 35
0.0
146
0.0
 13
0.0
 23
0.0
 33
0.0
 16
1.0
 26
0.0
 36
0.0
 17
0.0
 27
1.0
 37
0.0
 76
     0
330
1F
331
EA
1001
ACAD_PSEXT
1000
Brak
1000
Brak
1000
Nie można zastosować.
1000
Arkusz nie zostanie wydrukowany dopóki nie wybrano konfiguracji plotera.
1070
     0
  0
MATERIAL
  5
ED
102
{ACAD_XDICTIONARY
360
36DC
102
}
102
{ACAD_REACTORS
330
6A
102
}
330
6A
100
AcDbMaterial
  1
ByBlock
 73
     2
 78
     2
172
     2
176
     2
270
     2
274
     2
  0
MATERIAL
  5
EC
102
{ACAD_XDICTIONARY
360
36DA
102
}
102
{ACAD_REACTORS
330
6A
102
}
330
6A
100
AcDbMaterial
  1
ByLayer
 73
     2
 78
     2
172
     2
176
     2
270
     2
274
     2
  0
MATERIAL
  5
EE
102
{ACAD_XDICTIONARY
360
173
102
}
102
{ACAD_REACTORS
330
6A
102
}
330
6A
100
AcDbMaterial
  1
Global
 73
     2
 43
0.0007999999797903
 43
0.0
 43
0.0
 43
0.0
 43
0.0
 43
0.0007999999797903
 43
0.0
 43
0.0
 43
0.0
 43
0.0
 43
1.0
 43
0.0
 43
0.0
 43
0.0
 43
0.0
 43
1.0
 78
     2
172
     2
 49
0.0007999999797903
 49
0.0
 49
0.0
 49
0.0
 49
0.0
 49
0.0007999999797903
 49
0.0
 49
0.0
 49
0.0
 49
0.0
 49
1.0
 49
0.0
 49
0.0
 49
0.0
 49
0.0
 49
1.0
176
     2
142
0.0007999999797903
142
0.0
142
0.0
142
0.0
142
0.0
142
0.0007999999797903
142
0.0
142
0.0
142
0.0
142
0.0
142
1.0
142
0.0
142
0.0
142
0.0
142
0.0
142
1.0
270
     2
144
0.0007999999797903
144
0.0
144
0.0
144
0.0
144
0.0
144
0.0007999999797903
144
0.0
144
0.0
144
0.0
144
0.0
144
1.0
144
0.0
144
0.0
144
0.0
144
0.0
144
1.0
274
     2
1001
ACAD
1070
    -1
1070
     3
1070
     0
1000

1071
        0
1070
     0
  0
ACAD_PROXY_OBJECT
  5
12E
102
{ACAD_REACTORS
330
12D
102
}
330
12D
100
AcDbProxyObject
 90
      499
 91
      508
 95
       23
 70
     0
 93
      618
310
40901902A4063FBFFFFFE0000000000000020400000000000020404254DD185B99185C99000000000000000104090140501A0000000000000410000000000000004102576400000000000003903F
340
14
340
0
340
11
340
0
 94
        0
1001
ACAD_MLEADERVER
1070
     2
1001
ACAD
1000
AcRTDxfName
1000
MLEADERSTYLE
1000
AcRTDxfName
1000
MLEADERSTYLE
  0
MLINESTYLE
  5
7E9
102
{ACAD_REACTORS
330
17
102
}
330
17
100
AcDbMlineStyle
  2
SOLBET_IZOLACJA
 70
   272
  3

 62
   256
 51
90.0
 52
90.0
 71
     2
 49
0.008
 62
   256
  6
BYLAYER
 49
-0.008
 62
   256
  6
BYLAYER
  0
MLINESTYLE
  5
18
102
{ACAD_REACTORS
330
17
102
}
330
17
100
AcDbMlineStyle
  2
STANDARD
 70
     0
  3

 62
   256
 51
90.0
 52
90.0
 71
     2
 49
0.5
 62
   256
  6
BYLAYER
 49
-0.5
 62
   256
  6
BYLAYER
  0
ACDBPLACEHOLDER
  5
F
102
{ACAD_REACTORS
330
E
102
}
330
E
  0
ACAD_PROXY_OBJECT
  5
10D
102
{ACAD_REACTORS
330
10C
102
}
330
10C
100
AcDbProxyObject
 90
      499
 91
      507
 95
       23
 70
     0
 93
       49
310
904313A31005FF
 94
        0
1001
ACAD
1000
AcRTDxfName
1000
SCALE
1000
AcRTDxfName
1000
SCALE
  0
ACAD_PROXY_OBJECT
  5
188
102
{ACAD_REACTORS
330
10C
102
}
330
10C
100
AcDbProxyObject
 90
      499
 91
      507
 95
       23
 70
     0
 93
      113
310
904313A3200400000000000000407F
 94
        0
1001
ACAD
1000
AcRTDxfName
1000
SCALE
1000
AcRTDxfName
1000
SCALE
  0
ACAD_PROXY_OBJECT
  5
189
102
{ACAD_REACTORS
330
10C
102
}
330
10C
100
AcDbProxyObject
 90
      499
 91
      507
 95
       23
 70
     0
 93
      113
310
904313A3400400000000000010407F
 94
        0
1001
ACAD
1000
AcRTDxfName
1000
SCALE
1000
AcRTDxfName
1000
SCALE
  0
ACAD_PROXY_OBJECT
  5
18A
102
{ACAD_REACTORS
330
10C
102
}
330
10C
100
AcDbProxyObject
 90
      499
 91
      507
 95
       23
 70
     0
 93
      113
310
904313A3500400000000000014407F
 94
        0
1001
ACAD
1000
AcRTDxfName
1000
SCALE
1000
AcRTDxfName
1000
SCALE
  0
ACAD_PROXY_OBJECT
  5
18B
102
{ACAD_REACTORS
330
10C
102
}
330
10C
100
AcDbProxyObject
 90
      499
 91
      507
 95
       23
 70
     0
 93
      113
310
904313A3800400000000000020407F
 94
        0
1001
ACAD
1000
AcRTDxfName
1000
SCALE
1000
AcRTDxfName
1000
SCALE
  0
ACAD_PROXY_OBJECT
  5
18C
102
{ACAD_REACTORS
330
10C
102
}
330
10C
100
AcDbProxyObject
 90
      499
 91
      507
 95
       23
 70
     0
 93
      121
310
905313A313000400000000000024407F
 94
        0
1001
ACAD
1000
AcRTDxfName
1000
SCALE
1000
AcRTDxfName
1000
SCALE
  0
ACAD_PROXY_OBJECT
  5
18D
102
{ACAD_REACTORS
330
10C
102
}
330
10C
100
AcDbProxyObject
 90
      499
 91
      507
 95
       23
 70
     0
 93
      121
310
905313A313600400000000000030407F
 94
        0
1001
ACAD
1000
AcRTDxfName
1000
SCALE
1000
AcRTDxfName
1000
SCALE
  0
ACAD_PROXY_OBJECT
  5
18E
102
{ACAD_REACTORS
330
10C
102
}
330
10C
100
AcDbProxyObject
 90
      499
 91
      507
 95
       23
 70
     0
 93
      121
310
905313A323000400000000000034407F
 94
        0
1001
ACAD
1000
AcRTDxfName
1000
SCALE
1000
AcRTDxfName
1000
SCALE
  0
ACAD_PROXY_OBJECT
  5
18F
102
{ACAD_REACTORS
330
10C
102
}
330
10C
100
AcDbProxyObject
 90
      499
 91
      507
 95
       23
 70
     0
 93
      121
310
905313A33300040000000000003E407F
 94
        0
1001
ACAD
1000
AcRTDxfName
1000
SCALE
1000
AcRTDxfName
1000
SCALE
  0
ACAD_PROXY_OBJECT
  5
190
102
{ACAD_REACTORS
330
10C
102
}
330
10C
100
AcDbProxyObject
 90
      499
 91
      507
 95
       23
 70
     0
 93
      121
310
905313A343000400000000000044407F
 94
        0
1001
ACAD
1000
AcRTDxfName
1000
SCALE
1000
AcRTDxfName
1000
SCALE
  0
ACAD_PROXY_OBJECT
  5
191
102
{ACAD_REACTORS
330
10C
102
}
330
10C
100
AcDbProxyObject
 90
      499
 91
      507
 95
       23
 70
     0
 93
      121
310
905313A353000400000000000049407F
 94
        0
1001
ACAD
1000
AcRTDxfName
1000
SCALE
1000
AcRTDxfName
1000
SCALE
  0
ACAD_PROXY_OBJECT
  5
192
102
{ACAD_REACTORS
330
10C
102
}
330
10C
100
AcDbProxyObject
 90
      499
 91
      507
 95
       23
 70
     0
 93
      129
310
906313A31303000400000000000059407F
 94
        0
1001
ACAD
1000
AcRTDxfName
1000
SCALE
1000
AcRTDxfName
1000
SCALE
  0
ACAD_PROXY_OBJECT
  5
193
102
{ACAD_REACTORS
330
10C
102
}
330
10C
100
AcDbProxyObject
 90
      499
 91
      507
 95
       23
 70
     0
 93
      113
310
904323A3100000000000000001017F
 94
        0
1001
ACAD
1000
AcRTDxfName
1000
SCALE
1000
AcRTDxfName
1000
SCALE
  0
ACAD_PROXY_OBJECT
  5
194
102
{ACAD_REACTORS
330
10C
102
}
330
10C
100
AcDbProxyObject
 90
      499
 91
      507
 95
       23
 70
     0
 93
      113
310
904343A3100000000000000041017F
 94
        0
1001
ACAD
1000
AcRTDxfName
1000
SCALE
1000
AcRTDxfName
1000
SCALE
  0
ACAD_PROXY_OBJECT
  5
195
102
{ACAD_REACTORS
330
10C
102
}
330
10C
100
AcDbProxyObject
 90
      499
 91
      507
 95
       23
 70
     0
 93
      113
310
904383A3100000000000000081017F
 94
        0
1001
ACAD
1000
AcRTDxfName
1000
SCALE
1000
AcRTDxfName
1000
SCALE
  0
ACAD_PROXY_OBJECT
  5
196
102
{ACAD_REACTORS
330
10C
102
}
330
10C
100
AcDbProxyObject
 90
      499
 91
      507
 95
       23
 70
     0
 93
      121
310
90531303A3100000000000000091017F
 94
        0
1001
ACAD
1000
AcRTDxfName
1000
SCALE
1000
AcRTDxfName
1000
SCALE
  0
ACAD_PROXY_OBJECT
  5
197
102
{ACAD_REACTORS
330
10C
102
}
330
10C
100
AcDbProxyObject
 90
      499
 91
      507
 95
       23
 70
     0
 93
      129
310
9063130303A3100000000000000165017F
 94
        0
1001
ACAD
1000
AcRTDxfName
1000
SCALE
1000
AcRTDxfName
1000
SCALE
  0
ACAD_PROXY_OBJECT
  5
198
102
{ACAD_REACTORS
330
10C
102
}
330
10C
100
AcDbProxyObject
 90
      499
 91
      507
 95
       23
 70
     0
 93
      265
310
90F312F31323822203D2031272D302200000000000000200FC00000000000028407F
 94
        0
1001
ACAD
1000
AcRTDxfName
1000
SCALE
1000
AcRTDxfName
1000
SCALE
  0
ACAD_PROXY_OBJECT
  5
199
102
{ACAD_REACTORS
330
10C
102
}
330
10C
100
AcDbProxyObject
 90
      499
 91
      507
 95
       23
 70
     0
 93
      257
310
90E312F363422203D2031272D302200000000000000240FC00000000000028407F
 94
        0
1001
ACAD
1000
AcRTDxfName
1000
SCALE
1000
AcRTDxfName
1000
SCALE
  0
ACAD_PROXY_OBJECT
  5
19A
102
{ACAD_REACTORS
330
10C
102
}
330
10C
100
AcDbProxyObject
 90
      499
 91
      507
 95
       23
 70
     0
 93
      257
310
90E312F333222203D2031272D302200000000000000280FC00000000000028407F
 94
        0
1001
ACAD
1000
AcRTDxfName
1000
SCALE
1000
AcRTDxfName
1000
SCALE
  0
ACAD_PROXY_OBJECT
  5
19B
102
{ACAD_REACTORS
330
10C
102
}
330
10C
100
AcDbProxyObject
 90
      499
 91
      507
 95
       23
 70
     0
 93
      257
310
90E312F313622203D2031272D3022000000000000002C0FC00000000000028407F
 94
        0
1001
ACAD
1000
AcRTDxfName
1000
SCALE
1000
AcRTDxfName
1000
SCALE
  0
ACAD_PROXY_OBJECT
  5
19C
102
{ACAD_REACTORS
330
10C
102
}
330
10C
100
AcDbProxyObject
 90
      499
 91
      507
 95
       23
 70
     0
 93
      257
310
90E332F333222203D2031272D3022000000000000002E0FC00000000000028407F
 94
        0
1001
ACAD
1000
AcRTDxfName
1000
SCALE
1000
AcRTDxfName
1000
SCALE
  0
ACAD_PROXY_OBJECT
  5
19D
102
{ACAD_REACTORS
330
10C
102
}
330
10C
100
AcDbProxyObject
 90
      499
 91
      507
 95
       23
 70
     0
 93
      249
310
90D312F3822203D2031272D302200000000000000300FC00000000000028407F
 94
        0
1001
ACAD
1000
AcRTDxfName
1000
SCALE
1000
AcRTDxfName
1000
SCALE
  0
ACAD_PROXY_OBJECT
  5
19E
102
{ACAD_REACTORS
330
10C
102
}
330
10C
100
AcDbProxyObject
 90
      499
 91
      507
 95
       23
 70
     0
 93
      257
310
90E332F313622203D2031272D302200000000000000320FC00000000000028407F
 94
        0
1001
ACAD
1000
AcRTDxfName
1000
SCALE
1000
AcRTDxfName
1000
SCALE
  0
ACAD_PROXY_OBJECT
  5
19F
102
{ACAD_REACTORS
330
10C
102
}
330
10C
100
AcDbProxyObject
 90
      499
 91
      507
 95
       23
 70
     0
 93
      249
310
90D312F3422203D2031272D302200000000000000340FC00000000000028407F
 94
        0
1001
ACAD
1000
AcRTDxfName
1000
SCALE
1000
AcRTDxfName
1000
SCALE
  0
ACAD_PROXY_OBJECT
  5
1A0
102
{ACAD_REACTORS
330
10C
102
}
330
10C
100
AcDbProxyObject
 90
      499
 91
      507
 95
       23
 70
     0
 93
      249
310
90D332F3822203D2031272D302200000000000000360FC00000000000028407F
 94
        0
1001
ACAD
1000
AcRTDxfName
1000
SCALE
1000
AcRTDxfName
1000
SCALE
  0
ACAD_PROXY_OBJECT
  5
1A1
102
{ACAD_REACTORS
330
10C
102
}
330
10C
100
AcDbProxyObject
 90
      499
 91
      507
 95
       23
 70
     0
 93
      249
310
90D312F3222203D2031272D302200000000000000380FC00000000000028407F
 94
        0
1001
ACAD
1000
AcRTDxfName
1000
SCALE
1000
AcRTDxfName
1000
SCALE
  0
ACAD_PROXY_OBJECT
  5
1A2
102
{ACAD_REACTORS
330
10C
102
}
330
10C
100
AcDbProxyObject
 90
      499
 91
      507
 95
       23
 70
     0
 93
      249
310
90D332F3422203D2031272D3022000000000000003A0FC00000000000028407F
 94
        0
1001
ACAD
1000
AcRTDxfName
1000
SCALE
1000
AcRTDxfName
1000
SCALE
  0
ACAD_PROXY_OBJECT
  5
1A3
102
{ACAD_REACTORS
330
10C
102
}
330
10C
100
AcDbProxyObject
 90
      499
 91
      507
 95
       23
 70
     0
 93
      169
310
90B3122203D2031272D302200400000000000028407F
 94
        0
1001
ACAD
1000
AcRTDxfName
1000
SCALE
1000
AcRTDxfName
1000
SCALE
  0
ACAD_PROXY_OBJECT
  5
1A4
102
{ACAD_REACTORS
330
10C
102
}
330
10C
100
AcDbProxyObject
 90
      499
 91
      507
 95
       23
 70
     0
 93
      265
310
90F312D312F3222203D2031272D3022000000000000003E0FC00000000000028407F
 94
        0
1001
ACAD
1000
AcRTDxfName
1000
SCALE
1000
AcRTDxfName
1000
SCALE
  0
ACAD_PROXY_OBJECT
  5
1A5
102
{ACAD_REACTORS
330
10C
102
}
330
10C
100
AcDbProxyObject
 90
      499
 91
      507
 95
       23
 70
     0
 93
      233
310
90B3322203D2031272D3022000000000000000210000000000000028407F
 94
        0
1001
ACAD
1000
AcRTDxfName
1000
SCALE
1000
AcRTDxfName
1000
SCALE
  0
ACAD_PROXY_OBJECT
  5
1A6
102
{ACAD_REACTORS
330
10C
102
}
330
10C
100
AcDbProxyObject
 90
      499
 91
      507
 95
       23
 70
     0
 93
      233
310
90B3622203D2031272D3022000000000000000610000000000000028407F
 94
        0
1001
ACAD
1000
AcRTDxfName
1000
SCALE
1000
AcRTDxfName
1000
SCALE
  0
ACAD_PROXY_OBJECT
  5
1A7
102
{ACAD_REACTORS
330
10C
102
}
330
10C
100
AcDbProxyObject
 90
      499
 91
      507
 95
       23
 70
     0
 93
      257
310
90E31272D3022203D2031272D3022000000000000000A10000000000000028407F
 94
        0
1001
ACAD
1000
AcRTDxfName
1000
SCALE
1000
AcRTDxfName
1000
SCALE
  0
TABLESTYLE
  5
7F
102
{ACAD_XDICTIONARY
360
162
102
}
102
{ACAD_REACTORS
330
7E
102
}
330
7E
100
AcDbTableStyle
  3
Standard
 70
     0
 71
     0
 40
1.5
 41
1.5
280
     0
281
     0
  7
Standard
140
4.5
170
     2
 62
     0
 63
     7
283
     0
274
    -2
284
     1
 64
     0
275
    -2
285
     1
 65
     0
276
    -2
286
     1
 66
     0
277
    -2
287
     1
 67
     0
278
    -2
288
     1
 68
     0
279
    -2
289
     1
 69
     0
  7
Standard
140
6.0
170
     5
 62
     0
 63
     7
283
     0
274
    -2
284
     1
 64
     0
275
    -2
285
     1
 65
     0
276
    -2
286
     1
 66
     0
277
    -2
287
     1
 67
     0
278
    -2
288
     1
 68
     0
279
    -2
289
     1
 69
     0
  7
Standard
140
4.5
170
     5
 62
     0
 63
     7
283
     0
274
    -2
284
     1
 64
     0
275
    -2
285
     1
 65
     0
276
    -2
286
     1
 66
     0
277
    -2
287
     1
 67
     0
278
    -2
288
     1
 68
     0
279
    -2
289
     1
 69
     0
  0
VISUALSTYLE
  5
F5
102
{ACAD_REACTORS
330
EF
102
}
330
EF
100
AcDbVisualStyle
  2
2dWireframe
 70
     4
 71
     0
 72
     2
 73
     1
 90
        0
 40
-0.6
 41
-30.0
 62
     5
 63
     7
 74
     1
 91
        4
 64
     7
 65
   257
 75
     1
175
     1
 42
1.0
 92
        0
 66
   257
 43
1.0
 76
     1
 77
     6
 78
     2
 67
     7
 79
     5
170
     0
171
     0
290
     0
174
     0
 93
        1
 44
0.0
173
     0
291
     0
 45
0.0
1001
ACAD
1000
AcDbSavedByObjectVersion
1070
     0
  0
VISUALSTYLE
  5
F7
102
{ACAD_REACTORS
330
EF
102
}
330
EF
100
AcDbVisualStyle
  2
3D Hidden
 70
     6
 71
     1
 72
     2
 73
     2
 90
        0
 40
-0.6
 41
-30.0
 62
     5
 63
     7
 74
     2
 91
        2
 64
     7
 65
   257
 75
     2
175
     1
 42
40.0
 92
        0
 66
   257
 43
1.0
 76
     1
 77
     6
 78
     2
 67
     7
 79
     3
170
     0
171
     0
290
     0
174
     0
 93
        1
 44
0.0
173
     0
291
     0
 45
0.0
1001
ACAD
1000
AcDbSavedByObjectVersion
1070
     0
  0
VISUALSTYLE
  5
F6
102
{ACAD_REACTORS
330
EF
102
}
330
EF
100
AcDbVisualStyle
  2
3dWireframe
 70
     5
 71
     0
 72
     2
 73
     1
 90
        0
 40
-0.6
 41
-30.0
 62
     5
 63
     7
 74
     1
 91
        4
 64
     7
 65
   257
 75
     1
175
     1
 42
1.0
 92
        0
 66
   257
 43
1.0
 76
     1
 77
     6
 78
     2
 67
     7
 79
     5
170
     0
171
     0
290
     0
174
     0
 93
        1
 44
0.0
173
     0
291
     0
 45
0.0
1001
ACAD
1000
AcDbSavedByObjectVersion
1070
     0
  0
VISUALSTYLE
  5
F4
102
{ACAD_REACTORS
330
EF
102
}
330
EF
100
AcDbVisualStyle
  2
Basic
 70
     7
 71
     1
 72
     0
 73
     1
 90
        0
 40
-0.6
 41
-30.0
 62
     5
 63
     7
 74
     0
 91
        4
 64
     7
 65
   257
 75
     1
175
     1
 42
1.0
 92
        8
 66
     7
 43
1.0
 76
     1
 77
     6
 78
     2
 67
     7
 79
     5
170
     0
171
     0
290
     0
174
     0
 93
        1
 44
0.0
173
     0
291
     1
 45
0.0
1001
ACAD
1000
AcDbSavedByObjectVersion
1070
     0
  0
VISUALSTYLE
  5
FB
102
{ACAD_REACTORS
330
EF
102
}
330
EF
100
AcDbVisualStyle
  2
Brighten
 70
    12
 71
     2
 72
     2
 73
     1
 90
        0
 40
-0.6
 41
-30.0
 62
     5
 63
     7
 74
     1
 91
        4
 64
     7
 65
   257
 75
     1
175
     1
 42
1.0
 92
        8
 66
     7
 43
1.0
 76
     1
 77
     6
 78
     2
 67
     7
 79
     5
170
     0
171
     0
290
     0
174
     0
 93
        1
 44
50.0
173
     0
291
     1
 45
0.0
1001
ACAD
1000
AcDbSavedByObjectVersion
1070
     0
  0
VISUALSTYLE
  5
FF
102
{ACAD_REACTORS
330
EF
102
}
330
EF
100
AcDbVisualStyle
  2
ColorChange
 70
    16
 71
     2
 72
     2
 73
     3
 90
        0
 40
-0.6
 41
-30.0
 62
     5
 63
     8
 74
     1
 91
        4
 64
     7
 65
   257
 75
     1
175
     1
 42
1.0
 92
        8
 66
     8
 43
1.0
 76
     1
 77
     6
 78
     2
 67
     7
 79
     5
170
     0
171
     0
290
     0
174
     0
 93
        1
 44
0.0
173
     0
291
     1
 45
0.0
1001
ACAD
1000
AcDbSavedByObjectVersion
1070
     0
  0
VISUALSTYLE
  5
F8
102
{ACAD_REACTORS
330
EF
102
}
330
EF
100
AcDbVisualStyle
  2
Conceptual
 70
     9
 71
     3
 72
     2
 73
     1
 90
        0
 40
-0.6
 41
-30.0
 62
     5
 63
     7
 74
     2
 91
        2
 64
     7
 65
   257
 75
     1
175
     1
 42
40.0
 92
        8
 66
     7
 43
1.0
 76
     1
 77
     6
 78
     2
 67
     7
 79
     3
170
     0
171
     0
290
     0
174
     0
 93
        1
 44
0.0
173
     0
291
     0
 45
0.0
1001
ACAD
1000
AcDbSavedByObjectVersion
1070
     0
  0
VISUALSTYLE
  5
FA
102
{ACAD_REACTORS
330
EF
102
}
330
EF
100
AcDbVisualStyle
  2
Dim
 70
    11
 71
     2
 72
     2
 73
     1
 90
        0
 40
-0.6
 41
-30.0
 62
     5
 63
     7
 74
     1
 91
        4
 64
     7
 65
   257
 75
     1
175
     1
 42
1.0
 92
        8
 66
     7
 43
1.0
 76
     1
 77
     6
 78
     2
 67
     7
 79
     5
170
     0
171
     0
290
     0
174
     0
 93
        1
 44
-50.0
173
     0
291
     1
 45
0.0
1001
ACAD
1000
AcDbSavedByObjectVersion
1070
     0
  0
VISUALSTYLE
  5
FE
102
{ACAD_REACTORS
330
EF
102
}
330
EF
100
AcDbVisualStyle
  2
Facepattern
 70
    15
 71
     2
 72
     2
 73
     1
 90
        0
 40
-0.6
 41
-30.0
 62
     5
 63
     7
 74
     1
 91
        4
 64
     7
 65
   257
 75
     1
175
     1
 42
1.0
 92
        8
 66
     7
 43
1.0
 76
     1
 77
     6
 78
     2
 67
     7
 79
     5
170
     0
171
     0
290
     0
174
     0
 93
        1
 44
0.0
173
     0
291
     1
 45
0.0
1001
ACAD
1000
AcDbSavedByObjectVersion
1070
     0
  0
VISUALSTYLE
  5
F0
102
{ACAD_REACTORS
330
EF
102
}
330
EF
100
AcDbVisualStyle
  2
Flat
 70
     0
 71
     2
 72
     1
 73
     1
 90
        2
 40
-0.6
 41
30.0
 62
     5
 63
     7
 74
     0
 91
        4
 64
     7
 65
   257
 75
     1
175
     1
 42
1.0
 92
        8
 66
     7
 43
1.0
 76
     1
 77
     6
 78
     2
 67
     7
 79
     5
170
     0
171
     0
290
     0
174
     0
 93
        1
 44
0.0
173
     0
291
     1
 45
0.0
1001
ACAD
1000
AcDbSavedByObjectVersion
1070
     0
  0
VISUALSTYLE
  5
F1
102
{ACAD_REACTORS
330
EF
102
}
330
EF
100
AcDbVisualStyle
  2
FlatWithEdges
 70
     1
 71
     2
 72
     1
 73
     1
 90
        2
 40
-0.6
 41
30.0
 62
     5
 63
     7
 74
     1
 91
        4
 64
     7
 65
   257
 75
     1
175
     1
 42
1.0
 92
        0
 66
   257
 43
1.0
 76
     1
 77
     6
 78
     2
 67
     7
 79
     5
170
     0
171
     0
290
     0
174
     0
 93
        1
 44
0.0
173
     0
291
     1
 45
0.0
1001
ACAD
1000
AcDbSavedByObjectVersion
1070
     0
  0
VISUALSTYLE
  5
F2
102
{ACAD_REACTORS
330
EF
102
}
330
EF
100
AcDbVisualStyle
  2
Gouraud
 70
     2
 71
     2
 72
     2
 73
     1
 90
        2
 40
-0.6
 41
30.0
 62
     5
 63
     7
 74
     0
 91
        4
 64
     7
 65
   257
 75
     1
175
     1
 42
1.0
 92
        0
 66
     7
 43
1.0
 76
     1
 77
     6
 78
     2
 67
     7
 79
     5
170
     0
171
     0
290
     0
174
     0
 93
        1
 44
0.0
173
     0
291
     1
 45
0.0
1001
ACAD
1000
AcDbSavedByObjectVersion
1070
     0
  0
VISUALSTYLE
  5
F3
102
{ACAD_REACTORS
330
EF
102
}
330
EF
100
AcDbVisualStyle
  2
GouraudWithEdges
 70
     3
 71
     2
 72
     2
 73
     1
 90
        2
 40
-0.6
 41
30.0
 62
     5
 63
     7
 74
     1
 91
        4
 64
     7
 65
   257
 75
     1
175
     1
 42
1.0
 92
        0
 66
   257
 43
1.0
 76
     1
 77
     6
 78
     2
 67
     7
 79
     5
170
     0
171
     0
290
     0
174
     0
 93
        1
 44
0.0
173
     0
291
     1
 45
0.0
1001
ACAD
1000
AcDbSavedByObjectVersion
1070
     0
  0
VISUALSTYLE
  5
FD
102
{ACAD_REACTORS
330
EF
102
}
330
EF
100
AcDbVisualStyle
  2
Linepattern
 70
    14
 71
     2
 72
     2
 73
     1
 90
        0
 40
-0.6
 41
-30.0
 62
     5
 63
     7
 74
     1
 91
        4
 64
     7
 65
   257
 75
     7
175
     7
 42
1.0
 92
        8
 66
     7
 43
1.0
 76
     1
 77
     6
 78
     2
 67
     7
 79
     5
170
     0
171
     0
290
     0
174
     0
 93
        1
 44
0.0
173
     0
291
     1
 45
0.0
1001
ACAD
1000
AcDbSavedByObjectVersion
1070
     0
  0
VISUALSTYLE
  5
F9
102
{ACAD_REACTORS
330
EF
102
}
330
EF
100
AcDbVisualStyle
  2
Realistic
 70
     8
 71
     2
 72
     2
 73
     1
 90
        0
 40
-0.6
 41
-30.0
 62
     5
 63
     7
 74
     1
 91
        0
 64
     7
 65
   257
 75
     1
175
     1
 42
1.0
 92
        8
 66
     8
 43
1.0
 76
     1
 77
     6
 78
     2
 67
     7
 79
     5
170
     0
171
     0
290
     0
174
     0
 93
       13
 44
0.0
173
     0
291
     0
 45
0.0
1001
ACAD
1000
AcDbSavedByObjectVersion
1070
     0
  0
VISUALSTYLE
  5
FC
102
{ACAD_REACTORS
330
EF
102
}
330
EF
100
AcDbVisualStyle
  2
Thicken
 70
    13
 71
     2
 72
     2
 73
     1
 90
        0
 40
-0.6
 41
-30.0
 62
     5
 63
     7
 74
     1
 91
        4
 64
     7
 65
   257
 75
     1
175
     1
 42
1.0
 92
       12
 66
     7
 43
1.0
 76
     1
 77
     6
 78
     2
 67
     7
 79
     5
170
     0
171
     0
290
     0
174
     0
 93
        1
 44
0.0
173
     0
291
     1
 45
0.0
1001
ACAD
1000
AcDbSavedByObjectVersion
1070
     0
  0
DICTIONARYVAR
  5
146
102
{ACAD_REACTORS
330
5E
102
}
330
5E
100
DictionaryVariables
280
     0
  1
1:1
  0
DICTIONARYVAR
  5
145
102
{ACAD_REACTORS
330
5E
102
}
330
5E
100
DictionaryVariables
280
     0
  1
STANDARD
  0
DICTIONARYVAR
  5
84
102
{ACAD_REACTORS
330
5E
102
}
330
5E
100
DictionaryVariables
280
     0
  1
STANDARD
  0
DICTIONARYVAR
  5
5F
102
{ACAD_REACTORS
330
5E
102
}
330
5E
100
DictionaryVariables
280
     0
  1
2
  0
DICTIONARYVAR
  5
63
102
{ACAD_REACTORS
330
5E
102
}
330
5E
100
DictionaryVariables
280
     0
  1
1
  0
DICTIONARYVAR
  5
466
102
{ACAD_REACTORS
330
5E
102
}
330
5E
100
DictionaryVariables
280
     0
  1
0
  0
DICTIONARYVAR
  5
464
102
{ACAD_REACTORS
330
5E
102
}
330
5E
100
DictionaryVariables
280
     0
  1
2
  0
DICTIONARYVAR
  5
463
102
{ACAD_REACTORS
330
5E
102
}
330
5E
100
DictionaryVariables
280
     0
  1
1
  0
DICTIONARYVAR
  5
36D1
102
{ACAD_REACTORS
330
5E
102
}
330
5E
100
DictionaryVariables
280
     0
  1
80.000000
  0
DICTIONARYVAR
  5
36D0
102
{ACAD_REACTORS
330
5E
102
}
330
5E
100
DictionaryVariables
280
     0
  1
5.000000
  0
DICTIONARYVAR
  5
465
102
{ACAD_REACTORS
330
5E
102
}
330
5E
100
DictionaryVariables
280
     0
  1
127
  0
DICTIONARY
  5
2ADE
102
{ACAD_REACTORS
330
2ADD
102
}
330
2ADD
100
AcDbDictionary
281
     1
  0
DICTIONARY
  5
2AE3
102
{ACAD_REACTORS
330
2AE2
102
}
330
2AE2
100
AcDbDictionary
281
     1
  0
DICTIONARY
  5
2AF0
102
{ACAD_REACTORS
330
2AEF
102
}
330
2AEF
100
AcDbDictionary
281
     1
  0
DICTIONARY
  5
2BAF
102
{ACAD_REACTORS
330
2BAE
102
}
330
2BAE
100
AcDbDictionary
281
     1
  0
DICTIONARY
  5
2BB4
102
{ACAD_REACTORS
330
2BB3
102
}
330
2BB3
100
AcDbDictionary
281
     1
  0
DICTIONARY
  5
30F3
102
{ACAD_REACTORS
330
30F2
102
}
330
30F2
100
AcDbDictionary
281
     1
  0
DICTIONARY
  5
36D6
330
D3
100
AcDbDictionary
280
     1
281
     1
  3
ACAD_XREC_ROUNDTRIP
360
36D7
  0
DICTIONARY
  5
36D8
330
D7
100
AcDbDictionary
280
     1
281
     1
  3
ACAD_XREC_ROUNDTRIP
360
36D9
  0
DICTIONARY
  5
36D3
330
22
100
AcDbDictionary
280
     1
281
     1
  3
ACAD_XREC_ROUNDTRIP
360
36D4
  0
DICTIONARY
  5
36DC
330
ED
100
AcDbDictionary
280
     1
281
     1
  3
ACAD_XREC_ROUNDTRIP
360
36DD
  0
DICTIONARY
  5
36DA
330
EC
100
AcDbDictionary
280
     1
281
     1
  3
ACAD_XREC_ROUNDTRIP
360
36DB
  0
DICTIONARY
  5
173
330
EE
100
AcDbDictionary
280
     1
281
     1
  3
ACAD_XREC_ROUNDTRIP
360
36DE
  3
BUMPTILE
360
175
  3
DIFFUSETILE
360
174
  3
OPACITYTILE
360
176
  3
REFLECTIONTILE
360
177
  0
DICTIONARY
  5
162
330
7F
100
AcDbDictionary
280
     1
281
     1
  3
ACAD_ROUNDTRIP_2008_TABLESTYLE_CELLSTYLEMAP
360
351B
  3
ACAD_XREC_ROUNDTRIP
360
36D5
  0
XRECORD
  5
36D7
102
{ACAD_REACTORS
330
36D6
102
}
330
36D6
100
AcDbXrecord
280
     1
102
SHADEPLOT
 70
     0
102
SHADEPLOTRESLEVEL
 70
     2
102
SHADEPLOTCUSTOMDPI
 70
   300
  0
XRECORD
  5
36D9
102
{ACAD_REACTORS
330
36D8
102
}
330
36D8
100
AcDbXrecord
280
     1
102
SHADEPLOT
 70
     0
102
SHADEPLOTRESLEVEL
 70
     2
102
SHADEPLOTCUSTOMDPI
 70
   300
  0
XRECORD
  5
36D4
102
{ACAD_REACTORS
330
36D3
102
}
330
36D3
100
AcDbXrecord
280
     1
102
SHADEPLOT
 70
     0
102
SHADEPLOTRESLEVEL
 70
     2
102
SHADEPLOTCUSTOMDPI
 70
   300
  0
XRECORD
  5
36DD
102
{ACAD_REACTORS
330
36DC
102
}
330
36DC
100
AcDbXrecord
280
     1
102
MATERIAL
148
0.0
149
0.0
149
0.0
 93
        0
 94
       63
282
     0
 72
     1
 77
     1
171
     1
175
     1
179
     1
273
     0
  0
XRECORD
  5
36DB
102
{ACAD_REACTORS
330
36DA
102
}
330
36DA
100
AcDbXrecord
280
     1
102
MATERIAL
148
0.0
149
0.0
149
0.0
 93
        0
 94
       63
282
     0
 72
     1
 77
     1
171
     1
175
     1
179
     1
273
     0
  0
XRECORD
  5
36DE
102
{ACAD_REACTORS
330
173
102
}
330
173
100
AcDbXrecord
280
     1
102
MATERIAL
148
0.0
149
0.0
149
0.0
 93
        0
 94
       63
282
     0
 72
     1
 77
     1
171
     1
175
     1
179
     1
273
     0
  0
XRECORD
  5
175
102
{ACAD_REACTORS
330
173
102
}
330
173
100
AcDbXrecord
280
     1
270
     1
271
     1
  0
XRECORD
  5
174
102
{ACAD_REACTORS
330
173
102
}
330
173
100
AcDbXrecord
280
     1
270
     1
271
     1
  0
XRECORD
  5
176
102
{ACAD_REACTORS
330
173
102
}
330
173
100
AcDbXrecord
280
     1
270
     1
271
     1
  0
XRECORD
  5
177
102
{ACAD_REACTORS
330
173
102
}
330
173
100
AcDbXrecord
280
     1
270
     1
271
     1
  0
ACAD_PROXY_OBJECT
  5
351B
102
{ACAD_REACTORS
330
162
102
}
330
162
100
AcDbProxyObject
 90
      499
 91
      509
 95
       23
 70
     0
 93
     5304
310
40D054060020000020000003200101A000080002A5058000000C10000000000000006101010000000000003E0FC000000000000F83F0000000000003E0FC000000000000F83F02B5E8DC0F42B1CFC0AD7A3703D0AC73F419019018000000C1003FBFFFFFE0000000000003C8FD029018000000C1003FBFFFFFE00000000000
310
03C8FD049018000000C1003FBFFFFFE0000000000003C8FD089018000000C1003FBFFFFFE0000000000003C8FD109018000000C1003FBFFFFFE0000000000003C8FD209018000000C1003FBFFFFFE0000000000003C8FD01405075F5449544C450041501A8000000C800406800020000A94160000003040000000000000012
310
40404000000000000F83F0000000000003E0FC000000000000F83F0000000000003E0FC0AD7A3703D0AC73F02B5E8DC0F42B1CFD0640640600000030400FEFFFFFF8000000000000F23F40A40600000030400FEFFFFFF8000000000000F23F41240600000030400FEFFFFFF8000000000000F23F42240600000030400FEFFF
310
FFF8000000000000F23F44240600000030400FEFFFFFF8000000000000F23F48240600000030400FEFFFFFF8000000000000F23F409014217D2115051115480105406A0000003200101A000080002A5028000000C10000000000000004901010000000000003E0FC000000000000F83F0000000000003E0FC000000000000F
310
83F02B5E8DC0F42B1CFC0AD7A3703D0AC73F419019018000000C1003FBFFFFFE0000000000003C8FD029018000000C1003FBFFFFFE0000000000003C8FD049018000000C1003FBFFFFFE0000000000003C8FD089018000000C1003FBFFFFFE0000000000003C8FD109018000000C1003FBFFFFFE0000000000003C8FD20901
310
8000000C1003FBFFFFFE0000000000003C8FD03409065F444154410000
340
11
340
14
340
14
340
14
340
14
340
14
340
14
340
11
340
14
340
14
340
14
340
14
340
14
340
14
340
11
340
14
340
14
340
14
340
14
340
14
340
14
 94
        0
1001
ACAD
1000
AcRTDxfName
1000
CELLSTYLEMAP
1000
AcRTDxfName
1000
CELLSTYLEMAP
  0
XRECORD
  5
36D5
102
{ACAD_REACTORS
330
162
102
}
330
162
100
AcDbXrecord
280
     1
102
ACAD_ROUNDTRIP_PRE2007_TABLESTYLE
 90
      512
 91
        0
  1

 92
      512
 93
        0
  2

 94
      512
 95
        0
  3

  0
ENDSEC
  0
EOF
