  0
SECTION
  2
HEADER
  9
$ACADVER
  1
AC1015
  9
$ACADMAINTVER
 70
    20
  9
$DWGCODEPAGE
  3
ANSI_1250
  9
$INSBASE
 10
0.0
 20
0.0
 30
0.0
  9
$EXTMIN
 10
-0.0516534931434762
 20
-0.0157766035499663
 30
-0.0000000000000058
  9
$EXTMAX
 10
334.4302315815244
 20
297.0014454432708
 30
0.0000000000000104
  9
$LIMMIN
 10
0.0
 20
0.0
  9
$LIMMAX
 10
334.35177409209
 20
297.0
  9
$ORTHOMODE
 70
     0
  9
$REGENMODE
 70
     1
  9
$FILLMODE
 70
     1
  9
$QTEXTMODE
 70
     0
  9
$MIRRTEXT
 70
     0
  9
$LTSCALE
 40
1.0
  9
$ATTMODE
 70
     2
  9
$TEXTSIZE
 40
2.5
  9
$TRACEWID
 40
1.0
  9
$TEXTSTYLE
  7
Standard
  9
$CLAYER
  8
SOLBET_Bloczki
  9
$CELTYPE
  6
ByLayer
  9
$CECOLOR
 62
   256
  9
$CELTSCALE
 40
1.0
  9
$DISPSILH
 70
     0
  9
$DIMSCALE
 40
1.0
  9
$DIMASZ
 40
2.5
  9
$DIMEXO
 40
0.0
  9
$DIMDLI
 40
3.75
  9
$DIMRND
 40
0.0
  9
$DIMDLE
 40
0.0
  9
$DIMEXE
 40
1.25
  9
$DIMTP
 40
0.0
  9
$DIMTM
 40
0.0
  9
$DIMTXT
 40
2.5
  9
$DIMCEN
 40
2.5
  9
$DIMTSZ
 40
0.0
  9
$DIMTOL
 70
     0
  9
$DIMLIM
 70
     0
  9
$DIMTIH
 70
     0
  9
$DIMTOH
 70
     0
  9
$DIMSE1
 70
     0
  9
$DIMSE2
 70
     0
  9
$DIMTAD
 70
     1
  9
$DIMZIN
 70
     8
  9
$DIMBLK
  1

  9
$DIMASO
 70
     1
  9
$DIMSHO
 70
     1
  9
$DIMPOST
  1

  9
$DIMAPOST
  1

  9
$DIMALT
 70
     0
  9
$DIMALTD
 70
     3
  9
$DIMALTF
 40
0.03937007874016
  9
$DIMLFAC
 40
1.0
  9
$DIMTOFL
 70
     1
  9
$DIMTVP
 40
0.0
  9
$DIMTIX
 70
     0
  9
$DIMSOXD
 70
     0
  9
$DIMSAH
 70
     0
  9
$DIMBLK1
  1

  9
$DIMBLK2
  1

  9
$DIMSTYLE
  2
Solbet
  9
$DIMCLRD
 70
     0
  9
$DIMCLRE
 70
     0
  9
$DIMCLRT
 70
     0
  9
$DIMTFAC
 40
1.0
  9
$DIMGAP
 40
0.625
  9
$DIMJUST
 70
     0
  9
$DIMSD1
 70
     0
  9
$DIMSD2
 70
     0
  9
$DIMTOLJ
 70
     0
  9
$DIMTZIN
 70
     8
  9
$DIMALTZ
 70
     0
  9
$DIMALTTZ
 70
     0
  9
$DIMUPT
 70
     0
  9
$DIMDEC
 70
     2
  9
$DIMTDEC
 70
     2
  9
$DIMALTU
 70
     2
  9
$DIMALTTD
 70
     3
  9
$DIMTXSTY
  7
Solbet_2_5
  9
$DIMAUNIT
 70
     0
  9
$DIMADEC
 70
     0
  9
$DIMALTRND
 40
0.0
  9
$DIMAZIN
 70
     0
  9
$DIMDSEP
 70
    44
  9
$DIMATFIT
 70
     3
  9
$DIMFRAC
 70
     0
  9
$DIMLDRBLK
  1

  9
$DIMLUNIT
 70
     2
  9
$DIMLWD
 70
    -2
  9
$DIMLWE
 70
    -2
  9
$DIMTMOVE
 70
     0
  9
$LUNITS
 70
     2
  9
$LUPREC
 70
     4
  9
$SKETCHINC
 40
1.0
  9
$FILLETRAD
 40
0.0
  9
$AUNITS
 70
     0
  9
$AUPREC
 70
     0
  9
$MENU
  1
.
  9
$ELEVATION
 40
0.0
  9
$PELEVATION
 40
0.0
  9
$THICKNESS
 40
0.0
  9
$LIMCHECK
 70
     0
  9
$CHAMFERA
 40
0.0
  9
$CHAMFERB
 40
0.0
  9
$CHAMFERC
 40
0.0
  9
$CHAMFERD
 40
0.0
  9
$SKPOLY
 70
     0
  9
$TDCREATE
 40
2454690.075573148
  9
$TDUCREATE
 40
2454690.033906482
  9
$TDUPDATE
 40
2454848.859733889
  9
$TDUUPDATE
 40
2454848.818067222
  9
$TDINDWG
 40
1.0653241319
  9
$TDUSRTIMER
 40
1.0653196065
  9
$USRTIMER
 70
     1
  9
$ANGBASE
 50
0.0
  9
$ANGDIR
 70
     0
  9
$PDMODE
 70
     0
  9
$PDSIZE
 40
0.0
  9
$PLINEWID
 40
0.0
  9
$SPLFRAME
 70
     0
  9
$SPLINETYPE
 70
     6
  9
$SPLINESEGS
 70
     8
  9
$HANDSEED
  5
9918
  9
$SURFTAB1
 70
     6
  9
$SURFTAB2
 70
     6
  9
$SURFTYPE
 70
     6
  9
$SURFU
 70
     6
  9
$SURFV
 70
     6
  9
$UCSBASE
  2

  9
$UCSNAME
  2

  9
$UCSORG
 10
0.0
 20
0.0
 30
0.0
  9
$UCSXDIR
 10
1.0
 20
0.0
 30
0.0
  9
$UCSYDIR
 10
0.0
 20
1.0
 30
0.0
  9
$UCSORTHOREF
  2

  9
$UCSORTHOVIEW
 70
     0
  9
$UCSORGTOP
 10
0.0
 20
0.0
 30
0.0
  9
$UCSORGBOTTOM
 10
0.0
 20
0.0
 30
0.0
  9
$UCSORGLEFT
 10
0.0
 20
0.0
 30
0.0
  9
$UCSORGRIGHT
 10
0.0
 20
0.0
 30
0.0
  9
$UCSORGFRONT
 10
0.0
 20
0.0
 30
0.0
  9
$UCSORGBACK
 10
0.0
 20
0.0
 30
0.0
  9
$PUCSBASE
  2

  9
$PUCSNAME
  2

  9
$PUCSORG
 10
0.0
 20
0.0
 30
0.0
  9
$PUCSXDIR
 10
1.0
 20
0.0
 30
0.0
  9
$PUCSYDIR
 10
0.0
 20
1.0
 30
0.0
  9
$PUCSORTHOREF
  2

  9
$PUCSORTHOVIEW
 70
     0
  9
$PUCSORGTOP
 10
0.0
 20
0.0
 30
0.0
  9
$PUCSORGBOTTOM
 10
0.0
 20
0.0
 30
0.0
  9
$PUCSORGLEFT
 10
0.0
 20
0.0
 30
0.0
  9
$PUCSORGRIGHT
 10
0.0
 20
0.0
 30
0.0
  9
$PUCSORGFRONT
 10
0.0
 20
0.0
 30
0.0
  9
$PUCSORGBACK
 10
0.0
 20
0.0
 30
0.0
  9
$USERI1
 70
     0
  9
$USERI2
 70
     0
  9
$USERI3
 70
     0
  9
$USERI4
 70
     0
  9
$USERI5
 70
     0
  9
$USERR1
 40
0.0
  9
$USERR2
 40
0.0
  9
$USERR3
 40
0.0
  9
$USERR4
 40
0.0
  9
$USERR5
 40
0.0
  9
$WORLDVIEW
 70
     1
  9
$SHADEDGE
 70
     3
  9
$SHADEDIF
 70
    70
  9
$TILEMODE
 70
     1
  9
$MAXACTVP
 70
    64
  9
$PINSBASE
 10
0.0
 20
0.0
 30
0.0
  9
$PLIMCHECK
 70
     0
  9
$PEXTMIN
 10
0.0
 20
0.0
 30
0.0
  9
$PEXTMAX
 10
0.0
 20
0.0
 30
0.0
  9
$PLIMMIN
 10
0.0
 20
0.0
  9
$PLIMMAX
 10
12.0
 20
9.0
  9
$UNITMODE
 70
     0
  9
$VISRETAIN
 70
     1
  9
$PLINEGEN
 70
     0
  9
$PSLTSCALE
 70
     1
  9
$TREEDEPTH
 70
  3020
  9
$CMLSTYLE
  2
SOLBET_IZOLACJA
  9
$CMLJUST
 70
     0
  9
$CMLSCALE
 40
20.0
  9
$PROXYGRAPHICS
 70
     1
  9
$MEASUREMENT
 70
     1
  9
$CELWEIGHT
370
    -1
  9
$ENDCAPS
280
     0
  9
$JOINSTYLE
280
     0
  9
$LWDISPLAY
290
     1
  9
$INSUNITS
 70
     4
  9
$HYPERLINKBASE
  1

  9
$STYLESHEET
  1

  9
$XEDIT
290
     1
  9
$CEPSNTYPE
380
     0
  9
$PSTYLEMODE
290
     1
  9
$FINGERPRINTGUID
  2
{6B12AB33-8E39-428E-8E85-461C8D99A3CB}
  9
$VERSIONGUID
  2
{7E6C13BA-C791-4F98-A2FA-8CED6DECD444}
  9
$EXTNAMES
290
     1
  9
$PSVPSCALE
 40
0.0
  9
$OLESTARTUP
290
     0
  0
ENDSEC
  0
SECTION
  2
CLASSES
  0
CLASS
  1
ACDBDICTIONARYWDFLT
  2
AcDbDictionaryWithDefault
  3
ObjectDBX Classes
 90
        0
280
     0
281
     0
  0
CLASS
  1
ACDBPLACEHOLDER
  2
AcDbPlaceHolder
  3
ObjectDBX Classes
 90
        0
280
     0
281
     0
  0
CLASS
  1
LAYOUT
  2
AcDbLayout
  3
ObjectDBX Classes
 90
        0
280
     0
281
     0
  0
CLASS
  1
DICTIONARYVAR
  2
AcDbDictionaryVar
  3
ObjectDBX Classes
 90
        0
280
     0
281
     0
  0
CLASS
  1
TABLESTYLE
  2
AcDbTableStyle
  3
ObjectDBX Classes
 90
     4095
280
     0
281
     0
  0
CLASS
  1
MATERIAL
  2
AcDbMaterial
  3
ObjectDBX Classes
 90
     1024
280
     0
281
     0
  0
CLASS
  1
VISUALSTYLE
  2
AcDbVisualStyle
  3
ObjectDBX Classes
 90
     4095
280
     0
281
     0
  0
CLASS
  1
SCALE
  2
AcDbScale
  3
ObjectDBX Classes
 90
     1153
280
     0
281
     0
  0
CLASS
  1
MLEADERSTYLE
  2
AcDbMLeaderStyle
  3
ACDB_MLEADERSTYLE_CLASS
 90
     4095
280
     0
281
     0
  0
CLASS
  1
CELLSTYLEMAP
  2
AcDbCellStyleMap
  3
ObjectDBX Classes
 90
     1152
280
     0
281
     0
  0
CLASS
  1
DIMASSOC
  2
AcDbDimAssoc
  3
"AcDbDimAssoc|Product Desc:     AcDim ARX App For Dimension|Company:          Autodesk, Inc.|WEB Address:      www.autodesk.com"
 90
    32768
280
     0
281
     0
  0
CLASS
  1
SORTENTSTABLE
  2
AcDbSortentsTable
  3
ObjectDBX Classes
 90
        0
280
     0
281
     0
  0
CLASS
  1
MULTILEADER
  2
AcDbMLeader
  3
ACDB_MLEADER_CLASS
 90
    33793
280
     0
281
     1
  0
CLASS
  1
ACDB_MTEXTOBJECTCONTEXTDATA_CLASS
  2
AcDbMTextObjectContextData
  3
ObjectDBX Classes
 90
    33921
280
     0
281
     0
  0
CLASS
  1
PLOTSETTINGS
  2
AcDbPlotSettings
  3
ObjectDBX Classes
 90
        0
280
     0
281
     0
  0
CLASS
  1
ACAD_EVALUATION_GRAPH
  2
AcDbEvalGraph
  3
ObjectDBX Classes
 90
    33921
280
     0
281
     0
  0
CLASS
  1
ACAECUSTOBJ
  2
AcAeEditorObj
  3
AcAeEditorObj
 90
    33792
280
     0
281
     0
  0
ENDSEC
  0
SECTION
  2
TABLES
  0
TABLE
  2
VPORT
  5
8
102
{ACAD_XDICTIONARY
360
443
102
}
330
0
100
AcDbSymbolTable
 70
     1
  0
VPORT
  5
EA
330
8
100
AcDbSymbolTableRecord
100
AcDbViewportTableRecord
  2
*Active
 70
     0
 10
0.0
 20
0.0
 11
1.0
 21
1.0
 12
167.1892890441904
 22
148.4928344198603
 13
0.0
 23
0.0
 14
10.0
 24
10.0
 15
10.0
 25
10.0
 16
0.0
 26
0.0
 36
1.0
 17
0.0
 27
0.0
 37
0.0
 40
300.3174134028965
 41
1.74582560296846
 42
50.0
 43
0.0
 44
0.0
 50
0.0
 51
0.0
 71
     0
 72
  1000
 73
     1
 74
     3
 75
     0
 76
     0
 77
     0
 78
     0
281
     0
 65
     1
110
0.0
120
0.0
130
0.0
111
1.0
121
0.0
131
0.0
112
0.0
122
1.0
132
0.0
 79
     0
146
0.0
  0
ENDTAB
  0
TABLE
  2
LTYPE
  5
5
330
0
100
AcDbSymbolTable
 70
     4
  0
LTYPE
  5
14
330
5
100
AcDbSymbolTableRecord
100
AcDbLinetypeTableRecord
  2
ByBlock
 70
     0
  3

 72
    65
 73
     0
 40
0.0
  0
LTYPE
  5
15
330
5
100
AcDbSymbolTableRecord
100
AcDbLinetypeTableRecord
  2
ByLayer
 70
     0
  3

 72
    65
 73
     0
 40
0.0
  0
LTYPE
  5
16
330
5
100
AcDbSymbolTableRecord
100
AcDbLinetypeTableRecord
  2
Continuous
 70
     0
  3
Solid line
 72
    65
 73
     0
 40
0.0
  0
LTYPE
  5
982
330
5
100
AcDbSymbolTableRecord
100
AcDbLinetypeTableRecord
  2
BATTING
 70
     0
  3
Batting SSSSSSSSSSSSSSSSSSSSSSSSSSSSSSSSSSSSSSSSSSSSSSS
 72
    65
 73
     4
 40
10.16254
 49
0.00254
 74
     0
 49
-2.54
 74
     4
 75
   134
340
7E7
 46
2.54
 50
0.0
 44
-2.54
 45
0.0
 49
-5.08
 74
     4
 75
   134
340
7E7
 46
2.54
 50
180.0
 44
2.54
 45
0.0
 49
-2.54
 74
     0
  0
LTYPE
  5
9297
330
5
100
AcDbSymbolTableRecord
100
AcDbLinetypeTableRecord
  2
DASHED2
 70
     0
  3
Dashed (.5x) _ _ _ _ _ _ _ _ _ _ _ _ _ _ _ _ _
 72
    65
 73
     2
 40
9.524999999999998
 49
6.349999999999999
 74
     0
 49
-3.174999999999999
 74
     0
  0
ENDTAB
  0
TABLE
  2
LAYER
  5
2
102
{ACAD_XDICTIONARY
360
3E5
102
}
330
0
100
AcDbSymbolTable
 70
    12
  0
LAYER
  5
10
102
{ACAD_XDICTIONARY
360
13C
102
}
330
2
100
AcDbSymbolTableRecord
100
AcDbLayerTableRecord
  2
0
 70
     0
 62
     7
  6
Continuous
370
    -3
390
F
  0
LAYER
  5
2BB
330
2
100
AcDbSymbolTableRecord
100
AcDbLayerTableRecord
  2
DEFPOINTS
 70
     0
 62
     7
  6
Continuous
290
     0
370
    -3
390
F
  0
LAYER
  5
3DD
102
{ACAD_XDICTIONARY
360
403
102
}
330
2
100
AcDbSymbolTableRecord
100
AcDbLayerTableRecord
  2
SOLBET_Bloczki
 70
     0
 62
   140
  6
Continuous
370
    -3
390
F
1001
AcAecLayerStandard
1000

1000

  0
LAYER
  5
3DF
102
{ACAD_XDICTIONARY
360
405
102
}
330
2
100
AcDbSymbolTableRecord
100
AcDbLayerTableRecord
  2
SOLBET_Wymiary_Opisy
 70
     0
 62
     1
  6
Continuous
370
    -3
390
F
1001
AcAecLayerStandard
1000

1000

  0
LAYER
  5
3E0
102
{ACAD_XDICTIONARY
360
407
102
}
330
2
100
AcDbSymbolTableRecord
100
AcDbLayerTableRecord
  2
SOLBET_Beton
 70
     0
 62
     9
  6
Continuous
370
    -3
390
F
1001
AcAecLayerStandard
1000

1000

  0
LAYER
  5
3E1
102
{ACAD_XDICTIONARY
360
409
102
}
330
2
100
AcDbSymbolTableRecord
100
AcDbLayerTableRecord
  2
SOLBET_Izolacja
 70
     0
 62
    40
  6
Continuous
370
    -3
390
F
1001
AcAecLayerStandard
1000

1000

  0
LAYER
  5
3E2
102
{ACAD_XDICTIONARY
360
40B
102
}
330
2
100
AcDbSymbolTableRecord
100
AcDbLayerTableRecord
  2
SOLBET_Zbrojenie_Konstrukcja
 70
     0
 62
     7
  6
Continuous
370
    -3
390
F
1001
AcAecLayerStandard
1000

1000

  0
LAYER
  5
3E3
102
{ACAD_XDICTIONARY
360
40D
102
}
330
2
100
AcDbSymbolTableRecord
100
AcDbLayerTableRecord
  2
SOLBET_Grunt
 70
     0
 62
    42
  6
Continuous
370
    -3
390
F
1001
AcAecLayerStandard
1000

1000

  0
LAYER
  5
3E4
102
{ACAD_XDICTIONARY
360
40F
102
}
330
2
100
AcDbSymbolTableRecord
100
AcDbLayerTableRecord
  2
SOLBET_Tynki_Posadzki
 70
     0
 62
     3
  6
Continuous
370
    -3
390
F
1001
AcAecLayerStandard
1000

1000

  0
LAYER
  5
3E8
102
{ACAD_XDICTIONARY
360
411
102
}
330
2
100
AcDbSymbolTableRecord
100
AcDbLayerTableRecord
  2
SOLBET_Ramka_05
 70
     0
 62
     2
  6
Continuous
370
    -3
390
F
1001
AcAecLayerStandard
1000

1000

  0
LAYER
  5
472
330
2
100
AcDbSymbolTableRecord
100
AcDbLayerTableRecord
  2
SOLBET_Zaprawy
 70
     0
 62
     4
  6
Continuous
370
    -3
390
F
1001
AcAecLayerStandard
1000

1000

  0
LAYER
  5
4E2
330
2
100
AcDbSymbolTableRecord
100
AcDbLayerTableRecord
  2
SOLBET_Emulsje_Folie
 70
     0
 62
     6
  6
Continuous
370
    -3
390
F
1001
AcAecLayerStandard
1000

1000

  0
ENDTAB
  0
TABLE
  2
STYLE
  5
3
330
0
100
AcDbSymbolTable
 70
     5
  0
STYLE
  5
11
330
3
100
AcDbSymbolTableRecord
100
AcDbTextStyleTableRecord
  2
Standard
 70
     0
 40
0.0
 41
1.0
 50
0.0
 71
     0
 42
2.5
  3
txt.shx
  4

  0
STYLE
  5
7D7
330
3
100
AcDbSymbolTableRecord
100
AcDbTextStyleTableRecord
  2
Solbet_5
 70
     0
 40
5.0
 41
1.0
 50
0.0
 71
     0
 42
5.0
  3
isocpeur.ttf
  4

1001
ACAD
1000
ISOCPEUR
1071
       34
  0
STYLE
  5
7D9
330
3
100
AcDbSymbolTableRecord
100
AcDbTextStyleTableRecord
  2
Solbet_2_5
 70
     0
 40
2.5
 41
1.0
 50
0.0
 71
     0
 42
2.5
  3
isocpeur.ttf
  4

1001
ACAD
1000
ISOCPEUR
1071
       34
  0
STYLE
  5
7E7
330
3
100
AcDbSymbolTableRecord
100
AcDbTextStyleTableRecord
  2

 70
     1
 40
0.0
 41
1.0
 50
0.0
 71
     0
 42
2.5
  3
ltypeshp.shx
  4

  0
STYLE
  5
2A72
330
3
100
AcDbSymbolTableRecord
100
AcDbTextStyleTableRecord
  2
Solbet_1
 70
     0
 40
1.0
 41
1.0
 50
0.0
 71
     0
 42
2.5
  3
isocpeur.ttf
  4

1001
ACAD
1000
ISOCPEUR
1071
       34
  0
ENDTAB
  0
TABLE
  2
VIEW
  5
6
330
0
100
AcDbSymbolTable
 70
     0
  0
ENDTAB
  0
TABLE
  2
UCS
  5
7
330
0
100
AcDbSymbolTable
 70
     0
  0
ENDTAB
  0
TABLE
  2
APPID
  5
9
330
0
100
AcDbSymbolTable
 70
    14
  0
APPID
  5
12
330
9
100
AcDbSymbolTableRecord
100
AcDbRegAppTableRecord
  2
ACAD
 70
     0
  0
APPID
  5
9E
330
9
100
AcDbSymbolTableRecord
100
AcDbRegAppTableRecord
  2
ACAD_PSEXT
 70
     0
  0
APPID
  5
133
330
9
100
AcDbSymbolTableRecord
100
AcDbRegAppTableRecord
  2
AcadAnnoPO
 70
     0
  0
APPID
  5
134
330
9
100
AcDbSymbolTableRecord
100
AcDbRegAppTableRecord
  2
AcadAnnotative
 70
     0
  0
APPID
  5
135
330
9
100
AcDbSymbolTableRecord
100
AcDbRegAppTableRecord
  2
ACAD_DSTYLE_DIMJAG
 70
     0
  0
APPID
  5
136
330
9
100
AcDbSymbolTableRecord
100
AcDbRegAppTableRecord
  2
ACAD_DSTYLE_DIMTALN
 70
     0
  0
APPID
  5
165
330
9
100
AcDbSymbolTableRecord
100
AcDbRegAppTableRecord
  2
ACAD_MLEADERVER
 70
     0
  0
APPID
  5
2C4
330
9
100
AcDbSymbolTableRecord
100
AcDbRegAppTableRecord
  2
ASO_SCHRAFF
 70
     0
  0
APPID
  5
3DE
330
9
100
AcDbSymbolTableRecord
100
AcDbRegAppTableRecord
  2
AcAecLayerStandard
 70
     0
  0
APPID
  5
7DE
330
9
100
AcDbSymbolTableRecord
100
AcDbRegAppTableRecord
  2
ACAD_EXEMPT_FROM_CAD_STANDARDS
 70
     0
  0
APPID
  5
948
330
9
100
AcDbSymbolTableRecord
100
AcDbRegAppTableRecord
  2
ACAD_DSTYLE_DIMBREAK
 70
     0
  0
APPID
  5
1D0A
330
9
100
AcDbSymbolTableRecord
100
AcDbRegAppTableRecord
  2
AcadAnnotativeDecomposition
 70
     0
  0
APPID
  5
2A73
330
9
100
AcDbSymbolTableRecord
100
AcDbRegAppTableRecord
  2
AcDbAttr
 70
     0
  0
APPID
  5
6F16
330
9
100
AcDbSymbolTableRecord
100
AcDbRegAppTableRecord
  2
ACAUTHENVIRON
 70
     0
  0
ENDTAB
  0
TABLE
  2
DIMSTYLE
  5
A
330
0
100
AcDbSymbolTable
 70
     4
100
AcDbDimStyleTable
 71
     1
340
949
  0
DIMSTYLE
105
4DDB
330
A
100
AcDbSymbolTableRecord
100
AcDbDimStyleTableRecord
  2
Standard
 70
     0
340
11
  0
DIMSTYLE
105
949
102
{ACAD_REACTORS
330
8738
102
}
330
A
100
AcDbSymbolTableRecord
100
AcDbDimStyleTableRecord
  2
Solbet
 70
     0
 41
2.5
 42
0.0
 43
3.75
 44
1.25
 73
     0
 74
     0
 77
     1
 78
     8
140
2.5
141
2.5
143
0.03937007874016
147
0.625
171
     3
172
     1
271
     2
272
     2
274
     3
278
    44
283
     0
284
     8
340
7D9
1001
ACAD_DSTYLE_DIMBREAK
1070
   391
1040
3.75
1001
ACAD_DSTYLE_DIMJAG
1070
   388
1040
1.5
1001
ACAD_DSTYLE_DIMTALN
1070
   392
1070
     0
  0
DIMSTYLE
105
954
330
A
100
AcDbSymbolTableRecord
100
AcDbDimStyleTableRecord
  2
Solbet$7
 70
     0
 41
2.5
 42
0.0
 43
3.75
 44
1.25
 73
     0
 74
     0
 77
     1
 78
     8
140
2.5
141
2.5
143
0.03937007874016
147
0.625
171
     3
172
     1
271
     2
272
     2
274
     3
278
    44
283
     0
284
     8
340
7D9
341
958
1001
ACAD_DSTYLE_DIMBREAK
1070
   391
1040
3.75
1001
ACAD_DSTYLE_DIMJAG
1070
   388
1040
1.5
1001
ACAD_DSTYLE_DIMTALN
1070
   392
1070
     0
  0
ENDTAB
  0
TABLE
  2
BLOCK_RECORD
  5
1
330
0
100
AcDbSymbolTable
 70
    13
  0
BLOCK_RECORD
  5
1F
102
{ACAD_XDICTIONARY
360
4A3
102
}
330
1
100
AcDbSymbolTableRecord
100
AcDbBlockTableRecord
  2
*Model_Space
340
22
  0
BLOCK_RECORD
  5
D2
330
1
100
AcDbSymbolTableRecord
100
AcDbBlockTableRecord
  2
*Paper_Space
340
D3
  0
BLOCK_RECORD
  5
D6
330
1
100
AcDbSymbolTableRecord
100
AcDbBlockTableRecord
  2
*Paper_Space0
340
D7
  0
BLOCK_RECORD
  5
958
330
1
100
AcDbSymbolTableRecord
100
AcDbBlockTableRecord
  2
_DotSmall
340
0
102
{BLKREFS
331
8F69
331
8F72
331
8F83
331
8F96
331
9539
331
9540
102
}
  0
BLOCK_RECORD
  5
6F5E
102
{ACAD_XDICTIONARY
360
6F6A
102
}
330
1
100
AcDbSymbolTableRecord
100
AcDbBlockTableRecord
  2
SOLBET_Bloczek_OPTIMAL_240x240x590_P+W_PRA
340
0
1001
ACAD
1000
DesignCenter Data
1002
{
1070
     1
1070
     4
1002
}
  0
BLOCK_RECORD
  5
7597
330
1
100
AcDbSymbolTableRecord
100
AcDbBlockTableRecord
  2
*X3
340
0
102
{BLKREFS
331
78EF
102
}
  0
BLOCK_RECORD
  5
75C9
330
1
100
AcDbSymbolTableRecord
100
AcDbBlockTableRecord
  2
*X4
340
0
102
{BLKREFS
331
78F1
102
}
  0
BLOCK_RECORD
  5
790F
330
1
100
AcDbSymbolTableRecord
100
AcDbBlockTableRecord
  2
_None
340
0
  0
BLOCK_RECORD
  5
8739
330
1
100
AcDbSymbolTableRecord
100
AcDbBlockTableRecord
  2
*D6
340
0
  0
BLOCK_RECORD
  5
8776
102
{ACAD_XDICTIONARY
360
8781
102
}
330
1
100
AcDbSymbolTableRecord
100
AcDbBlockTableRecord
  2
SOLBET_Bloczek_OPTIMAL_180x240x590_brak_PRA
340
0
1001
ACAD
1000
DesignCenter Data
1002
{
1070
     1
1070
     4
1002
}
  0
BLOCK_RECORD
  5
8E17
102
{ACAD_XDICTIONARY
360
8E1C
102
}
330
1
100
AcDbSymbolTableRecord
100
AcDbBlockTableRecord
  2
A$C20206B15
340
0
1001
ACAD
1000
DesignCenter Data
1002
{
1070
     1
1070
     4
1002
}
  0
BLOCK_RECORD
  5
9820
102
{ACAD_XDICTIONARY
360
982C
102
}
330
1
100
AcDbSymbolTableRecord
100
AcDbBlockTableRecord
  2
SOLBET_Bloczek_Optimal_240x240x590_P+W_KG400_PRA
340
0
102
{BLKREFS
331
9830
331
9831
331
9832
102
}
1001
ACAD
1000
DesignCenter Data
1002
{
1070
     1
1070
     4
1002
}
  0
BLOCK_RECORD
  5
9833
102
{ACAD_XDICTIONARY
360
983E
102
}
330
1
100
AcDbSymbolTableRecord
100
AcDbBlockTableRecord
  2
SOLBET_Bloczek_Optimal_180x240x590_G_KG500_PRA
340
0
102
{BLKREFS
331
9842
331
9843
331
9844
331
9845
331
9846
102
}
1001
ACAD
1000
DesignCenter Data
1002
{
1070
     1
1070
     4
1002
}
  0
ENDTAB
  0
ENDSEC
  0
SECTION
  2
BLOCKS
  0
BLOCK
  5
20
330
1F
100
AcDbEntity
  8
0
100
AcDbBlockBegin
  2
*Model_Space
 70
     0
 10
0.0
 20
0.0
 30
0.0
  3
*Model_Space
  1

  0
ENDBLK
  5
21
330
1F
100
AcDbEntity
  8
0
100
AcDbBlockEnd
  0
BLOCK
  5
D4
330
D2
100
AcDbEntity
 67
     1
  8
0
100
AcDbBlockBegin
  2
*Paper_Space
 70
     0
 10
0.0
 20
0.0
 30
0.0
  3
*Paper_Space
  1

  0
ENDBLK
  5
D5
330
D2
100
AcDbEntity
 67
     1
  8
0
100
AcDbBlockEnd
  0
BLOCK
  5
D8
330
D6
100
AcDbEntity
 67
     1
  8
0
100
AcDbBlockBegin
  2
*Paper_Space0
 70
     0
 10
0.0
 20
0.0
 30
0.0
  3
*Paper_Space0
  1

  0
ENDBLK
  5
D9
330
D6
100
AcDbEntity
 67
     1
  8
0
100
AcDbBlockEnd
  0
BLOCK
  5
95A
330
958
100
AcDbEntity
  8
0
100
AcDbBlockBegin
  2
_DotSmall
 70
     0
 10
0.0
 20
0.0
 30
0.0
  3
_DotSmall
  1

  0
LWPOLYLINE
  5
959
330
958
100
AcDbEntity
  8
0
  6
ByBlock
 62
     0
100
AcDbPolyline
 90
        2
 70
     1
 43
0.5
 10
-0.0625
 20
0.0
 42
1.0
 10
0.0625
 20
0.0
 42
1.0
  0
ENDBLK
  5
95B
330
958
100
AcDbEntity
  8
0
100
AcDbBlockEnd
  0
BLOCK
  5
6F6C
330
6F5E
100
AcDbEntity
  8
0
100
AcDbBlockBegin
  2
SOLBET_Bloczek_OPTIMAL_240x240x590_P+W_PRA
 70
     2
 10
0.0
 20
0.0
 30
0.0
  3
SOLBET_Bloczek_OPTIMAL_240x240x590_P+W_PRA
  1

  0
ATTDEF
  5
7DB7
330
6F5E
100
AcDbEntity
  8
SOLBET_Wymiary_Opisy
100
AcDbText
 10
-0.0000000878742412
 20
6.303237404038322
 30
0.0
 40
0.9913121336814832
  1
240x240x590
  7
Solbet_1
100
AcDbAttributeDefinition
  3

  2
WYMIARY
 70
     3
1001
AcDbAttr
1070
     0
1070
     1
  0
ATTDEF
  5
7DB8
330
6F5E
100
AcDbEntity
  8
SOLBET_Wymiary_Opisy
100
AcDbText
 10
-0.0000000878742412
 20
4.790717996322224
 30
0.0
 40
0.9913121336814832
  1
400, 500, 600, 700
  7
Solbet_1
100
AcDbAttributeDefinition
  3

  2
KLASA_GĘSTOŚCI
 70
     9
1001
AcDbAttr
1070
     0
1070
     1
  0
ATTDEF
  5
7DB9
330
6F5E
100
AcDbEntity
  8
SOLBET_Wymiary_Opisy
100
AcDbText
 10
-0.0000000878742412
 20
3.269569161109998
 30
0.0
 40
0.9913121336814832
  1
pióra+wpusty
  7
Solbet_1
100
AcDbAttributeDefinition
  3

  2
PROFILOWANIE
 70
    11
1001
AcDbAttr
1070
     0
1070
     1
  0
ATTDEF
  5
7DBA
330
6F5E
100
AcDbEntity
  8
SOLBET_Wymiary_Opisy
100
AcDbText
 10
-0.0000000878742412
 20
0.2448647517692188
 30
0.0
 40
0.9913121336814832
  1
SOLBET
  7
Solbet_1
100
AcDbAttributeDefinition
  3

  2
FIRMA
 70
     3
1001
AcDbAttr
1070
     0
1070
     1
  0
ATTDEF
  5
7DBB
330
6F5E
100
AcDbEntity
  8
SOLBET_Wymiary_Opisy
100
AcDbText
 10
-0.0000000878742412
 20
9.333547402386153
 30
0.0
 40
0.9913121336814832
  1
Bloczek
  7
Solbet_1
100
AcDbAttributeDefinition
  3
Nazwa
  2
NAZWA
 70
     3
1001
AcDbAttr
1070
     0
1070
     1
  0
ATTDEF
  5
7DBC
330
6F5E
100
AcDbEntity
  8
SOLBET_Wymiary_Opisy
100
AcDbText
 10
-0.0000000878742412
 20
7.794499222151949
 30
0.0
 40
0.9913121336814832
  1
SOLBET OPTIMAL
  7
Solbet_1
100
AcDbAttributeDefinition
  3

  2
SYSTEM
 70
     3
1001
AcDbAttr
1070
     0
1070
     1
  0
ATTDEF
  5
7DBD
330
6F5E
100
AcDbEntity
  8
SOLBET_Wymiary_Opisy
100
AcDbText
 10
-0.0000000878742412
 20
1.744181511296331
 30
0.0
 40
0.9913121336814832
  1
Prawo
  7
Solbet_1
100
AcDbAttributeDefinition
  3

  2
WIDOK
 70
    11
1001
AcDbAttr
1070
     0
1070
     1
  0
LINE
  5
7DBE
330
6F5E
100
AcDbEntity
  8
SOLBET_Bloczki
100
AcDbLine
 10
12.00000017574848
 20
11.99999995881262
 30
0.0
 11
12.00000017574848
 21
-0.0000000411874908
 31
0.0
  0
LINE
  5
7DBF
330
6F5E
100
AcDbEntity
  8
SOLBET_Bloczki
100
AcDbLine
 10
12.00000017574848
 20
11.99999995881262
 30
0.0
 11
0.0000001757484824
 21
11.99999995881262
 31
0.0
  0
LINE
  5
7DC0
330
6F5E
100
AcDbEntity
  8
SOLBET_Bloczki
100
AcDbLine
 10
0.0000001757484824
 20
11.99999995881262
 30
0.0
 11
0.0000001757484824
 21
-0.0000000411873771
 31
0.0
  0
LINE
  5
7DC1
330
6F5E
100
AcDbEntity
  8
SOLBET_Bloczki
100
AcDbLine
 10
0.0000001757484824
 20
-0.0000000411873771
 30
0.0
 11
12.00000017574848
 21
-0.0000000411874908
 31
0.0
  0
ENDBLK
  5
6F6D
330
6F5E
100
AcDbEntity
  8
0
100
AcDbBlockEnd
  0
BLOCK
  5
7598
330
7597
100
AcDbEntity
  8
0
100
AcDbBlockBegin
  2
*X3
 70
     1
 10
0.0
 20
0.0
 30
0.0
  3
*X3
  1
ASOWDBLK
  0
LINE
  5
7599
330
7597
100
AcDbEntity
  8
0
 62
     0
100
AcDbLine
 10
5.535830338278329
 20
1.550823254315196
 30
0.0
 11
5.547882605959951
 21
1.565186587623677
 31
0.0
  0
LINE
  5
759A
330
7597
100
AcDbEntity
  8
0
 62
     0
100
AcDbLine
 10
5.715145383928518
 20
1.535135220569548
 30
0.0
 11
5.72719765161014
 21
1.549498553878029
 31
0.0
  0
LINE
  5
759B
330
7597
100
AcDbEntity
  8
0
 62
     0
100
AcDbLine
 10
5.897488886666843
 20
1.523056361438704
 30
0.0
 11
5.906512697260328
 21
1.53381052013238
 31
0.0
  0
LINE
  5
759C
330
7597
100
AcDbEntity
  8
0
 62
     0
100
AcDbLine
 10
5.356515292628141
 20
1.566511288060845
 30
0.0
 11
5.362007261285531
 21
1.573056361438704
 31
0.0
  0
LINE
  5
759D
330
7597
100
AcDbEntity
  8
0
 62
     0
100
AcDbLine
 10
5.356515293572703
 20
1.566511289448522
 30
0.0
 11
5.371458214044079
 21
1.565203953307307
 31
0.0
  0
LINE
  5
759E
330
7597
100
AcDbEntity
  8
0
 62
     0
100
AcDbLine
 10
5.535830339229217
 20
1.550823255753943
 30
0.0
 11
5.550773259700593
 21
1.549515919612728
 31
0.0
  0
LINE
  5
759F
330
7597
100
AcDbEntity
  8
0
 62
     0
100
AcDbLine
 10
5.715145384885731
 20
1.535135222059365
 30
0.0
 11
5.730088305357107
 21
1.53382788591815
 31
0.0
  0
LINE
  5
75A0
330
7597
100
AcDbEntity
  8
0
 62
     0
100
AcDbLine
 10
5.55077442324031
 20
1.549511565447016
 30
0.0
 11
5.547883782777621
 21
1.565182236668847
 31
0.0
  0
LINE
  5
75A1
330
7597
100
AcDbEntity
  8
0
 62
     0
100
AcDbLine
 10
5.7300894552188
 20
1.533823390891533
 30
0.0
 11
5.727198814756111
 21
1.549494062113364
 31
0.0
  0
LINE
  5
75A2
330
7597
100
AcDbEntity
  8
0
 62
     0
100
AcDbLine
 10
5.908496723837626
 20
1.523056361438704
 30
0.0
 11
5.906513846734599
 21
1.533805887557883
 31
0.0
  0
LINE
  5
75A3
330
7597
100
AcDbEntity
  8
0
 62
     0
100
AcDbLine
 10
5.371459391261822
 20
1.565199740002497
 30
0.0
 11
5.370010144608501
 21
1.573056361438704
 31
0.0
  0
LINE
  5
75A4
330
7597
100
AcDbEntity
  8
0
 62
     0
100
AcDbLine
 10
5.663241355203352
 20
1.570068036879283
 30
0.0
 11
5.671026206834858
 21
1.573056361438704
 31
0.0
  0
LINE
  5
75A5
330
7597
100
AcDbEntity
  8
0
 62
     0
100
AcDbLine
 10
6.022523714194838
 20
1.550046102860641
 30
0.0
 11
6.04002834719166
 21
1.556765501914615
 31
0.0
  0
LINE
  5
75A6
330
7597
100
AcDbEntity
  8
0
 62
     0
100
AcDbLine
 10
5.6632413572069
 20
1.570068036788557
 30
0.0
 11
5.675676920795226
 21
1.561680143236496
 31
0.0
  0
LINE
  5
75A7
330
7597
100
AcDbEntity
  8
0
 62
     0
100
AcDbLine
 10
6.02252371630711
 20
1.550046102800801
 30
0.0
 11
6.034959279895435
 21
1.54165820924874
 31
0.0
  0
LINE
  5
75A8
330
7597
100
AcDbEntity
  8
0
 62
     0
100
AcDbLine
 10
5.675678060963403
 20
1.561675721986842
 30
0.0
 11
5.679496706843875
 21
1.573056361438704
 31
0.0
  0
LINE
  5
75A9
330
7597
100
AcDbEntity
  8
0
 62
     0
100
AcDbLine
 10
6.03496040091489
 20
1.541653506971112
 30
0.0
 11
6.040029481964028
 21
1.556760795150812
 31
0.0
  0
LINE
  5
75AA
330
7597
100
AcDbEntity
  8
0
 62
     0
100
AcDbLine
 10
5.413155120789522
 20
1.565153864886829
 30
0.0
 11
5.413155120789522
 21
1.565153864886829
 31
0.0
  0
LINE
  5
75AB
330
7597
100
AcDbEntity
  8
0
 62
     0
100
AcDbLine
 10
5.284795937633108
 20
1.547551216665087
 30
0.0
 11
5.284795937633108
 21
1.547551216665087
 31
0.0
  0
LINE
  5
75AC
330
7597
100
AcDbEntity
  8
0
 62
     0
100
AcDbLine
 10
5.154949216963649
 20
1.528807140763954
 30
0.0
 11
5.154949216963649
 21
1.528807140763954
 31
0.0
  0
LINE
  5
75AD
330
7597
100
AcDbEntity
  8
0
 62
     0
100
AcDbLine
 10
5.794597691424219
 20
1.534281775022469
 30
0.0
 11
5.794597691424219
 21
1.534281775022469
 31
0.0
  0
LINE
  5
75AE
330
7597
100
AcDbEntity
  8
0
 62
     0
100
AcDbLine
 10
5.920874322062369
 20
1.550286424493062
 30
0.0
 11
5.920874322062369
 21
1.550286424493062
 31
0.0
  0
LINE
  5
75AF
330
7597
100
AcDbEntity
  8
0
 62
     0
100
AcDbLine
 10
6.050721042731828
 20
1.569030500394195
 30
0.0
 11
6.050721042731828
 21
1.569030500394195
 31
0.0
  0
LINE
  5
75B0
330
7597
100
AcDbEntity
  8
0
 62
     0
100
AcDbLine
 10
6.136353753575675
 20
1.527422198215909
 30
0.0
 11
6.136353753575675
 21
1.527422198215909
 31
0.0
  0
LINE
  5
75B1
330
7597
100
AcDbEntity
  8
0
 62
     0
100
AcDbLine
 10
6.198938710449897
 20
1.5356616640998
 30
0.0
 11
6.198938710449897
 21
1.5356616640998
 31
0.0
  0
LINE
  5
75B2
330
7597
100
AcDbEntity
  8
0
 62
     0
100
AcDbLine
 10
5.571810067317812
 20
1.543043099482602
 30
0.0
 11
5.571810067317812
 21
1.543043099482602
 31
0.0
  0
LINE
  5
75B3
330
7597
100
AcDbEntity
  8
0
 62
     0
100
AcDbLine
 10
5.634395024192034
 20
1.551282565366492
 30
0.0
 11
5.634395024192034
 21
1.551282565366492
 31
0.0
  0
LINE
  5
75B4
330
7597
100
AcDbEntity
  8
0
 62
     0
100
AcDbLine
 10
5.729078008453233
 20
1.563747816723507
 30
0.0
 11
5.729078008453233
 21
1.563747816723507
 31
0.0
  0
LINE
  5
75B5
330
7597
100
AcDbEntity
  8
0
 62
     0
100
AcDbLine
 10
5.069851337934171
 20
1.566903466633185
 30
0.0
 11
5.069851337934171
 21
1.566903466633185
 31
0.0
  0
LINE
  5
75B6
330
7597
100
AcDbEntity
  8
0
 62
     0
100
AcDbLine
 10
5.623770715858636
 20
1.541568568457987
 30
0.0
 11
5.623770715858636
 21
1.541568568457987
 31
0.0
  0
LINE
  5
75B7
330
7597
100
AcDbEntity
  8
0
 62
     0
100
AcDbLine
 10
5.704514359538432
 20
1.569511076046068
 30
0.0
 11
5.704514359538432
 21
1.569511076046068
 31
0.0
  0
LINE
  5
75B8
330
7597
100
AcDbEntity
  8
0
 62
     0
100
AcDbLine
 10
5.757226324901737
 20
1.535929850524392
 30
0.0
 11
5.757226324901737
 21
1.535929850524392
 31
0.0
  0
LINE
  5
75B9
330
7597
100
AcDbEntity
  8
0
 62
     0
100
AcDbLine
 10
5.837969968581536
 20
1.563872358112473
 30
0.0
 11
5.837969968581536
 21
1.563872358112473
 31
0.0
  0
LINE
  5
75BA
330
7597
100
AcDbEntity
  8
0
 62
     0
100
AcDbLine
 10
5.890681933944841
 20
1.530291132590796
 30
0.0
 11
5.890681933944841
 21
1.530291132590796
 31
0.0
  0
LINE
  5
75BB
330
7597
100
AcDbEntity
  8
0
 62
     0
100
AcDbLine
 10
5.971425577624637
 20
1.558233640178878
 30
0.0
 11
5.971425577624637
 21
1.558233640178878
 31
0.0
  0
LINE
  5
75BC
330
7597
100
AcDbEntity
  8
0
 62
     0
100
AcDbLine
 10
6.024137542987943
 20
1.524652414657202
 30
0.0
 11
6.024137542987943
 21
1.524652414657202
 31
0.0
  0
LINE
  5
75BD
330
7597
100
AcDbEntity
  8
0
 62
     0
100
AcDbLine
 10
6.104881186667739
 20
1.552594922245283
 30
0.0
 11
6.104881186667739
 21
1.552594922245283
 31
0.0
  0
LINE
  5
75BE
330
7597
100
AcDbEntity
  8
0
 62
     0
100
AcDbLine
 10
6.238336795710841
 20
1.546956204311689
 30
0.0
 11
6.238336795710841
 21
1.546956204311689
 31
0.0
  0
LINE
  5
75BF
330
7597
100
AcDbEntity
  8
0
 62
     0
100
AcDbLine
 10
5.490315106815534
 20
1.547207286391582
 30
0.0
 11
5.490315106815534
 21
1.547207286391582
 31
0.0
  0
LINE
  5
75C0
330
7597
100
AcDbEntity
  8
0
 62
     0
100
AcDbLine
 10
5.356859497772432
 20
1.552846004325176
 30
0.0
 11
5.356859497772432
 21
1.552846004325176
 31
0.0
  0
LINE
  5
75C1
330
7597
100
AcDbEntity
  8
0
 62
     0
100
AcDbLine
 10
5.223403888729329
 20
1.558484722258772
 30
0.0
 11
5.223403888729329
 21
1.558484722258772
 31
0.0
  0
LINE
  5
75C2
330
7597
100
AcDbEntity
  8
0
 62
     0
100
AcDbLine
 10
5.089948279686227
 20
1.564123440192366
 30
0.0
 11
5.089948279686227
 21
1.564123440192366
 31
0.0
  0
LINE
  5
75C3
330
7597
100
AcDbEntity
  8
0
 62
     0
100
AcDbLine
 10
5.52089674296769
 20
1.529251283929319
 30
0.0
 11
5.52089674296769
 21
1.529251283929319
 31
0.0
  0
LINE
  5
75C4
330
7597
100
AcDbEntity
  8
0
 62
     0
100
AcDbLine
 10
5.666693285303286
 20
1.554277529512398
 30
0.0
 11
5.666693285303286
 21
1.554277529512398
 31
0.0
  0
LINE
  5
75C5
330
7597
100
AcDbEntity
  8
0
 62
     0
100
AcDbLine
 10
6.199560327426986
 20
1.541867334375409
 30
0.0
 11
6.199560327426986
 21
1.541867334375409
 31
0.0
  0
LINE
  5
75C6
330
7597
100
AcDbEntity
  8
0
 62
     0
100
AcDbLine
 10
5.315196417016271
 20
1.559116742715012
 30
0.0
 11
5.315196417016271
 21
1.559116742715012
 31
0.0
  0
LINE
  5
75C7
330
7597
100
AcDbEntity
  8
0
 62
     0
100
AcDbLine
 10
5.169399874680674
 20
1.534090497131933
 30
0.0
 11
5.169399874680674
 21
1.534090497131933
 31
0.0
  0
ENDBLK
  5
75C8
330
7597
100
AcDbEntity
  8
0
100
AcDbBlockEnd
  0
BLOCK
  5
75CA
330
75C9
100
AcDbEntity
  8
0
100
AcDbBlockBegin
  2
*X4
 70
     1
 10
0.0
 20
0.0
 30
0.0
  3
*X4
  1
ASOWDBLK
  0
LINE
  5
75CB
330
75C9
100
AcDbEntity
  8
0
 62
     0
100
AcDbLine
 10
6.0855272318221
 20
3.352863420061142
 30
0.0
 11
6.094480098481509
 21
3.36353303106651
 31
0.0
  0
LINE
  5
75CC
330
75C9
100
AcDbEntity
  8
0
 62
     0
100
AcDbLine
 10
6.085527233479288
 20
3.352863421531081
 30
0.0
 11
6.100470153950664
 21
3.351556085389866
 31
0.0
  0
LINE
  5
75CD
330
75C9
100
AcDbEntity
  8
0
 62
     0
100
AcDbLine
 10
6.100472717632922
 20
3.351551293376811
 30
0.0
 11
6.098262544546595
 21
3.363533031066509
 31
0.0
  0
LINE
  5
75CE
330
75C9
100
AcDbEntity
  8
0
 62
     0
100
AcDbLine
 10
5.906274653812086
 20
3.330526970409516
 30
0.0
 11
5.925746777669888
 21
3.350821107924237
 31
0.0
  0
LINE
  5
75CF
330
75C9
100
AcDbEntity
  8
0
 62
     0
100
AcDbLine
 10
5.928511356456088
 20
3.327074406963109
 30
0.0
 11
5.925749310339483
 21
3.350816859436789
 31
0.0
  0
LINE
  5
75D0
330
75C9
100
AcDbEntity
  8
0
 62
     0
100
AcDbLine
 10
5.906274653789892
 20
3.330526971911915
 30
0.0
 11
5.92850884230414
 21
3.327078659119711
 31
0.0
  0
LINE
  5
75D1
330
75C9
100
AcDbEntity
  8
0
 62
     0
100
AcDbLine
 10
5.702191729572545
 20
3.322332295390505
 30
0.0
 11
5.719696362569368
 21
3.329051694444479
 31
0.0
  0
LINE
  5
75D2
330
75C9
100
AcDbEntity
  8
0
 62
     0
100
AcDbLine
 10
5.342909370581059
 20
3.342354229409147
 30
0.0
 11
5.360414003577882
 21
3.349073628463121
 31
0.0
  0
LINE
  5
75D3
330
75C9
100
AcDbEntity
  8
0
 62
     0
100
AcDbLine
 10
5.34290937277013
 20
3.342354228744221
 30
0.0
 11
5.355344936358455
 21
3.33396633519216
 31
0.0
  0
LINE
  5
75D4
330
75C9
100
AcDbEntity
  8
0
 62
     0
100
AcDbLine
 10
5.702191731870341
 20
3.322332294756467
 30
0.0
 11
5.714627295458666
 21
3.313944401204405
 31
0.0
  0
LINE
  5
75D5
330
75C9
100
AcDbEntity
  8
0
 62
     0
100
AcDbLine
 10
5.714629807259108
 20
3.313939946532149
 30
0.0
 11
5.719698888308246
 21
3.329047234711849
 31
0.0
  0
LINE
  5
75D6
330
75C9
100
AcDbEntity
  8
0
 62
     0
100
AcDbLine
 10
5.355347467307622
 20
3.333962161547878
 30
0.0
 11
5.360416548356759
 21
3.349069449727579
 31
0.0
  0
LINE
  5
75D7
330
75C9
100
AcDbEntity
  8
0
 62
     0
100
AcDbLine
 10
5.603270991843445
 20
3.328851246971808
 30
0.0
 11
5.603270991843445
 21
3.328851246971808
 31
0.0
  0
LINE
  5
75D8
330
75C9
100
AcDbEntity
  8
0
 62
     0
100
AcDbLine
 10
5.221828421208748
 20
3.359723336836168
 30
0.0
 11
5.221828421208748
 21
3.359723336836168
 31
0.0
  0
LINE
  5
75D9
330
75C9
100
AcDbEntity
  8
0
 62
     0
100
AcDbLine
 10
5.095551790570599
 20
3.343718687365575
 30
0.0
 11
5.095551790570599
 21
3.343718687365575
 31
0.0
  0
LINE
  5
75DA
330
75C9
100
AcDbEntity
  8
0
 62
     0
100
AcDbLine
 10
5.733117712512905
 20
3.347595322872941
 30
0.0
 11
5.733117712512905
 21
3.347595322872941
 31
0.0
  0
LINE
  5
75DB
330
75C9
100
AcDbEntity
  8
0
 62
     0
100
AcDbLine
 10
6.114560283147604
 20
3.316723233008581
 30
0.0
 11
6.114560283147604
 21
3.316723233008581
 31
0.0
  0
LINE
  5
75DC
330
75C9
100
AcDbEntity
  8
0
 62
     0
100
AcDbLine
 10
6.242919466304016
 20
3.334325881230322
 30
0.0
 11
6.242919466304016
 21
3.334325881230322
 31
0.0
  0
LINE
  5
75DD
330
75C9
100
AcDbEntity
  8
0
 62
     0
100
AcDbLine
 10
6.191079299549619
 20
3.333516704219915
 30
0.0
 11
6.191079299549619
 21
3.333516704219915
 31
0.0
  0
LINE
  5
75DE
330
75C9
100
AcDbEntity
  8
0
 62
     0
100
AcDbLine
 10
5.373965034856778
 20
3.315886058018549
 30
0.0
 11
5.373965034856778
 21
3.315886058018549
 31
0.0
  0
LINE
  5
75DF
330
75C9
100
AcDbEntity
  8
0
 62
     0
100
AcDbLine
 10
5.468648019117976
 20
3.328351309375564
 30
0.0
 11
5.468648019117976
 21
3.328351309375564
 31
0.0
  0
LINE
  5
75E0
330
75C9
100
AcDbEntity
  8
0
 62
     0
100
AcDbLine
 10
5.626535613291755
 20
3.349137605486608
 30
0.0
 11
5.626535613291755
 21
3.349137605486608
 31
0.0
  0
LINE
  5
75E1
330
75C9
100
AcDbEntity
  8
0
 62
     0
100
AcDbLine
 10
5.689120570165977
 20
3.357377071370498
 30
0.0
 11
5.689120570165977
 21
3.357377071370498
 31
0.0
  0
LINE
  5
75E2
330
75C9
100
AcDbEntity
  8
0
 62
     0
100
AcDbLine
 10
5.511988277500569
 20
3.359183233582233
 30
0.0
 11
5.511988277500569
 21
3.359183233582233
 31
0.0
  0
LINE
  5
75E3
330
75C9
100
AcDbEntity
  8
0
 62
     0
100
AcDbLine
 10
5.645443886543671
 20
3.353544515648638
 30
0.0
 11
5.645443886543671
 21
3.353544515648638
 31
0.0
  0
LINE
  5
75E4
330
75C9
100
AcDbEntity
  8
0
 62
     0
100
AcDbLine
 10
5.778899495586774
 20
3.347905797715043
 30
0.0
 11
5.778899495586774
 21
3.347905797715043
 31
0.0
  0
LINE
  5
75E5
330
75C9
100
AcDbEntity
  8
0
 62
     0
100
AcDbLine
 10
5.912355104629877
 20
3.342267079781448
 30
0.0
 11
5.912355104629877
 21
3.342267079781448
 31
0.0
  0
LINE
  5
75E6
330
75C9
100
AcDbEntity
  8
0
 62
     0
100
AcDbLine
 10
6.045810713672979
 20
3.336628361847852
 30
0.0
 11
6.045810713672979
 21
3.336628361847852
 31
0.0
  0
LINE
  5
75E7
330
75C9
100
AcDbEntity
  8
0
 62
     0
100
AcDbLine
 10
6.179266322716081
 20
3.330989643914259
 30
0.0
 11
6.179266322716081
 21
3.330989643914259
 31
0.0
  0
LINE
  5
75E8
330
75C9
100
AcDbEntity
  8
0
 62
     0
100
AcDbLine
 10
5.620797209882196
 20
3.341199320466311
 30
0.0
 11
5.620797209882196
 21
3.341199320466311
 31
0.0
  0
LINE
  5
75E9
330
75C9
100
AcDbEntity
  8
0
 62
     0
100
AcDbLine
 10
5.475000667546599
 20
3.316173074883232
 30
0.0
 11
5.475000667546599
 21
3.316173074883232
 31
0.0
  0
LINE
  5
75EA
330
75C9
100
AcDbEntity
  8
0
 62
     0
100
AcDbLine
 10
5.087930167758495
 20
3.353609515603301
 30
0.0
 11
5.087930167758495
 21
3.353609515603301
 31
0.0
  0
ENDBLK
  5
75EB
330
75C9
100
AcDbEntity
  8
0
100
AcDbBlockEnd
  0
BLOCK
  5
7910
330
790F
100
AcDbEntity
  8
0
100
AcDbBlockBegin
  2
_None
 70
     0
 10
0.0
 20
0.0
 30
0.0
  3
_None
  1

  0
ENDBLK
  5
7911
330
790F
100
AcDbEntity
  8
0
100
AcDbBlockEnd
  0
BLOCK
  5
873A
330
8739
100
AcDbEntity
  8
0
100
AcDbBlockBegin
  2
*D6
 70
     1
 10
0.0
 20
0.0
 30
0.0
  3
*D6
  1

  0
LINE
  5
98A1
330
8739
100
AcDbEntity
  8
SOLBET_Wymiary_Opisy
 62
     0
370
    -2
100
AcDbLine
 10
105.3696759262357
 20
186.4256281420321
 30
0.0
 11
38.07538817557682
 21
186.4256281420321
 31
0.0
  0
LINE
  5
98A2
330
8739
100
AcDbEntity
  8
SOLBET_Wymiary_Opisy
 62
     0
370
    -2
100
AcDbLine
 10
106.0760760123803
 20
171.2736713109776
 30
0.0
 11
38.07538817557681
 21
171.2736713109776
 31
0.0
  0
LINE
  5
98A3
330
8739
100
AcDbEntity
  8
SOLBET_Wymiary_Opisy
 62
     0
370
    -2
100
AcDbLine
 10
39.32538817557682
 20
183.9256281420321
 30
0.0
 11
39.32538817557681
 21
173.7736713109776
 31
0.0
  0
SOLID
  5
98A4
330
8739
100
AcDbEntity
  8
SOLBET_Wymiary_Opisy
 62
     0
100
AcDbTrace
 10
38.90872150891016
 20
183.9256281420321
 30
0.0
 11
39.74205484224349
 21
183.9256281420321
 31
0.0
 12
39.32538817557682
 22
186.4256281420321
 32
0.0
 13
39.32538817557682
 23
186.4256281420321
 33
0.0
  0
SOLID
  5
98A5
330
8739
100
AcDbEntity
  8
SOLBET_Wymiary_Opisy
 62
     0
100
AcDbTrace
 10
38.90872150891015
 20
173.7736713109776
 30
0.0
 11
39.74205484224348
 21
173.7736713109776
 31
0.0
 12
39.32538817557681
 22
171.2736713109776
 32
0.0
 13
39.32538817557681
 23
171.2736713109776
 33
0.0
  0
MTEXT
  5
98A6
330
8739
100
AcDbEntity
  8
SOLBET_Wymiary_Opisy
 62
     0
100
AcDbMText
 10
37.44944120587982
 20
178.849649726505
 30
0.0
 40
2.5
 41
0.0
 71
     5
 72
     1
  1
Min. 30cm
  7
Solbet_2_5
 11
0.0000000000000001
 21
1.0
 31
0.0
 73
     1
 44
1.0
1001
ACAD
1000
MTEXTBEGIN
1070
    73
1070
     1
1070
    44
1040
1.0
1070
    74
1070
     0
1000
MTEXTEND
  0
POINT
  5
98A7
330
8739
100
AcDbEntity
  8
DEFPOINTS
 62
     0
100
AcDbPoint
 10
105.3696759262357
 20
186.4256281420321
 30
0.0
  0
POINT
  5
98A8
330
8739
100
AcDbEntity
  8
DEFPOINTS
 62
     0
100
AcDbPoint
 10
106.0760760123803
 20
171.2736713109776
 30
0.0
  0
POINT
  5
98A9
330
8739
100
AcDbEntity
  8
DEFPOINTS
 62
     0
100
AcDbPoint
 10
39.32538817557681
 20
171.2736713109776
 30
0.0
  0
ENDBLK
  5
873B
330
8739
100
AcDbEntity
  8
0
100
AcDbBlockEnd
  0
BLOCK
  5
8783
330
8776
100
AcDbEntity
  8
0
100
AcDbBlockBegin
  2
SOLBET_Bloczek_OPTIMAL_180x240x590_brak_PRA
 70
     2
 10
0.0
 20
0.0
 30
0.0
  3
SOLBET_Bloczek_OPTIMAL_180x240x590_brak_PRA
  1

  0
ATTDEF
  5
8777
330
8776
100
AcDbEntity
  8
SOLBET_Wymiary_Opisy
100
AcDbText
 10
0.0000002183509085
 20
4.015901233912463
 30
0.0
 40
0.8167755135326304
  1
180x240x590
  7
Solbet_1
100
AcDbAttributeDefinition
  3

  2
WYMIARY
 70
     3
1001
AcDbAttr
1070
     0
1070
     1
  0
ATTDEF
  5
8778
330
8776
100
AcDbEntity
  8
SOLBET_Wymiary_Opisy
100
AcDbText
 10
0.0000002183509085
 20
2.769685461915945
 30
0.0
 40
0.8167755135326304
  1
500, 600
  7
Solbet_1
100
AcDbAttributeDefinition
  3

  2
KLASA_GĘSTOŚCI
 70
     9
1001
AcDbAttr
1070
     0
1070
     1
  0
ATTDEF
  5
8779
330
8776
100
AcDbEntity
  8
SOLBET_Wymiary_Opisy
100
AcDbText
 10
-0.0000000621135077
 20
0.2017523139562013
 30
0.0
 40
0.8167755135326304
  1
SOLBET
  7
Solbet_1
100
AcDbAttributeDefinition
  3

  2
FIRMA
 70
     3
1001
AcDbAttr
1070
     0
1070
     1
  0
ATTDEF
  5
877A
330
8776
100
AcDbEntity
  8
SOLBET_Wymiary_Opisy
100
AcDbText
 10
0.0000002183509085
 20
6.512675883357921
 30
0.0
 40
0.8167755135326304
  1
Bloczek
  7
Solbet_1
100
AcDbAttributeDefinition
  3
Nazwa
  2
NAZWA
 70
     3
1001
AcDbAttr
1070
     0
1070
     1
  0
ATTDEF
  5
877B
330
8776
100
AcDbEntity
  8
SOLBET_Wymiary_Opisy
100
AcDbText
 10
0.0000002183509085
 20
5.244602160610414
 30
0.0
 40
0.8167755135326304
  1
SOLBET OPTIMAL
  7
Solbet_1
100
AcDbAttributeDefinition
  3

  2
SYSTEM
 70
     3
1001
AcDbAttr
1070
     0
1070
     1
  0
ATTDEF
  5
877C
330
8776
100
AcDbEntity
  8
SOLBET_Wymiary_Opisy
100
AcDbText
 10
-0.0000000621135077
 20
1.43708997865618
 30
0.0
 40
0.8167755135326304
  1
Prawo
  7
Solbet_1
100
AcDbAttributeDefinition
  3

  2
WIDOK
 70
    11
1001
AcDbAttr
1070
     0
1070
     1
  0
LINE
  5
877D
330
8776
100
AcDbEntity
  8
SOLBET_Bloczki
100
AcDbLine
 10
9.000000263303718
 20
11.99999999884039
 30
0.0
 11
9.000000263303718
 21
-0.0000000011597194
 31
0.0
  0
LINE
  5
877E
330
8776
100
AcDbEntity
  8
SOLBET_Bloczki
100
AcDbLine
 10
9.000000263303718
 20
11.99999999884039
 30
0.0
 11
0.0000002633037184
 21
11.99999999884039
 31
0.0
  0
LINE
  5
877F
330
8776
100
AcDbEntity
  8
SOLBET_Bloczki
100
AcDbLine
 10
0.0000002633037184
 20
11.99999999884039
 30
0.0
 11
0.0000002633037184
 21
-0.0000000011596057
 31
0.0
  0
LINE
  5
8780
330
8776
100
AcDbEntity
  8
SOLBET_Bloczki
100
AcDbLine
 10
0.0000002633037184
 20
-0.0000000011596057
 30
0.0
 11
9.000000263303718
 21
-0.0000000011597194
 31
0.0
  0
ENDBLK
  5
8784
330
8776
100
AcDbEntity
  8
0
100
AcDbBlockEnd
  0
BLOCK
  5
8E1E
330
8E17
100
AcDbEntity
  8
0
100
AcDbBlockBegin
  2
A$C20206B15
 70
     0
 10
0.0
 20
0.0
 30
0.0
  3
A$C20206B15
  1

  0
MTEXT
  5
8E18
330
8E17
100
AcDbEntity
  8
SOLBET_Wymiary_Opisy
100
AcDbMText
 10
101.9490882815601
 20
241.9562961119423
 30
0.0
 40
5.0
 41
0.0
 71
     1
 72
     1
  1
DETAL 6
  7
Solbet_2_5
 73
     1
 44
1.0
1001
ACAD
1000
MTEXTBEGIN
1070
    73
1070
     1
1070
    44
1040
1.0
1070
    74
1070
     0
1000
MTEXTEND
  0
MTEXT
  5
8E19
330
8E17
100
AcDbEntity
  8
SOLBET_Wymiary_Opisy
100
AcDbMText
 10
101.8000482231007
 20
231.0319221980711
 30
0.0
 40
5.0
 41
0.0
 71
     1
 72
     1
  1
Posadowienie na plycie fundamentowej\Pbudynku podpiwniczonego\Ppiwnica z dociepleniem\Pwariant sciany z dociepleniem
  7
Solbet_2_5
 73
     1
 44
1.0
1001
ACAD
1000
MTEXTBEGIN
1070
    73
1070
     1
1070
    44
1040
1.0
1070
    74
1070
     0
1000
MTEXTEND
  0
MTEXT
  5
8E1A
330
8E17
100
AcDbEntity
  8
SOLBET_Wymiary_Opisy
100
AcDbMText
 10
1.854039884173971
 20
13.13063716220529
 30
0.0
 40
2.5
 41
0.0
 71
     1
 72
     1
  1
UWAGA:
  7
Solbet_2_5
 73
     1
 44
1.0
1001
ACAD
1000
MTEXTBEGIN
1070
    73
1070
     1
1070
    44
1040
1.0
1070
    74
1070
     0
1000
MTEXTEND
  0
MTEXT
  5
8E1B
102
{ACAD_XDICTIONARY
360
9916
102
}
330
8E17
100
AcDbEntity
  8
SOLBET_Wymiary_Opisy
100
AcDbMText
 10
1.704999825714594
 20
8.51840001690715
 30
0.0
 40
2.5
 41
0.0
 71
     1
 72
     1
  1
Sytemy hydroizolacji stosowa\U+0107 wg zalecen producentow\PStyropian wodoodporny wg zalecen producentow
  7
Solbet_2_5
 73
     1
 44
1.0
1001
ACAD
1000
MTEXTBEGIN
1070
    73
1070
     1
1070
    44
1040
1.0
1070
    74
1070
     0
1000
MTEXTEND
  0
ENDBLK
  5
8E1F
330
8E17
100
AcDbEntity
  8
0
100
AcDbBlockEnd
  0
BLOCK
  5
982E
330
9820
100
AcDbEntity
  8
0
100
AcDbBlockBegin
  2
SOLBET_Bloczek_Optimal_240x240x590_P+W_KG400_PRA
 70
     2
 10
0.0
 20
0.0
 30
0.0
  3
SOLBET_Bloczek_Optimal_240x240x590_P+W_KG400_PRA
  1

  0
ATTDEF
  5
9821
330
9820
100
AcDbEntity
  8
SOLBET_Wymiary_Opisy
100
AcDbText
 10
-0.0000000878742412
 20
6.303237404038322
 30
0.0
 40
0.9913121336814832
  1
240x240x590
  7
Solbet_1
100
AcDbAttributeDefinition
  3

  2
WYMIARY
 70
    11
1001
AcDbAttr
1070
     0
1070
     1
  0
ATTDEF
  5
9822
330
9820
100
AcDbEntity
  8
SOLBET_Wymiary_Opisy
100
AcDbText
 10
-0.0000000878742412
 20
4.790717996322224
 30
0.0
 40
0.9913121336814832
  1
400
  7
Solbet_1
100
AcDbAttributeDefinition
  3

  2
KLASA_GĘSTOŚCI
 70
    11
1001
AcDbAttr
1070
     0
1070
     1
  0
ATTDEF
  5
9823
330
9820
100
AcDbEntity
  8
SOLBET_Wymiary_Opisy
100
AcDbText
 10
-0.0000000878742412
 20
3.269569161109998
 30
0.0
 40
0.9913121336814832
  1
Pióra+Wpusty
  7
Solbet_1
100
AcDbAttributeDefinition
  3

  2
PROFILOWANIE
 70
    11
1001
AcDbAttr
1070
     0
1070
     1
  0
ATTDEF
  5
9824
330
9820
100
AcDbEntity
  8
SOLBET_Wymiary_Opisy
100
AcDbText
 10
-0.0000000878742412
 20
0.2448647517692188
 30
0.0
 40
0.9913121336814832
  1
SOLBET
  7
Solbet_1
100
AcDbAttributeDefinition
  3

  2
FIRMA
 70
    11
1001
AcDbAttr
1070
     0
1070
     1
  0
ATTDEF
  5
9825
330
9820
100
AcDbEntity
  8
SOLBET_Wymiary_Opisy
100
AcDbText
 10
-0.0000000878742412
 20
9.333547402386153
 30
0.0
 40
0.9913121336814832
  1
Bloczek
  7
Solbet_1
100
AcDbAttributeDefinition
  3
Nazwa
  2
NAZWA
 70
    11
1001
AcDbAttr
1070
     0
1070
     1
  0
ATTDEF
  5
9826
330
9820
100
AcDbEntity
  8
SOLBET_Wymiary_Opisy
100
AcDbText
 10
-0.0000000878742412
 20
7.794499222151949
 30
0.0
 40
0.9913121336814832
  1
SOLBET Optimal
  7
Solbet_1
100
AcDbAttributeDefinition
  3

  2
SYSTEM
 70
    11
1001
AcDbAttr
1070
     0
1070
     1
  0
ATTDEF
  5
9827
330
9820
100
AcDbEntity
  8
SOLBET_Wymiary_Opisy
100
AcDbText
 10
-0.0000000878742412
 20
1.744181511296331
 30
0.0
 40
0.9913121336814832
  1
Prawo
  7
Solbet_1
100
AcDbAttributeDefinition
  3

  2
WIDOK
 70
    11
1001
AcDbAttr
1070
     0
1070
     1
  0
LINE
  5
9828
330
9820
100
AcDbEntity
  8
SOLBET_Bloczki
100
AcDbLine
 10
12.00000017574848
 20
11.99999995881262
 30
0.0
 11
12.00000017574848
 21
-0.0000000411874908
 31
0.0
  0
LINE
  5
9829
330
9820
100
AcDbEntity
  8
SOLBET_Bloczki
100
AcDbLine
 10
12.00000017574848
 20
11.99999995881262
 30
0.0
 11
0.0000001757484824
 21
11.99999995881262
 31
0.0
  0
LINE
  5
982A
330
9820
100
AcDbEntity
  8
SOLBET_Bloczki
100
AcDbLine
 10
0.0000001757484824
 20
11.99999995881262
 30
0.0
 11
0.0000001757484824
 21
-0.0000000411873771
 31
0.0
  0
LINE
  5
982B
330
9820
100
AcDbEntity
  8
SOLBET_Bloczki
100
AcDbLine
 10
0.0000001757484824
 20
-0.0000000411873771
 30
0.0
 11
12.00000017574848
 21
-0.0000000411874908
 31
0.0
  0
ENDBLK
  5
982F
330
9820
100
AcDbEntity
  8
0
100
AcDbBlockEnd
  0
BLOCK
  5
9840
330
9833
100
AcDbEntity
  8
0
100
AcDbBlockBegin
  2
SOLBET_Bloczek_Optimal_180x240x590_G_KG500_PRA
 70
     2
 10
0.0
 20
0.0
 30
0.0
  3
SOLBET_Bloczek_Optimal_180x240x590_G_KG500_PRA
  1

  0
ATTDEF
  5
9834
330
9833
100
AcDbEntity
  8
SOLBET_Wymiary_Opisy
100
AcDbText
 10
0.0000002183509085
 20
4.015901233912463
 30
0.0
 40
0.8167755135326304
  1
180x240x590
  7
Solbet_1
100
AcDbAttributeDefinition
  3

  2
WYMIARY
 70
    11
1001
AcDbAttr
1070
     0
1070
     1
  0
ATTDEF
  5
9835
330
9833
100
AcDbEntity
  8
SOLBET_Wymiary_Opisy
100
AcDbText
 10
0.0000002183509085
 20
2.769685461915945
 30
0.0
 40
0.8167755135326304
  1
500
  7
Solbet_1
100
AcDbAttributeDefinition
  3

  2
KLASA_GĘSTOŚCI
 70
    11
1001
AcDbAttr
1070
     0
1070
     1
  0
ATTDEF
  5
9836
330
9833
100
AcDbEntity
  8
SOLBET_Wymiary_Opisy
100
AcDbText
 10
-0.0000000621135077
 20
0.2017523139562013
 30
0.0
 40
0.8167755135326304
  1
SOLBET
  7
Solbet_1
100
AcDbAttributeDefinition
  3

  2
FIRMA
 70
    11
1001
AcDbAttr
1070
     0
1070
     1
  0
ATTDEF
  5
9837
330
9833
100
AcDbEntity
  8
SOLBET_Wymiary_Opisy
100
AcDbText
 10
0.0000002183509085
 20
6.512675883357921
 30
0.0
 40
0.8167755135326304
  1
Bloczek
  7
Solbet_1
100
AcDbAttributeDefinition
  3
Nazwa
  2
NAZWA
 70
    11
1001
AcDbAttr
1070
     0
1070
     1
  0
ATTDEF
  5
9838
330
9833
100
AcDbEntity
  8
SOLBET_Wymiary_Opisy
100
AcDbText
 10
0.0000002183509085
 20
5.244602160610414
 30
0.0
 40
0.8167755135326304
  1
SOLBET Optimal
  7
Solbet_1
100
AcDbAttributeDefinition
  3

  2
SYSTEM
 70
    11
1001
AcDbAttr
1070
     0
1070
     1
  0
ATTDEF
  5
9839
330
9833
100
AcDbEntity
  8
SOLBET_Wymiary_Opisy
100
AcDbText
 10
-0.0000000621135077
 20
1.43708997865618
 30
0.0
 40
0.8167755135326304
  1
Prawo
  7
Solbet_1
100
AcDbAttributeDefinition
  3

  2
WIDOK
 70
    11
1001
AcDbAttr
1070
     0
1070
     1
  0
LINE
  5
983A
330
9833
100
AcDbEntity
  8
SOLBET_Bloczki
100
AcDbLine
 10
9.000000263303718
 20
11.99999999884039
 30
0.0
 11
9.000000263303718
 21
-0.0000000011597194
 31
0.0
  0
LINE
  5
983B
330
9833
100
AcDbEntity
  8
SOLBET_Bloczki
100
AcDbLine
 10
9.000000263303718
 20
11.99999999884039
 30
0.0
 11
0.0000002633037184
 21
11.99999999884039
 31
0.0
  0
LINE
  5
983C
330
9833
100
AcDbEntity
  8
SOLBET_Bloczki
100
AcDbLine
 10
0.0000002633037184
 20
11.99999999884039
 30
0.0
 11
0.0000002633037184
 21
-0.0000000011596057
 31
0.0
  0
LINE
  5
983D
330
9833
100
AcDbEntity
  8
SOLBET_Bloczki
100
AcDbLine
 10
0.0000002633037184
 20
-0.0000000011596057
 30
0.0
 11
9.000000263303718
 21
-0.0000000011597194
 31
0.0
  0
ENDBLK
  5
9841
330
9833
100
AcDbEntity
  8
0
100
AcDbBlockEnd
  0
ENDSEC
  0
SECTION
  2
ENTITIES
  0
LINE
  5
7782
330
1F
100
AcDbEntity
  8
SOLBET_Emulsje_Folie
100
AcDbLine
 10
105.8760760123803
 20
138.3480510002926
 30
0.0
 11
105.8760760123803
 21
97.27367142729907
 31
0.0
  0
LINE
  5
7783
330
1F
100
AcDbEntity
  8
SOLBET_Emulsje_Folie
100
AcDbLine
 10
105.8760760123803
 20
147.4915954361107
 30
0.0
 11
106.2760760123804
 21
147.6426495784092
 31
0.0
  0
LINE
  5
7784
330
1F
100
AcDbEntity
  8
SOLBET_Emulsje_Folie
100
AcDbLine
 10
105.8760760123803
 20
148.5146207532127
 30
0.0
 11
106.2760760123804
 21
148.3635666109145
 31
0.0
  0
LINE
  5
7785
330
1F
100
AcDbEntity
  8
SOLBET_Emulsje_Folie
100
AcDbLine
 10
105.8760760123803
 20
149.2738186606687
 30
0.0
 11
106.2760760123804
 21
149.4248728029671
 31
0.0
  0
LINE
  5
7786
330
1F
100
AcDbEntity
  8
SOLBET_Emulsje_Folie
100
AcDbLine
 10
105.8760760123803
 20
143.9271489869946
 30
0.0
 11
106.2760760123804
 21
144.078203129293
 31
0.0
  0
LINE
  5
7787
330
1F
100
AcDbEntity
  8
SOLBET_Emulsje_Folie
100
AcDbLine
 10
105.8760760123803
 20
144.9501743040966
 30
0.0
 11
106.2760760123804
 21
144.7991201617983
 31
0.0
  0
LINE
  5
7788
330
1F
100
AcDbEntity
  8
SOLBET_Emulsje_Folie
100
AcDbLine
 10
105.8760760123803
 20
145.7093722115526
 30
0.0
 11
106.2760760123804
 21
145.860426353851
 31
0.0
  0
LINE
  5
7789
330
1F
100
AcDbEntity
  8
SOLBET_Emulsje_Folie
100
AcDbLine
 10
105.8760760123803
 20
146.7323975286547
 30
0.0
 11
106.2760760123804
 21
146.5813433863563
 31
0.0
  0
LINE
  5
778A
330
1F
100
AcDbEntity
  8
SOLBET_Emulsje_Folie
100
AcDbLine
 10
105.8760760123803
 20
140.3627025378785
 30
0.0
 11
106.2760760123804
 21
140.5137566801768
 31
0.0
  0
LINE
  5
778B
330
1F
100
AcDbEntity
  8
SOLBET_Emulsje_Folie
100
AcDbLine
 10
105.8760760123803
 20
141.3857278549804
 30
0.0
 11
106.2760760123804
 21
141.2346737126822
 31
0.0
  0
LINE
  5
778C
330
1F
100
AcDbEntity
  8
SOLBET_Emulsje_Folie
100
AcDbLine
 10
105.8760760123803
 20
142.1449257624364
 30
0.0
 11
106.2760760123804
 21
142.2959799047348
 31
0.0
  0
LINE
  5
778D
330
1F
100
AcDbEntity
  8
SOLBET_Emulsje_Folie
100
AcDbLine
 10
105.8760760123803
 20
143.1679510795386
 30
0.0
 11
106.2760760123804
 21
143.0168969372402
 31
0.0
  0
LINE
  5
778E
330
1F
100
AcDbEntity
  8
SOLBET_Emulsje_Folie
100
AcDbLine
 10
105.8760760123803
 20
136.7982560887623
 30
0.0
 11
106.2760760123804
 21
136.9493102310607
 31
0.0
  0
LINE
  5
778F
330
1F
100
AcDbEntity
  8
SOLBET_Emulsje_Folie
100
AcDbLine
 10
105.8760760123803
 20
137.8212814058643
 30
0.0
 11
106.2760760123804
 21
137.670227263566
 31
0.0
  0
LINE
  5
7790
330
1F
100
AcDbEntity
  8
SOLBET_Emulsje_Folie
100
AcDbLine
 10
105.8760760123803
 20
133.2338096396461
 30
0.0
 11
106.2760760123804
 21
133.3848637819446
 31
0.0
  0
LINE
  5
7791
330
1F
100
AcDbEntity
  8
SOLBET_Emulsje_Folie
100
AcDbLine
 10
105.8760760123803
 20
134.2568349567481
 30
0.0
 11
106.2760760123804
 21
134.1057808144499
 31
0.0
  0
LINE
  5
7792
330
1F
100
AcDbEntity
  8
SOLBET_Emulsje_Folie
100
AcDbLine
 10
105.8760760123803
 20
135.0160328642041
 30
0.0
 11
106.2760760123804
 21
135.1670870065026
 31
0.0
  0
LINE
  5
7793
330
1F
100
AcDbEntity
  8
SOLBET_Emulsje_Folie
100
AcDbLine
 10
105.8760760123803
 20
136.0390581813063
 30
0.0
 11
106.2760760123804
 21
135.8880040390079
 31
0.0
  0
LINE
  5
7794
330
1F
100
AcDbEntity
  8
SOLBET_Emulsje_Folie
100
AcDbLine
 10
105.8760760123803
 20
129.6693631905299
 30
0.0
 11
106.2760760123804
 21
129.8204173328284
 31
0.0
  0
LINE
  5
7795
330
1F
100
AcDbEntity
  8
SOLBET_Emulsje_Folie
100
AcDbLine
 10
105.8760760123803
 20
130.692388507632
 30
0.0
 11
106.2760760123804
 21
130.5413343653337
 31
0.0
  0
LINE
  5
7796
330
1F
100
AcDbEntity
  8
SOLBET_Emulsje_Folie
100
AcDbLine
 10
105.8760760123803
 20
131.451586415088
 30
0.0
 11
106.2760760123804
 21
131.6026405573864
 31
0.0
  0
LINE
  5
7797
330
1F
100
AcDbEntity
  8
SOLBET_Emulsje_Folie
100
AcDbLine
 10
105.8760760123803
 20
132.4746117321901
 30
0.0
 11
106.2760760123804
 21
132.3235575898917
 31
0.0
  0
LINE
  5
7798
330
1F
100
AcDbEntity
  8
SOLBET_Emulsje_Folie
100
AcDbLine
 10
105.8760760123803
 20
126.1049167414138
 30
0.0
 11
106.2760760123804
 21
126.2559708837122
 31
0.0
  0
LINE
  5
7799
330
1F
100
AcDbEntity
  8
SOLBET_Emulsje_Folie
100
AcDbLine
 10
105.8760760123803
 20
127.1279420585158
 30
0.0
 11
106.2760760123804
 21
126.9768879162176
 31
0.0
  0
LINE
  5
779A
330
1F
100
AcDbEntity
  8
SOLBET_Emulsje_Folie
100
AcDbLine
 10
105.8760760123803
 20
127.8871399659718
 30
0.0
 11
106.2760760123804
 21
128.0381941082702
 31
0.0
  0
LINE
  5
779B
330
1F
100
AcDbEntity
  8
SOLBET_Emulsje_Folie
100
AcDbLine
 10
105.8760760123803
 20
128.910165283074
 30
0.0
 11
106.2760760123804
 21
128.7591111407755
 31
0.0
  0
LINE
  5
779C
330
1F
100
AcDbEntity
  8
SOLBET_Emulsje_Folie
100
AcDbLine
 10
105.8760760123803
 20
122.5404702922976
 30
0.0
 11
106.2760760123804
 21
122.6915244345961
 31
0.0
  0
LINE
  5
779D
330
1F
100
AcDbEntity
  8
SOLBET_Emulsje_Folie
100
AcDbLine
 10
105.8760760123803
 20
123.5634956093997
 30
0.0
 11
106.2760760123804
 21
123.4124414671014
 31
0.0
  0
LINE
  5
779E
330
1F
100
AcDbEntity
  8
SOLBET_Emulsje_Folie
100
AcDbLine
 10
105.8760760123803
 20
124.3226935168556
 30
0.0
 11
106.2760760123804
 21
124.473747659154
 31
0.0
  0
LINE
  5
779F
330
1F
100
AcDbEntity
  8
SOLBET_Emulsje_Folie
100
AcDbLine
 10
105.8760760123803
 20
125.3457188339578
 30
0.0
 11
106.2760760123804
 21
125.1946646916594
 31
0.0
  0
LINE
  5
77A0
330
1F
100
AcDbEntity
  8
SOLBET_Emulsje_Folie
100
AcDbLine
 10
106.2760760123799
 20
172.2736713109775
 30
0.0
 11
105.8760760123803
 21
172.2736713109775
 31
0.0
  0
LINE
  5
77A1
330
1F
100
AcDbEntity
  8
SOLBET_Emulsje_Folie
100
AcDbLine
 10
105.8760760123803
 20
97.27367142729907
 30
0.0
 11
106.2760760123804
 21
97.27367142729907
 31
0.0
  0
LINE
  5
77A2
330
1F
100
AcDbEntity
  8
SOLBET_Emulsje_Folie
100
AcDbLine
 10
105.8760760123803
 20
98.61237046558665
 30
0.0
 11
106.2760760123804
 21
98.46131632328827
 31
0.0
  0
LINE
  5
77A3
330
1F
100
AcDbEntity
  8
SOLBET_Emulsje_Folie
100
AcDbLine
 10
105.8760760123803
 20
97.58934514848455
 30
0.0
 11
106.2760760123804
 21
97.74039929078293
 31
0.0
  0
LINE
  5
77A4
102
{ACAD_REACTORS
330
8D45
102
}
330
1F
100
AcDbEntity
  8
SOLBET_Emulsje_Folie
100
AcDbLine
 10
105.8760760123803
 20
172.2736713109775
 30
0.0
 11
105.8760760123803
 21
139.8480510002927
 31
0.0
  0
LINE
  5
77A5
330
1F
100
AcDbEntity
  8
SOLBET_Emulsje_Folie
100
AcDbLine
 10
105.8760760123803
 20
99.37156837304264
 30
0.0
 11
106.2760760123804
 21
99.52262251534108
 31
0.0
  0
LINE
  5
77A6
330
1F
100
AcDbEntity
  8
SOLBET_Emulsje_Folie
100
AcDbLine
 10
105.8760760123803
 20
100.3945936901447
 30
0.0
 11
106.2760760123804
 21
100.2435395478463
 31
0.0
  0
LINE
  5
77A7
330
1F
100
AcDbEntity
  8
SOLBET_Emulsje_Folie
100
AcDbLine
 10
106.2760760123804
 20
138.3480510002926
 30
0.0
 11
106.2760760123804
 21
97.27367142729907
 31
0.0
  0
LINE
  5
77A8
330
1F
100
AcDbEntity
  8
SOLBET_Emulsje_Folie
100
AcDbLine
 10
105.8760760123803
 20
102.1768169147028
 30
0.0
 11
106.2760760123804
 21
102.0257627724044
 31
0.0
  0
LINE
  5
77A9
330
1F
100
AcDbEntity
  8
SOLBET_Emulsje_Folie
100
AcDbLine
 10
105.8760760123803
 20
101.1537915976006
 30
0.0
 11
106.2760760123804
 21
101.3048457398991
 31
0.0
  0
LINE
  5
77AA
330
1F
100
AcDbEntity
  8
SOLBET_Emulsje_Folie
100
AcDbLine
 10
105.8760760123803
 20
102.9360148221587
 30
0.0
 11
106.2760760123804
 21
103.0870689644572
 31
0.0
  0
LINE
  5
77AB
330
1F
100
AcDbEntity
  8
SOLBET_Emulsje_Folie
100
AcDbLine
 10
105.8760760123803
 20
103.9590401392608
 30
0.0
 11
106.2760760123804
 21
103.8079859969625
 31
0.0
  0
LINE
  5
77AC
330
1F
100
AcDbEntity
  8
SOLBET_Emulsje_Folie
100
AcDbLine
 10
105.8760760123803
 20
104.7182380467168
 30
0.0
 11
106.2760760123804
 21
104.8692921890153
 31
0.0
  0
LINE
  5
77AD
330
1F
100
AcDbEntity
  8
SOLBET_Emulsje_Folie
100
AcDbLine
 10
105.8760760123803
 20
105.7412633638189
 30
0.0
 11
106.2760760123804
 21
105.5902092215206
 31
0.0
  0
LINE
  5
77AE
330
1F
100
AcDbEntity
  8
SOLBET_Emulsje_Folie
100
AcDbLine
 10
105.8760760123803
 20
106.5004612712749
 30
0.0
 11
106.2760760123804
 21
106.6515154135733
 31
0.0
  0
LINE
  5
77AF
330
1F
100
AcDbEntity
  8
SOLBET_Emulsje_Folie
100
AcDbLine
 10
105.8760760123803
 20
107.523486588377
 30
0.0
 11
106.2760760123804
 21
107.3724324460787
 31
0.0
  0
LINE
  5
77B0
330
1F
100
AcDbEntity
  8
SOLBET_Emulsje_Folie
100
AcDbLine
 10
105.8760760123803
 20
108.282684495833
 30
0.0
 11
106.2760760123804
 21
108.4337386381314
 31
0.0
  0
LINE
  5
77B1
330
1F
100
AcDbEntity
  8
SOLBET_Emulsje_Folie
100
AcDbLine
 10
105.8760760123803
 20
109.3057098129351
 30
0.0
 11
106.2760760123804
 21
109.1546556706368
 31
0.0
  0
LINE
  5
77B2
330
1F
100
AcDbEntity
  8
SOLBET_Emulsje_Folie
100
AcDbLine
 10
105.8760760123803
 20
110.0649077203911
 30
0.0
 11
106.2760760123804
 21
110.2159618626895
 31
0.0
  0
LINE
  5
77B3
330
1F
100
AcDbEntity
  8
SOLBET_Emulsje_Folie
100
AcDbLine
 10
105.8760760123803
 20
111.0879330374932
 30
0.0
 11
106.2760760123804
 21
110.9368788951948
 31
0.0
  0
LINE
  5
77B4
330
1F
100
AcDbEntity
  8
SOLBET_Emulsje_Folie
100
AcDbLine
 10
105.8760760123803
 20
121.7812723848417
 30
0.0
 11
106.2760760123804
 21
121.6302182425432
 31
0.0
  0
LINE
  5
77B5
330
1F
100
AcDbEntity
  8
SOLBET_Emulsje_Folie
100
AcDbLine
 10
105.8760760123803
 20
120.7582470677395
 30
0.0
 11
106.2760760123804
 21
120.9093012100379
 31
0.0
  0
LINE
  5
77B6
330
1F
100
AcDbEntity
  8
SOLBET_Emulsje_Folie
100
AcDbLine
 10
105.8760760123803
 20
119.9990491602835
 30
0.0
 11
106.2760760123804
 21
119.8479950179853
 31
0.0
  0
LINE
  5
77B7
330
1F
100
AcDbEntity
  8
SOLBET_Emulsje_Folie
100
AcDbLine
 10
105.8760760123803
 20
118.9760238431815
 30
0.0
 11
106.2760760123804
 21
119.1270779854799
 31
0.0
  0
LINE
  5
77B8
330
1F
100
AcDbEntity
  8
SOLBET_Emulsje_Folie
100
AcDbLine
 10
105.8760760123803
 20
118.2168259357254
 30
0.0
 11
106.2760760123804
 21
118.0657717934271
 31
0.0
  0
LINE
  5
77B9
330
1F
100
AcDbEntity
  8
SOLBET_Emulsje_Folie
100
AcDbLine
 10
105.8760760123803
 20
117.1938006186234
 30
0.0
 11
106.2760760123804
 21
117.3448547609218
 31
0.0
  0
LINE
  5
77BA
330
1F
100
AcDbEntity
  8
SOLBET_Emulsje_Folie
100
AcDbLine
 10
105.8760760123803
 20
116.4346027111674
 30
0.0
 11
106.2760760123804
 21
116.283548568869
 31
0.0
  0
LINE
  5
77BB
330
1F
100
AcDbEntity
  8
SOLBET_Emulsje_Folie
100
AcDbLine
 10
105.8760760123803
 20
115.4115773940653
 30
0.0
 11
106.2760760123804
 21
115.5626315363637
 31
0.0
  0
LINE
  5
77BC
330
1F
100
AcDbEntity
  8
SOLBET_Emulsje_Folie
100
AcDbLine
 10
105.8760760123803
 20
114.6523794866093
 30
0.0
 11
106.2760760123804
 21
114.501325344311
 31
0.0
  0
LINE
  5
77BD
330
1F
100
AcDbEntity
  8
SOLBET_Emulsje_Folie
100
AcDbLine
 10
105.8760760123803
 20
113.6293541695072
 30
0.0
 11
106.2760760123804
 21
113.7804083118056
 31
0.0
  0
LINE
  5
77BE
330
1F
100
AcDbEntity
  8
SOLBET_Emulsje_Folie
100
AcDbLine
 10
105.8760760123803
 20
111.8471309449491
 30
0.0
 11
106.2760760123804
 21
111.9981850872475
 31
0.0
  0
LINE
  5
77BF
330
1F
100
AcDbEntity
  8
SOLBET_Emulsje_Folie
100
AcDbLine
 10
105.8760760123803
 20
112.8701562620513
 30
0.0
 11
106.2760760123804
 21
112.7191021197529
 31
0.0
  0
LINE
  5
77C1
330
1F
100
AcDbEntity
  8
SOLBET_Tynki_Posadzki
100
AcDbLine
 10
125.4407485667029
 20
192.6210250888233
 30
0.0
 11
125.4407485667029
 21
192.1210250888232
 31
0.0
  0
ARC
  5
77C2
330
1F
100
AcDbEntity
  8
SOLBET_Tynki_Posadzki
100
AcDbCircle
 10
124.6426823755132
 20
192.6210250888233
 30
0.0
 40
1.5000521396288
100
AcDbArc
 50
0.0
 51
90.0
  0
LINE
  5
77C4
330
1F
100
AcDbEntity
  8
SOLBET_Izolacja
  6
Continuous
100
AcDbLine
 10
125.1426823755132
 20
192.1210250888232
 30
0.0
 11
124.1426823755132
 21
192.1210250888232
 31
0.0
  0
LINE
  5
77C5
330
1F
100
AcDbEntity
  8
SOLBET_Izolacja
  6
Continuous
100
AcDbLine
 10
124.1426823755132
 20
187.0736713109776
 30
0.0
 11
124.1426823755132
 21
186.7477182552681
 31
0.0
  0
LINE
  5
77C6
330
1F
100
AcDbEntity
  8
SOLBET_Izolacja
  6
Continuous
100
AcDbLine
 10
125.1426823755132
 20
186.7477182552681
 30
0.0
 11
124.1426823755132
 21
186.7477182552681
 31
0.0
  0
LINE
  5
77C7
330
1F
100
AcDbEntity
  8
SOLBET_Tynki_Posadzki
100
AcDbLine
 10
125.4407485667029
 20
192.6210250888233
 30
0.0
 11
184.6426823755132
 21
192.6210250888233
 31
0.0
  0
LINE
  5
77C8
330
1F
100
AcDbEntity
  8
SOLBET_Tynki_Posadzki
100
AcDbLine
 10
125.2574984251805
 20
192.1210250888232
 30
0.0
 11
184.6426823755132
 21
192.1210250888232
 31
0.0
  0
LINE
  5
77CA
330
1F
100
AcDbEntity
  8
SOLBET_Izolacja
  6
Continuous
100
AcDbLine
 10
125.1426823755132
 20
186.7477182552681
 30
0.0
 11
125.1426823755132
 21
192.1210250888232
 31
0.0
  0
LINE
  5
77CB
330
1F
100
AcDbEntity
  8
SOLBET_Izolacja
  6
Continuous
100
AcDbLine
 10
125.1426823755132
 20
189.247718255268
 30
0.0
 11
184.6426823755132
 21
189.2477182552679
 31
0.0
  0
LINE
  5
77CC
330
1F
100
AcDbEntity
  8
SOLBET_Tynki_Posadzki
100
AcDbLine
 10
124.6426823755132
 20
192.1210250888232
 30
0.0
 11
124.6426823755132
 21
229.1736713109777
 31
0.0
  0
LINE
  5
77CD
330
1F
100
AcDbEntity
  8
SOLBET_Izolacja
  6
Continuous
100
AcDbLine
 10
124.6426823755132
 20
186.7477182552681
 30
0.0
 11
184.6426823755132
 21
186.7477182552681
 31
0.0
  0
LINE
  5
77D0
330
1F
100
AcDbEntity
  8
SOLBET_Wymiary_Opisy
  6
Continuous
100
AcDbLine
 10
91.84731883427502
 20
138.3480510002926
 30
0.0
 11
97.11444779285239
 21
80.25574317677586
 31
0.0
  0
LINE
  5
781B
102
{ACAD_REACTORS
330
8D45
102
}
330
1F
100
AcDbEntity
  8
SOLBET_Wymiary_Opisy
  6
Continuous
100
AcDbLine
 10
86.42875292235476
 20
171.2736713109776
 30
0.0
 11
89.36455050095673
 21
139.8480510002927
 31
0.0
  0
LINE
  5
781F
330
1F
100
AcDbEntity
  8
SOLBET_Zbrojenie_Konstrukcja
100
AcDbLine
 10
107.0545966069498
 20
175.7327856563201
 30
0.0
 11
107.0545966069498
 21
171.1425102456734
 31
0.0
  0
LINE
  5
7820
330
1F
100
AcDbEntity
  8
SOLBET_Zbrojenie_Konstrukcja
100
AcDbLine
 10
106.8063799399738
 20
173.4376479509967
 30
0.0
 11
116.440814482899
 21
173.4377552450609
 31
0.0
  0
LINE
  5
7827
330
1F
100
AcDbEntity
  8
SOLBET_Emulsje_Folie
100
AcDbLine
 10
111.9332686234397
 20
138.3480510002926
 30
0.0
 11
111.9332686234397
 21
97.27367142729907
 31
0.0
  0
LINE
  5
7828
330
1F
100
AcDbEntity
  8
SOLBET_Emulsje_Folie
100
AcDbLine
 10
112.0747554680852
 20
186.3382464875177
 30
0.0
 11
123.2095307588461
 21
186.3382464875177
 31
0.0
  0
LINE
  5
7829
330
1F
100
AcDbEntity
  8
SOLBET_Emulsje_Folie
100
AcDbLine
 10
111.9332686234397
 20
186.3382464875177
 30
0.0
 11
111.9332686234397
 21
139.8480510002927
 31
0.0
  0
LINE
  5
782B
330
1F
100
AcDbEntity
  8
SOLBET_Tynki_Posadzki
100
AcDbLine
 10
121.8910645893704
 20
173.5236713109776
 30
0.0
 11
121.1426823755132
 21
174.2736713109778
 31
0.0
  0
LINE
  5
782C
330
1F
100
AcDbEntity
  8
SOLBET_Tynki_Posadzki
100
AcDbLine
 10
121.641603851418
 20
173.7736713109776
 30
0.0
 11
184.6426823755132
 21
173.7736713109778
 31
0.0
  0
LINE
  5
782D
330
1F
100
AcDbEntity
  8
SOLBET_Tynki_Posadzki
100
AcDbLine
 10
121.641603851418
 20
139.8480510002927
 30
0.0
 11
121.641603851418
 21
173.7736713109776
 31
0.0
  0
LINE
  5
782F
330
1F
100
AcDbEntity
  8
SOLBET_Izolacja
  6
Continuous
100
AcDbLine
 10
121.1416041147227
 20
102.597191607433
 30
0.0
 11
121.1416041147227
 21
96.9477183715896
 31
0.0
  0
LINE
  5
7833
330
1F
100
AcDbEntity
  8
SOLBET_Zaprawy
100
AcDbLine
 10
104.1114331838512
 20
187.0736713109776
 30
0.0
 11
104.1114331838512
 21
229.1736713109775
 31
0.0
  0
LINE
  5
7834
330
1F
100
AcDbEntity
  8
SOLBET_Tynki_Posadzki
100
AcDbLine
 10
103.6447549903846
 20
187.0736713109776
 30
0.0
 11
103.6447549903846
 21
229.1736713109775
 31
0.0
  0
LINE
  5
7835
330
1F
100
AcDbEntity
  8
SOLBET_Izolacja
100
AcDbLine
 10
104.3947549903846
 20
187.0736713109776
 30
0.0
 11
104.3947549903846
 21
229.1736713109775
 31
0.0
  0
LINE
  5
7837
330
1F
100
AcDbEntity
  8
SOLBET_Wymiary_Opisy
 62
     1
100
AcDbLine
 10
102.6986340789421
 20
229.1736713109775
 30
0.0
 11
126.2256487000704
 21
229.1736713109775
 31
0.0
  0
LINE
  5
783B
330
1F
100
AcDbEntity
  8
SOLBET_Izolacja
  6
Continuous
100
AcDbLine
 10
111.4416038514184
 20
139.8480510002927
 30
0.0
 11
111.4416038514184
 21
186.2736713109776
 31
0.0
  0
LINE
  5
783C
330
1F
100
AcDbEntity
  8
SOLBET_Izolacja
  6
Continuous
100
AcDbLine
 10
106.4416038514184
 20
139.8480510002927
 30
0.0
 11
106.441603851418
 21
186.2736713109776
 31
0.0
  0
LINE
  5
7844
330
1F
100
AcDbEntity
  8
SOLBET_Zbrojenie_Konstrukcja
100
AcDbLine
 10
179.1426823755132
 20
182.7736713109778
 30
0.0
 11
182.1416038514185
 21
176.2736713109776
 31
0.0
  0
LINE
  5
7845
330
1F
100
AcDbEntity
  8
SOLBET_Zbrojenie_Konstrukcja
100
AcDbLine
 10
175.6760157088461
 20
176.2736713109776
 30
0.0
 11
179.1426823755132
 21
182.7736713109778
 31
0.0
  0
LINE
  5
7847
330
1F
100
AcDbEntity
  8
SOLBET_Zbrojenie_Konstrukcja
100
AcDbLine
 10
151.6760157088461
 20
176.2736713109776
 30
0.0
 11
155.1426823755132
 21
182.7736713109778
 31
0.0
  0
LINE
  5
7848
330
1F
100
AcDbEntity
  8
SOLBET_Zbrojenie_Konstrukcja
100
AcDbLine
 10
159.6760157088461
 20
176.2736713109776
 30
0.0
 11
163.1426823755127
 21
182.7736713109778
 31
0.0
  0
LINE
  5
7849
330
1F
100
AcDbEntity
  8
SOLBET_Zbrojenie_Konstrukcja
100
AcDbLine
 10
167.6760157088461
 20
176.2736713109776
 30
0.0
 11
171.1426823755128
 21
182.7736713109778
 31
0.0
  0
LINE
  5
784A
330
1F
100
AcDbEntity
  8
SOLBET_Zbrojenie_Konstrukcja
100
AcDbLine
 10
143.676015708846
 20
176.2736713109776
 30
0.0
 11
147.1426823755132
 21
182.7736713109778
 31
0.0
  0
LINE
  5
784B
330
1F
100
AcDbEntity
  8
SOLBET_Zbrojenie_Konstrukcja
100
AcDbLine
 10
135.6760157088461
 20
176.2736713109776
 30
0.0
 11
139.1426823755132
 21
182.7736713109778
 31
0.0
  0
LINE
  5
784C
330
1F
100
AcDbEntity
  8
SOLBET_Zbrojenie_Konstrukcja
100
AcDbLine
 10
127.6760157088461
 20
176.2736713109776
 30
0.0
 11
131.1426823755132
 21
182.7736713109778
 31
0.0
  0
LINE
  5
784D
330
1F
100
AcDbEntity
  8
SOLBET_Zbrojenie_Konstrukcja
100
AcDbLine
 10
119.6760157088465
 20
176.2736713109776
 30
0.0
 11
123.1426823755132
 21
182.7736713109778
 31
0.0
  0
LINE
  5
784E
330
1F
100
AcDbEntity
  8
SOLBET_Zbrojenie_Konstrukcja
100
AcDbLine
 10
123.1426823755132
 20
182.7736713109778
 30
0.0
 11
126.6093490421799
 21
176.2736713109776
 31
0.0
  0
LINE
  5
784F
330
1F
100
AcDbEntity
  8
SOLBET_Zbrojenie_Konstrukcja
100
AcDbLine
 10
131.1426823755132
 20
182.7736713109778
 30
0.0
 11
134.6093490421799
 21
176.2736713109776
 31
0.0
  0
LINE
  5
7850
330
1F
100
AcDbEntity
  8
SOLBET_Zbrojenie_Konstrukcja
100
AcDbLine
 10
139.1426823755132
 20
182.7736713109778
 30
0.0
 11
142.6093490421799
 21
176.2736713109776
 31
0.0
  0
LINE
  5
7851
330
1F
100
AcDbEntity
  8
SOLBET_Zbrojenie_Konstrukcja
100
AcDbLine
 10
147.1426823755132
 20
182.7736713109778
 30
0.0
 11
150.6093490421799
 21
176.2736713109776
 31
0.0
  0
LINE
  5
7852
330
1F
100
AcDbEntity
  8
SOLBET_Zbrojenie_Konstrukcja
  6
Continuous
100
AcDbLine
 10
184.6426823755132
 20
182.7736713109779
 30
0.0
 11
117.6426823755132
 21
182.7736713109776
 31
0.0
  0
LINE
  5
7853
330
1F
100
AcDbEntity
  8
SOLBET_Zbrojenie_Konstrukcja
100
AcDbLine
 10
171.1426823755128
 20
182.7736713109778
 30
0.0
 11
174.6093490421795
 21
176.2736713109776
 31
0.0
  0
LINE
  5
7854
330
1F
100
AcDbEntity
  8
SOLBET_Zbrojenie_Konstrukcja
100
AcDbLine
 10
163.1426823755127
 20
182.7736713109778
 30
0.0
 11
166.6093490421799
 21
176.2736713109776
 31
0.0
  0
LINE
  5
7855
330
1F
100
AcDbEntity
  8
SOLBET_Zbrojenie_Konstrukcja
100
AcDbLine
 10
155.1426823755132
 20
182.7736713109778
 30
0.0
 11
158.6093490421799
 21
176.2736713109776
 31
0.0
  0
LINE
  5
7858
330
1F
100
AcDbEntity
  8
SOLBET_Izolacja
  6
Continuous
100
AcDbLine
 10
106.4416038514184
 20
97.27367142729907
 30
0.0
 11
111.4416038514184
 21
97.27367142729907
 31
0.0
  0
LINE
  5
7859
330
1F
100
AcDbEntity
  8
SOLBET_Zaprawy
100
AcDbLine
 10
106.2760760123804
 20
186.2736713109776
 30
0.0
 11
106.2760760123804
 21
172.2736713109775
 31
0.0
  0
LINE
  5
785D
330
1F
100
AcDbEntity
  8
SOLBET_Wymiary_Opisy
100
AcDbLine
 10
86.78833059653698
 20
138.3480510002926
 30
0.0
 11
126.4581288818322
 21
138.3480510002926
 31
0.0
  0
LINE
  5
785E
102
{ACAD_REACTORS
330
8D45
102
}
330
1F
100
AcDbEntity
  8
SOLBET_Wymiary_Opisy
 62
     1
100
AcDbLine
 10
86.63261143227463
 20
139.8480510002927
 30
0.0
 11
126.4581288818322
 21
139.8480510002927
 31
0.0
  0
LINE
  5
7864
330
1F
100
AcDbEntity
  8
SOLBET_Izolacja
  6
Continuous
100
AcDbLine
 10
122.6416038514185
 20
102.597191607433
 30
0.0
 11
121.6416038514185
 21
102.597191607433
 31
0.0
  0
LINE
  5
7865
330
1F
100
AcDbEntity
  8
SOLBET_Tynki_Posadzki
100
AcDbLine
 10
121.6416038514185
 20
102.597191607433
 30
0.0
 11
182.1416038514185
 21
102.597191607433
 31
0.0
  0
LINE
  5
7867
330
1F
100
AcDbEntity
  8
SOLBET_Izolacja
  6
Continuous
100
AcDbLine
 10
122.6416038514185
 20
96.94771837158947
 30
0.0
 11
122.6416038514185
 21
102.597191607433
 31
0.0
  0
LINE
  5
7868
330
1F
100
AcDbEntity
  8
SOLBET_Izolacja
  6
Continuous
100
AcDbLine
 10
122.6416038514185
 20
99.44771837158947
 30
0.0
 11
184.6426823755132
 21
99.44771837158947
 31
0.0
  0
LINE
  5
7869
330
1F
100
AcDbEntity
  8
SOLBET_Tynki_Posadzki
100
AcDbLine
 10
121.641603851418
 20
102.597191607433
 30
0.0
 11
121.641603851418
 21
138.3480510002926
 31
0.0
  0
LINE
  5
786A
330
1F
100
AcDbEntity
  8
SOLBET_Izolacja
  6
Continuous
100
AcDbLine
 10
121.1416041147227
 20
96.9477183715896
 30
0.0
 11
184.6426823755132
 21
96.94771837158947
 31
0.0
  0
LINE
  5
786E
330
1F
100
AcDbEntity
  8
SOLBET_Beton
100
AcDbLine
 10
104.641603851418
 20
83.75574317677587
 30
0.0
 11
182.1416038514185
 21
83.75574317677587
 31
0.0
  0
LINE
  5
7871
330
1F
100
AcDbEntity
  8
SOLBET_Wymiary_Opisy
 62
     1
100
AcDbLine
 10
184.6426823755132
 20
197.8779809710641
 30
0.0
 11
184.6426823755132
 21
76.87940044713349
 31
0.0
  0
LINE
  5
7873
330
1F
100
AcDbEntity
  8
SOLBET_Emulsje_Folie
100
AcDbLine
 10
125.5074984251805
 20
189.4435575688402
 30
0.0
 11
184.6426823755132
 21
189.44355756884
 31
0.0
  0
ARC
  5
7874
330
1F
100
AcDbEntity
  8
SOLBET_Emulsje_Folie
100
AcDbCircle
 10
125.5074984251805
 20
189.6935575688402
 30
0.0
 40
0.25
100
AcDbArc
 50
180.0
 51
270.0
  0
LINE
  5
7875
330
1F
100
AcDbEntity
  8
SOLBET_Emulsje_Folie
100
AcDbLine
 10
122.7564199010858
 20
102.5710252051446
 30
0.0
 11
122.7564199010858
 21
99.89355768516169
 31
0.0
  0
LINE
  5
7876
330
1F
100
AcDbEntity
  8
SOLBET_Emulsje_Folie
100
AcDbLine
 10
123.0064199010858
 20
99.64355768516163
 30
0.0
 11
184.6426823755132
 21
99.64355768516151
 31
0.0
  0
ARC
  5
7877
330
1F
100
AcDbEntity
  8
SOLBET_Emulsje_Folie
100
AcDbCircle
 10
123.0064199010858
 20
99.89355768516169
 30
0.0
 40
0.25
100
AcDbArc
 50
180.0
 51
270.0
  0
LINE
  5
7879
330
1F
100
AcDbEntity
  8
SOLBET_Izolacja
  6
Continuous
100
AcDbLine
 10
111.4416038514184
 20
97.27367142729907
 30
0.0
 11
111.4416038514184
 21
138.3480510002926
 31
0.0
  0
LINE
  5
787A
330
1F
100
AcDbEntity
  8
SOLBET_Izolacja
  6
Continuous
100
AcDbLine
 10
106.4416038514184
 20
97.27367142729907
 30
0.0
 11
106.4416038514184
 21
138.3480510002926
 31
0.0
  0
LWPOLYLINE
  5
787C
330
1F
100
AcDbEntity
  8
SOLBET_Zbrojenie_Konstrukcja
  6
Continuous
100
AcDbPolyline
 90
        2
 70
     1
 43
0.3
 10
112.7544532712563
 20
185.198531555504
 42
1.0
 10
113.0544532712565
 20
185.198531555504
 42
1.0
  0
LWPOLYLINE
  5
787D
330
1F
100
AcDbEntity
  8
SOLBET_Zbrojenie_Konstrukcja
  6
Continuous
100
AcDbPolyline
 90
        2
 70
     1
 43
0.3
 10
116.4509885357288
 20
185.1768045863585
 42
1.0
 10
116.7509885357285
 20
185.1768045863585
 42
1.0
  0
LWPOLYLINE
  5
787E
330
1F
100
AcDbEntity
  8
SOLBET_Zbrojenie_Konstrukcja
  6
Continuous
100
AcDbPolyline
 90
        2
 70
     1
 43
0.3
 10
116.4509885357288
 20
175.3398927112976
 42
1.0
 10
116.7509885357285
 20
175.3398927112976
 42
1.0
  0
LWPOLYLINE
  5
787F
330
1F
100
AcDbEntity
  8
SOLBET_Zbrojenie_Konstrukcja
  6
Continuous
100
AcDbPolyline
 90
        2
 70
     1
 43
0.3
 10
112.7544532712563
 20
175.3400000053618
 42
1.0
 10
113.0544532712565
 20
175.3400000053618
 42
1.0
  0
LWPOLYLINE
  5
7880
330
1F
100
AcDbEntity
  8
SOLBET_Zbrojenie_Konstrukcja
  6
Continuous
100
AcDbPolyline
 90
        5
 70
     0
 43
0.0
 10
116.8926823755132
 20
175.0236713109775
 10
116.8926823755132
 20
185.5236713109776
 10
112.6219445526276
 20
185.5236713109776
 10
112.6219445526276
 20
175.0236713109775
 10
116.8926823755132
 20
175.0236713109775
  0
LINE
  5
78A1
330
1F
100
AcDbEntity
  8
SOLBET_Emulsje_Folie
100
AcDbLine
 10
105.7880280880661
 20
172.6539007366187
 30
0.0
 11
106.2760760123799
 21
173.3355732298851
 31
0.0
  0
LINE
  5
78A2
330
1F
100
AcDbEntity
  8
SOLBET_Emulsje_Folie
100
AcDbLine
 10
105.7880280880661
 20
172.6539007366187
 30
0.0
 11
105.7880280880661
 21
171.574437131355
 31
0.0
  0
LINE
  5
78A3
330
1F
100
AcDbEntity
  8
SOLBET_Tynki_Posadzki
100
AcDbLine
 10
106.1777988211558
 20
186.2736713109776
 30
0.0
 11
106.1777988211558
 21
172.6078060905631
 31
0.0
  0
LINE
  5
78A4
330
1F
100
AcDbEntity
  8
SOLBET_Grunt
  6
Continuous
100
AcDbLine
 10
76.86190647510648
 20
170.2757876609463
 30
0.0
 11
77.77336226285479
 21
171.2736713109776
 31
0.0
  0
LINE
  5
78A5
330
1F
100
AcDbEntity
  8
SOLBET_Grunt
  6
Continuous
100
AcDbLine
 10
76.51932654907477
 20
168.0578062008678
 30
0.0
 11
79.45666184576566
 21
171.2736713109776
 31
0.0
  0
LINE
  5
78A6
330
1F
100
AcDbEntity
  8
SOLBET_Grunt
  6
Continuous
100
AcDbLine
 10
86.65847621561942
 20
168.8146472136494
 30
0.0
 11
84.41243105228569
 21
171.2736713109776
 31
0.0
  0
LINE
  5
78A7
330
1F
100
AcDbEntity
  8
SOLBET_Grunt
  6
Continuous
100
AcDbLine
 10
83.64058725712311
 20
170.2757876609463
 30
0.0
 11
82.72913146937481
 21
171.2736713109776
 31
0.0
  0
LINE
  5
78A8
330
1F
100
AcDbEntity
  8
SOLBET_Grunt
  6
Continuous
100
AcDbLine
 10
83.98316718315482
 20
168.0578062008678
 30
0.0
 11
81.04583188646392
 21
171.2736713109776
 31
0.0
  0
LINE
  5
78A9
330
1F
100
AcDbEntity
  8
SOLBET_Wymiary_Opisy
 62
     1
100
AcDbLine
 10
74.98724520166343
 20
172.2605018640891
 30
0.0
 11
74.98724520166343
 21
161.8328498079699
 31
0.0
  0
LINE
  5
78AA
102
{ACAD_REACTORS
330
8D45
102
}
330
1F
100
AcDbEntity
  8
SOLBET_Grunt
  6
Continuous
100
AcDbLine
 10
106.0760760123803
 20
171.2736713109776
 30
0.0
 11
74.98724520166343
 21
171.2736713109776
 31
0.0
  0
LINE
  5
78AB
330
1F
100
AcDbEntity
  8
SOLBET_Emulsje_Folie
100
AcDbLine
 10
105.8760760123803
 20
153.8612904268871
 30
0.0
 11
106.2760760123804
 21
153.7102362845886
 31
0.0
  0
LINE
  5
78AC
330
1F
100
AcDbEntity
  8
SOLBET_Emulsje_Folie
100
AcDbLine
 10
105.8760760123803
 20
152.8382651097849
 30
0.0
 11
106.2760760123804
 21
152.9893192520833
 31
0.0
  0
LINE
  5
78AD
330
1F
100
AcDbEntity
  8
SOLBET_Emulsje_Folie
100
AcDbLine
 10
105.8760760123803
 20
152.0790672023288
 30
0.0
 11
106.2760760123804
 21
151.9280130600307
 31
0.0
  0
LINE
  5
78AE
330
1F
100
AcDbEntity
  8
SOLBET_Emulsje_Folie
100
AcDbLine
 10
105.8760760123803
 20
151.0560418852269
 30
0.0
 11
106.2760760123804
 21
151.2070960275253
 31
0.0
  0
LINE
  5
78AF
330
1F
100
AcDbEntity
  8
SOLBET_Emulsje_Folie
100
AcDbLine
 10
105.8760760123803
 20
156.4027115589011
 30
0.0
 11
106.2760760123804
 21
156.5537657011994
 31
0.0
  0
LINE
  5
78B0
330
1F
100
AcDbEntity
  8
SOLBET_Emulsje_Folie
100
AcDbLine
 10
105.8760760123803
 20
155.643513651445
 30
0.0
 11
106.2760760123804
 21
155.4924595091468
 31
0.0
  0
LINE
  5
78B1
330
1F
100
AcDbEntity
  8
SOLBET_Emulsje_Folie
100
AcDbLine
 10
105.8760760123803
 20
154.620488334343
 30
0.0
 11
106.2760760123804
 21
154.7715424766415
 31
0.0
  0
LINE
  5
78B2
330
1F
100
AcDbEntity
  8
SOLBET_Emulsje_Folie
100
AcDbLine
 10
105.8760760123803
 20
150.2968439777709
 30
0.0
 11
106.2760760123804
 21
150.1457898354724
 31
0.0
  0
LINE
  5
78B3
330
1F
100
AcDbEntity
  8
SOLBET_Emulsje_Folie
100
AcDbLine
 10
105.8760760123803
 20
160.9901833251194
 30
0.0
 11
106.2760760123804
 21
160.8391291828209
 31
0.0
  0
LINE
  5
78B4
330
1F
100
AcDbEntity
  8
SOLBET_Emulsje_Folie
100
AcDbLine
 10
105.8760760123803
 20
159.9671580080172
 30
0.0
 11
106.2760760123804
 21
160.1182121503156
 31
0.0
  0
LINE
  5
78B5
330
1F
100
AcDbEntity
  8
SOLBET_Emulsje_Folie
100
AcDbLine
 10
105.8760760123803
 20
159.2079601005612
 30
0.0
 11
106.2760760123804
 21
159.056905958263
 31
0.0
  0
LINE
  5
78B6
330
1F
100
AcDbEntity
  8
SOLBET_Emulsje_Folie
100
AcDbLine
 10
105.8760760123803
 20
158.1849347834592
 30
0.0
 11
106.2760760123804
 21
158.3359889257577
 31
0.0
  0
LINE
  5
78B7
330
1F
100
AcDbEntity
  8
SOLBET_Emulsje_Folie
100
AcDbLine
 10
105.8760760123803
 20
163.5316044571333
 30
0.0
 11
106.2760760123804
 21
163.6826585994318
 31
0.0
  0
LINE
  5
78B8
330
1F
100
AcDbEntity
  8
SOLBET_Emulsje_Folie
100
AcDbLine
 10
105.8760760123803
 20
162.7724065496774
 30
0.0
 11
106.2760760123804
 21
162.6213524073791
 31
0.0
  0
LINE
  5
78B9
330
1F
100
AcDbEntity
  8
SOLBET_Emulsje_Folie
100
AcDbLine
 10
105.8760760123803
 20
161.7493812325754
 30
0.0
 11
106.2760760123804
 21
161.9004353748738
 31
0.0
  0
LINE
  5
78BA
330
1F
100
AcDbEntity
  8
SOLBET_Emulsje_Folie
100
AcDbLine
 10
105.8760760123803
 20
157.4257368760032
 30
0.0
 11
106.2760760123804
 21
157.2746827337048
 31
0.0
  0
LINE
  5
78BB
330
1F
100
AcDbEntity
  8
SOLBET_Emulsje_Folie
100
AcDbLine
 10
105.8760760123803
 20
168.1190762233516
 30
0.0
 11
106.2760760123804
 21
167.9680220810532
 31
0.0
  0
LINE
  5
78BC
330
1F
100
AcDbEntity
  8
SOLBET_Emulsje_Folie
100
AcDbLine
 10
105.8760760123803
 20
167.0960509062495
 30
0.0
 11
106.2760760123804
 21
167.2471050485479
 31
0.0
  0
LINE
  5
78BD
330
1F
100
AcDbEntity
  8
SOLBET_Emulsje_Folie
100
AcDbLine
 10
105.8760760123803
 20
166.3368529987935
 30
0.0
 11
106.2760760123804
 21
166.1857988564952
 31
0.0
  0
LINE
  5
78BE
330
1F
100
AcDbEntity
  8
SOLBET_Emulsje_Folie
100
AcDbLine
 10
105.8760760123803
 20
165.3138276816915
 30
0.0
 11
106.2760760123804
 21
165.4648818239899
 31
0.0
  0
LINE
  5
78BF
330
1F
100
AcDbEntity
  8
SOLBET_Emulsje_Folie
100
AcDbLine
 10
105.8760760123803
 20
170.6604973553656
 30
0.0
 11
106.2760760123804
 21
170.8115514976641
 31
0.0
  0
LINE
  5
78C0
330
1F
100
AcDbEntity
  8
SOLBET_Emulsje_Folie
100
AcDbLine
 10
105.8760760123803
 20
169.9012994479097
 30
0.0
 11
106.2760760123804
 21
169.7502453056114
 31
0.0
  0
LINE
  5
78C1
330
1F
100
AcDbEntity
  8
SOLBET_Emulsje_Folie
100
AcDbLine
 10
105.8760760123803
 20
168.8782741308077
 30
0.0
 11
106.2760760123804
 21
169.0293282731061
 31
0.0
  0
LINE
  5
78C2
330
1F
100
AcDbEntity
  8
SOLBET_Emulsje_Folie
100
AcDbLine
 10
105.8760760123803
 20
164.5546297742355
 30
0.0
 11
106.2760760123804
 21
164.4035756319371
 31
0.0
  0
LINE
  5
78C3
330
1F
100
AcDbEntity
  8
SOLBET_Emulsje_Folie
100
AcDbLine
 10
105.8760760123803
 20
171.6835226724678
 30
0.0
 11
106.2760760123804
 21
171.5324685301694
 31
0.0
  0
LINE
  5
78D6
330
1F
100
AcDbEntity
  8
SOLBET_Tynki_Posadzki
100
AcDbLine
 10
121.641603851418
 20
102.7204464887159
 30
0.0
 11
184.6426823755132
 21
102.7204464887159
 31
0.0
  0
ARC
  5
78DB
330
1F
100
AcDbEntity
  8
SOLBET_Emulsje_Folie
100
AcDbCircle
 10
111.6832686234397
 20
97.27367142729907
 30
0.0
 40
0.25
100
AcDbArc
 50
270.0
 51
0.0
  0
LWPOLYLINE
  5
78E7
330
1F
100
AcDbEntity
  8
SOLBET_Zbrojenie_Konstrukcja
100
AcDbPolyline
 90
       10
 70
     0
 43
0.0
 10
112.1426823755132
 20
190.9009441133234
 10
112.1426823755132
 20
187.3236713485141
 42
-0.4142135623730951
 10
111.8926823755132
 20
187.0736713485141
 10
105.5042873902498
 20
187.0736713485141
 42
0.4142135623730951
 10
105.2542873902498
 20
186.8236713485141
 10
105.2542873902498
 20
184.4369262680699
 42
-0.4142135623730951
 10
105.0042873902498
 20
184.18692626807
 10
104.8442706550163
 20
184.18692626807
 42
-0.4142135623730951
 10
104.5942706550163
 20
184.4369262680699
 10
104.5942706550163
 20
190.7246104034115
  0
HATCH
  5
78EA
330
1F
100
AcDbEntity
  8
SOLBET_Beton
100
AcDbHatch
 10
0.0
 20
0.0
 30
0.0
210
0.0
220
0.0
230
1.0
  2
JIS_STN_1E
 70
     0
 71
     1
 91
        1
 92
        1
 93
        6
 72
     1
 10
112.1452708565448
 20
174.2737786050418
 11
117.6426823755132
 21
174.2736713109778
 72
     1
 10
117.6426823755132
 20
174.2736713109778
 11
117.6426823755132
 21
176.2736713109776
 72
     1
 10
117.6426823755132
 20
176.2736713109776
 11
184.6426823755132
 21
176.2736713109776
 72
     1
 10
184.6426823755132
 20
176.2736713109776
 11
184.6426823755132
 21
186.2736674771928
 72
     1
 10
184.6426823755132
 20
186.2736674771928
 11
112.1452708565448
 21
186.2737786050417
 72
     1
 10
112.1452708565448
 20
186.2737786050417
 11
112.1452708565448
 21
174.2737786050418
 97
        1
330
78EB
 75
     0
 76
     1
 52
0.0
 41
5.0
 77
     0
 78
     2
 53
45.0
 43
-309.092770533066
 44
-69.03062645121332
 45
-3.535533905932737
 46
3.535533905932737
 79
     0
 53
45.0
 43
-305.5677705330659
 44
-69.03062645121332
 45
-3.535533905932737
 46
3.535533905932737
 79
     2
 49
5.0
 49
-2.5
 98
        1
 10
-309.092770533066
 20
-69.03062645121332
1001
ACAD
1010
0.0
1020
0.0
1030
0.0
  0
LWPOLYLINE
  5
78EB
102
{ACAD_REACTORS
330
78EA
102
}
330
1F
100
AcDbEntity
  8
SOLBET_Beton
100
AcDbPolyline
 90
        6
 70
     1
 43
0.0
 10
112.1452708565448
 20
174.2737786050418
 10
117.6426823755132
 20
174.2736713109778
 10
117.6426823755132
 20
176.2736713109776
 10
184.6426823755132
 20
176.2736713109776
 10
184.6426823755132
 20
186.2736674771928
 10
112.1452708565448
 20
186.2737786050417
1001
ASO_SCHRAFF
1005
0
1070
     1
1002
{
1070
     1
1005
0
1002
}
1002
{
1070
     2
1005
0
1002
}
1002
{
1070
     4
1000
BRASS
1040
0.2
1040
45.0
1070
     0
1000
T__SCHR
1070
   256
1000
VONLAYER
1040
50.0
1070
     1
1002
}
  0
LINE
  5
78EC
330
1F
100
AcDbEntity
  8
SOLBET_Zbrojenie_Konstrukcja
  6
Continuous
100
AcDbLine
 10
115.2361581150007
 20
184.1094577486045
 30
0.0
 11
113.8219445526274
 21
185.5236713109776
 31
0.0
  0
LINE
  5
78ED
330
1F
100
AcDbEntity
  8
SOLBET_Zbrojenie_Konstrukcja
  6
Continuous
100
AcDbLine
 10
114.0361581150005
 20
182.9094577486047
 30
0.0
 11
112.6219445526276
 21
184.3236713109777
 31
0.0
  0
LWPOLYLINE
  5
78EE
330
1F
100
AcDbEntity
  8
SOLBET_Tynki_Posadzki
100
AcDbPolyline
 90
        4
 70
     1
 43
0.0
 10
122.7564199010858
 20
100.0971916074328
 10
184.6426823755132
 20
100.0971916074329
 10
184.6426823755132
 20
102.597191607433
 10
122.7564199010858
 20
102.597191607433
1001
ASO_SCHRAFF
1005
78EE
1070
     1
1002
{
1070
     1
1005
78EE
1002
}
1002
{
1070
     2
1005
78EF
1002
}
1002
{
1070
     4
1000
AR-CONC
1040
0.01
1040
0.0
1070
     0
1000
T__SCHR
1070
   256
1000
VONLAYER
1040
50.0
1070
     1
1002
}
  0
INSERT
  5
78EF
330
1F
100
AcDbEntity
  8
SOLBET_Tynki_Posadzki
100
AcDbBlockReference
  2
*X3
 10
-130.0091945852955
 20
23.94437353549773
 30
0.0
 41
50.0
 42
50.0
 43
50.0
1001
ASO_SCHRAFF
1005
0
1070
     0
1005
0
1001
ACAD
1000
HATCH
1002
{
1070
    16
1000
AR-CONC
1040
0.025
1040
0.0
1002
}
  0
LWPOLYLINE
  5
78F0
330
1F
100
AcDbEntity
  8
SOLBET_Tynki_Posadzki
100
AcDbPolyline
 90
        5
 70
     1
 43
0.0
 10
125.2574984251805
 20
189.6935575688402
 42
0.0737237824442376
 10
125.2682516083937
 20
189.6210250888232
 10
184.6426823755132
 20
189.6210250888232
 10
184.6426823755132
 20
192.1210250888232
 10
125.2574984251805
 20
192.1210250888232
1001
ASO_SCHRAFF
1005
0
1070
     1
1002
{
1070
     1
1005
0
1002
}
1002
{
1070
     2
1005
0
1002
}
1002
{
1070
     4
1000
AR-CONC
1040
0.01
1040
0.0
1070
     0
1000
T__SCHR
1070
   256
1000
_bylayer
1040
50.0
1070
     1
1002
}
  0
INSERT
  5
78F1
330
1F
100
AcDbEntity
  8
SOLBET_Tynki_Posadzki
100
AcDbBlockReference
  2
*X4
 10
-127.5081160612008
 20
23.94437353549773
 30
0.0
 41
50.0
 42
50.0
 43
50.0
1001
ASO_SCHRAFF
1005
0
1070
     0
1005
0
1001
ACAD
1000
HATCH
1002
{
1070
    16
1000
AR-CONC
1040
0.025
1040
0.0
1002
}
  0
HATCH
  5
78F2
330
1F
100
AcDbEntity
  8
SOLBET_Beton
100
AcDbHatch
 10
0.0
 20
0.0
 30
0.0
210
0.0
220
0.0
230
1.0
  2
ANSI37
 70
     0
 71
     1
 91
        1
 92
        1
 93
        5
 72
     1
 10
117.6426823755132
 20
174.2736713109778
 11
121.6426823755132
 21
174.2736713109778
 72
     1
 10
121.6426823755132
 20
174.2736713109778
 11
184.6426823755132
 21
174.2736713109778
 72
     1
 10
184.6426823755132
 20
174.2736713109778
 11
184.6426823755132
 21
176.2736713109777
 72
     1
 10
184.6426823755132
 20
176.2736713109777
 11
117.6426823755132
 21
176.2736713109776
 72
     1
 10
117.6426823755132
 20
176.2736713109776
 11
117.6426823755132
 21
174.2736713109778
 97
        1
330
78F3
 75
     0
 76
     1
 52
0.0
 41
1.0
 77
     0
 78
     2
 53
45.0
 43
-309.092770533066
 44
-69.03062645121332
 45
-2.245064030267287
 46
2.245064030267288
 79
     0
 53
135.0
 43
-309.092770533066
 44
-69.03062645121332
 45
-2.245064030267288
 46
-2.245064030267287
 79
     0
 98
        1
 10
-309.092770533066
 20
-69.03062645121332
1001
ACAD
1010
0.0
1020
0.0
1030
0.0
  0
LWPOLYLINE
  5
78F3
102
{ACAD_REACTORS
330
78F2
102
}
330
1F
100
AcDbEntity
  8
SOLBET_Beton
100
AcDbPolyline
 90
        5
 70
     1
 43
0.0
 10
117.6426823755132
 20
174.2736713109778
 10
121.6426823755132
 20
174.2736713109778
 10
184.6426823755132
 20
174.2736713109778
 10
184.6426823755132
 20
176.2736713109777
 10
117.6426823755132
 20
176.2736713109776
1001
ASO_SCHRAFF
1005
78F3
1070
     1
1002
{
1070
     1
1005
78F3
1002
}
1002
{
1070
     2
1005
0
1002
}
1002
{
1070
     4
1000
NET
1040
0.1
1040
45.0
1070
     0
1000
T__SCHR
1070
   256
1000
VONLAYER
1040
50.0
1070
     1
1002
}
  0
HATCH
  5
78F4
330
1F
100
AcDbEntity
  8
SOLBET_Beton
100
AcDbHatch
 10
0.0
 20
0.0
 30
0.0
210
0.0
220
0.0
230
1.0
  2
ANSI31
 70
     0
 71
     1
 91
        1
 92
        1
 93
        6
 72
     1
 10
99.6977014123936
 20
80.25574317677586
 11
102.197701412394
 21
80.25574317677586
 72
     1
 10
102.197701412394
 20
80.25574317677586
 11
184.6426823755132
 21
80.25574317677586
 72
     1
 10
184.6426823755132
 20
80.25574317677586
 11
184.6426823755132
 21
83.75574317677587
 72
     1
 10
184.6426823755132
 20
83.75574317677587
 11
104.641603851418
 21
83.75574317677587
 72
     1
 10
104.641603851418
 20
83.75574317677587
 11
102.9416038514182
 21
83.75574317677587
 72
     1
 10
102.9416038514182
 20
83.75574317677587
 11
99.6977014123936
 21
80.25574317677586
 97
        1
330
78F5
 75
     0
 76
     1
 52
270.0
 41
0.5
 77
     0
 78
     1
 53
315.0
 43
-1148.921226058891
 44
359.4596107395466
 45
1.122532015133644
 46
1.122532015133643
 79
     0
 98
        1
 10
-309.092770533066
 20
-69.03062645121332
1001
ACAD
1010
0.0
1020
0.0
1030
0.0
  0
LWPOLYLINE
  5
78F5
102
{ACAD_REACTORS
330
78F4
102
}
330
1F
100
AcDbEntity
  8
SOLBET_Beton
100
AcDbPolyline
 90
        6
 70
     1
 43
0.0
 10
99.6977014123936
 20
80.25574317677586
 10
102.197701412394
 20
80.25574317677586
 10
184.6426823755132
 20
80.25574317677586
 10
184.6426823755132
 20
83.75574317677587
 10
104.641603851418
 20
83.75574317677587
 10
102.9416038514182
 20
83.75574317677587
1001
ASO_SCHRAFF
1005
78F5
1070
     1
1002
{
1070
     1
1005
78F5
1002
}
1002
{
1070
     2
1005
0
1002
}
1002
{
1070
     4
1000
ANSI31
1040
0.1
1040
90.0
1070
     0
1000
T__SCHR
1070
   256
1000
VONLAYER
1040
50.0
1070
     1
1002
}
  0
LINE
  5
7CD3
330
1F
100
AcDbEntity
  8
SOLBET_Grunt
100
AcDbLine
 10
104.3947549903846
 20
229.1736713109775
 30
0.0
 11
112.1426823755132
 21
229.1736713109775
 31
0.0
  0
LINE
  5
7CD4
330
1F
100
AcDbEntity
  8
SOLBET_Izolacja
  6
BATTING
 48
0.37
100
AcDbLine
 10
108.2687186829489
 20
229.1741833706518
 30
0.0
 11
108.2687186829489
 21
187.901809106489
 31
0.0
  0
LINE
  5
7CD6
330
1F
100
AcDbEntity
  8
SOLBET_Grunt
  6
BATTING
 48
0.12
100
AcDbLine
 10
125.1426823755132
 20
187.997718255268
 30
0.0
 11
184.6426823755132
 21
187.997718255268
 31
0.0
  0
LINE
  5
7CD7
330
1F
100
AcDbEntity
  8
SOLBET_Grunt
  6
BATTING
 48
0.049
100
AcDbLine
 10
124.6426823755132
 20
192.1210250888232
 30
0.0
 11
124.6426823755132
 21
186.7477182552681
 31
0.0
  0
LINE
  5
7CE7
330
1F
100
AcDbEntity
  8
SOLBET_Grunt
100
AcDbLine
 10
106.441603851418
 20
186.2736713109776
 30
0.0
 11
111.4416038514184
 21
186.2736713109776
 31
0.0
  0
LINE
  5
7CE8
330
1F
100
AcDbEntity
  8
SOLBET_Grunt
  6
BATTING
 48
0.243
100
AcDbLine
 10
108.9416038514182
 20
186.2736713109776
 30
0.0
 11
108.9416038514182
 21
139.8480510002927
 31
0.0
  0
LINE
  5
7D14
330
1F
100
AcDbEntity
  8
SOLBET_Izolacja
  6
BATTING
 48
0.243
100
AcDbLine
 10
108.9416038514184
 20
138.3480510002926
 30
0.0
 11
108.9416038514184
 21
97.37430810158361
 31
0.0
  0
LINE
  5
7D15
330
1F
100
AcDbEntity
  8
SOLBET_Izolacja
  6
BATTING
 48
0.072
100
AcDbLine
 10
121.8916039830703
 20
102.597191607433
 30
0.0
 11
121.8916039830703
 21
96.9477183715896
 31
0.0
  0
LINE
  5
7D17
330
1F
100
AcDbEntity
  8
SOLBET_Izolacja
  6
BATTING
 48
0.12
100
AcDbLine
 10
122.6416038514185
 20
98.19771837158947
 30
0.0
 11
184.6426823755132
 21
98.19771837158947
 31
0.0
  0
LWPOLYLINE
  5
7D2F
330
1F
100
AcDbEntity
  8
SOLBET_Emulsje_Folie
100
AcDbPolyline
 90
        4
 70
     0
 43
0.0
 10
130.0631493288278
 20
186.4256281420321
 10
105.3696759262357
 20
186.4256281420321
 10
105.3696759262357
 20
186.6656281420321
 10
130.0631493288278
 20
186.6656281420321
  0
LINE
  5
7D30
330
1F
100
AcDbEntity
  8
SOLBET_Emulsje_Folie
  6
DASHED2
370
    30
100
AcDbLine
 10
105.3696759262357
 20
186.5456281420321
 30
0.0
 11
130.0631493288278
 21
186.5456281420321
 31
0.0
  0
LINE
  5
7D32
330
1F
100
AcDbEntity
  8
SOLBET_Emulsje_Folie
100
AcDbLine
 10
130.0631493288278
 20
186.6656281420321
 30
0.0
 11
130.0631493288278
 21
186.4256281420321
 31
0.0
  0
LINE
  5
7DD6
330
1F
100
AcDbEntity
  8
SOLBET_Bloczki
100
AcDbLine
 10
124.1426830785071
 20
229.1736713109775
 30
0.0
 11
124.1426830785071
 21
223.073671146228
 31
0.0
  0
LINE
  5
7DD8
330
1F
100
AcDbEntity
  8
SOLBET_Bloczki
100
AcDbLine
 10
112.1426830785071
 20
229.1736713109775
 30
0.0
 11
112.1426830785071
 21
223.0736711462281
 31
0.0
  0
LINE
  5
7DD9
330
1F
100
AcDbEntity
  8
SOLBET_Bloczki
100
AcDbLine
 10
112.1426830785071
 20
223.0736711462281
 30
0.0
 11
124.1426830785071
 21
223.073671146228
 31
0.0
  0
LINE
  5
7DE9
330
1F
100
AcDbEntity
  8
SOLBET_Wymiary_Opisy
100
AcDbLine
 10
97.11444779285239
 20
80.25574317677586
 30
0.0
 11
99.6977014123936
 21
80.25574317677586
 31
0.0
  0
LINE
  5
823A
330
1F
100
AcDbEntity
  8
SOLBET_Bloczki
100
AcDbLine
 10
106.2760760123804
 20
186.2736713109776
 30
0.0
 11
106.441603851418
 21
186.2736713109776
 31
0.0
  0
LINE
  5
823B
330
1F
100
AcDbEntity
  8
SOLBET_Tynki_Posadzki
100
AcDbLine
 10
106.2760760123804
 20
186.2736713109776
 30
0.0
 11
106.1777988211558
 21
186.2736713109776
 31
0.0
  0
LINE
  5
824B
330
1F
100
AcDbEntity
  8
SOLBET_Tynki_Posadzki
100
AcDbLine
 10
103.6447549903846
 20
187.0736713109776
 30
0.0
 11
104.1114331838512
 21
187.0736713109776
 31
0.0
  0
LINE
  5
824C
330
1F
100
AcDbEntity
  8
SOLBET_Zaprawy
100
AcDbLine
 10
104.1114331838512
 20
187.0736713109776
 30
0.0
 11
104.3947549903846
 21
187.0736713109776
 31
0.0
  0
MTEXT
  5
8266
102
{ACAD_XDICTIONARY
360
97C9
102
}
330
1F
100
AcDbEntity
  8
SOLBET_Wymiary_Opisy
100
AcDbMText
 10
280.5899717657496
 20
291.8205983213498
 30
0.0
 40
5.0
 41
30.77919768571883
 71
     1
 72
     5
  1
\pxqc;A\P(5 : 1)
  7
Solbet_5
 73
     1
 44
1.0
1001
ACAD
1000
MTEXTBEGIN
1070
    73
1070
     1
1070
    44
1040
1.0
1070
    74
1070
     0
1000
MTEXTEND
1000
ACAD_MTEXT_DEFINED_HEIGHT_BEGIN
1070
    46
1040
23.42535011036716
1000
ACAD_MTEXT_DEFINED_HEIGHT_END
  0
LINE
  5
82AB
330
1F
100
AcDbEntity
  8
SOLBET_Tynki_Posadzki
100
AcDbLine
 10
104.1114331838512
 20
187.0736713109778
 30
0.0
 11
103.6447549903846
 21
187.0736713109775
 31
0.0
  0
CIRCLE
  5
82AC
330
1F
100
AcDbEntity
  8
SOLBET_Wymiary_Opisy
100
AcDbCircle
 10
107.6474250478475
 20
187.3429823713927
 30
0.0
 40
5.102418751818163
  0
MTEXT
  5
82AD
330
1F
100
AcDbEntity
  8
SOLBET_Wymiary_Opisy
100
AcDbMText
 10
99.95120797781851
 20
201.0888517937209
 30
0.0
 40
5.0
 41
0.0
 71
     3
 72
     1
  1
A
  7
Solbet_5
 73
     1
 44
1.0
1001
ACAD
1000
MTEXTBEGIN
1070
    73
1070
     1
1070
    44
1040
1.0
1070
    74
1070
     0
1000
MTEXTEND
  0
LEADER
  5
82AE
330
1F
100
AcDbEntity
  8
SOLBET_Wymiary_Opisy
100
AcDbLeader
  3
Solbet$7
 73
     0
 75
     1
 40
5.0
 41
4.5
 76
     3
 10
104.8255010297539
 20
191.5181337447436
 30
0.0
 10
102.2438472111407
 20
195.24407931384
 30
0.0
 10
99.74384721114075
 20
195.24407931384
 30
0.0
213
-0.8791749024171622
223
-0.1753245211093599
233
0.0
1001
ACAD
1000
DSTYLE
1002
{
1070
   341
1005
790F
1070
   147
1040
0.625
1070
    77
1070
     1
1002
}
  0
MTEXT
  5
82AF
102
{ACAD_REACTORS
330
82AE
102
}
330
1F
100
AcDbEntity
  8
SOLBET_Wymiary_Opisy
100
AcDbMText
 10
99.99802211355792
 20
201.0444038349494
 30
0.0
 40
5.0
 41
0.0
 71
     3
 72
     1
  1
A
  7
Solbet_5
 73
     1
 44
1.0
1001
ACAD
1000
MTEXTBEGIN
1070
    73
1070
     1
1070
    44
1040
1.0
1070
    74
1070
     0
1000
MTEXTEND
  0
LINE
  5
82BE
330
1F
100
AcDbEntity
  8
SOLBET_Emulsje_Folie
100
AcDbLine
 10
316.8153971603103
 20
243.9174726215541
 30
0.0
 11
319.6913333511009
 21
243.9174726215541
 31
0.0
  0
LINE
  5
82BF
330
1F
100
AcDbEntity
  8
SOLBET_Emulsje_Folie
100
AcDbLine
 10
316.107962937084
 20
243.9174726215541
 30
0.0
 11
316.107962937084
 21
235.0971804607977
 31
0.0
  0
LINE
  5
82C3
330
1F
100
AcDbEntity
  8
SOLBET_Zaprawy
100
AcDbLine
 10
276.9987857391413
 20
247.5945967388534
 30
0.0
 11
276.9987857391413
 21
267.3337039687186
 31
0.0
  0
LINE
  5
82C4
330
1F
100
AcDbEntity
  8
SOLBET_Tynki_Posadzki
100
AcDbLine
 10
274.6653947718085
 20
247.5945967388534
 30
0.0
 11
274.6653947718085
 21
264.7630589503348
 31
0.0
  0
LINE
  5
82C5
330
1F
100
AcDbEntity
  8
SOLBET_Izolacja
100
AcDbLine
 10
278.4153947718085
 20
247.5945967388534
 30
0.0
 11
278.4153947718085
 21
268.5974580368367
 31
0.0
  0
LINE
  5
82CD
330
1F
100
AcDbEntity
  8
SOLBET_Zaprawy
100
AcDbLine
 10
288.8219998817865
 20
243.5945967388537
 30
0.0
 11
288.8219998817883
 21
224.110415767101
 31
0.0
  0
LINE
  5
82D9
330
1F
100
AcDbEntity
  8
SOLBET_Tynki_Posadzki
100
AcDbLine
 10
288.3306139256644
 20
243.5945967388537
 30
0.0
 11
288.3306139256626
 21
224.2314746030295
 31
0.0
  0
LINE
  5
82EC
330
1F
100
AcDbEntity
  8
SOLBET_Grunt
100
AcDbLine
 10
289.6496390769741
 20
243.5945967388537
 30
0.0
 11
314.6496390769778
 21
243.5945967388537
 31
0.0
  0
LINE
  5
82ED
330
1F
100
AcDbEntity
  8
SOLBET_Grunt
  6
BATTING
 48
1.199999999999999
100
AcDbLine
 10
302.149639076976
 20
243.5945967388537
 30
0.0
 11
302.1496390769778
 21
224.5474505885741
 31
0.0
  0
LINE
  5
82EF
330
1F
100
AcDbEntity
  8
SOLBET_Emulsje_Folie
  6
DASHED2
370
    30
100
AcDbLine
 10
283.2899994510633
 20
244.954380894126
 30
0.0
 11
319.8774074005166
 21
244.954380894126
 31
0.0
  0
LINE
  5
82F6
330
1F
100
AcDbEntity
  8
SOLBET_Bloczki
100
AcDbLine
 10
288.8219998817865
 20
243.5945967388537
 30
0.0
 11
289.6496390769741
 21
243.5945967388537
 31
0.0
  0
LINE
  5
82F7
330
1F
100
AcDbEntity
  8
SOLBET_Tynki_Posadzki
100
AcDbLine
 10
288.8219998817865
 20
243.5945967388537
 30
0.0
 11
288.3306139256644
 21
243.5945967388537
 31
0.0
  0
LINE
  5
82F8
330
1F
100
AcDbEntity
  8
SOLBET_Tynki_Posadzki
100
AcDbLine
 10
274.6653947718085
 20
247.5945967388534
 30
0.0
 11
276.9987857391413
 21
247.5945967388534
 31
0.0
  0
LINE
  5
82F9
330
1F
100
AcDbEntity
  8
SOLBET_Zaprawy
100
AcDbLine
 10
276.9987857391413
 20
247.5945967388534
 30
0.0
 11
278.4153947718085
 21
247.5945967388534
 31
0.0
  0
LINE
  5
82FA
330
1F
100
AcDbEntity
  8
SOLBET_Tynki_Posadzki
100
AcDbLine
 10
276.9987857391413
 20
247.5945967388544
 30
0.0
 11
274.6653947718085
 21
247.5945967388533
 31
0.0
  0
CIRCLE
  5
82FB
330
1F
100
AcDbEntity
  8
SOLBET_Wymiary_Opisy
100
AcDbCircle
 10
294.6787450591226
 20
248.9411520409292
 30
0.0
 40
25.51209375909082
  0
LWPOLYLINE
  5
842D
330
1F
100
AcDbEntity
  8
SOLBET_Wymiary_Opisy
100
AcDbPolyline
 90
        2
 70
     0
 43
0.0
 10
280.569124968654
 20
269.8169089076837
 10
280.3895420778106
 20
270.0760900851138
1001
ACAD
1000
DSTYLE
1002
{
1070
   341
1005
790F
1070
   147
1040
0.625
1070
    77
1070
     1
1002
}
  0
LINE
  5
8443
330
1F
100
AcDbEntity
  8
SOLBET_Bloczki
100
AcDbLine
 10
317.1550325761935
 20
261.0110910392247
 30
0.0
 11
317.1550325761935
 21
247.5945965329165
 31
0.0
  0
LINE
  5
8444
330
1F
100
AcDbEntity
  8
SOLBET_Bloczki
100
AcDbLine
 10
317.1550325761935
 20
247.5945965329165
 30
0.0
 11
320.155277716384
 21
247.5945965329165
 31
0.0
  0
LINE
  5
8445
330
1F
100
AcDbEntity
  8
SOLBET_Emulsje_Folie
100
AcDbLine
 10
319.7751284324192
 20
244.3543808941259
 30
0.0
 11
283.2899994510633
 21
244.3543808941259
 31
0.0
  0
LINE
  5
8446
330
1F
100
AcDbEntity
  8
SOLBET_Emulsje_Folie
100
AcDbLine
 10
283.2899994510633
 20
244.3543808941259
 30
0.0
 11
283.2899994510633
 21
245.554380894126
 31
0.0
  0
LINE
  5
8447
330
1F
100
AcDbEntity
  8
SOLBET_Emulsje_Folie
100
AcDbLine
 10
283.2899994510633
 20
245.554380894126
 30
0.0
 11
319.9650399472982
 21
245.554380894126
 31
0.0
  0
LINE
  5
848D
330
1F
100
AcDbEntity
  8
SOLBET_Beton
100
AcDbLine
 10
319.6244254540041
 20
243.5951294437963
 30
0.0
 11
317.167974102608
 21
243.5951332091744
 31
0.0
1001
ASO_SCHRAFF
1005
0
1070
     1
1002
{
1070
     1
1005
0
1002
}
1002
{
1070
     2
1005
0
1002
}
1002
{
1070
     4
1000
BRASS
1040
0.2
1040
45.0
1070
     0
1000
T__SCHR
1070
   256
1000
VONLAYER
1040
50.0
1070
     1
1002
}
  0
LINE
  5
848E
330
1F
100
AcDbEntity
  8
SOLBET_Beton
100
AcDbLine
 10
317.167974102608
 20
243.5951332091744
 30
0.0
 11
317.167974102608
 21
236.895343433688
 31
0.0
1001
ASO_SCHRAFF
1005
0
1070
     1
1002
{
1070
     1
1005
0
1002
}
1002
{
1070
     2
1005
0
1002
}
1002
{
1070
     4
1000
BRASS
1040
0.2
1040
45.0
1070
     0
1000
T__SCHR
1070
   256
1000
VONLAYER
1040
50.0
1070
     1
1002
}
  0
LINE
  5
849F
330
1F
100
AcDbEntity
  8
SOLBET_Beton
100
AcDbLine
 10
317.167974102608
 20
242.4655165114224
 30
0.0
 11
318.2975890688274
 21
243.5951314776413
 31
0.0
1001
ACAD
1010
0.0
1020
0.0
1030
0.0
  0
LINE
  5
84B2
330
1F
100
AcDbEntity
  8
SOLBET_Zbrojenie_Konstrukcja
100
AcDbLine
 10
317.1550316974506
 20
261.0110926755943
 30
0.0
 11
317.1550316974506
 21
248.8445969265361
 31
0.0
  0
ARC
  5
84B3
330
1F
100
AcDbEntity
  8
SOLBET_Zbrojenie_Konstrukcja
100
AcDbCircle
 10
315.9050316974506
 20
248.8445969265361
 30
0.0
 40
1.25
100
AcDbArc
 50
270.0
 51
0.0
  0
LINE
  5
84B4
330
1F
100
AcDbEntity
  8
SOLBET_Zbrojenie_Konstrukcja
100
AcDbLine
 10
315.9050316974506
 20
247.5945969265361
 30
0.0
 11
283.9630567711345
 21
247.5945969265361
 31
0.0
  0
ARC
  5
84B5
330
1F
100
AcDbEntity
  8
SOLBET_Zbrojenie_Konstrukcja
100
AcDbCircle
 10
283.9630567711345
 20
246.3445969265361
 30
0.0
 40
1.25
100
AcDbArc
 50
90.0
 51
180.0
  0
LINE
  5
84B6
330
1F
100
AcDbEntity
  8
SOLBET_Zbrojenie_Konstrukcja
100
AcDbLine
 10
282.7130567711344
 20
246.3445969265361
 30
0.0
 11
282.7130567711344
 21
234.4108715243154
 31
0.0
  0
ARC
  5
84B7
330
1F
100
AcDbEntity
  8
SOLBET_Zbrojenie_Konstrukcja
100
AcDbCircle
 10
281.4630567711345
 20
234.4108715243154
 30
0.0
 40
1.25
100
AcDbArc
 50
270.0
 51
0.0
  0
LINE
  5
84B8
330
1F
100
AcDbEntity
  8
SOLBET_Zbrojenie_Konstrukcja
100
AcDbLine
 10
281.4630567711345
 20
233.1608715243154
 30
0.0
 11
280.6629730949669
 21
233.1608715243154
 31
0.0
  0
ARC
  5
84B9
330
1F
100
AcDbEntity
  8
SOLBET_Zbrojenie_Konstrukcja
100
AcDbCircle
 10
280.6629730949669
 20
234.4108715243154
 30
0.0
 40
1.25
100
AcDbArc
 50
180.0
 51
270.0
  0
LINE
  5
84BA
330
1F
100
AcDbEntity
  8
SOLBET_Zbrojenie_Konstrukcja
100
AcDbLine
 10
279.4129730949669
 20
234.4108715243154
 30
0.0
 11
279.4129730949669
 21
265.8492922010231
 31
0.0
  0
LINE
  5
84CD
330
1F
100
AcDbEntity
  8
SOLBET_Izolacja
  6
Continuous
100
AcDbLine
 10
314.649639076976
 20
233.0656892098724
 30
0.0
 11
314.6496390769778
 21
243.5945967388537
 31
0.0
  0
LINE
  5
84D1
330
1F
100
AcDbEntity
  8
SOLBET_Izolacja
  6
Continuous
100
AcDbLine
 10
289.6496390769741
 20
223.9296542650468
 30
0.0
 11
289.6496390769741
 21
243.5945967388537
 31
0.0
  0
LINE
  5
84EF
330
1F
100
AcDbEntity
  8
SOLBET_Izolacja
100
AcDbLine
 10
297.1819374900881
 20
248.3648240624019
 30
0.0
 11
297.1855272390642
 21
251.8589898745865
 31
0.0
  0
LINE
  5
84F0
330
1F
100
AcDbEntity
  8
SOLBET_Izolacja
100
AcDbLine
 10
297.1855272390642
 20
251.8589898745865
 30
0.0
 11
289.7960859475982
 21
247.9569404186939
 31
0.0
  0
ARC
  5
84F1
330
1F
100
AcDbEntity
  8
SOLBET_Izolacja
100
AcDbCircle
 10
288.7617369260502
 20
256.950006011414
 30
0.0
 40
9.052353652688452
100
AcDbArc
 50
90.0
 51
276.5611174474112
  0
LINE
  5
84F2
330
1F
100
AcDbEntity
  8
SOLBET_Izolacja
100
AcDbLine
 10
288.7617369260502
 20
266.0023596641024
 30
0.0
 11
307.3556027489335
 21
256.7576124793214
 31
0.0
  0
ARC
  5
84F3
330
1F
100
AcDbEntity
  8
SOLBET_Grunt
100
AcDbCircle
 10
307.1549734463174
 20
265.8701782701071
 30
0.0
 40
9.114774128219751
100
AcDbArc
 50
271.2612644671503
 51
342.7261046205496
  0
LINE
  5
84F4
330
1F
100
AcDbEntity
  8
SOLBET_Izolacja
100
AcDbLine
 10
303.0648778051598
 20
273.0355436194372
 30
0.0
 11
298.1460714702773
 21
270.7250806873103
 31
0.0
  0
LINE
  5
84F5
330
1F
100
AcDbEntity
  8
SOLBET_Izolacja
100
AcDbLine
 10
298.1460714702773
 20
270.7250806873103
 30
0.0
 11
298.1657611344021
 21
274.2138180432207
 31
0.0
  0
MTEXT
  5
8521
102
{ACAD_XDICTIONARY
360
98FA
102
}
330
1F
100
AcDbEntity
  8
SOLBET_Wymiary_Opisy
100
AcDbMText
 10
260.0106742750313
 20
277.5559389445466
 30
0.0
 40
2.5
 41
0.0
 71
     3
 72
     1
  1
Tynk zewn\U+0119trzny SOLBET
  7
Solbet_2_5
 73
     1
 44
1.0
1001
ACAD
1000
MTEXTBEGIN
1070
    73
1070
     1
1070
    44
1040
1.0
1070
    74
1070
     0
1000
MTEXTEND
  0
LEADER
  5
8524
330
1F
100
AcDbEntity
  8
SOLBET_Wymiary_Opisy
100
AcDbLeader
  3
Solbet$7
 73
     0
 40
3.25
 41
21.5
 76
     2
 10
284.0106649890051
 20
244.954380894126
 30
0.0
 10
259.8305122879897
 20
249.6332918245017
 30
0.0
213
1.177601578005123
223
-0.1753245211093599
233
0.0
1001
ACAD
1000
DSTYLE
1002
{
1070
   147
1040
0.625
1070
    77
1070
     1
1002
}
  0
MTEXT
  5
8525
102
{ACAD_REACTORS
330
8524
102
}
330
1F
100
AcDbEntity
  8
SOLBET_Wymiary_Opisy
100
AcDbMText
 10
258.0279107099845
 20
253.683616345611
 30
0.0
 40
2.5
 41
0.0
 71
     3
 72
     1
  1
Izolacja z folii
  7
Solbet_2_5
 73
     1
 44
1.0
1001
ACAD
1000
MTEXTBEGIN
1070
    73
1070
     1
1070
    44
1040
1.0
1070
    74
1070
     0
1000
MTEXTEND
  0
LEADER
  5
8526
330
1F
100
AcDbEntity
  8
SOLBET_Wymiary_Opisy
100
AcDbLeader
  3
Solbet$7
 73
     0
 40
3.25
 41
25.25
 76
     2
 10
316.8153971603103
 20
243.9174726215541
 30
0.0
 10
259.8305122879897
 20
256.8256311478804
 30
0.0
213
1.177601578005123
223
-0.1753245211093599
233
0.0
1001
ACAD
1000
DSTYLE
1002
{
1070
   147
1040
0.625
1070
    77
1070
     1
1002
}
  0
MTEXT
  5
8527
102
{ACAD_XDICTIONARY
360
98FC
102
}
102
{ACAD_REACTORS
330
8526
102
}
330
1F
100
AcDbEntity
  8
SOLBET_Wymiary_Opisy
100
AcDbMText
 10
258.0279107099845
 20
260.8759556689898
 30
0.0
 40
2.5
 41
0.0
 71
     3
 72
     1
  1
Emulsja izoluj\U+0105ca
  7
Solbet_2_5
 73
     1
 44
1.0
1001
ACAD
1000
MTEXTBEGIN
1070
    73
1070
     1
1070
    44
1040
1.0
1070
    74
1070
     0
1000
MTEXTEND
  0
LEADER
  5
8528
330
1F
100
AcDbEntity
  8
SOLBET_Wymiary_Opisy
100
AcDbLeader
  3
Solbet$7
 73
     0
 40
3.25
 41
22.75
 76
     2
 10
288.330613925664
 20
238.1456549605497
 30
0.0
 10
259.8305122879897
 20
241.5480882794476
 30
0.0
213
1.177601578005123
223
-0.1753245211093599
233
0.0
1001
ACAD
1000
DSTYLE
1002
{
1070
   147
1040
0.625
1070
    77
1070
     1
1002
}
  0
MTEXT
  5
8529
102
{ACAD_XDICTIONARY
360
98FE
102
}
102
{ACAD_REACTORS
330
8528
102
}
330
1F
100
AcDbEntity
  8
SOLBET_Wymiary_Opisy
100
AcDbMText
 10
258.0279107099845
 20
245.5984128005569
 30
0.0
 40
2.5
 41
0.0
 71
     3
 72
     1
  1
Tynk coko\U+0142owy
  7
Solbet_2_5
 73
     1
 44
1.0
1001
ACAD
1000
MTEXTBEGIN
1070
    73
1070
     1
1070
    44
1040
1.0
1070
    74
1070
     0
1000
MTEXTEND
  0
LEADER
  5
852A
330
1F
100
AcDbEntity
  8
SOLBET_Wymiary_Opisy
100
AcDbLeader
  3
Solbet$7
 73
     0
 40
3.25
 41
22.75
 76
     2
 10
279.4129730949669
 20
237.0713565381696
 30
0.0
 10
259.8305122879897
 20
234.7522981047769
 30
0.0
213
1.177601578005123
223
-0.1753245211093599
233
0.0
1001
ACAD
1000
DSTYLE
1002
{
1070
   147
1040
0.625
1070
    77
1070
     1
1002
}
  0
MTEXT
  5
852B
102
{ACAD_REACTORS
330
852A
102
}
330
1F
100
AcDbEntity
  8
SOLBET_Wymiary_Opisy
100
AcDbMText
 10
258.0279107099845
 20
238.8026226258863
 30
0.0
 40
2.5
 41
0.0
 71
     3
 72
     1
  1
Profil startowy
  7
Solbet_2_5
 73
     1
 44
1.0
1001
ACAD
1000
MTEXTBEGIN
1070
    73
1070
     1
1070
    44
1040
1.0
1070
    74
1070
     0
1000
MTEXTEND
  0
LEADER
  5
852C
330
1F
100
AcDbEntity
  8
SOLBET_Wymiary_Opisy
100
AcDbLeader
  3
Solbet$7
 73
     0
 75
     1
 40
3.25
 41
56.25
 76
     3
 10
288.7617369260502
 20
266.0023596641024
 30
0.0
 10
272.3150309752277
 20
281.5089018244686
 30
0.0
 10
269.8150309752277
 20
281.5089018244686
 30
0.0
213
1.177601578005123
223
-0.1753245211093599
233
0.0
1001
ACAD
1000
DSTYLE
1002
{
1070
   147
1040
0.625
1070
    77
1070
     1
1002
}
  0
MTEXT
  5
852D
102
{ACAD_XDICTIONARY
360
97CB
102
}
102
{ACAD_REACTORS
330
852C
102
}
330
1F
100
AcDbEntity
  8
SOLBET_Wymiary_Opisy
100
AcDbMText
 10
260.0106742750313
 20
285.5592263455779
 30
0.0
 40
2.5
 41
48.34190588626961
 71
     3
 72
     1
  1
\pxql;Warstwa izolacji termicznej
  7
Solbet_2_5
 73
     1
 44
1.0
1001
ACAD
1000
MTEXTBEGIN
1070
    73
1070
     1
1070
    44
1040
1.0
1070
    74
1070
     0
1000
MTEXTEND
  0
LINE
  5
8541
330
1F
100
AcDbEntity
  8
SOLBET_Tynki_Posadzki
100
AcDbLine
 10
225.6823321222237
 20
194.8610127568182
 30
0.0
 11
260.356962901878
 21
194.8610127568181
 31
0.0
  0
LINE
  5
8542
330
1F
100
AcDbEntity
  8
SOLBET_Beton
100
AcDbLine
 10
224.4584085618219
 20
193.3610127568182
 30
0.0
 11
260.1797671003901
 21
193.3610127568181
 31
0.0
  0
LINE
  5
8543
330
1F
100
AcDbEntity
  8
SOLBET_Beton
100
AcDbLine
 10
219.6987887703581
 20
185.8610127568181
 30
0.0
 11
260.1797671003901
 21
185.8610127568181
 31
0.0
  0
LINE
  5
8544
330
1F
100
AcDbEntity
  8
SOLBET_Izolacja
  6
Continuous
100
AcDbLine
 10
219.1520620646242
 20
184.741092256152
 30
0.0
 11
260.356962901878
 21
184.741092256152
 31
0.0
  0
LINE
  5
8545
330
1F
100
AcDbEntity
  8
SOLBET_Izolacja
  6
Continuous
100
AcDbLine
 10
216.3919089896974
 20
177.2410922561527
 30
0.0
 11
260.356962901878
 21
177.2410922561527
 31
0.0
  0
LINE
  5
8546
330
1F
100
AcDbEntity
  8
SOLBET_Tynki_Posadzki
100
AcDbLine
 10
223.6682261078738
 20
138.318951423282
 30
0.0
 11
260.356962901878
 21
138.3189514232821
 31
0.0
  0
LINE
  5
8547
330
1F
100
AcDbEntity
  8
SOLBET_Zbrojenie_Konstrukcja
100
AcDbLine
 10
258.6830026726743
 20
165.3189514232818
 30
0.0
 11
260.1797671003901
 21
162.5125181213157
 31
0.0
  0
LINE
  5
8548
330
1F
100
AcDbEntity
  8
SOLBET_Zbrojenie_Konstrukcja
100
AcDbLine
 10
248.2830026726733
 20
145.8189514232814
 30
0.0
 11
258.6830026726743
 21
165.3189514232818
 31
0.0
  0
LINE
  5
8549
330
1F
100
AcDbEntity
  8
SOLBET_Zbrojenie_Konstrukcja
100
AcDbLine
 10
224.2830026726733
 20
145.8189514232814
 30
0.0
 11
234.6830026726737
 21
165.3189514232818
 31
0.0
  0
LINE
  5
854A
330
1F
100
AcDbEntity
  8
SOLBET_Zbrojenie_Konstrukcja
  6
Continuous
100
AcDbLine
 10
260.356962901878
 20
165.3189514232825
 30
0.0
 11
214.8040990233058
 21
165.3189514232821
 31
0.0
  0
LINE
  5
854B
330
1F
100
AcDbEntity
  8
SOLBET_Zbrojenie_Konstrukcja
100
AcDbLine
 10
234.6830026726737
 20
165.3189514232818
 30
0.0
 11
245.0830026726744
 21
145.8189514232814
 31
0.0
  0
LINE
  5
854C
330
1F
100
AcDbEntity
  8
SOLBET_Zbrojenie_Konstrukcja
100
AcDbLine
 10
215.8436638465669
 20
155.6427117222323
 30
0.0
 11
221.0830026726744
 21
145.8189514232814
 31
0.0
  0
LINE
  5
8553
102
{ACAD_REACTORS
330
8686
102
}
330
1F
100
AcDbEntity
  8
SOLBET_Tynki_Posadzki
100
AcDbLine
 10
240.2515567514731
 20
185.8610127568181
 30
0.0
 11
240.377358728399
 21
185.9921254509445
 31
0.0
1001
ACAD
1010
0.0
1020
0.0
1030
0.0
  0
LINE
  5
8554
102
{ACAD_REACTORS
330
8686
102
}
330
1F
100
AcDbEntity
  8
SOLBET_Tynki_Posadzki
100
AcDbLine
 10
240.392516328302
 20
185.8610127568181
 30
0.0
 11
240.3773827843147
 21
185.9911001752425
 31
0.0
1001
ACAD
1010
0.0
1020
0.0
1030
0.0
  0
LINE
  5
8558
330
1F
100
AcDbEntity
  8
SOLBET_Tynki_Posadzki
100
AcDbLine
 10
221.7259864657544
 20
189.008247019023
 30
0.0
 11
221.7259864657544
 21
189.008247019023
 31
0.0
1001
ACAD
1010
0.0
1020
0.0
1030
0.0
  0
LINE
  5
8559
330
1F
100
AcDbEntity
  8
SOLBET_Tynki_Posadzki
100
AcDbLine
 10
234.7864890175713
 20
190.8936011494627
 30
0.0
 11
234.7864890175713
 21
190.8936011494627
 31
0.0
1001
ACAD
1010
0.0
1020
0.0
1030
0.0
  0
LINE
  5
855A
330
1F
100
AcDbEntity
  8
SOLBET_Tynki_Posadzki
100
AcDbLine
 10
247.6973690961763
 20
192.6641459181983
 30
0.0
 11
247.6973690961763
 21
192.6641459181983
 31
0.0
1001
ACAD
1010
0.0
1020
0.0
1030
0.0
  0
LINE
  5
855B
330
1F
100
AcDbEntity
  8
SOLBET_Tynki_Posadzki
100
AcDbLine
 10
260.0930059904749
 20
185.903008732106
 30
0.0
 11
260.0930059904749
 21
185.903008732106
 31
0.0
1001
ACAD
1010
0.0
1020
0.0
1030
0.0
  0
LINE
  5
855C
330
1F
100
AcDbEntity
  8
SOLBET_Tynki_Posadzki
100
AcDbLine
 10
223.0521465695901
 20
185.9370256027595
 30
0.0
 11
223.0521465695901
 21
185.9370256027595
 31
0.0
1001
ACAD
1010
0.0
1020
0.0
1030
0.0
  0
LINE
  5
855D
330
1F
100
AcDbEntity
  8
SOLBET_Tynki_Posadzki
100
AcDbLine
 10
238.9331123419656
 20
188.0277944107927
 30
0.0
 11
238.9331123419656
 21
188.0277944107927
 31
0.0
1001
ACAD
1010
0.0
1020
0.0
1030
0.0
  0
LINE
  5
855E
330
1F
100
AcDbEntity
  8
SOLBET_Tynki_Posadzki
100
AcDbLine
 10
245.2281576442022
 20
188.8565528472579
 30
0.0
 11
245.2281576442022
 21
188.8565528472579
 31
0.0
1001
ACAD
1010
0.0
1020
0.0
1030
0.0
  0
LINE
  5
8560
330
1F
100
AcDbEntity
  8
SOLBET_Tynki_Posadzki
100
AcDbLine
 10
250.9793256447331
 20
186.9333806413915
 30
0.0
 11
250.9793256447331
 21
186.9333806413915
 31
0.0
1001
ACAD
1010
0.0
1020
0.0
1030
0.0
  0
LINE
  5
8561
330
1F
100
AcDbEntity
  8
SOLBET_Tynki_Posadzki
100
AcDbLine
 10
237.5558567232129
 20
187.5005262966661
 30
0.0
 11
237.5558567232129
 21
187.5005262966661
 31
0.0
1001
ACAD
1010
0.0
1020
0.0
1030
0.0
  0
LINE
  5
8562
330
1F
100
AcDbEntity
  8
SOLBET_Tynki_Posadzki
100
AcDbLine
 10
224.1323878016926
 20
188.0676719519406
 30
0.0
 11
224.1323878016926
 21
188.0676719519406
 31
0.0
1001
ACAD
1010
0.0
1020
0.0
1030
0.0
  0
LINE
  5
8563
330
1F
100
AcDbEntity
  8
SOLBET_Tynki_Posadzki
100
AcDbLine
 10
258.9116374838682
 20
186.7869774579551
 30
0.0
 11
258.9116374838682
 21
186.7869774579551
 31
0.0
1001
ACAD
1010
0.0
1020
0.0
1030
0.0
  0
LINE
  5
8564
102
{ACAD_REACTORS
330
8686
102
}
330
1F
100
AcDbEntity
  8
SOLBET_Wymiary_Opisy
 62
     1
100
AcDbLine
 10
260.356962901878
 20
194.8610127568181
 30
0.0
 11
260.356962901878
 21
125.2183239881384
 31
0.0
  0
LINE
  5
8565
330
1F
100
AcDbEntity
  8
SOLBET_Emulsje_Folie
100
AcDbLine
 10
219.4341457541745
 20
185.3286101968685
 30
0.0
 11
260.356962901878
 21
185.3286101968684
 31
0.0
  0
LINE
  5
8566
102
{ACAD_REACTORS
330
8686
102
}
330
1F
100
AcDbEntity
  8
SOLBET_Tynki_Posadzki
100
AcDbLine
 10
219.6987887703581
 20
185.8610127568181
 30
0.0
 11
260.356962901878
 21
185.8610127568181
 31
0.0
1001
ASO_SCHRAFF
1005
0
1070
     1
1002
{
1070
     1
1005
0
1002
}
1002
{
1070
     2
1005
0
1002
}
1002
{
1070
     4
1000
AR-CONC
1040
0.01
1040
0.0
1070
     0
1000
T__SCHR
1070
   256
1000
_bylayer
1040
50.0
1070
     1
1002
}
  0
LINE
  5
8567
102
{ACAD_REACTORS
330
8686
102
}
330
1F
100
AcDbEntity
  8
SOLBET_Tynki_Posadzki
100
AcDbLine
 10
260.356962901878
 20
193.3610127568181
 30
0.0
 11
224.4584085618219
 21
193.3610127568181
 31
0.0
1001
ASO_SCHRAFF
1005
0
1070
     1
1002
{
1070
     1
1005
0
1002
}
1002
{
1070
     2
1005
0
1002
}
1002
{
1070
     4
1000
AR-CONC
1040
0.01
1040
0.0
1070
     0
1000
T__SCHR
1070
   256
1000
_bylayer
1040
50.0
1070
     1
1002
}
  0
LINE
  5
8568
330
1F
100
AcDbEntity
  8
SOLBET_Beton
100
AcDbLine
 10
215.0721960921739
 20
160.3840448861313
 30
0.0
 11
230.5071026293238
 21
175.8189514232813
 31
0.0
1001
ACAD
1010
0.0
1020
0.0
1030
0.0
  0
LINE
  5
8569
330
1F
100
AcDbEntity
  8
SOLBET_Beton
100
AcDbLine
 10
220.7126789017293
 20
145.8189514232813
 30
0.0
 11
250.7126789017293
 21
175.8189514232814
 31
0.0
1001
ACAD
1010
0.0
1020
0.0
1030
0.0
  0
LINE
  5
856A
330
1F
100
AcDbEntity
  8
SOLBET_Beton
100
AcDbLine
 10
240.9182551741351
 20
145.8189514232813
 30
0.0
 11
260.1797671003901
 21
165.0804633495366
 31
0.0
1001
ACAD
1010
0.0
1020
0.0
1030
0.0
  0
LINE
  5
856B
330
1F
100
AcDbEntity
  8
SOLBET_Beton
100
AcDbLine
 10
216.1473489338068
 20
171.5619815001701
 30
0.0
 11
220.4043188569181
 21
175.8189514232813
 31
0.0
1001
ACAD
1010
0.0
1020
0.0
1030
0.0
  0
LINE
  5
856C
330
1F
100
AcDbEntity
  8
SOLBET_Beton
100
AcDbLine
 10
218.6730459678579
 20
153.8821022618153
 30
0.0
 11
223.7244400359591
 21
158.9334963299166
 31
0.0
1001
ACAD
1010
0.0
1020
0.0
1030
0.0
  0
LINE
  5
856D
330
1F
100
AcDbEntity
  8
SOLBET_Beton
100
AcDbLine
 10
226.2501370700097
 20
161.4591933639674
 30
0.0
 11
231.3015311381114
 21
166.5105874320687
 31
0.0
1001
ACAD
1010
0.0
1020
0.0
1030
0.0
  0
LINE
  5
856E
330
1F
100
AcDbEntity
  8
SOLBET_Beton
100
AcDbLine
 10
233.8272281721618
 20
169.0362844661194
 30
0.0
 11
238.8786222402632
 21
174.0876785342209
 31
0.0
1001
ACAD
1010
0.0
1020
0.0
1030
0.0
  0
LINE
  5
856F
330
1F
100
AcDbEntity
  8
SOLBET_Beton
100
AcDbLine
 10
230.8154714017291
 20
145.8189514232813
 30
0.0
 11
233.8272281721618
 21
148.8307081937137
 31
0.0
1001
ACAD
1010
0.0
1020
0.0
1030
0.0
  0
LINE
  5
8570
330
1F
100
AcDbEntity
  8
SOLBET_Beton
100
AcDbLine
 10
236.3529252062124
 20
151.3564052277644
 30
0.0
 11
241.4043192743138
 21
156.4077992958658
 31
0.0
1001
ACAD
1010
0.0
1020
0.0
1030
0.0
  0
LINE
  5
8571
330
1F
100
AcDbEntity
  8
SOLBET_Beton
100
AcDbLine
 10
243.9300163083644
 20
158.9334963299165
 30
0.0
 11
248.9814103764656
 21
163.9848903980179
 31
0.0
1001
ACAD
1010
0.0
1020
0.0
1030
0.0
  0
LINE
  5
8572
330
1F
100
AcDbEntity
  8
SOLBET_Beton
100
AcDbLine
 10
251.5071074105167
 20
166.5105874320686
 30
0.0
 11
256.5585014786177
 21
171.56198150017
 31
0.0
1001
ACAD
1010
0.0
1020
0.0
1030
0.0
  0
LINE
  5
8573
330
1F
100
AcDbEntity
  8
SOLBET_Beton
100
AcDbLine
 10
259.0841985126685
 20
174.0876785342206
 30
0.0
 11
260.1797671003901
 21
175.1832471219421
 31
0.0
1001
ACAD
1010
0.0
1020
0.0
1030
0.0
  0
LINE
  5
8574
330
1F
100
AcDbEntity
  8
SOLBET_Beton
100
AcDbLine
 10
251.0210476741349
 20
145.8189514232813
 30
0.0
 11
251.5071074105167
 21
146.3050111596633
 31
0.0
1001
ACAD
1010
0.0
1020
0.0
1030
0.0
  0
LINE
  5
8575
330
1F
100
AcDbEntity
  8
SOLBET_Beton
100
AcDbLine
 10
254.0328044445673
 20
148.8307081937139
 30
0.0
 11
259.0841985126687
 21
153.8821022618153
 31
0.0
1001
ACAD
1010
0.0
1020
0.0
1030
0.0
  0
LINE
  5
8576
330
1F
100
AcDbEntity
  8
SOLBET_Beton
100
AcDbLine
 10
216.0307470974613
 20
175.8189514232815
 30
0.0
 11
260.356962901878
 21
175.8189514232814
 31
0.0
  0
LINE
  5
8577
330
1F
100
AcDbEntity
  8
SOLBET_Beton
100
AcDbLine
 10
221.3980490267399
 20
141.7124600022913
 30
0.0
 11
225.5045404477303
 21
145.8189514232814
 31
0.0
1001
ACAD
1010
0.0
1020
0.0
1030
0.0
  0
LINE
  5
8578
330
1F
100
AcDbEntity
  8
SOLBET_Beton
100
AcDbLine
 10
232.9749246293332
 20
139.8189514232802
 30
0.0
 11
238.9749246293338
 21
145.8189514232813
 31
0.0
1001
ACAD
1010
0.0
1020
0.0
1030
0.0
  0
LINE
  5
8579
330
1F
100
AcDbEntity
  8
SOLBET_Beton
100
AcDbLine
 10
246.4453088109376
 20
139.8189514232813
 30
0.0
 11
252.445308810938
 21
145.8189514232815
 31
0.0
1001
ACAD
1010
0.0
1020
0.0
1030
0.0
  0
LINE
  5
857A
330
1F
100
AcDbEntity
  8
SOLBET_Bloczki
100
AcDbLine
 10
259.915692992542
 20
139.8189514232821
 30
0.0
 11
260.1797671003894
 21
140.0830255311293
 31
0.0
1001
ACAD
1010
0.0
1020
0.0
1030
0.0
  0
LINE
  5
857B
330
1F
100
AcDbEntity
  8
SOLBET_Beton
100
AcDbLine
 10
225.7706186938158
 20
139.8189514232801
 30
0.0
 11
219.7706186938144
 21
145.8189514232813
 31
0.0
1001
ACAD
1010
0.0
1020
0.0
1030
0.0
  0
LINE
  5
857C
330
1F
100
AcDbEntity
  8
SOLBET_Beton
100
AcDbLine
 10
239.2410028754189
 20
139.8189514232806
 30
0.0
 11
233.2410028754182
 21
145.8189514232811
 31
0.0
1001
ACAD
1010
0.0
1020
0.0
1030
0.0
  0
LINE
  5
857D
330
1F
100
AcDbEntity
  8
SOLBET_Beton
100
AcDbLine
 10
252.7113870570222
 20
139.8189514232814
 30
0.0
 11
246.7113870570224
 21
145.8189514232813
 31
0.0
1001
ACAD
1010
0.0
1020
0.0
1030
0.0
  0
LINE
  5
857E
330
1F
100
AcDbEntity
  8
SOLBET_Beton
100
AcDbLine
 10
219.1888513646736
 20
145.8189514232814
 30
0.0
 11
260.356962901878
 21
145.8189514232814
 31
0.0
  0
LINE
  5
857F
330
1F
100
AcDbEntity
  8
SOLBET_Beton
100
AcDbLine
 10
260.356962901878
 20
139.8189514232818
 30
0.0
 11
222.6102622839483
 21
139.8189514232801
 31
0.0
  0
LINE
  5
8580
330
1F
100
AcDbEntity
  8
SOLBET_Izolacja
  6
BATTING
 48
0.355
100
AcDbLine
 10
259.4549957168999
 20
180.9910922561523
 30
0.0
 11
218.6771668975771
 21
180.9910922561523
 31
0.0
  0
ARC
  5
8581
102
{ACAD_REACTORS
330
8686
102
}
330
1F
100
AcDbEntity
  8
SOLBET_Wymiary_Opisy
100
AcDbCircle
 10
260.356962901878
 20
165.3189514232825
 30
0.0
 40
45.55286387857234
100
AcDbArc
 50
139.569695997838
 51
241.6797436118737
  0
MTEXT
  5
8582
102
{ACAD_XDICTIONARY
360
97CD
102
}
330
1F
100
AcDbEntity
  8
SOLBET_Wymiary_Opisy
100
AcDbMText
 10
226.4988966207816
 20
215.9278612725513
 30
0.0
 40
5.0
 41
30.77919768571883
 71
     1
 72
     5
  1
\pxqc;B\P(3 : 1)
  7
Solbet_5
 73
     1
 44
1.0
1001
ACAD
1000
MTEXTBEGIN
1070
    73
1070
     1
1070
    44
1040
1.0
1070
    74
1070
     0
1000
MTEXTEND
1000
ACAD_MTEXT_DEFINED_HEIGHT_BEGIN
1070
    46
1040
23.42535011036716
1000
ACAD_MTEXT_DEFINED_HEIGHT_END
  0
LEADER
  5
8583
330
1F
100
AcDbEntity
  8
SOLBET_Wymiary_Opisy
100
AcDbLeader
  3
Solbet$7
 73
     0
 74
     0
 75
     1
 40
3.5
 41
36.75
 76
     3
 10
256.9586793021515
 20
194.2997271252793
 30
0.0
 10
281.6602629222932
 20
206.0516705930491
 30
0.0
 10
284.1602629222932
 20
206.0516705930491
 30
0.0
340
8584
213
1.177601578005123
223
-0.1753245211093599
233
0.0
1001
ACAD
1000
DSTYLE
1002
{
1070
   147
1040
0.625
1070
    77
1070
     1
1002
}
  0
MTEXT
  5
8584
102
{ACAD_XDICTIONARY
360
9900
102
}
102
{ACAD_REACTORS
330
8583
102
}
330
1F
100
AcDbEntity
  8
SOLBET_Wymiary_Opisy
100
AcDbMText
 10
283.6076613442881
 20
210.3519951141584
 30
0.0
 40
2.5
 41
0.0
 71
     1
 72
     1
  1
Warstwa wyko\U+0144czeniowa
  7
Solbet_2_5
 73
     1
 44
1.0
1001
ACAD
1000
MTEXTBEGIN
1070
    73
1070
     1
1070
    44
1040
1.0
1070
    74
1070
     0
1000
MTEXTEND
  0
LEADER
  5
8585
330
1F
100
AcDbEntity
  8
SOLBET_Wymiary_Opisy
100
AcDbLeader
  3
Solbet$7
 73
     0
 74
     0
 75
     1
 40
3.25
 41
32.0
 76
     3
 10
257.5169478112587
 20
189.1659470559557
 30
0.0
 10
280.4826613442881
 20
199.8104640624583
 30
0.0
 10
282.9826613442881
 20
199.8104640624583
 30
0.0
340
8586
213
0.0
223
-0.2322806831707567
233
0.0
1001
ACAD
1000
DSTYLE
1002
{
1070
   147
1040
0.625
1070
    77
1070
     1
1002
}
  0
MTEXT
  5
8586
102
{ACAD_REACTORS
330
8585
102
}
330
1F
100
AcDbEntity
  8
SOLBET_Wymiary_Opisy
100
AcDbMText
 10
283.6076613442881
 20
203.9177447456291
 30
0.0
 40
2.5
 41
0.0
 71
     1
 72
     1
  1
Wylewka jastrychowa
  7
Solbet_2_5
 73
     1
 44
1.0
1001
ACAD
1000
MTEXTBEGIN
1070
    73
1070
     1
1070
    44
1040
1.0
1070
    74
1070
     0
1000
MTEXTEND
  0
LEADER
  5
8587
330
1F
100
AcDbEntity
  8
SOLBET_Wymiary_Opisy
100
AcDbLeader
  3
Solbet$7
 73
     0
 74
     0
 75
     1
 40
3.25
 41
19.25
 76
     3
 10
259.5554966449579
 20
185.3286101968684
 30
0.0
 10
280.4826613442881
 20
193.5753069836805
 30
0.0
 10
282.9826613442881
 20
193.5753069836805
 30
0.0
340
8588
213
0.0
223
-0.2322806831707567
233
0.0
1001
ACAD
1000
DSTYLE
1002
{
1070
   147
1040
0.625
1070
    77
1070
     1
1002
}
  0
MTEXT
  5
8588
102
{ACAD_REACTORS
330
8587
102
}
330
1F
100
AcDbEntity
  8
SOLBET_Wymiary_Opisy
100
AcDbMText
 10
283.6076613442881
 20
197.6825876668513
 30
0.0
 40
2.5
 41
0.0
 71
     1
 72
     1
  1
Hydroizolacja
  7
Solbet_2_5
 73
     1
 44
1.0
1001
ACAD
1000
MTEXTBEGIN
1070
    73
1070
     1
1070
    44
1040
1.0
1070
    74
1070
     0
1000
MTEXTEND
  0
LEADER
  5
8589
330
1F
100
AcDbEntity
  8
SOLBET_Wymiary_Opisy
100
AcDbLeader
  3
Solbet$7
 73
     0
 74
     0
 75
     1
 40
3.25
 41
36.0
 76
     3
 10
257.0336207548146
 20
178.152518695266
 30
0.0
 10
280.4826613442881
 20
187.1033638647436
 30
0.0
 10
282.9826613442881
 20
187.1033638647436
 30
0.0
340
858A
213
0.0
223
-0.2322806831707567
233
0.0
1001
ACAD
1000
DSTYLE
1002
{
1070
   147
1040
0.625
1070
    77
1070
     1
1002
}
  0
MTEXT
  5
858A
102
{ACAD_XDICTIONARY
360
9902
102
}
102
{ACAD_REACTORS
330
8589
102
}
330
1F
100
AcDbEntity
  8
SOLBET_Wymiary_Opisy
100
AcDbMText
 10
283.6076613442881
 20
191.2106445479144
 30
0.0
 40
2.5
 41
0.0
 71
     1
 72
     1
  1
P\U+0142yty izolacyjne twarde
  7
Solbet_2_5
 73
     1
 44
1.0
1001
ACAD
1000
MTEXTBEGIN
1070
    73
1070
     1
1070
    44
1040
1.0
1070
    74
1070
     0
1000
MTEXTEND
  0
LEADER
  5
858B
330
1F
100
AcDbEntity
  8
SOLBET_Wymiary_Opisy
100
AcDbLeader
  3
Solbet$7
 73
     0
 74
     0
 75
     1
 40
2.501893939393939
 41
29.75
 76
     3
 10
255.8672056466951
 20
170.8706856682473
 30
0.0
 10
280.4826613442881
 20
181.5373879600716
 30
0.0
 10
282.9826613442881
 20
181.5373879600716
 30
0.0
340
858C
213
0.0
223
-0.2322806831707567
233
0.0
1001
ACAD
1000
DSTYLE
1002
{
1070
   147
1040
0.625
1070
    77
1070
     1
1002
}
  0
MTEXT
  5
858C
102
{ACAD_REACTORS
330
858B
102
}
330
1F
100
AcDbEntity
  8
SOLBET_Wymiary_Opisy
100
AcDbMText
 10
283.6076613442881
 20
184.8965625826363
 30
0.0
 40
2.5
 41
0.0
 71
     1
 72
     1
  1
Warstwa nadbetonu
  7
Solbet_2_5
 73
     1
 44
1.0
1001
ACAD
1000
MTEXTBEGIN
1070
    73
1070
     1
1070
    44
1040
1.0
1070
    74
1070
     0
1000
MTEXTEND
  0
LEADER
  5
858D
330
1F
100
AcDbEntity
  8
SOLBET_Wymiary_Opisy
100
AcDbLeader
  3
Solbet$7
 73
     0
 74
     0
 75
     1
 40
3.25
 41
19.75
 76
     3
 10
256.6289833818416
 20
142.6186719648713
 30
0.0
 10
277.5561480811719
 20
150.8653687516834
 30
0.0
 10
280.0561480811719
 20
150.8653687516834
 30
0.0
340
858E
213
0.0
223
-0.2322806831707567
233
0.0
1001
ACAD
1000
DSTYLE
1002
{
1070
   147
1040
0.625
1070
    77
1070
     1
1002
}
  0
MTEXT
  5
858E
102
{ACAD_REACTORS
330
858D
102
}
330
1F
100
AcDbEntity
  8
SOLBET_Wymiary_Opisy
100
AcDbMText
 10
280.6811480811719
 20
154.9726494348541
 30
0.0
 40
2.5
 41
0.0
 71
     1
 72
     1
  1
Strop Terivia
  7
Solbet_2_5
 73
     1
 44
1.0
1001
ACAD
1000
MTEXTBEGIN
1070
    73
1070
     1
1070
    44
1040
1.0
1070
    74
1070
     0
1000
MTEXTEND
  0
LEADER
  5
858F
330
1F
100
AcDbEntity
  8
SOLBET_Wymiary_Opisy
100
AcDbLeader
  3
Solbet$7
 73
     0
 74
     0
 40
3.25
 41
19.75
 76
     2
 10
256.6602149175208
 20
139.0675013218703
 30
0.0
 10
280.0873796168509
 20
133.2089500867654
 30
0.0
340
8590
213
0.0
223
-0.2322806831707567
233
0.0
1001
ACAD
1000
DSTYLE
1002
{
1070
   147
1040
0.625
1070
    77
1070
     1
1002
}
  0
MTEXT
  5
8590
102
{ACAD_REACTORS
330
858F
102
}
330
1F
100
AcDbEntity
  8
SOLBET_Wymiary_Opisy
100
AcDbMText
 10
280.7123796168509
 20
137.3162307699362
 30
0.0
 40
2.5
 41
0.0
 71
     1
 72
     1
  1
Tynk SOLBET
  7
Solbet_2_5
 73
     1
 44
1.0
1001
ACAD
1000
MTEXTBEGIN
1070
    73
1070
     1
1070
    44
1040
1.0
1070
    74
1070
     0
1000
MTEXTEND
  0
LEADER
  5
85B0
330
1F
100
AcDbEntity
  8
SOLBET_Wymiary_Opisy
100
AcDbLeader
  3
Solbet$7
 73
     0
 75
     1
 40
7.666666666666666
 41
52.75
 76
     3
 10
113.8083286001754
 20
173.4377259283316
 30
0.0
 10
98.53942186475251
 20
181.4454323459168
 30
0.0
 10
96.03942186475251
 20
181.4454323459168
 30
0.0
213
1.177601578005123
223
4.34859754619417
233
0.0
1001
ACAD
1000
DSTYLE
1002
{
1070
   147
1040
0.625
1070
    77
1070
     1
1002
}
  0
MTEXT
  5
85B1
102
{ACAD_XDICTIONARY
360
9904
102
}
102
{ACAD_REACTORS
330
85B0
102
}
330
1F
100
AcDbEntity
  8
SOLBET_Wymiary_Opisy
100
AcDbMText
 10
94.23682028674738
 20
185.3885014663893
 30
0.0
 40
2.5
 41
0.0
 71
     3
 72
     1
  1
Mocowanie mechaniczne styropianu\P(w cz\U+0119\U+015Bci naziemnej)
  7
Solbet_2_5
 73
     1
 44
1.0
1001
ACAD
1000
MTEXTBEGIN
1070
    73
1070
     1
1070
    44
1040
1.0
1070
    74
1070
     0
1000
MTEXTEND
  0
LEADER
  5
85E8
330
1F
100
AcDbEntity
  8
SOLBET_Wymiary_Opisy
100
AcDbLeader
  3
Solbet$7
 73
     0
 75
     1
 40
3.25
 41
27.25
 76
     3
 10
113.7115425341749
 20
183.2340733294303
 30
0.0
 10
91.2858558439766
 20
191.509377710186
 30
0.0
 10
88.7858558439766
 20
191.509377710186
 30
0.0
340
85E9
213
-0.625
223
0.625
233
0.0
1001
ACAD
1000
DSTYLE
1002
{
1070
   147
1040
0.625
1070
    77
1070
     1
1002
}
  0
MTEXT
  5
85E9
102
{ACAD_XDICTIONARY
360
9906
102
}
102
{ACAD_REACTORS
330
85E8
102
}
330
1F
100
AcDbEntity
  8
SOLBET_Wymiary_Opisy
100
AcDbMText
 10
88.7858558439766
 20
194.759377710186
 30
0.0
 40
2.5
 41
0.0
 71
     3
 72
     1
  1
Wieniec \U+017Celbetowy
  7
Solbet_2_5
 73
     1
 44
1.0
1001
ACAD
1000
MTEXTBEGIN
1070
    73
1070
     1
1070
    44
1040
1.0
1070
    74
1070
     0
1000
MTEXTEND
  0
LEADER
  5
8607
330
1F
100
AcDbEntity
  8
SOLBET_Wymiary_Opisy
100
AcDbLeader
  3
Solbet$7
 73
     0
 40
3.25
 41
35.0
 76
     2
 10
107.9326672863665
 20
125.4949739402344
 30
0.0
 10
81.51242670731221
 20
119.9543064645141
 30
0.0
340
8608
213
1.177601578005123
223
-0.1753245211093599
233
0.0
1001
ACAD
1000
DSTYLE
1002
{
1070
   147
1040
0.625
1070
    77
1070
     1
1002
}
  0
MTEXT
  5
8608
102
{ACAD_REACTORS
330
8607
102
}
330
1F
100
AcDbEntity
  8
SOLBET_Wymiary_Opisy
100
AcDbMText
 10
79.70982512930709
 20
124.0046309856234
 30
0.0
 40
2.5
 41
0.0
 71
     3
 72
     1
  1
Styropian wodoodporny
  7
Solbet_2_5
 73
     1
 44
1.0
1001
ACAD
1000
MTEXTBEGIN
1070
    73
1070
     1
1070
    44
1040
1.0
1070
    74
1070
     0
1000
MTEXTEND
  0
LEADER
  5
8609
330
1F
100
AcDbEntity
  8
SOLBET_Wymiary_Opisy
100
AcDbLeader
  3
Solbet$7
 74
     0
 40
3.25
 41
19.75
 76
     2
 10
111.9332686234397
 20
115.721682067581
 30
0.0
 10
130.0665692079092
 20
122.138513192439
 30
0.0
213
1.177601578005123
223
-0.1753245211093599
233
0.0
1001
ACAD
1000
DSTYLE
1002
{
1070
   147
1040
0.625
1070
    77
1070
     1
1002
}
  0
LEADER
  5
860F
330
1F
100
AcDbEntity
  8
SOLBET_Wymiary_Opisy
100
AcDbLeader
  3
Solbet$7
 73
     0
 40
3.5
 41
55.25
 76
     2
 10
106.2760760123804
 20
131.1703436403661
 30
0.0
 10
81.47136327236399
 20
126.1980020390088
 30
0.0
340
8610
213
1.177601578005123
223
-0.1753245211093599
233
0.0
1001
ACAD
1000
DSTYLE
1002
{
1070
   147
1040
0.625
1070
    77
1070
     1
1002
}
  0
MTEXT
  5
8610
102
{ACAD_REACTORS
330
860F
102
}
330
1F
100
AcDbEntity
  8
SOLBET_Wymiary_Opisy
100
AcDbMText
 10
79.66876169435886
 20
130.4983265601182
 30
0.0
 40
2.5
 41
0.0
 71
     3
 72
     1
  1
Folia kubelkowa (np. DELTA-MS 500)
  7
Solbet_2_5
 73
     1
 44
1.0
1001
ACAD
1000
MTEXTBEGIN
1070
    73
1070
     1
1070
    44
1040
1.0
1070
    74
1070
     0
1000
MTEXTEND
  0
LEADER
  5
862D
330
1F
100
AcDbEntity
  8
SOLBET_Wymiary_Opisy
100
AcDbLeader
  3
Solbet$7
 73
     0
 74
     0
 75
     1
 40
3.25
 41
25.25
 76
     3
 10
121.6891815135502
 20
173.7736713109776
 30
0.0
 10
131.3685848208815
 20
161.7069556623179
 30
0.0
 10
133.8685848208815
 20
161.7069556623179
 30
0.0
340
862E
213
0.0
223
-0.2322806831707567
233
0.0
1001
ACAD
1000
DSTYLE
1002
{
1070
   147
1040
0.625
1070
    77
1070
     1
1002
}
  0
MTEXT
  5
862E
102
{ACAD_XDICTIONARY
360
9908
102
}
102
{ACAD_REACTORS
330
862D
102
}
330
1F
100
AcDbEntity
  8
SOLBET_Wymiary_Opisy
100
AcDbMText
 10
134.4935848208815
 20
165.8142363454886
 30
0.0
 40
2.5
 41
0.0
 71
     1
 72
     1
  1
Ci\U+0119cie tynkarskie
  7
Solbet_2_5
 73
     1
 44
1.0
1001
ACAD
1000
MTEXTBEGIN
1070
    73
1070
     1
1070
    44
1040
1.0
1070
    74
1070
     0
1000
MTEXTEND
  0
MTEXT
  5
862F
330
1F
100
AcDbEntity
  8
SOLBET_Wymiary_Opisy
100
AcDbMText
 10
139.6650399106102
 20
156.5538731678499
 30
0.0
 40
3.5
 41
0.0
 71
     1
 72
     1
  1
Piwnica
  7
Solbet_2_5
 73
     1
 44
1.0
1001
ACAD
1000
MTEXTBEGIN
1070
    73
1070
     1
1070
    44
1040
1.0
1070
    74
1070
     0
1000
MTEXTEND
  0
MTEXT
  5
8630
330
1F
100
AcDbEntity
  8
SOLBET_Wymiary_Opisy
100
AcDbMText
 10
13.12163843994994
 20
289.430157742044
 30
0.0
 40
5.0
 41
0.0
 71
     1
 72
     1
  1
{\LDETAL 6}
  7
Solbet_2_5
 73
     1
 44
1.0
1001
ACAD
1000
MTEXTBEGIN
1070
    73
1070
     1
1070
    44
1040
1.0
1070
    74
1070
     0
1000
MTEXTEND
  0
MTEXT
  5
8631
102
{ACAD_XDICTIONARY
360
990A
102
}
330
1F
100
AcDbEntity
  8
SOLBET_Wymiary_Opisy
100
AcDbMText
 10
12.97259838149057
 20
278.5057838281728
 30
0.0
 40
5.0
 41
0.0
 71
     1
 72
     1
  1
Posadowienie na p\U+0142ycie fundamentowej\Pbudynku podpiwniczonego\Ppiwnica z dociepleniem\Pwariant \U+015Bciany z dociepleniem
  7
Solbet_2_5
 73
     1
 44
1.0
1001
ACAD
1000
MTEXTBEGIN
1070
    73
1070
     1
1070
    44
1040
1.0
1070
    74
1070
     0
1000
MTEXTEND
  0
MTEXT
  5
8632
330
1F
100
AcDbEntity
  8
SOLBET_Wymiary_Opisy
100
AcDbMText
 10
10.65504693611933
 20
19.81307812737566
 30
0.0
 40
2.5
 41
0.0
 71
     1
 72
     1
  1
UWAGA:
  7
Solbet_2_5
 73
     1
 44
1.0
1001
ACAD
1000
MTEXTBEGIN
1070
    73
1070
     1
1070
    44
1040
1.0
1070
    74
1070
     0
1000
MTEXTEND
  0
MTEXT
  5
8633
102
{ACAD_XDICTIONARY
360
990C
102
}
330
1F
100
AcDbEntity
  8
SOLBET_Wymiary_Opisy
100
AcDbMText
 10
10.50600687765995
 20
15.20084098207752
 30
0.0
 40
2.5
 41
0.0
 71
     1
 72
     1
  1
Sytemy hydroizolacji stosowa\U+0107 wg zalece\U+0144 producent\U+00F3w\PStyropian wodoodporny wg zalece\U+0144 producent\U+00F3w
  7
Solbet_2_5
 73
     1
 44
1.0
1001
ACAD
1000
MTEXTBEGIN
1070
    73
1070
     1
1070
    44
1040
1.0
1070
    74
1070
     0
1000
MTEXTEND
  0
LINE
  5
8651
330
1F
100
AcDbEntity
  8
SOLBET_Tynki_Posadzki
100
AcDbLine
 10
127.882761823635
 20
192.6210250888233
 30
0.0
 11
184.6426823755132
 21
192.6210250888233
 31
0.0
  0
CIRCLE
  5
8652
330
1F
100
AcDbEntity
  8
SOLBET_Wymiary_Opisy
100
AcDbCircle
 10
188.6673631865594
 20
182.5432523692913
 30
0.0
 40
18.70326024567454
  0
LEADER
  5
8653
330
1F
100
AcDbEntity
  8
SOLBET_Wymiary_Opisy
100
AcDbLeader
  3
Solbet$7
 73
     0
 74
     0
 75
     1
 40
5.0
 41
3.0
 76
     3
 10
197.7720411601649
 20
198.8808404046892
 30
0.0
 10
201.7431913609812
 20
202.8793271437332
 30
0.0
 10
204.2431913609812
 20
202.8793271437332
 30
0.0
340
8654
213
0.8103787685154202
223
-0.1753245211093599
233
0.0
1001
ACAD
1000
DSTYLE
1002
{
1070
   341
1005
790F
1070
   147
1040
0.625
1070
    77
1070
     1
1002
}
  0
MTEXT
  5
8654
102
{ACAD_REACTORS
330
8653
102
}
330
1F
100
AcDbEntity
  8
SOLBET_Wymiary_Opisy
100
AcDbMText
 10
207.0578125924658
 20
208.6796516648425
 30
0.0
 40
5.0
 41
0.0
 71
     3
 72
     1
  1
B
  7
Solbet_5
 73
     1
 44
1.0
1001
ACAD
1000
MTEXTBEGIN
1070
    73
1070
     1
1070
    44
1040
1.0
1070
    74
1070
     0
1000
MTEXTEND
  0
LEADER
  5
8655
330
1F
100
AcDbEntity
  8
SOLBET_Wymiary_Opisy
100
AcDbLeader
  3
Solbet$7
 73
     0
 74
     0
 75
     1
 40
3.5
 41
36.75
 76
     3
 10
270.3050956880281
 20
98.02615887092882
 30
0.0
 10
292.2218500224642
 20
110.3591056563165
 30
0.0
 10
294.7218500224642
 20
110.3591056563165
 30
0.0
340
8656
213
1.177601578005123
223
-0.1753245211093599
233
0.0
1001
ACAD
1000
DSTYLE
1002
{
1070
   147
1040
0.625
1070
    77
1070
     1
1002
}
  0
MTEXT
  5
8656
102
{ACAD_XDICTIONARY
360
990E
102
}
102
{ACAD_REACTORS
330
8655
102
}
330
1F
100
AcDbEntity
  8
SOLBET_Wymiary_Opisy
100
AcDbMText
 10
294.1692484444591
 20
114.6594301774258
 30
0.0
 40
2.5
 41
0.0
 71
     1
 72
     1
  1
Warstwa wyko\U+0144czeniowa
  7
Solbet_2_5
 73
     1
 44
1.0
1001
ACAD
1000
MTEXTBEGIN
1070
    73
1070
     1
1070
    44
1040
1.0
1070
    74
1070
     0
1000
MTEXTEND
  0
LEADER
  5
8657
330
1F
100
AcDbEntity
  8
SOLBET_Wymiary_Opisy
100
AcDbLeader
  3
Solbet$7
 73
     0
 74
     0
 75
     1
 40
3.25
 41
32.0
 76
     3
 10
271.8646008776859
 20
93.82718722483692
 30
0.0
 10
291.0442484444591
 20
102.7832990726847
 30
0.0
 10
293.5442484444591
 20
102.7832990726847
 30
0.0
340
8658
213
0.0
223
-0.2322806831707567
233
0.0
1001
ACAD
1000
DSTYLE
1002
{
1070
   147
1040
0.625
1070
    77
1070
     1
1002
}
  0
MTEXT
  5
8658
102
{ACAD_REACTORS
330
8657
102
}
330
1F
100
AcDbEntity
  8
SOLBET_Wymiary_Opisy
100
AcDbMText
 10
294.1692484444591
 20
106.8905797558554
 30
0.0
 40
2.5
 41
0.0
 71
     1
 72
     1
  1
Wylewka jastrychowa
  7
Solbet_2_5
 73
     1
 44
1.0
1001
ACAD
1000
MTEXTBEGIN
1070
    73
1070
     1
1070
    44
1040
1.0
1070
    74
1070
     0
1000
MTEXTEND
  0
LEADER
  5
8659
330
1F
100
AcDbEntity
  8
SOLBET_Wymiary_Opisy
100
AcDbLeader
  3
Solbet$7
 73
     0
 74
     0
 40
3.25
 41
19.25
 76
     2
 10
271.9789707308398
 20
88.99031896863707
 30
0.0
 10
293.7473547543541
 20
93.91030854400273
 30
0.0
340
865A
213
0.0
223
-0.2322806831707567
233
0.0
1001
ACAD
1000
DSTYLE
1002
{
1070
   147
1040
0.625
1070
    77
1070
     1
1002
}
  0
MTEXT
  5
865A
102
{ACAD_REACTORS
330
8659
102
}
330
1F
100
AcDbEntity
  8
SOLBET_Wymiary_Opisy
100
AcDbMText
 10
294.3723547543541
 20
98.01758922717349
 30
0.0
 40
2.5
 41
0.0
 71
     1
 72
     1
  1
Hydroizolacja
  7
Solbet_2_5
 73
     1
 44
1.0
1001
ACAD
1000
MTEXTBEGIN
1070
    73
1070
     1
1070
    44
1040
1.0
1070
    74
1070
     0
1000
MTEXTEND
  0
LEADER
  5
865B
330
1F
100
AcDbEntity
  8
SOLBET_Wymiary_Opisy
100
AcDbLeader
  3
Solbet$7
 73
     0
 74
     0
 75
     1
 40
3.25
 41
36.0
 76
     3
 10
268.7238780551136
 20
84.65280103547653
 30
0.0
 10
291.2381688060955
 20
70.77468164063006
 30
0.0
 10
293.7381688060955
 20
70.77468164063006
 30
0.0
340
865C
213
0.0
223
-0.2322806831707567
233
0.0
1001
ACAD
1000
DSTYLE
1002
{
1070
   147
1040
0.625
1070
    77
1070
     1
1002
}
  0
MTEXT
  5
865C
102
{ACAD_XDICTIONARY
360
9910
102
}
102
{ACAD_REACTORS
330
865B
102
}
330
1F
100
AcDbEntity
  8
SOLBET_Wymiary_Opisy
100
AcDbMText
 10
294.3631688060955
 20
74.88196232380082
 30
0.0
 40
2.5
 41
0.0
 71
     1
 72
     1
  1
P\U+0142yty izolacyjne twarde
  7
Solbet_2_5
 73
     1
 44
1.0
1001
ACAD
1000
MTEXTBEGIN
1070
    73
1070
     1
1070
    44
1040
1.0
1070
    74
1070
     0
1000
MTEXTEND
  0
LEADER
  5
865D
330
1F
100
AcDbEntity
  8
SOLBET_Wymiary_Opisy
100
AcDbLeader
  3
Solbet$7
 73
     0
 74
     0
 75
     1
 40
3.25
 41
19.25
 76
     3
 10
269.6841961210996
 20
79.35407892121256
 30
0.0
 10
291.8148627190112
 20
57.07406846884009
 30
0.0
 10
294.3148627190112
 20
57.07406846884009
 30
0.0
340
865E
213
0.0
223
-0.2322806831707567
233
0.0
1001
ACAD
1000
DSTYLE
1002
{
1070
   147
1040
0.625
1070
    77
1070
     1
1002
}
  0
MTEXT
  5
865E
102
{ACAD_REACTORS
330
865D
102
}
330
1F
100
AcDbEntity
  8
SOLBET_Wymiary_Opisy
100
AcDbMText
 10
294.9398627190112
 20
61.18134915201085
 30
0.0
 40
2.5
 41
0.0
 71
     1
 72
     1
  1
Hydroizolacja
  7
Solbet_2_5
 73
     1
 44
1.0
1001
ACAD
1000
MTEXTBEGIN
1070
    73
1070
     1
1070
    44
1040
1.0
1070
    74
1070
     0
1000
MTEXTEND
  0
LEADER
  5
865F
330
1F
100
AcDbEntity
  8
SOLBET_Wymiary_Opisy
100
AcDbLeader
  3
Solbet$7
 73
     0
 74
     0
 40
3.25
 41
24.75
 76
     2
 10
263.3841060377126
 20
46.74458592851022
 30
0.0
 10
295.3709907050679
 20
38.5876266065485
 30
0.0
340
8660
213
0.0
223
-0.2322806831707567
233
0.0
1001
ACAD
1000
DSTYLE
1002
{
1070
   147
1040
0.625
1070
    77
1070
     1
1002
}
  0
MTEXT
  5
8660
102
{ACAD_XDICTIONARY
360
9912
102
}
102
{ACAD_REACTORS
330
865F
102
}
330
1F
100
AcDbEntity
  8
SOLBET_Wymiary_Opisy
100
AcDbMText
 10
295.9959907050679
 20
42.69490728971925
 30
0.0
 40
2.5
 41
0.0
 71
     1
 72
     1
  1
P\U+0142yta \U+017Celbetowa
  7
Solbet_2_5
 73
     1
 44
1.0
1001
ACAD
1000
MTEXTBEGIN
1070
    73
1070
     1
1070
    44
1040
1.0
1070
    74
1070
     0
1000
MTEXTEND
  0
LEADER
  5
8661
330
1F
100
AcDbEntity
  8
SOLBET_Wymiary_Opisy
100
AcDbLeader
  3
Solbet$7
 73
     0
 74
     0
 75
     1
 40
3.25
 41
18.25
 76
     3
 10
266.2620048496367
 20
34.5561881593261
 30
0.0
 10
291.4867224301852
 20
22.63577252912591
 30
0.0
 10
293.9867224301852
 20
22.63577252912591
 30
0.0
340
8662
213
0.0
223
-0.2322806831707567
233
0.0
1001
ACAD
1000
DSTYLE
1002
{
1070
   147
1040
0.625
1070
    77
1070
     1
1002
}
  0
MTEXT
  5
8662
102
{ACAD_REACTORS
330
8661
102
}
330
1F
100
AcDbEntity
  8
SOLBET_Wymiary_Opisy
100
AcDbMText
 10
294.6117224301852
 20
26.74305321229667
 30
0.0
 40
2.5
 41
0.0
 71
     1
 72
     1
  1
Chudy beton
  7
Solbet_2_5
 73
     1
 44
1.0
1001
ACAD
1000
MTEXTBEGIN
1070
    73
1070
     1
1070
    44
1040
1.0
1070
    74
1070
     0
1000
MTEXTEND
  0
LINE
  5
8663
330
1F
100
AcDbEntity
  8
SOLBET_Izolacja
  6
Continuous
100
AcDbLine
 10
224.1883042700854
 20
88.40280102792073
 30
0.0
 11
273.1794010953326
 21
88.40280102792062
 31
0.0
  0
LINE
  5
8664
330
1F
100
AcDbEntity
  8
SOLBET_Izolacja
  6
Continuous
100
AcDbLine
 10
221.1947992351395
 20
80.90280102792096
 30
0.0
 11
273.1794010953322
 21
80.90280102792096
 31
0.0
  0
LINE
  5
8665
330
1F
100
AcDbEntity
  8
SOLBET_Wymiary_Opisy
 62
     1
100
AcDbLine
 10
273.1794010953326
 20
98.22098537930035
 30
0.0
 11
273.1794010953326
 21
19.00920848265491
 31
0.0
  0
LINE
  5
8666
330
1F
100
AcDbEntity
  8
SOLBET_Emulsje_Folie
100
AcDbLine
 10
224.469839237267
 20
88.99031896863707
 30
0.0
 11
273.1794010953329
 21
88.99031896863707
 31
0.0
  0
LINE
  5
8667
330
1F
100
AcDbEntity
  8
SOLBET_Emulsje_Folie
100
AcDbLine
 10
220.7069147107509
 20
79.35407892121256
 30
0.0
 11
273.1794010953326
 21
79.35407892121256
 31
0.0
  0
LINE
  5
8668
330
1F
100
AcDbEntity
  8
SOLBET_Tynki_Posadzki
100
AcDbLine
 10
229.9328733168077
 20
98.22098537930035
 30
0.0
 11
273.1794010953329
 21
98.22098537930035
 31
0.0
  0
LINE
  5
8671
330
1F
100
AcDbEntity
  8
SOLBET_Beton
100
AcDbLine
 10
272.9617017470868
 20
41.32687544347982
 30
0.0
 11
273.1794010953326
 21
41.10917609523403
 31
0.0
1001
ACAD
1010
0.0
1020
0.0
1030
0.0
  0
LINE
  5
8672
330
1F
100
AcDbEntity
  8
SOLBET_Beton
100
AcDbLine
 10
266.2265096562848
 20
41.32687544347982
 30
0.0
 11
273.1794010953326
 21
34.37398400443214
 31
0.0
1001
ACAD
1010
0.0
1020
0.0
1030
0.0
  0
LINE
  5
8673
330
1F
100
AcDbEntity
  8
SOLBET_Beton
100
AcDbLine
 10
259.4913175654831
 20
41.32687544347982
 30
0.0
 11
269.9913175654828
 21
30.82687544347982
 31
0.0
1001
ACAD
1010
0.0
1020
0.0
1030
0.0
  0
LINE
  5
8674
330
1F
100
AcDbEntity
  8
SOLBET_Beton
100
AcDbLine
 10
252.7561254746811
 20
41.32687544347982
 30
0.0
 11
263.2561254746811
 21
30.82687544347982
 31
0.0
1001
ACAD
1010
0.0
1020
0.0
1030
0.0
  0
LINE
  5
8675
330
1F
100
AcDbEntity
  8
SOLBET_Beton
100
AcDbLine
 10
246.0209333838793
 20
41.32687544347982
 30
0.0
 11
256.5209333838793
 21
30.82687544347982
 31
0.0
1001
ACAD
1010
0.0
1020
0.0
1030
0.0
  0
LINE
  5
8676
330
1F
100
AcDbEntity
  8
SOLBET_Beton
100
AcDbLine
 10
239.2857412930773
 20
41.32687544347982
 30
0.0
 11
249.7857412930776
 21
30.82687544347982
 31
0.0
1001
ACAD
1010
0.0
1020
0.0
1030
0.0
  0
LINE
  5
8677
330
1F
100
AcDbEntity
  8
SOLBET_Beton
100
AcDbLine
 10
232.5505492022756
 20
41.32687544347982
 30
0.0
 11
243.0505492022756
 21
30.82687544347971
 31
0.0
1001
ACAD
1010
0.0
1020
0.0
1030
0.0
  0
LINE
  5
8678
330
1F
100
AcDbEntity
  8
SOLBET_Beton
100
AcDbLine
 10
225.8153571114736
 20
41.32687544347994
 30
0.0
 11
236.3153571114736
 21
30.82687544347982
 31
0.0
1001
ACAD
1010
0.0
1020
0.0
1030
0.0
  0
LINE
  5
8679
330
1F
100
AcDbEntity
  8
SOLBET_Beton
100
AcDbLine
 10
221.7417000665064
 20
38.6653403976452
 30
0.0
 11
229.5801650206718
 21
30.82687544347982
 31
0.0
1001
ACAD
1010
0.0
1020
0.0
1030
0.0
  0
LWPOLYLINE
  5
867A
102
{ACAD_REACTORS
330
8686
102
}
330
1F
100
AcDbEntity
  8
SOLBET_Beton
100
AcDbPolyline
 90
        4
 70
     0
 43
0.0
 10
225.1501476973917
 20
90.35122073545116
 10
273.1794010953322
 20
90.35122073545116
 10
273.1794010953329
 20
97.85122073545117
 10
229.6725386373708
 20
97.85122073545117
  0
LWPOLYLINE
  5
867B
330
1F
100
AcDbEntity
  8
SOLBET_Emulsje_Folie
100
AcDbPolyline
 90
        3
 70
     0
 43
0.0
 10
273.1794010953326
 20
30.82687544347982
 10
273.1794010953326
 20
41.32687544347982
 10
220.8538050879738
 20
41.32687544347994
  0
LWPOLYLINE
  5
867C
330
1F
100
AcDbEntity
  8
SOLBET_Beton
100
AcDbPolyline
 90
        3
 70
     0
 43
0.0
 10
225.1416878852697
 20
30.82687544347982
 10
273.1794010953326
 20
30.82687544347982
 10
273.1794010953326
 20
41.32687544347982
  0
HATCH
  5
867D
330
1F
100
AcDbEntity
  8
SOLBET_Beton
100
AcDbHatch
 10
0.0
 20
0.0
 30
0.0
210
0.0
220
0.0
230
1.0
  2
ANSI33
 70
     0
 71
     0
 91
        1
 92
        5
 93
        4
 72
     2
 10
283.0020624556453
 20
60.58082536796269
 40
65.06243525670422
 50
163.7135873445601
 51
197.2133342424559
 73
     1
 72
     1
 10
220.8538050879738
 20
41.32687544348016
 11
273.1794010953326
 21
41.32687544348016
 72
     1
 10
273.1794010953326
 20
41.32687544348016
 11
273.1794010953326
 21
78.82687544348016
 72
     1
 10
273.1794010953326
 20
78.82687544348013
 11
220.5504640919965
 21
78.82687544348013
 97
        0
 75
     0
 76
     1
 52
0.0
 41
2.25
 77
     0
 78
     2
 53
45.0
 43
703.8008251649958
 44
-140.3101406147602
 45
-10.10278813620279
 46
10.1027881362028
 79
     0
 53
45.0
 43
713.9036176649956
 44
-140.3101406147602
 45
-10.10278813620279
 46
10.1027881362028
 79
     2
 49
7.143749999999998
 49
-3.571874999999999
 47
0.0
 98
        1
 10
246.0103413204433
 20
60.09402024940175
1001
ACAD
1010
0.0
1020
0.0
1030
0.0
  0
LWPOLYLINE
  5
867E
330
1F
100
AcDbEntity
  8
SOLBET_Beton
100
AcDbPolyline
 90
        4
 70
     0
 43
0.0
 10
220.8538050879738
 20
41.32687544348016
 10
273.1794010953326
 20
41.32687544348016
 10
273.1794010953326
 20
78.82687544348013
 10
220.5504640919962
 20
78.82687544348013
  0
LINE
  5
867F
330
1F
100
AcDbEntity
  8
SOLBET_Izolacja
  6
BATTING
 48
0.36
100
AcDbLine
 10
223.2381831767036
 20
84.65280103547659
 30
0.0
 11
273.1794010953326
 21
84.65280103547653
 31
0.0
  0
ARC
  5
8680
102
{ACAD_REACTORS
330
8686
102
}
330
1F
100
AcDbEntity
  8
SOLBET_Wymiary_Opisy
100
AcDbCircle
 10
283.0020624556455
 20
60.58082536796269
 30
0.0
 40
65.06243525670424
100
AcDbArc
 50
144.653226409834
 51
219.7135382265802
  0
MTEXT
  5
8681
102
{ACAD_XDICTIONARY
360
97CF
102
}
330
1F
100
AcDbEntity
  8
SOLBET_Wymiary_Opisy
100
AcDbMText
 10
239.2248947569751
 20
117.5573906468378
 30
0.0
 40
5.0
 41
30.77919768571883
 71
     1
 72
     5
  1
\pxqc;C\P(3 : 1)
  7
Solbet_5
 73
     1
 44
1.0
1001
ACAD
1000
MTEXTBEGIN
1070
    73
1070
     1
1070
    44
1040
1.0
1070
    74
1070
     0
1000
MTEXTEND
1000
ACAD_MTEXT_DEFINED_HEIGHT_BEGIN
1070
    46
1040
23.42535011036716
1000
ACAD_MTEXT_DEFINED_HEIGHT_END
  0
HATCH
  5
8686
330
1F
100
AcDbEntity
  8
SOLBET_Tynki_Posadzki
100
AcDbHatch
 10
0.0
 20
0.0
 30
0.0
210
0.0
220
0.0
230
1.0
  2
AR-CONC
 70
     0
 71
     1
 91
        2
 92
        7
 72
     1
 73
     1
 93
        7
 10
260.3569629018779
 20
185.8610127568181
 42
0.0
 10
260.3569629018779
 20
193.3610127568181
 42
0.0
 10
224.4584085618219
 20
193.3610127568181
 42
0.0488663163436414
 10
219.698788770358
 20
185.8610127568181
 42
0.0
 10
240.2515567514731
 20
185.8610127568181
 42
0.0
 10
240.3772738065701
 20
185.9920369441495
 42
0.0
 10
240.392516328302
 20
185.8610127568181
 42
0.0
 97
        6
330
8567
330
8581
330
8566
330
8553
330
8554
330
8564
 92
        7
 72
     1
 73
     1
 93
        4
 10
273.1794010953322
 20
90.35122073545117
 42
0.0
 10
273.1794010953329
 20
97.85122073545117
 42
0.0
 10
229.6725386373708
 20
97.85122073545117
 42
0.0336903681456238
 10
225.1501476973918
 20
90.35122073545116
 42
0.0
 97
        2
330
867A
330
8680
 75
     0
 76
     1
 52
0.0
 41
0.03
 77
     0
 78
    13
 53
50.0
 43
-1356.409137164211
 44
325.0138033074359
 45
5.46554006988012
 46
-0.4781725661670926
 79
     2
 49
0.5715
 49
-6.2865
 53
355.0
 43
-1356.409137164211
 44
325.0138033074359
 45
-1.057284779270009
 46
5.731699286465398
 79
     2
 49
0.4572
 49
-5.029199999999999
 53
100.451
 43
-1355.953677164211
 44
324.9739558074359
 45
4.408275049978777
 46
5.253500634608755
 79
     2
 49
0.4857000000000001
 49
-5.342699999999999
 53
46.1842
 43
-1356.409137164211
 44
326.5378033074359
 45
8.132371226763897
 46
-1.261269837981814
 79
     2
 49
0.8572499999999999
 49
-9.429749999999998
 53
96.63559999999996
 43
-1355.731440164211
 44
326.4326983074359
 45
7.122127033987114
 46
7.422766676701476
 79
     2
 49
0.7285499999999998
 49
-8.014049999999995
 53
351.184
 43
-1356.409137164211
 44
326.5378033074359
 45
7.122138174418017
 46
7.422753535817929
 79
     2
 49
0.6858
 49
-7.5438
 53
21.0
 43
-1355.647137164211
 44
326.1568033074359
 45
4.548446395061498
 46
-3.067965555502874
 79
     2
 49
0.5715
 49
-6.2865
 53
326.0
 43
-1355.647137164211
 44
326.1568033074359
 45
1.854060850429411
 46
5.525638983669577
 79
     2
 49
0.4572
 49
-5.029199999999999
 53
71.45140000000001
 43
-1355.268102164211
 44
325.9011403074359
 45
6.402494723103733
 46
2.457685731481723
 79
     2
 49
0.4857000000000001
 49
-5.342699999999999
 53
37.5
 43
-1356.409137164211
 44
325.0138033074359
 45
0.0926580975177545
 46
2.536651166194593
 79
     6
 49
0.0
 49
-4.968239999999999
 49
0.0
 49
-5.1054
 49
0.0
 49
-5.04825
 53
7.499999999999999
 43
-1356.409137164211
 44
325.0138033074359
 45
2.004589875309172
 46
3.005417244543585
 79
     6
 49
0.0
 49
-2.910839999999999
 49
0.0
 49
-4.853939999999999
 49
0.0
 49
-1.92405
 53
327.5
 43
-1358.108397164211
 44
325.0138033074359
 45
4.06771785500614
 46
-0.1718623197802039
 79
     6
 49
0.0
 49
-1.905
 49
0.0
 49
-5.943599999999999
 49
0.0
 49
-7.886699999999999
 53
317.5
 43
-1358.870397164211
 44
325.0138033074359
 45
4.443875441580541
 46
0.7627947309999904
 79
     6
 49
0.0
 49
-2.476499999999999
 49
0.0
 49
-3.947159999999999
 49
0.0
 49
-5.600699999999999
 47
0.1935605026515782
 98
        2
 10
245.9496068460573
 20
189.0998769398893
 10
247.8010381910576
 20
92.78975386114074
1001
ACAD
1010
0.0
1020
0.0
1030
0.0
  0
LINE
  5
8687
330
1F
100
AcDbEntity
  8
SOLBET_Tynki_Posadzki
100
AcDbLine
 10
127.0836171083501
 20
102.7204464887159
 30
0.0
 11
184.6426823755132
 21
102.7204464887159
 31
0.0
  0
CIRCLE
  5
8688
330
1F
100
AcDbEntity
  8
SOLBET_Wymiary_Opisy
100
AcDbCircle
 10
181.9144022207197
 20
86.06504635444485
 30
0.0
 40
18.24818369320446
  0
LEADER
  5
8689
330
1F
100
AcDbEntity
  8
SOLBET_Wymiary_Opisy
100
AcDbLeader
  3
Solbet$7
 73
     0
 74
     0
 75
     1
 40
5.0
 41
2.5
 76
     3
 10
190.5474873554431
 20
102.1419256896128
 30
0.0
 10
195.0186375562596
 20
106.1404124286567
 30
0.0
 10
197.5186375562596
 20
106.1404124286567
 30
0.0
340
868A
213
0.8103787685154202
223
-0.1753245211093599
233
0.0
1001
ACAD
1000
DSTYLE
1002
{
1070
   341
1005
790F
1070
   147
1040
0.625
1070
    77
1070
     1
1002
}
  0
MTEXT
  5
868A
102
{ACAD_REACTORS
330
8689
102
}
330
1F
100
AcDbEntity
  8
SOLBET_Wymiary_Opisy
100
AcDbMText
 10
199.8332587877442
 20
111.9407369497661
 30
0.0
 40
5.0
 41
0.0
 71
     3
 72
     1
  1
C
  7
Solbet_5
 73
     1
 44
1.0
1001
ACAD
1000
MTEXTBEGIN
1070
    73
1070
     1
1070
    44
1040
1.0
1070
    74
1070
     0
1000
MTEXTEND
  0
LWPOLYLINE
  5
8699
330
1F
100
AcDbEntity
  8
SOLBET_Ramka_05
100
AcDbPolyline
 90
        4
 70
     1
 43
0.0
 10
0.0
 20
0.0
 10
334.35177409209
 20
0.0
 10
334.35177409209
 20
297.0
 10
0.0
 20
297.0
  0
LEADER
  5
869A
330
1F
100
AcDbEntity
  8
SOLBET_Wymiary_Opisy
100
AcDbLeader
  3
Solbet$7
 73
     0
 74
     0
 75
     1
 40
3.25
 41
39.25
 76
     3
 10
124.6426823755132
 20
209.7468195597293
 30
0.0
 10
146.5594367099493
 20
222.329766345117
 30
0.0
 10
149.0594367099493
 20
222.329766345117
 30
0.0
340
869B
213
1.177601578005123
223
-0.1753245211093599
233
0.0
1001
ACAD
1000
DSTYLE
1002
{
1070
   147
1040
0.625
1070
    77
1070
     1
1002
}
  0
MTEXT
  5
869B
102
{ACAD_XDICTIONARY
360
9914
102
}
102
{ACAD_REACTORS
330
869A
102
}
330
1F
100
AcDbEntity
  8
SOLBET_Wymiary_Opisy
100
AcDbMText
 10
148.5068351319442
 20
226.3800908662264
 30
0.0
 40
2.5
 41
0.0
 71
     1
 72
     1
  1
Tynk wewn\U+0119trzny SOLBET
  7
Solbet_2_5
 73
     1
 44
1.0
1001
ACAD
1000
MTEXTBEGIN
1070
    73
1070
     1
1070
    44
1040
1.0
1070
    74
1070
     0
1000
MTEXTEND
  0
LEADER
  5
869C
330
1F
100
AcDbEntity
  8
SOLBET_Wymiary_Opisy
100
AcDbLeader
  3
Solbet$7
 73
     0
 74
     0
 75
     1
 40
3.25
 41
35.5
 76
     3
 10
121.845971547169
 20
201.9051210613722
 30
0.0
 10
146.5594367099493
 20
216.1738056366595
 30
0.0
 10
149.0594367099493
 20
216.1738056366595
 30
0.0
340
869D
213
1.177601578005123
223
-0.1753245211093599
233
0.0
1001
ACAD
1000
DSTYLE
1002
{
1070
   147
1040
0.625
1070
    77
1070
     1
1002
}
  0
MTEXT
  5
869D
102
{ACAD_XDICTIONARY
360
97D1
102
}
102
{ACAD_REACTORS
330
869C
102
}
330
1F
100
AcDbEntity
  8
SOLBET_Wymiary_Opisy
100
AcDbMText
 10
148.5068351319442
 20
220.2241301577688
 30
0.0
 40
2.5
 41
0.0
 71
     1
 72
     1
  1
\pxql;Bloczki SOLBET Optimal 
  7
Solbet_2_5
 73
     1
 44
1.0
1001
ACAD
1000
MTEXTBEGIN
1070
    73
1070
     1
1070
    44
1040
1.0
1070
    74
1070
     0
1000
MTEXTEND
  0
DIMENSION
  5
8738
330
1F
100
AcDbEntity
  8
SOLBET_Wymiary_Opisy
100
AcDbDimension
  2
*D6
 10
39.32538817557681
 20
171.2736713109776
 30
0.0
 11
39.32538817557679
 21
178.849649726505
 31
0.0
 70
   160
  1
Min. 30cm
 71
     5
 42
15.15195683105449
  3
Solbet
100
AcDbAlignedDimension
 13
105.3696759262357
 23
186.4256281420321
 33
0.0
 14
106.0760760123803
 24
171.2736713109776
 34
0.0
 50
90.0
100
AcDbRotatedDimension
  0
LINE
  5
87A9
330
1F
100
AcDbEntity
  8
SOLBET_Bloczki
100
AcDbLine
 10
121.1414680213293
 20
174.2736908518756
 30
0.0
 11
121.1416046413296
 21
169.2736714191817
 31
0.0
  0
LINE
  5
87AA
330
1F
100
AcDbEntity
  8
SOLBET_Bloczki
100
AcDbLine
 10
121.1414680213293
 20
174.2736908518756
 30
0.0
 11
112.1414680213292
 21
174.2736908518756
 31
0.0
  0
LINE
  5
87AB
330
1F
100
AcDbEntity
  8
SOLBET_Bloczki
100
AcDbLine
 10
112.1414680213292
 20
174.2736908518756
 30
0.0
 11
112.1416046413296
 21
169.2736714191818
 31
0.0
  0
LINE
  5
87AC
330
1F
100
AcDbEntity
  8
SOLBET_Bloczki
100
AcDbLine
 10
112.1416046413296
 20
169.2736714191818
 30
0.0
 11
121.1416046413296
 21
169.2736714191817
 31
0.0
  0
LINE
  5
87B3
330
1F
100
AcDbEntity
  8
SOLBET_Bloczki
100
AcDbLine
 10
121.1416043780259
 20
145.2736714226606
 30
0.0
 11
121.1416043780259
 21
139.8480510002927
 31
0.0
  0
LINE
  5
87B4
330
1F
100
AcDbEntity
  8
SOLBET_Bloczki
100
AcDbLine
 10
121.1416043780259
 20
145.2736714226606
 30
0.0
 11
112.1416043780259
 21
145.2736714226606
 31
0.0
  0
LINE
  5
87B5
330
1F
100
AcDbEntity
  8
SOLBET_Bloczki
100
AcDbLine
 10
112.1416043780259
 20
145.2736714226606
 30
0.0
 11
112.1416043780259
 21
139.8480510002927
 31
0.0
  0
LINE
  5
87B6
330
1F
100
AcDbEntity
  8
SOLBET_Bloczki
100
AcDbLine
 10
112.1416043780259
 20
133.2736714226606
 30
0.0
 11
121.1416043780259
 21
133.2736714226605
 31
0.0
  0
LINE
  5
87B7
330
1F
100
AcDbEntity
  8
SOLBET_Bloczki
100
AcDbLine
 10
121.1416043780261
 20
138.3480510002926
 30
0.0
 11
121.1416043780259
 21
133.2736714226605
 31
0.0
  0
LINE
  5
87B8
330
1F
100
AcDbEntity
  8
SOLBET_Bloczki
100
AcDbLine
 10
112.1416043780259
 20
138.3480510002926
 30
0.0
 11
112.1416043780259
 21
133.2736714226606
 31
0.0
  0
LINE
  5
87B9
330
1F
100
AcDbEntity
  8
SOLBET_Bloczki
100
AcDbLine
 10
112.1416043780259
 20
138.3480510002926
 30
0.0
 11
121.1416043780261
 21
138.3480510002926
 31
0.0
  0
LINE
  5
87BA
330
1F
100
AcDbEntity
  8
SOLBET_Bloczki
100
AcDbLine
 10
112.1416043780259
 20
139.8480510002927
 30
0.0
 11
121.1416043780259
 21
139.8480510002927
 31
0.0
  0
HATCH
  5
8D45
330
1F
100
AcDbEntity
  8
SOLBET_Grunt
100
AcDbHatch
 10
0.0
 20
0.0
 30
0.0
210
0.0
220
0.0
230
1.0
  2
AR-CONC
 70
     0
 71
     1
 91
        1
 92
        7
 72
     0
 73
     1
 93
        4
 10
89.36455050095673
 20
139.8480510002927
 10
105.8760760123803
 20
139.8480510002927
 10
105.8760760123803
 20
171.2736713109776
 10
86.42875292235476
 20
171.2736713109776
 97
        4
330
78AA
330
781B
330
785E
330
77A4
 75
     0
 76
     1
 52
0.0
 41
0.02
 77
     0
 78
    13
 53
50.0
 43
-1341.506399321924
 44
359.4596107395466
 45
3.64369337992008
 46
-0.3187817107780617
 79
     2
 49
0.381
 49
-4.191
 53
355.0
 43
-1341.506399321924
 44
359.4596107395466
 45
-0.7048565195133399
 46
3.821132857643599
 79
     2
 49
0.3048
 49
-3.352799999999999
 53
100.451
 43
-1341.202759321924
 44
359.4330457395466
 45
2.938850033319184
 46
3.502333756405837
 79
     2
 49
0.3238
 49
-3.5618
 53
46.1842
 43
-1341.506399321924
 44
360.4756107395466
 45
5.421580817842598
 46
-0.8408465586545428
 79
     2
 49
0.5715
 49
-6.2865
 53
96.63559999999996
 43
-1341.054601321924
 44
360.4055407395466
 45
4.748084689324742
 46
4.948511117800984
 79
     2
 49
0.4856999999999999
 49
-5.342699999999997
 53
351.184
 43
-1341.506399321924
 44
360.4756107395466
 45
4.748092116278678
 46
4.948502357211953
 79
     2
 49
0.4572
 49
-5.0292
 53
21.0
 43
-1340.998399321924
 44
360.2216107395466
 45
3.032297596707665
 46
-2.04531037033525
 79
     2
 49
0.381
 49
-4.191
 53
326.0
 43
-1340.998399321924
 44
360.2216107395466
 45
1.236040566952941
 46
3.683759322446385
 79
     2
 49
0.3048
 49
-3.352799999999999
 53
71.45140000000001
 43
-1340.745709321924
 44
360.0511687395466
 45
4.268329815402489
 46
1.638457154321149
 79
     2
 49
0.3238
 49
-3.5618
 53
37.5
 43
-1341.506399321924
 44
359.4596107395466
 45
0.0617720650118363
 46
1.691100777463062
 79
     6
 49
0.0
 49
-3.312159999999999
 49
0.0
 49
-3.4036
 49
0.0
 49
-3.3655
 53
7.499999999999999
 43
-1341.506399321924
 44
359.4596107395466
 45
1.336393250206114
 46
2.00361149636239
 79
     6
 49
0.0
 49
-1.940559999999999
 49
0.0
 49
-3.235959999999999
 49
0.0
 49
-1.2827
 53
327.5
 43
-1342.639239321924
 44
359.4596107395466
 45
2.711811903337427
 46
-0.1145748798534693
 79
     6
 49
0.0
 49
-1.27
 49
0.0
 49
-3.9624
 49
0.0
 49
-5.257799999999999
 53
317.5
 43
-1343.147239321924
 44
359.4596107395466
 45
2.962583627720361
 46
0.5085298206666603
 79
     6
 49
0.0
 49
-1.650999999999999
 49
0.0
 49
-2.63144
 49
0.0
 49
-3.7338
 47
0.1189951798285241
 98
        2
 10
95.87578143746782
 20
162.1624267087496
 10
95.75668275537305
 20
164.4233351627178
1001
ACAD
1010
0.0
1020
0.0
1030
0.0
  0
LINE
  5
8DFB
330
1F
100
AcDbEntity
  8
SOLBET_Tynki_Posadzki
100
AcDbLine
 10
119.7262609901975
 20
175.6931545901324
 30
0.0
 11
114.3287139696772
 21
181.10236954799
 31
0.0
  0
LINE
  5
8DFC
330
1F
100
AcDbEntity
  8
SOLBET_Izolacja
100
AcDbLine
 10
122.6416038514185
 20
102.597191607433
 30
0.0
 11
121.1416041147222
 21
102.597191607433
 31
0.0
  0
LINE
  5
8E4D
330
1F
100
AcDbEntity
  8
SOLBET_Wymiary_Opisy
100
AcDbLine
 10
232.9528751388266
 20
19.00920848265491
 30
0.0
 11
273.1794010953326
 21
19.00920848265491
 31
0.0
  0
LINE
  5
8E50
330
1F
100
AcDbEntity
  8
SOLBET_Wymiary_Opisy
100
AcDbLine
 10
238.746708695888
 20
125.2183239881384
 30
0.0
 11
260.3569629018782
 21
125.2183239881384
 31
0.0
  0
LINE
  5
8EEE
330
1F
100
AcDbEntity
  8
SOLBET_Emulsje_Folie
100
AcDbLine
 10
106.2760760123804
 20
172.2736713109775
 30
0.0
 11
106.2760760123804
 21
139.8480510002927
 31
0.0
  0
LINE
  5
8F65
330
1F
100
AcDbEntity
  8
SOLBET_Wymiary_Opisy
100
AcDbLine
 10
106.2597980462183
 20
176.4379118220349
 30
0.0
 11
81.1975680888654
 21
151.0595620871078
 31
0.0
1001
ACAD
1000
DSTYLE
1002
{
1070
   147
1040
0.625
1070
    77
1070
     1
1002
}
  0
LINE
  5
8F66
330
1F
100
AcDbEntity
  8
SOLBET_Wymiary_Opisy
100
AcDbLine
 10
81.1975680888654
 20
151.0595620871078
 30
0.0
 11
31.6953259276313
 21
151.0595620871078
 31
0.0
1001
ACAD
1000
DSTYLE
1002
{
1070
   147
1040
0.625
1070
    77
1070
     1
1002
}
  0
TEXT
  5
8F67
330
1F
100
AcDbEntity
  8
SOLBET_Wymiary_Opisy
100
AcDbText
 10
31.57255708547814
 20
157.2139734764155
 30
0.0
 40
2.5
  1
Siatka z klejem SOLBET Gabit T
  7
Solbet_2_5
100
AcDbText
  0
TEXT
  5
8F68
330
1F
100
AcDbEntity
  8
SOLBET_Wymiary_Opisy
100
AcDbText
 10
56.73996332952151
 20
152.9319368750262
 30
0.0
 40
2.5
  1
jeżeli wymagane
  7
Solbet_2_5
100
AcDbText
  0
INSERT
  5
8F69
330
1F
100
AcDbEntity
  8
SOLBET_Wymiary_Opisy
100
AcDbBlockReference
  2
_DotSmall
 10
106.2654732797116
 20
176.4691843593671
 30
0.0
 41
2.499999999999195
 42
2.5
 43
2.5
 50
323.192595210197
1001
ACAD
1000
DSTYLE
1002
{
1070
   147
1040
0.625
1070
    77
1070
     1
1002
}
  0
TEXT
  5
8F70
330
1F
100
AcDbEntity
  8
SOLBET_Wymiary_Opisy
100
AcDbText
 10
42.48914336020152
 20
145.4744538602243
 30
0.0
 40
2.5
  1
       Profil zamykający
  7
Solbet_2_5
100
AcDbText
1001
ACAD
1000
ACAD_MTEXT_DEFINED_HEIGHT_BEGIN
1070
    46
1040
7.574024252715844
1000
ACAD_MTEXT_DEFINED_HEIGHT_END
  0
TEXT
  5
8F71
330
1F
100
AcDbEntity
  8
SOLBET_Wymiary_Opisy
100
AcDbText
 10
44.42593723652999
 20
141.2165331724503
 30
0.0
 40
2.5
  1
       folia kubełkowa
  7
Solbet_2_5
100
AcDbText
1001
ACAD
1000
ACAD_MTEXT_DEFINED_HEIGHT_BEGIN
1070
    46
1040
7.574024252715844
1000
ACAD_MTEXT_DEFINED_HEIGHT_END
  0
INSERT
  5
8F72
330
1F
100
AcDbEntity
  8
SOLBET_Wymiary_Opisy
100
AcDbBlockReference
  2
_DotSmall
 10
105.7880280880661
 20
171.574437131355
 30
0.0
 41
2.499999999999947
 42
2.5
 43
2.5
 50
53.03340478573201
1001
ACAD
1000
DSTYLE
1002
{
1070
   147
1040
0.625
1070
    77
1070
     1
1002
}
  0
LWPOLYLINE
  5
8F73
330
1F
100
AcDbEntity
  8
SOLBET_Wymiary_Opisy
100
AcDbPolyline
 90
        3
 70
     0
 43
0.0
 10
105.7880280880661
 20
171.574437131355
 10
82.20933751266148
 20
140.2464725744277
 10
53.59342650666258
 20
140.2464725744277
1001
ACAD
1000
DSTYLE
1002
{
1070
   147
1040
0.625
1070
    77
1070
     1
1002
}
  0
LINE
  5
8F7F
330
1F
100
AcDbEntity
  8
SOLBET_Wymiary_Opisy
100
AcDbLine
 10
276.9155637784729
 20
257.1062946457185
 30
0.0
 11
258.8023418290752
 21
262.7452353996151
 31
0.0
1001
ACAD
1000
DSTYLE
1002
{
1070
   147
1040
0.625
1070
    77
1070
     1
1002
}
  0
LINE
  5
8F80
330
1F
100
AcDbEntity
  8
SOLBET_Wymiary_Opisy
100
AcDbLine
 10
258.8023418290752
 20
262.7452353996151
 30
0.0
 11
209.3412941504266
 21
262.7207448477892
 31
0.0
1001
ACAD
1000
DSTYLE
1002
{
1070
   147
1040
0.625
1070
    77
1070
     1
1002
}
  0
TEXT
  5
8F81
330
1F
100
AcDbEntity
  8
SOLBET_Wymiary_Opisy
100
AcDbText
 10
209.1617033958562
 20
268.0241983958479
 30
0.0
 40
2.5
  1
Siatka z klejem SOLBET Gabit T
  7
Solbet_2_5
100
AcDbText
  0
TEXT
  5
8F82
330
1F
100
AcDbEntity
  8
SOLBET_Wymiary_Opisy
100
AcDbText
 10
234.3291096398996
 20
263.7421617944585
 30
0.0
 40
2.5
  1
jeżeli wymagane
  7
Solbet_2_5
100
AcDbText
  0
INSERT
  5
8F83
330
1F
100
AcDbEntity
  8
SOLBET_Wymiary_Opisy
100
AcDbBlockReference
  2
_DotSmall
 10
276.9155637784729
 20
257.1062946457185
 30
0.0
 41
2.499999999999195
 42
2.5
 43
2.5
 50
323.192595210197
1001
ACAD
1000
DSTYLE
1002
{
1070
   147
1040
0.625
1070
    77
1070
     1
1002
}
  0
INSERT
  5
8F96
330
1F
100
AcDbEntity
  8
SOLBET_Wymiary_Opisy
100
AcDbBlockReference
  2
_DotSmall
 10
274.6653947718085
 20
262.7014493923811
 30
0.0
 41
2.499999999999965
 42
2.5
 43
2.5
 50
313.7759478963462
1001
ACAD
1000
DSTYLE
1002
{
1070
   147
1040
0.625
1070
    77
1070
     1
1002
}
  0
LWPOLYLINE
  5
8F97
330
1F
100
AcDbEntity
  8
SOLBET_Wymiary_Opisy
100
AcDbPolyline
 90
        3
 70
     0
 43
0.0
 10
274.6653947718085
 20
262.7014493923811
 10
264.3132758530364
 20
273.5056144234373
 10
221.2566330384375
 20
273.5056144234373
1001
ACAD
1000
DSTYLE
1002
{
1070
   147
1040
0.625
1070
    77
1070
     1
1002
}
  0
LINE
  5
9125
330
1F
100
AcDbEntity
  8
SOLBET_Zaprawy
100
AcDbLine
 10
111.4416038514184
 20
186.2736713109776
 30
0.0
 11
111.6416038514185
 21
186.2736713109776
 31
0.0
  0
LINE
  5
9126
330
1F
100
AcDbEntity
  8
SOLBET_Zaprawy
100
AcDbLine
 10
111.6416038514185
 20
186.2736713109776
 30
0.0
 11
111.6416038514185
 21
139.8480510002927
 31
0.0
  0
LINE
  5
9127
330
1F
100
AcDbEntity
  8
SOLBET_Zaprawy
100
AcDbLine
 10
111.6416038514183
 20
138.3480510002926
 30
0.0
 11
111.6416038514185
 21
97.27367142729903
 31
0.0
  0
LINE
  5
912C
330
1F
100
AcDbEntity
  8
SOLBET_Grunt
100
AcDbLine
 10
98.91790062882069
 20
130.0534786563565
 30
0.0
 11
99.53015582704711
 21
130.7831359884273
 31
0.0
1001
ACAD
1010
0.0
1020
0.0
1030
0.0
  0
LINE
  5
912D
330
1F
100
AcDbEntity
  8
SOLBET_Grunt
100
AcDbLine
 10
100.6800716999037
 20
120.5006363945616
 30
0.0
 11
101.2923268981301
 21
121.2302937266324
 31
0.0
1001
ACAD
1010
0.0
1020
0.0
1030
0.0
  0
LINE
  5
912E
330
1F
100
AcDbEntity
  8
SOLBET_Grunt
100
AcDbLine
 10
95.12257389646515
 20
102.2245524549551
 30
0.0
 11
95.70743559049629
 21
102.9215634799873
 31
0.0
1001
ACAD
1010
0.0
1020
0.0
1030
0.0
  0
LINE
  5
912F
330
1F
100
AcDbEntity
  8
SOLBET_Grunt
100
AcDbLine
 10
102.4422427709869
 20
110.9477941327665
 30
0.0
 11
103.0544979692133
 21
111.6774514648373
 31
0.0
1001
ACAD
1010
0.0
1020
0.0
1030
0.0
  0
LINE
  5
9130
330
1F
100
AcDbEntity
  8
SOLBET_Grunt
100
AcDbLine
 10
96.85735146335265
 20
92.63906388612141
 30
0.0
 11
97.46960666157907
 21
93.36872121819224
 31
0.0
1001
ACAD
1010
0.0
1020
0.0
1030
0.0
  0
LINE
  5
9131
330
1F
100
AcDbEntity
  8
SOLBET_Grunt
100
AcDbLine
 10
104.2044138420697
 20
101.3949518709713
 30
0.0
 11
104.8166690402961
 21
102.1246092030421
 31
0.0
1001
ACAD
1010
0.0
1020
0.0
1030
0.0
  0
LINE
  5
9132
330
1F
100
AcDbEntity
  8
SOLBET_Grunt
100
AcDbLine
 10
98.61952253443588
 20
83.08622162432639
 30
0.0
 11
99.2317777326623
 21
83.8158789563972
 31
0.0
1001
ACAD
1010
0.0
1020
0.0
1030
0.0
  0
LINE
  5
9133
330
1F
100
AcDbEntity
  8
SOLBET_Grunt
100
AcDbLine
 10
98.91302878343617
 20
130.0539277315519
 30
0.0
 11
99.67212914338212
 21
129.9875150555782
 31
0.0
1001
ACAD
1010
0.0
1020
0.0
1030
0.0
  0
LINE
  5
9134
330
1F
100
AcDbEntity
  8
SOLBET_Grunt
100
AcDbLine
 10
100.6751700822194
 20
120.5010955874429
 30
0.0
 11
101.4342704421653
 21
120.4346829114692
 31
0.0
1001
ACAD
1010
0.0
1020
0.0
1030
0.0
  0
LINE
  5
9135
330
1F
100
AcDbEntity
  8
SOLBET_Grunt
100
AcDbLine
 10
102.4373113810029
 20
110.9482634433339
 30
0.0
 11
103.1964117409488
 21
110.8818507673602
 31
0.0
1001
ACAD
1010
0.0
1020
0.0
1030
0.0
  0
LINE
  5
9136
330
1F
100
AcDbEntity
  8
SOLBET_Grunt
100
AcDbLine
 10
95.12577240050154
 20
102.1892754601211
 30
0.0
 11
95.84934872038138
 21
102.1259707349358
 31
0.0
1001
ACAD
1010
0.0
1020
0.0
1030
0.0
  0
LINE
  5
9137
330
1F
100
AcDbEntity
  8
SOLBET_Grunt
100
AcDbLine
 10
104.1994526797864
 20
101.3954312992249
 30
0.0
 11
104.9585530397323
 21
101.3290186232512
 31
0.0
1001
ACAD
1010
0.0
1020
0.0
1030
0.0
  0
LINE
  5
9138
330
1F
100
AcDbEntity
  8
SOLBET_Grunt
100
AcDbLine
 10
96.85238965921895
 20
92.63955126680045
 30
0.0
 11
97.61149001916487
 21
92.57313859082675
 31
0.0
1001
ACAD
1010
0.0
1020
0.0
1030
0.0
  0
LINE
  5
9139
330
1F
100
AcDbEntity
  8
SOLBET_Grunt
100
AcDbLine
 10
98.61453095800222
 20
83.08671912269147
 30
0.0
 11
99.37363131794814
 21
83.02030644671777
 31
0.0
1001
ACAD
1010
0.0
1020
0.0
1030
0.0
  0
LINE
  5
913A
330
1F
100
AcDbEntity
  8
SOLBET_Grunt
100
AcDbLine
 10
99.37051747832811
 20
83.01041742046804
 30
0.0
 11
99.22367857536073
 21
83.8064881375374
 31
0.0
1001
ACAD
1010
0.0
1020
0.0
1030
0.0
  0
LINE
  5
913B
330
1F
100
AcDbEntity
  8
SOLBET_Grunt
100
AcDbLine
 10
97.60845064271961
 20
92.56326602530043
 30
0.0
 11
97.46161173975224
 21
93.35933674236981
 31
0.0
1001
ACAD
1010
0.0
1020
0.0
1030
0.0
  0
LINE
  5
913C
330
1F
100
AcDbEntity
  8
SOLBET_Grunt
100
AcDbLine
 10
95.84638380711112
 20
102.1161146301328
 30
0.0
 11
95.69954490414374
 21
102.9121853472022
 31
0.0
1001
ACAD
1010
0.0
1020
0.0
1030
0.0
  0
LINE
  5
913D
330
1F
100
AcDbEntity
  8
SOLBET_Grunt
100
AcDbLine
 10
104.9555757260177
 20
101.3191004163148
 30
0.0
 11
104.8087368230503
 21
102.1151711333841
 31
0.0
1001
ACAD
1010
0.0
1020
0.0
1030
0.0
  0
LINE
  5
913E
330
1F
100
AcDbEntity
  8
SOLBET_Grunt
100
AcDbLine
 10
103.1935088904092
 20
110.8719490211472
 30
0.0
 11
103.0466699874418
 21
111.6680197382165
 31
0.0
1001
ACAD
1010
0.0
1020
0.0
1030
0.0
  0
LINE
  5
913F
330
1F
100
AcDbEntity
  8
SOLBET_Grunt
100
AcDbLine
 10
101.4314420548007
 20
120.4247976259795
 30
0.0
 11
101.2846031518334
 21
121.2208683430489
 31
0.0
1001
ACAD
1010
0.0
1020
0.0
1030
0.0
  0
LINE
  5
9140
330
1F
100
AcDbEntity
  8
SOLBET_Grunt
100
AcDbLine
 10
99.66937521919227
 20
129.977646230812
 30
0.0
 11
99.5225363162249
 21
130.7737169478813
 31
0.0
1001
ACAD
1010
0.0
1020
0.0
1030
0.0
  0
LINE
  5
9141
330
1F
100
AcDbEntity
  8
SOLBET_Grunt
100
AcDbLine
 10
96.89626274725469
 20
124.7018500704822
 30
0.0
 11
97.88544663923108
 21
125.73279225623
 31
0.0
1001
ACAD
1010
0.0
1020
0.0
1030
0.0
  0
LINE
  5
9142
330
1F
100
AcDbEntity
  8
SOLBET_Grunt
100
AcDbLine
 10
98.58000808814518
 20
110.2284274448717
 30
0.0
 11
99.56919198012156
 21
111.2593696306196
 31
0.0
1001
ACAD
1010
0.0
1020
0.0
1030
0.0
  0
LINE
  5
9143
330
1F
100
AcDbEntity
  8
SOLBET_Grunt
100
AcDbLine
 10
100.2637534290356
 20
95.75500481926153
 30
0.0
 11
101.252937321012
 21
96.78594700500937
 31
0.0
1001
ACAD
1010
0.0
1020
0.0
1030
0.0
  0
LINE
  5
9144
330
1F
100
AcDbEntity
  8
SOLBET_Grunt
100
AcDbLine
 10
101.3934600385505
 20
95.58024228856714
 30
0.0
 11
101.2531481718156
 21
96.78635822103522
 31
0.0
1001
ACAD
1010
0.0
1020
0.0
1030
0.0
  0
LINE
  5
9145
330
1F
100
AcDbEntity
  8
SOLBET_Grunt
100
AcDbLine
 10
99.70971763773036
 20
110.053633478184
 30
0.0
 11
99.56940577099544
 21
111.2597494106521
 31
0.0
1001
ACAD
1010
0.0
1020
0.0
1030
0.0
  0
LINE
  5
9146
330
1F
100
AcDbEntity
  8
SOLBET_Grunt
100
AcDbLine
 10
98.02597523691019
 20
124.5270246678009
 30
0.0
 11
97.88566337017527
 21
125.7331406002689
 31
0.0
1001
ACAD
1010
0.0
1020
0.0
1030
0.0
  0
LINE
  5
9147
330
1F
100
AcDbEntity
  8
SOLBET_Grunt
100
AcDbLine
 10
96.89644630297152
 20
124.6995042774396
 30
0.0
 11
98.02594246801483
 21
124.5243260449091
 31
0.0
1001
ACAD
1010
0.0
1020
0.0
1030
0.0
  0
LINE
  5
9148
330
1F
100
AcDbEntity
  8
SOLBET_Grunt
100
AcDbLine
 10
98.58016999279449
 20
110.2261095940445
 30
0.0
 11
99.70966615783778
 21
110.050931361514
 31
0.0
1001
ACAD
1010
0.0
1020
0.0
1030
0.0
  0
LINE
  5
9149
330
1F
100
AcDbEntity
  8
SOLBET_Grunt
100
AcDbLine
 10
100.2638936826176
 20
95.75271491064942
 30
0.0
 11
101.3933898476609
 21
95.57753667811898
 31
0.0
1001
ACAD
1010
0.0
1020
0.0
1030
0.0
  0
LINE
  5
914A
330
1F
100
AcDbEntity
  8
SOLBET_Grunt
100
AcDbLine
 10
99.37017002064408
 20
135.7224597112322
 30
0.0
 11
100.2594053768825
 21
136.0638051831741
 31
0.0
1001
ACAD
1010
0.0
1020
0.0
1030
0.0
  0
LINE
  5
914B
330
1F
100
AcDbEntity
  8
SOLBET_Grunt
100
AcDbLine
 10
96.28008973755028
 20
126.5130381220912
 30
0.0
 11
97.16932509378876
 21
126.8543835940331
 31
0.0
1001
ACAD
1010
0.0
1020
0.0
1030
0.0
  0
LINE
  5
914C
330
1F
100
AcDbEntity
  8
SOLBET_Grunt
100
AcDbLine
 10
93.73636572650207
 20
117.5133430561048
 30
0.0
 11
94.07924481069471
 21
117.6449620048922
 31
0.0
1001
ACAD
1010
0.0
1020
0.0
1030
0.0
  0
LINE
  5
914D
330
1F
100
AcDbEntity
  8
SOLBET_Grunt
100
AcDbLine
 10
103.8608337293192
 20
121.3997621962531
 30
0.0
 11
104.7500690855577
 21
121.741107668195
 31
0.0
1001
ACAD
1010
0.0
1020
0.0
1030
0.0
  0
LINE
  5
914E
330
1F
100
AcDbEntity
  8
SOLBET_Grunt
100
AcDbLine
 10
100.7707534462254
 20
112.1903406071121
 30
0.0
 11
101.6599888024639
 21
112.531686079054
 31
0.0
1001
ACAD
1010
0.0
1020
0.0
1030
0.0
  0
LINE
  5
914F
330
1F
100
AcDbEntity
  8
SOLBET_Grunt
100
AcDbLine
 10
97.68067316313159
 20
102.9809190179712
 30
0.0
 11
98.56990851937007
 21
103.3222644899131
 31
0.0
1001
ACAD
1010
0.0
1020
0.0
1030
0.0
  0
LINE
  5
9150
330
1F
100
AcDbEntity
  8
SOLBET_Grunt
100
AcDbLine
 10
105.2614171549007
 20
97.86764309213308
 30
0.0
 11
105.8760760123803
 21
98.10358852133541
 31
0.0
1001
ACAD
1010
0.0
1020
0.0
1030
0.0
  0
LINE
  5
9151
330
1F
100
AcDbEntity
  8
SOLBET_Grunt
100
AcDbLine
 10
102.1713368718069
 20
88.65822150299218
 30
0.0
 11
103.0605722280454
 21
88.99956697493408
 31
0.0
1001
ACAD
1010
0.0
1020
0.0
1030
0.0
  0
LINE
  5
9152
330
1F
100
AcDbEntity
  8
SOLBET_Grunt
100
AcDbLine
 10
99.3675830665693
 20
135.7235337213495
 30
0.0
 11
99.99930969685625
 21
135.2974287289048
 31
0.0
1001
ACAD
1010
0.0
1020
0.0
1030
0.0
  0
LINE
  5
9153
330
1F
100
AcDbEntity
  8
SOLBET_Grunt
100
AcDbLine
 10
96.27748164918717
 20
126.5141354152334
 30
0.0
 11
96.90920827947412
 21
126.0880304227887
 31
0.0
1001
ACAD
1010
0.0
1020
0.0
1030
0.0
  0
LINE
  5
9154
330
1F
100
AcDbEntity
  8
SOLBET_Grunt
100
AcDbLine
 10
103.8582012126305
 20
121.4008755058969
 30
0.0
 11
104.4899278429175
 21
120.9747705134522
 31
0.0
1001
ACAD
1010
0.0
1020
0.0
1030
0.0
  0
LINE
  5
9155
330
1F
100
AcDbEntity
  8
SOLBET_Grunt
100
AcDbLine
 10
93.79227278987015
 20
116.8967319269277
 30
0.0
 11
93.81910686209153
 21
116.8786321166728
 31
0.0
1001
ACAD
1010
0.0
1020
0.0
1030
0.0
  0
LINE
  5
9156
330
1F
100
AcDbEntity
  8
SOLBET_Grunt
100
AcDbLine
 10
100.7680997952479
 20
112.191477199781
 30
0.0
 11
101.3998264255349
 21
111.7653722073363
 31
0.0
1001
ACAD
1010
0.0
1020
0.0
1030
0.0
  0
LINE
  5
9157
330
1F
100
AcDbEntity
  8
SOLBET_Grunt
100
AcDbLine
 10
97.67799837786583
 20
102.9820788936651
 30
0.0
 11
98.30972500815278
 21
102.5559739012203
 31
0.0
1001
ACAD
1010
0.0
1020
0.0
1030
0.0
  0
LINE
  5
9158
330
1F
100
AcDbEntity
  8
SOLBET_Grunt
100
AcDbLine
 10
105.2587179413092
 20
97.86881898432859
 30
0.0
 11
105.8760760123803
 21
97.45240570744972
 31
0.0
1001
ACAD
1010
0.0
1020
0.0
1030
0.0
  0
LINE
  5
9159
330
1F
100
AcDbEntity
  8
SOLBET_Grunt
100
AcDbLine
 10
102.1686165239266
 20
88.6594206782126
 30
0.0
 11
102.8003431542136
 21
88.23331568576788
 31
0.0
1001
ACAD
1010
0.0
1020
0.0
1030
0.0
  0
LINE
  5
915A
330
1F
100
AcDbEntity
  8
SOLBET_Grunt
100
AcDbLine
 10
93.81881258492581
 20
116.8793767222935
 30
0.0
 11
94.07632177084293
 21
117.646826570276
 31
0.0
1001
ACAD
1010
0.0
1020
0.0
1030
0.0
  0
LINE
  5
915B
330
1F
100
AcDbEntity
  8
SOLBET_Grunt
100
AcDbLine
 10
96.90892281593233
 20
126.0887748980826
 30
0.0
 11
97.16643200184945
 21
126.856224746065
 31
0.0
1001
ACAD
1010
0.0
1020
0.0
1030
0.0
  0
LINE
  5
915C
330
1F
100
AcDbEntity
  8
SOLBET_Grunt
100
AcDbLine
 10
99.99903304693885
 20
135.2981730738717
 30
0.0
 11
100.2565422328559
 21
136.0656229218541
 31
0.0
1001
ACAD
1010
0.0
1020
0.0
1030
0.0
  0
LINE
  5
915D
330
1F
100
AcDbEntity
  8
SOLBET_Grunt
100
AcDbLine
 10
98.30941666141871
 20
102.5567232565182
 30
0.0
 11
98.56692584733583
 21
103.3241731045006
 31
0.0
1001
ACAD
1010
0.0
1020
0.0
1030
0.0
  0
LINE
  5
915E
330
1F
100
AcDbEntity
  8
SOLBET_Grunt
100
AcDbLine
 10
101.3995268924252
 20
111.7661214323073
 30
0.0
 11
101.6570360783423
 21
112.5335712802897
 31
0.0
1001
ACAD
1010
0.0
1020
0.0
1030
0.0
  0
LINE
  5
915F
330
1F
100
AcDbEntity
  8
SOLBET_Grunt
100
AcDbLine
 10
104.4896371234317
 20
120.9755196080964
 30
0.0
 11
104.7471463093488
 21
121.7429694560788
 31
0.0
1001
ACAD
1010
0.0
1020
0.0
1030
0.0
  0
LINE
  5
9160
330
1F
100
AcDbEntity
  8
SOLBET_Grunt
100
AcDbLine
 10
102.8000207379116
 20
88.23406979074277
 30
0.0
 11
103.0575299238287
 21
89.0015196387252
 31
0.0
1001
ACAD
1010
0.0
1020
0.0
1030
0.0
  0
LINE
  5
9162
330
1F
100
AcDbEntity
  8
SOLBET_Grunt
100
AcDbLine
 10
94.81218081868291
 20
134.2967361794521
 30
0.0
 11
94.81218081868291
 21
134.2967361794521
 31
0.0
1001
ACAD
1010
0.0
1020
0.0
1030
0.0
  0
LINE
  5
9163
330
1F
100
AcDbEntity
  8
SOLBET_Grunt
100
AcDbLine
 10
94.65775065615298
 20
130.0689842357942
 30
0.0
 11
94.65775065615298
 21
130.0689842357942
 31
0.0
1001
ACAD
1010
0.0
1020
0.0
1030
0.0
  0
LINE
  5
9164
330
1F
100
AcDbEntity
  8
SOLBET_Grunt
100
AcDbLine
 10
101.4083942286911
 20
135.2489352352294
 30
0.0
 11
101.4083942286911
 21
135.2489352352294
 31
0.0
1001
ACAD
1010
0.0
1020
0.0
1030
0.0
  0
LINE
  5
9165
330
1F
100
AcDbEntity
  8
SOLBET_Grunt
100
AcDbLine
 10
94.5033204936235
 20
125.8412322921367
 30
0.0
 11
94.5033204936235
 21
125.8412322921367
 31
0.0
1001
ACAD
1010
0.0
1020
0.0
1030
0.0
  0
LINE
  5
9166
330
1F
100
AcDbEntity
  8
SOLBET_Grunt
100
AcDbLine
 10
101.2539640661616
 20
131.0211832915719
 30
0.0
 11
101.2539640661616
 21
131.0211832915719
 31
0.0
1001
ACAD
1010
0.0
1020
0.0
1030
0.0
  0
LINE
  5
9167
330
1F
100
AcDbEntity
  8
SOLBET_Grunt
100
AcDbLine
 10
94.34889033109403
 20
121.613480348479
 30
0.0
 11
94.34889033109403
 21
121.613480348479
 31
0.0
1001
ACAD
1010
0.0
1020
0.0
1030
0.0
  0
LINE
  5
9168
330
1F
100
AcDbEntity
  8
SOLBET_Grunt
100
AcDbLine
 10
101.0995339036321
 20
126.7934313479142
 30
0.0
 11
101.0995339036321
 21
126.7934313479142
 31
0.0
1001
ACAD
1010
0.0
1020
0.0
1030
0.0
  0
LINE
  5
9169
330
1F
100
AcDbEntity
  8
SOLBET_Grunt
100
AcDbLine
 10
94.19446016856454
 20
117.3857284048212
 30
0.0
 11
94.19446016856454
 21
117.3857284048212
 31
0.0
1001
ACAD
1010
0.0
1020
0.0
1030
0.0
  0
LINE
  5
916A
330
1F
100
AcDbEntity
  8
SOLBET_Grunt
100
AcDbLine
 10
100.9451037411027
 20
122.5656794042564
 30
0.0
 11
100.9451037411027
 21
122.5656794042564
 31
0.0
1001
ACAD
1010
0.0
1020
0.0
1030
0.0
  0
LINE
  5
916B
330
1F
100
AcDbEntity
  8
SOLBET_Grunt
100
AcDbLine
 10
100.790673578573
 20
118.3379274605989
 30
0.0
 11
100.790673578573
 21
118.3379274605989
 31
0.0
1001
ACAD
1010
0.0
1020
0.0
1030
0.0
  0
LINE
  5
916C
330
1F
100
AcDbEntity
  8
SOLBET_Grunt
100
AcDbLine
 10
100.6362434160432
 20
114.1101755169412
 30
0.0
 11
100.6362434160432
 21
114.1101755169412
 31
0.0
1001
ACAD
1010
0.0
1020
0.0
1030
0.0
  0
LINE
  5
916D
330
1F
100
AcDbEntity
  8
SOLBET_Grunt
100
AcDbLine
 10
100.4818132535138
 20
109.8824235732837
 30
0.0
 11
100.4818132535138
 21
109.8824235732837
 31
0.0
1001
ACAD
1010
0.0
1020
0.0
1030
0.0
  0
LINE
  5
916E
330
1F
100
AcDbEntity
  8
SOLBET_Grunt
100
AcDbLine
 10
100.3273830909841
 20
105.6546716296258
 30
0.0
 11
100.3273830909841
 21
105.6546716296258
 31
0.0
1001
ACAD
1010
0.0
1020
0.0
1030
0.0
  0
LINE
  5
916F
330
1F
100
AcDbEntity
  8
SOLBET_Grunt
100
AcDbLine
 10
100.1729529284546
 20
101.4269196859682
 30
0.0
 11
100.1729529284546
 21
101.4269196859682
 31
0.0
1001
ACAD
1010
0.0
1020
0.0
1030
0.0
  0
LINE
  5
9170
330
1F
100
AcDbEntity
  8
SOLBET_Grunt
100
AcDbLine
 10
100.0185227659249
 20
97.19916774231059
 30
0.0
 11
100.0185227659249
 21
97.19916774231059
 31
0.0
1001
ACAD
1010
0.0
1020
0.0
1030
0.0
  0
LINE
  5
9171
330
1F
100
AcDbEntity
  8
SOLBET_Grunt
100
AcDbLine
 10
99.8640926033952
 20
92.97141579865302
 30
0.0
 11
99.8640926033952
 21
92.97141579865302
 31
0.0
1001
ACAD
1010
0.0
1020
0.0
1030
0.0
  0
LINE
  5
9172
330
1F
100
AcDbEntity
  8
SOLBET_Grunt
100
AcDbLine
 10
99.70966244086572
 20
88.74366385499511
 30
0.0
 11
99.70966244086572
 21
88.74366385499511
 31
0.0
1001
ACAD
1010
0.0
1020
0.0
1030
0.0
  0
LINE
  5
9173
330
1F
100
AcDbEntity
  8
SOLBET_Grunt
100
AcDbLine
 10
99.55523227833602
 20
84.51591191133742
 30
0.0
 11
99.55523227833602
 21
84.51591191133742
 31
0.0
1001
ACAD
1010
0.0
1020
0.0
1030
0.0
  0
LINE
  5
9174
330
1F
100
AcDbEntity
  8
SOLBET_Grunt
100
AcDbLine
 10
99.40080211580653
 20
80.28815996767994
 30
0.0
 11
99.40080211580653
 21
80.28815996767994
 31
0.0
1001
ACAD
1010
0.0
1020
0.0
1030
0.0
  0
LINE
  5
9175
330
1F
100
AcDbEntity
  8
SOLBET_Grunt
100
AcDbLine
 10
99.70503368659207
 20
137.9724983235187
 30
0.0
 11
99.70503368659207
 21
137.9724983235187
 31
0.0
1001
ACAD
1010
0.0
1020
0.0
1030
0.0
  0
LINE
  5
9176
330
1F
100
AcDbEntity
  8
SOLBET_Grunt
100
AcDbLine
 10
96.36405056107651
 20
132.9634695826126
 30
0.0
 11
96.36405056107651
 21
132.9634695826126
 31
0.0
1001
ACAD
1010
0.0
1020
0.0
1030
0.0
  0
LINE
  5
9177
330
1F
100
AcDbEntity
  8
SOLBET_Grunt
100
AcDbLine
 10
99.54336637028701
 20
133.3820344495143
 30
0.0
 11
99.54336637028701
 21
133.3820344495143
 31
0.0
1001
ACAD
1010
0.0
1020
0.0
1030
0.0
  0
LINE
  5
9178
330
1F
100
AcDbEntity
  8
SOLBET_Grunt
100
AcDbLine
 10
104.3532619707559
 20
134.0152692184506
 30
0.0
 11
104.3532619707559
 21
134.0152692184506
 31
0.0
1001
ACAD
1010
0.0
1020
0.0
1030
0.0
  0
LINE
  5
9179
330
1F
100
AcDbEntity
  8
SOLBET_Grunt
100
AcDbLine
 10
93.02306743556119
 20
127.9544408417067
 30
0.0
 11
93.02306743556119
 21
127.9544408417067
 31
0.0
1001
ACAD
1010
0.0
1020
0.0
1030
0.0
  0
LINE
  5
917A
330
1F
100
AcDbEntity
  8
SOLBET_Grunt
100
AcDbLine
 10
96.20238324477169
 20
128.3730057086083
 30
0.0
 11
96.20238324477169
 21
128.3730057086083
 31
0.0
1001
ACAD
1010
0.0
1020
0.0
1030
0.0
  0
LINE
  5
917B
330
1F
100
AcDbEntity
  8
SOLBET_Grunt
100
AcDbLine
 10
101.0122788452406
 20
129.0062404775447
 30
0.0
 11
101.0122788452406
 21
129.0062404775447
 31
0.0
1001
ACAD
1010
0.0
1020
0.0
1030
0.0
  0
LINE
  5
917C
330
1F
100
AcDbEntity
  8
SOLBET_Grunt
100
AcDbLine
 10
97.67129571972532
 20
123.9972117366387
 30
0.0
 11
97.67129571972532
 21
123.9972117366387
 31
0.0
1001
ACAD
1010
0.0
1020
0.0
1030
0.0
  0
LINE
  5
917D
330
1F
100
AcDbEntity
  8
SOLBET_Grunt
100
AcDbLine
 10
105.6919855037533
 20
125.0531555790797
 30
0.0
 11
105.6919855037533
 21
125.0531555790797
 31
0.0
1001
ACAD
1010
0.0
1020
0.0
1030
0.0
  0
LINE
  5
917E
330
1F
100
AcDbEntity
  8
SOLBET_Grunt
100
AcDbLine
 10
94.33031259421023
 20
118.9881829957328
 30
0.0
 11
94.33031259421023
 21
118.9881829957328
 31
0.0
1001
ACAD
1010
0.0
1020
0.0
1030
0.0
  0
LINE
  5
917F
330
1F
100
AcDbEntity
  8
SOLBET_Grunt
100
AcDbLine
 10
102.3510023782382
 20
120.0441268381738
 30
0.0
 11
102.3510023782382
 21
120.0441268381738
 31
0.0
1001
ACAD
1010
0.0
1020
0.0
1030
0.0
  0
LINE
  5
9180
330
1F
100
AcDbEntity
  8
SOLBET_Grunt
100
AcDbLine
 10
105.5303181874487
 20
120.4626917050754
 30
0.0
 11
105.5303181874487
 21
120.4626917050754
 31
0.0
1001
ACAD
1010
0.0
1020
0.0
1030
0.0
  0
LINE
  5
9181
330
1F
100
AcDbEntity
  8
SOLBET_Grunt
100
AcDbLine
 10
99.01001925272295
 20
115.0350980972678
 30
0.0
 11
99.01001925272295
 21
115.0350980972678
 31
0.0
1001
ACAD
1010
0.0
1020
0.0
1030
0.0
  0
LINE
  5
9182
330
1F
100
AcDbEntity
  8
SOLBET_Grunt
100
AcDbLine
 10
102.1893350619334
 20
115.4536629641694
 30
0.0
 11
102.1893350619334
 21
115.4536629641694
 31
0.0
1001
ACAD
1010
0.0
1020
0.0
1030
0.0
  0
LINE
  5
9183
330
1F
100
AcDbEntity
  8
SOLBET_Grunt
100
AcDbLine
 10
95.66903612720739
 20
110.0260693563617
 30
0.0
 11
95.66903612720739
 21
110.0260693563617
 31
0.0
1001
ACAD
1010
0.0
1020
0.0
1030
0.0
  0
LINE
  5
9184
330
1F
100
AcDbEntity
  8
SOLBET_Grunt
100
AcDbLine
 10
98.84835193641789
 20
110.4446342232634
 30
0.0
 11
98.84835193641789
 21
110.4446342232634
 31
0.0
1001
ACAD
1010
0.0
1020
0.0
1030
0.0
  0
LINE
  5
9185
330
1F
100
AcDbEntity
  8
SOLBET_Grunt
100
AcDbLine
 10
103.6582475368868
 20
111.0778689921997
 30
0.0
 11
103.6582475368868
 21
111.0778689921997
 31
0.0
1001
ACAD
1010
0.0
1020
0.0
1030
0.0
  0
LINE
  5
9186
330
1F
100
AcDbEntity
  8
SOLBET_Grunt
100
AcDbLine
 10
95.50736881090257
 20
105.4356054823574
 30
0.0
 11
95.50736881090257
 21
105.4356054823574
 31
0.0
1001
ACAD
1010
0.0
1020
0.0
1030
0.0
  0
LINE
  5
9187
330
1F
100
AcDbEntity
  8
SOLBET_Grunt
100
AcDbLine
 10
100.3172644113715
 20
106.0688402512938
 30
0.0
 11
100.3172644113715
 21
106.0688402512938
 31
0.0
1001
ACAD
1010
0.0
1020
0.0
1030
0.0
  0
LINE
  5
9188
330
1F
100
AcDbEntity
  8
SOLBET_Grunt
100
AcDbLine
 10
96.97628128585666
 20
101.0598115103878
 30
0.0
 11
96.97628128585666
 21
101.0598115103878
 31
0.0
1001
ACAD
1010
0.0
1020
0.0
1030
0.0
  0
LINE
  5
9189
330
1F
100
AcDbEntity
  8
SOLBET_Grunt
100
AcDbLine
 10
104.9969710698847
 20
102.1157553528288
 30
0.0
 11
104.9969710698847
 21
102.1157553528288
 31
0.0
1001
ACAD
1010
0.0
1020
0.0
1030
0.0
  0
LINE
  5
918A
330
1F
100
AcDbEntity
  8
SOLBET_Grunt
100
AcDbLine
 10
101.6559879443691
 20
97.1067266119229
 30
0.0
 11
101.6559879443691
 21
97.1067266119229
 31
0.0
1001
ACAD
1010
0.0
1020
0.0
1030
0.0
  0
LINE
  5
918B
330
1F
100
AcDbEntity
  8
SOLBET_Grunt
100
AcDbLine
 10
104.8353037535796
 20
97.52529147882455
 30
0.0
 11
104.8353037535796
 21
97.52529147882455
 31
0.0
1001
ACAD
1010
0.0
1020
0.0
1030
0.0
  0
LINE
  5
918C
330
1F
100
AcDbEntity
  8
SOLBET_Grunt
100
AcDbLine
 10
98.31500481885383
 20
92.09769787101686
 30
0.0
 11
98.31500481885383
 21
92.09769787101686
 31
0.0
1001
ACAD
1010
0.0
1020
0.0
1030
0.0
  0
LINE
  5
918D
330
1F
100
AcDbEntity
  8
SOLBET_Grunt
100
AcDbLine
 10
101.4943206280643
 20
92.51626273791851
 30
0.0
 11
101.4943206280643
 21
92.51626273791851
 31
0.0
1001
ACAD
1010
0.0
1020
0.0
1030
0.0
  0
LINE
  5
918E
330
1F
100
AcDbEntity
  8
SOLBET_Grunt
100
AcDbLine
 10
98.15333750254877
 20
87.50723399701257
 30
0.0
 11
98.15333750254877
 21
87.50723399701257
 31
0.0
1001
ACAD
1010
0.0
1020
0.0
1030
0.0
  0
LINE
  5
918F
330
1F
100
AcDbEntity
  8
SOLBET_Grunt
100
AcDbLine
 10
102.9632331030177
 20
88.14046876594892
 30
0.0
 11
102.9632331030177
 21
88.14046876594892
 31
0.0
1001
ACAD
1010
0.0
1020
0.0
1030
0.0
  0
LINE
  5
9190
330
1F
100
AcDbEntity
  8
SOLBET_Grunt
100
AcDbLine
 10
99.6222499775024
 20
83.13144002504293
 30
0.0
 11
99.6222499775024
 21
83.13144002504293
 31
0.0
1001
ACAD
1010
0.0
1020
0.0
1030
0.0
  0
LINE
  5
9191
330
1F
100
AcDbEntity
  8
SOLBET_Grunt
100
AcDbLine
 10
104.9729007201815
 20
133.7861484817405
 30
0.0
 11
104.9729007201815
 21
133.7861484817405
 31
0.0
1001
ACAD
1010
0.0
1020
0.0
1030
0.0
  0
LINE
  5
9192
330
1F
100
AcDbEntity
  8
SOLBET_Grunt
100
AcDbLine
 10
98.1933709618379
 20
134.0725856813743
 30
0.0
 11
98.1933709618379
 21
134.0725856813743
 31
0.0
1001
ACAD
1010
0.0
1020
0.0
1030
0.0
  0
LINE
  5
9193
330
1F
100
AcDbEntity
  8
SOLBET_Grunt
100
AcDbLine
 10
102.4998000629816
 20
127.2964881790932
 30
0.0
 11
102.4998000629816
 21
127.2964881790932
 31
0.0
1001
ACAD
1010
0.0
1020
0.0
1030
0.0
  0
LINE
  5
9194
330
1F
100
AcDbEntity
  8
SOLBET_Grunt
100
AcDbLine
 10
105.1775679034376
 20
125.590561922592
 30
0.0
 11
105.1775679034376
 21
125.590561922592
 31
0.0
1001
ACAD
1010
0.0
1020
0.0
1030
0.0
  0
LINE
  5
9195
330
1F
100
AcDbEntity
  8
SOLBET_Grunt
100
AcDbLine
 10
95.72027030463846
 20
127.5829253787268
 30
0.0
 11
95.72027030463846
 21
127.5829253787268
 31
0.0
1001
ACAD
1010
0.0
1020
0.0
1030
0.0
  0
LINE
  5
9196
330
1F
100
AcDbEntity
  8
SOLBET_Grunt
100
AcDbLine
 10
98.39803814509446
 20
125.8769991222256
 30
0.0
 11
98.39803814509446
 21
125.8769991222256
 31
0.0
1001
ACAD
1010
0.0
1020
0.0
1030
0.0
  0
LINE
  5
9197
330
1F
100
AcDbEntity
  8
SOLBET_Grunt
100
AcDbLine
 10
99.97314404897316
 20
120.8409464015757
 30
0.0
 11
99.97314404897316
 21
120.8409464015757
 31
0.0
1001
ACAD
1010
0.0
1020
0.0
1030
0.0
  0
LINE
  5
9198
330
1F
100
AcDbEntity
  8
SOLBET_Grunt
100
AcDbLine
 10
104.2795731501169
 20
114.0648488992945
 30
0.0
 11
104.2795731501169
 21
114.0648488992945
 31
0.0
1001
ACAD
1010
0.0
1020
0.0
1030
0.0
  0
LINE
  5
9199
330
1F
100
AcDbEntity
  8
SOLBET_Grunt
100
AcDbLine
 10
97.50004339177326
 20
114.3512860989282
 30
0.0
 11
97.50004339177326
 21
114.3512860989282
 31
0.0
1001
ACAD
1010
0.0
1020
0.0
1030
0.0
  0
LINE
  5
919A
330
1F
100
AcDbEntity
  8
SOLBET_Grunt
100
AcDbLine
 10
100.1778112322292
 20
112.645359842427
 30
0.0
 11
100.1778112322292
 21
112.645359842427
 31
0.0
1001
ACAD
1010
0.0
1020
0.0
1030
0.0
  0
LINE
  5
919B
330
1F
100
AcDbEntity
  8
SOLBET_Grunt
100
AcDbLine
 10
101.7529171361082
 20
107.609307121777
 30
0.0
 11
101.7529171361082
 21
107.609307121777
 31
0.0
1001
ACAD
1010
0.0
1020
0.0
1030
0.0
  0
LINE
  5
919C
330
1F
100
AcDbEntity
  8
SOLBET_Grunt
100
AcDbLine
 10
94.97338737776454
 20
107.8957443214108
 30
0.0
 11
94.97338737776454
 21
107.8957443214108
 31
0.0
1001
ACAD
1010
0.0
1020
0.0
1030
0.0
  0
LINE
  5
919D
330
1F
100
AcDbEntity
  8
SOLBET_Grunt
100
AcDbLine
 10
106.0593462372519
 20
100.833209619496
 30
0.0
 11
106.0593462372519
 21
100.833209619496
 31
0.0
1001
ACAD
1010
0.0
1020
0.0
1030
0.0
  0
LINE
  5
919E
330
1F
100
AcDbEntity
  8
SOLBET_Grunt
100
AcDbLine
 10
99.27981647890852
 20
101.1196468191297
 30
0.0
 11
99.27981647890852
 21
101.1196468191297
 31
0.0
1001
ACAD
1010
0.0
1020
0.0
1030
0.0
  0
LINE
  5
919F
330
1F
100
AcDbEntity
  8
SOLBET_Grunt
100
AcDbLine
 10
101.9575843193645
 20
99.41372056262853
 30
0.0
 11
101.9575843193645
 21
99.41372056262853
 31
0.0
1001
ACAD
1010
0.0
1020
0.0
1030
0.0
  0
LINE
  5
91A0
330
1F
100
AcDbEntity
  8
SOLBET_Grunt
100
AcDbLine
 10
103.5326902232432
 20
94.37766784197847
 30
0.0
 11
103.5326902232432
 21
94.37766784197847
 31
0.0
1001
ACAD
1010
0.0
1020
0.0
1030
0.0
  0
LINE
  5
91A1
330
1F
100
AcDbEntity
  8
SOLBET_Grunt
100
AcDbLine
 10
96.75316046489957
 20
94.66410504161222
 30
0.0
 11
96.75316046489957
 21
94.66410504161222
 31
0.0
1001
ACAD
1010
0.0
1020
0.0
1030
0.0
  0
LINE
  5
91A2
330
1F
100
AcDbEntity
  8
SOLBET_Grunt
100
AcDbLine
 10
101.0595895660435
 20
87.88800753933088
 30
0.0
 11
101.0595895660435
 21
87.88800753933088
 31
0.0
1001
ACAD
1010
0.0
1020
0.0
1030
0.0
  0
LINE
  5
91A3
330
1F
100
AcDbEntity
  8
SOLBET_Grunt
100
AcDbLine
 10
103.7373574064995
 20
86.18208128282972
 30
0.0
 11
103.7373574064995
 21
86.18208128282972
 31
0.0
1001
ACAD
1010
0.0
1020
0.0
1030
0.0
  0
LINE
  5
91A4
330
1F
100
AcDbEntity
  8
SOLBET_Grunt
100
AcDbLine
 10
96.95782764815589
 20
86.46851848246354
 30
0.0
 11
96.95782764815589
 21
86.46851848246354
 31
0.0
1001
ACAD
1010
0.0
1020
0.0
1030
0.0
  0
LINE
  5
91A5
330
1F
100
AcDbEntity
  8
SOLBET_Grunt
100
AcDbLine
 10
98.53293355203483
 20
81.43246576181352
 30
0.0
 11
98.53293355203483
 21
81.43246576181352
 31
0.0
1001
ACAD
1010
0.0
1020
0.0
1030
0.0
  0
LINE
  5
91A6
330
1F
100
AcDbEntity
  8
SOLBET_Grunt
100
AcDbLine
 10
100.6084310662154
 20
138.2048154084143
 30
0.0
 11
100.6084310662154
 21
138.2048154084143
 31
0.0
1001
ACAD
1010
0.0
1020
0.0
1030
0.0
  0
LINE
  5
91A7
330
1F
100
AcDbEntity
  8
SOLBET_Grunt
100
AcDbLine
 10
105.4586837541544
 20
133.760377668594
 30
0.0
 11
105.4586837541544
 21
133.760377668594
 31
0.0
1001
ACAD
1010
0.0
1020
0.0
1030
0.0
  0
LINE
  5
91A8
330
1F
100
AcDbEntity
  8
SOLBET_Grunt
100
AcDbLine
 10
93.20197199691461
 20
136.9334908567477
 30
0.0
 11
93.20197199691461
 21
136.9334908567477
 31
0.0
1001
ACAD
1010
0.0
1020
0.0
1030
0.0
  0
LINE
  5
91A9
330
1F
100
AcDbEntity
  8
SOLBET_Grunt
100
AcDbLine
 10
98.05222468485363
 20
132.4890531169273
 30
0.0
 11
98.05222468485363
 21
132.4890531169273
 31
0.0
1001
ACAD
1010
0.0
1020
0.0
1030
0.0
  0
LINE
  5
91AA
330
1F
100
AcDbEntity
  8
SOLBET_Grunt
100
AcDbLine
 10
104.9343399853078
 20
126.1827563239389
 30
0.0
 11
104.9343399853078
 21
126.1827563239389
 31
0.0
1001
ACAD
1010
0.0
1020
0.0
1030
0.0
  0
LINE
  5
91AB
330
1F
100
AcDbEntity
  8
SOLBET_Grunt
100
AcDbLine
 10
97.52788091600701
 20
124.9114317722722
 30
0.0
 11
97.52788091600701
 21
124.9114317722722
 31
0.0
1001
ACAD
1010
0.0
1020
0.0
1030
0.0
  0
LINE
  5
91AC
330
1F
100
AcDbEntity
  8
SOLBET_Grunt
100
AcDbLine
 10
100.5709931236908
 20
122.1229331903386
 30
0.0
 11
100.5709931236908
 21
122.1229331903386
 31
0.0
1001
ACAD
1010
0.0
1020
0.0
1030
0.0
  0
LINE
  5
91AD
330
1F
100
AcDbEntity
  8
SOLBET_Grunt
100
AcDbLine
 10
105.4212458116299
 20
117.6784954505182
 30
0.0
 11
105.4212458116299
 21
117.6784954505182
 31
0.0
1001
ACAD
1010
0.0
1020
0.0
1030
0.0
  0
LINE
  5
91AE
330
1F
100
AcDbEntity
  8
SOLBET_Grunt
100
AcDbLine
 10
98.01478674232885
 20
116.4071708988515
 30
0.0
 11
98.01478674232885
 21
116.4071708988515
 31
0.0
1001
ACAD
1010
0.0
1020
0.0
1030
0.0
  0
LINE
  5
91AF
330
1F
100
AcDbEntity
  8
SOLBET_Grunt
100
AcDbLine
 10
104.896902042783
 20
110.1008741058631
 30
0.0
 11
104.896902042783
 21
110.1008741058631
 31
0.0
1001
ACAD
1010
0.0
1020
0.0
1030
0.0
  0
LINE
  5
91B0
330
1F
100
AcDbEntity
  8
SOLBET_Grunt
100
AcDbLine
 10
97.49044297348223
 20
108.8295495541965
 30
0.0
 11
97.49044297348223
 21
108.8295495541965
 31
0.0
1001
ACAD
1010
0.0
1020
0.0
1030
0.0
  0
LINE
  5
91B1
330
1F
100
AcDbEntity
  8
SOLBET_Grunt
100
AcDbLine
 10
100.5335551811661
 20
106.0410509722628
 30
0.0
 11
100.5335551811661
 21
106.0410509722628
 31
0.0
1001
ACAD
1010
0.0
1020
0.0
1030
0.0
  0
LINE
  5
91B2
330
1F
100
AcDbEntity
  8
SOLBET_Grunt
100
AcDbLine
 10
105.3838078691051
 20
101.5966132324425
 30
0.0
 11
105.3838078691051
 21
101.5966132324425
 31
0.0
1001
ACAD
1010
0.0
1020
0.0
1030
0.0
  0
LINE
  5
91B3
330
1F
100
AcDbEntity
  8
SOLBET_Grunt
100
AcDbLine
 10
97.97734879980385
 20
100.3252886807759
 30
0.0
 11
97.97734879980385
 21
100.3252886807759
 31
0.0
1001
ACAD
1010
0.0
1020
0.0
1030
0.0
  0
LINE
  5
91B4
330
1F
100
AcDbEntity
  8
SOLBET_Grunt
100
AcDbLine
 10
97.453005030957
 20
92.747667336121
 30
0.0
 11
97.453005030957
 21
92.747667336121
 31
0.0
1001
ACAD
1010
0.0
1020
0.0
1030
0.0
  0
LINE
  5
91B5
330
1F
100
AcDbEntity
  8
SOLBET_Grunt
100
AcDbLine
 10
100.4961172386408
 20
89.95916875418734
 30
0.0
 11
100.4961172386408
 21
89.95916875418734
 31
0.0
1001
ACAD
1010
0.0
1020
0.0
1030
0.0
  0
LINE
  5
91B6
330
1F
100
AcDbEntity
  8
SOLBET_Grunt
100
AcDbLine
 10
97.93991085727908
 20
84.24340646270016
 30
0.0
 11
97.93991085727908
 21
84.24340646270016
 31
0.0
1001
ACAD
1010
0.0
1020
0.0
1030
0.0
  0
LEADER
  5
91B9
330
1F
100
AcDbEntity
  8
SOLBET_Wymiary_Opisy
100
AcDbLeader
  3
Solbet$7
 73
     0
 40
3.25
 41
33.75
 76
     2
 10
111.6416038514183
 20
121.2421075371173
 30
0.0
 10
81.51242670731221
 20
113.7952538947492
 30
0.0
340
91BA
213
1.177601578005123
223
-0.1753245211093599
233
0.0
1001
ACAD
1000
DSTYLE
1002
{
1070
   147
1040
0.625
1070
    77
1070
     1
1002
}
  0
MTEXT
  5
91BA
102
{ACAD_REACTORS
330
91B9
102
}
330
1F
100
AcDbEntity
  8
SOLBET_Wymiary_Opisy
100
AcDbMText
 10
79.70982512930709
 20
117.8455784158586
 30
0.0
 40
2.5
 41
0.0
 71
     3
 72
     1
  1
Klej SOLBET Gabit T-1
  7
Solbet_2_5
 73
     1
 44
1.0
1001
ACAD
1000
MTEXTBEGIN
1070
    73
1070
     1
1070
    44
1040
1.0
1070
    74
1070
     0
1000
MTEXTEND
  0
LEADER
  5
9448
330
1F
100
AcDbEntity
  8
SOLBET_Wymiary_Opisy
100
AcDbLeader
  3
Solbet$7
 73
     0
 75
     1
 40
5.0
 41
4.5
 76
     3
 10
101.1533324242511
 20
95.36281312457914
 30
0.0
 10
88.57218660774742
 20
86.43420546371737
 30
0.0
 10
86.07218660774742
 20
86.43420546371737
 30
0.0
213
-0.8791749024171622
223
-0.1753245211093599
233
0.0
1001
ACAD
1000
DSTYLE
1002
{
1070
   341
1005
790F
1070
   147
1040
0.625
1070
    77
1070
     1
1002
}
  0
MTEXT
  5
9449
102
{ACAD_REACTORS
330
9448
102
}
330
1F
100
AcDbEntity
  8
SOLBET_Wymiary_Opisy
100
AcDbMText
 10
86.32636151016459
 20
92.23452998482674
 30
0.0
 40
5.0
 41
0.0
 71
     3
 72
     1
  1
D
  7
Solbet_5
 73
     1
 44
1.0
1001
ACAD
1000
MTEXTBEGIN
1070
    73
1070
     1
1070
    44
1040
1.0
1070
    74
1070
     0
1000
MTEXTEND
  0
CIRCLE
  5
944F
330
1F
100
AcDbEntity
  8
SOLBET_Wymiary_Opisy
100
AcDbCircle
 10
107.8812727690608
 20
95.36281312457914
 30
0.0
 40
6.72794034480946
  0
MTEXT
  5
9476
102
{ACAD_XDICTIONARY
360
97D3
102
}
330
1F
100
AcDbEntity
  8
SOLBET_Wymiary_Opisy
100
AcDbMText
 10
29.84126272260528
 20
108.094628379801
 30
0.0
 40
5.0
 41
30.77919768571883
 71
     1
 72
     5
  1
\pxqc;D\P(5 : 1)
  7
Solbet_5
 73
     1
 44
1.0
1001
ACAD
1000
MTEXTBEGIN
1070
    73
1070
     1
1070
    44
1040
1.0
1070
    74
1070
     0
1000
MTEXTEND
1000
ACAD_MTEXT_DEFINED_HEIGHT_BEGIN
1070
    46
1040
23.42535011036716
1000
ACAD_MTEXT_DEFINED_HEIGHT_END
  0
LINE
  5
9477
330
1F
100
AcDbEntity
  8
SOLBET_Beton
100
AcDbLine
 10
104.641603851418
 20
83.75574317677587
 30
0.0
 11
184.6426823755132
 21
83.75574317677587
 31
0.0
1001
ASO_SCHRAFF
1005
7822
1070
     1
1002
{
1070
     1
1005
7822
1002
}
1002
{
1070
     2
1005
0
1002
}
1002
{
1070
     4
1000
BRASS
1040
0.2
1040
45.0
1070
     0
1000
T__SCHR
1070
   256
1000
VONLAYER
1040
50.0
1070
     1
1002
}
  0
LINE
  5
9478
330
1F
100
AcDbEntity
  8
SOLBET_Beton
100
AcDbLine
 10
184.6426823755132
 20
83.75574317677587
 30
0.0
 11
184.6426823755132
 21
96.25574317677587
 31
0.0
1001
ASO_SCHRAFF
1005
7822
1070
     1
1002
{
1070
     1
1005
7822
1002
}
1002
{
1070
     2
1005
0
1002
}
1002
{
1070
     4
1000
BRASS
1040
0.2
1040
45.0
1070
     0
1000
T__SCHR
1070
   256
1000
VONLAYER
1040
50.0
1070
     1
1002
}
  0
LINE
  5
9479
330
1F
100
AcDbEntity
  8
SOLBET_Beton
100
AcDbLine
 10
184.6426823755132
 20
96.25574317677587
 30
0.0
 11
106.004421548198
 21
96.25574317677584
 31
0.0
1001
ASO_SCHRAFF
1005
7822
1070
     1
1002
{
1070
     1
1005
7822
1002
}
1002
{
1070
     2
1005
0
1002
}
1002
{
1070
     4
1000
BRASS
1040
0.2
1040
45.0
1070
     0
1000
T__SCHR
1070
   256
1000
VONLAYER
1040
50.0
1070
     1
1002
}
  0
LINE
  5
9494
330
1F
100
AcDbEntity
  8
SOLBET_Emulsje_Folie
100
AcDbLine
 10
105.7763116556552
 20
96.60746084480582
 30
0.0
 11
103.4751693137736
 21
94.30631850292417
 31
0.0
1001
ASO_SCHRAFF
1005
0
1070
     1
1002
{
1070
     1
1005
0
1002
}
1002
{
1070
     2
1005
0
1002
}
1002
{
1070
     4
1000
BRASS
1040
0.2
1040
45.0
1070
     0
1000
T__SCHR
1070
   256
1000
VONLAYER
1040
50.0
1070
     1
1002
}
  0
LINE
  5
9495
330
1F
100
AcDbEntity
  8
SOLBET_Emulsje_Folie
  6
DASHED2
370
    30
100
AcDbLine
 10
105.7478192316061
 20
96.72746084480587
 30
0.0
 11
104.7998533615548
 21
95.77949497475447
 31
0.0
1001
ASO_SCHRAFF
1005
0
1070
     1
1002
{
1070
     1
1005
0
1002
}
1002
{
1070
     2
1005
0
1002
}
1002
{
1070
     4
1000
BRASS
1040
0.2
1040
45.0
1070
     0
1000
T__SCHR
1070
   256
1000
VONLAYER
1040
50.0
1070
     1
1002
}
  0
LINE
  5
9496
330
1F
100
AcDbEntity
  8
SOLBET_Emulsje_Folie
100
AcDbLine
 10
105.7193268075568
 20
96.84746084480583
 30
0.0
 11
103.2651693137736
 21
94.39330335102255
 31
0.0
1001
ASO_SCHRAFF
1005
0
1070
     1
1002
{
1070
     1
1005
0
1002
}
1002
{
1070
     2
1005
0
1002
}
1002
{
1070
     4
1000
BRASS
1040
0.2
1040
45.0
1070
     0
1000
T__SCHR
1070
   256
1000
VONLAYER
1040
50.0
1070
     1
1002
}
  0
LINE
  5
9497
330
1F
100
AcDbEntity
  8
SOLBET_Emulsje_Folie
100
AcDbLine
 10
105.640978948823
 20
97.02367142729906
 30
0.0
 11
103.0851693137736
 21
94.4678617922497
 31
0.0
1001
ASO_SCHRAFF
1005
0
1070
     1
1002
{
1070
     1
1005
0
1002
}
1002
{
1070
     2
1005
0
1002
}
1002
{
1070
     4
1000
BRASS
1040
0.2
1040
45.0
1070
     0
1000
T__SCHR
1070
   256
1000
VONLAYER
1040
50.0
1070
     1
1002
}
  0
LINE
  5
9498
330
1F
100
AcDbEntity
  8
SOLBET_Emulsje_Folie
100
AcDbLine
 10
111.6832686234397
 20
97.02367142729906
 30
0.0
 11
105.640978948823
 21
97.02367142729906
 31
0.0
  0
LWPOLYLINE
  5
9499
330
1F
100
AcDbEntity
  8
SOLBET_Emulsje_Folie
100
AcDbPolyline
 90
        2
 70
     0
 43
0.0
 10
127.1042370018442
 20
96.60746084480582
 10
105.7763116556552
 20
96.60746084480582
  0
LWPOLYLINE
  5
949A
330
1F
100
AcDbEntity
  8
SOLBET_Emulsje_Folie
100
AcDbPolyline
 90
        2
 70
     0
 43
0.0
 10
105.7193268075568
 20
96.84746084480583
 10
127.1042370018442
 20
96.84746084480583
  0
LINE
  5
949B
330
1F
100
AcDbEntity
  8
SOLBET_Emulsje_Folie
  6
DASHED2
370
    30
100
AcDbLine
 10
105.7478192316061
 20
96.72746084480582
 30
0.0
 11
127.1042370018442
 21
96.72746084480582
 31
0.0
  0
LINE
  5
949C
330
1F
100
AcDbEntity
  8
SOLBET_Emulsje_Folie
100
AcDbLine
 10
127.1042370018442
 20
96.84746084480583
 30
0.0
 11
127.1042370018442
 21
96.60746084480582
 31
0.0
  0
LINE
  5
949D
330
1F
100
AcDbEntity
  8
SOLBET_Emulsje_Folie
100
AcDbLine
 10
103.4751693137736
 20
94.30631850292417
 30
0.0
 11
103.4751693137736
 21
91.60631850292418
 31
0.0
  0
LINE
  5
949E
330
1F
100
AcDbEntity
  8
SOLBET_Emulsje_Folie
100
AcDbLine
 10
103.2651693137736
 20
91.60631850292418
 30
0.0
 11
103.2651693137736
 21
94.39330335102255
 31
0.0
  0
LINE
  5
949F
330
1F
100
AcDbEntity
  8
SOLBET_Emulsje_Folie
100
AcDbLine
 10
103.0851693137736
 20
91.60631850292418
 30
0.0
 11
103.0851693137736
 21
94.46786179224966
 31
0.0
  0
LINE
  5
94A0
330
1F
100
AcDbEntity
  8
SOLBET_Emulsje_Folie
  6
DASHED2
370
    30
100
AcDbLine
 10
103.3701693137736
 20
91.60631850292418
 30
0.0
 11
103.3701693137736
 21
92.75443065565292
 31
0.0
  0
LINE
  5
94A1
330
1F
100
AcDbEntity
  8
SOLBET_Emulsje_Folie
  6
DASHED2
370
    30
100
AcDbLine
 10
103.3701693137736
 20
94.3498109269734
 30
0.0
 11
104.2040238900242
 21
95.18366550322392
 31
0.0
  0
LINE
  5
94BD
330
1F
100
AcDbEntity
  8
SOLBET_Emulsje_Folie
100
AcDbLine
 10
105.8973133283009
 20
96.43147766935332
 30
0.0
 11
103.6851693137737
 21
94.21933365482587
 31
0.0
1001
ASO_SCHRAFF
1005
0
1070
     1
1002
{
1070
     1
1005
0
1002
}
1002
{
1070
     2
1005
0
1002
}
1002
{
1070
     4
1000
BRASS
1040
0.2
1040
45.0
1070
     0
1000
T__SCHR
1070
   256
1000
VONLAYER
1040
50.0
1070
     1
1002
}
  0
LINE
  5
94BE
330
1F
100
AcDbEntity
  8
SOLBET_Emulsje_Folie
100
AcDbLine
 10
103.6851693137737
 20
94.21933365482587
 30
0.0
 11
103.6851693137737
 21
91.60631850292418
 31
0.0
  0
LINE
  5
94BF
330
1F
100
AcDbEntity
  8
SOLBET_Emulsje_Folie
100
AcDbLine
 10
105.8973133283011
 20
96.43147766935328
 30
0.0
 11
184.6426823755132
 21
96.4314776693534
 31
0.0
  0
LINE
  5
94C0
330
1F
100
AcDbEntity
  8
SOLBET_Emulsje_Folie
100
AcDbLine
 10
103.4751693137736
 20
91.60631850292418
 30
0.0
 11
103.2651693137736
 21
91.60631850292418
 31
0.0
  0
LINE
  5
94C2
330
1F
100
AcDbEntity
  8
SOLBET_Beton
100
AcDbLine
 10
106.004421548198
 20
96.25574317677587
 30
0.0
 11
103.8851693137742
 21
94.13649094235145
 31
0.0
1001
ASO_SCHRAFF
1005
0
1070
     1
1002
{
1070
     1
1005
0
1002
}
1002
{
1070
     2
1005
0
1002
}
1002
{
1070
     4
1000
BRASS
1040
0.2
1040
45.0
1070
     0
1000
T__SCHR
1070
   256
1000
VONLAYER
1040
50.0
1070
     1
1002
}
  0
LINE
  5
94C3
330
1F
100
AcDbEntity
  8
SOLBET_Beton
100
AcDbLine
 10
103.8851693137742
 20
94.1364909423512
 30
0.0
 11
103.885169313774
 21
83.75574317677587
 31
0.0
1001
ASO_SCHRAFF
1005
7822
1070
     1
1002
{
1070
     1
1005
7822
1002
}
1002
{
1070
     2
1005
0
1002
}
1002
{
1070
     4
1000
BRASS
1040
0.2
1040
45.0
1070
     0
1000
T__SCHR
1070
   256
1000
VONLAYER
1040
50.0
1070
     1
1002
}
  0
LINE
  5
94D1
330
1F
100
AcDbEntity
  8
SOLBET_Beton
100
AcDbLine
 10
103.8851693137742
 20
90.11259359099069
 30
0.0
 11
110.0283188995579
 21
96.25574317677376
 31
0.0
1001
ACAD
1010
0.0
1020
0.0
1030
0.0
  0
LINE
  5
94D2
330
1F
100
AcDbEntity
  8
SOLBET_Beton
100
AcDbLine
 10
104.2635109903619
 20
83.75574317677587
 30
0.0
 11
116.7635109903601
 21
96.25574317677399
 31
0.0
1001
ACAD
1010
0.0
1020
0.0
1030
0.0
  0
LINE
  5
94D3
330
1F
100
AcDbEntity
  8
SOLBET_Beton
100
AcDbLine
 10
110.9987030811637
 20
83.75574317677598
 30
0.0
 11
123.4987030811621
 21
96.25574317677422
 31
0.0
1001
ACAD
1010
0.0
1020
0.0
1030
0.0
  0
LINE
  5
94D4
330
1F
100
AcDbEntity
  8
SOLBET_Beton
100
AcDbLine
 10
117.7338951719655
 20
83.75574317677598
 30
0.0
 11
130.2338951719641
 21
96.25574317677445
 31
0.0
1001
ACAD
1010
0.0
1020
0.0
1030
0.0
  0
LINE
  5
94D5
330
1F
100
AcDbEntity
  8
SOLBET_Beton
100
AcDbLine
 10
124.4690872627675
 20
83.75574317677592
 30
0.0
 11
136.9690872627663
 21
96.25574317677468
 31
0.0
1001
ACAD
1010
0.0
1020
0.0
1030
0.0
  0
LINE
  5
94D6
330
1F
100
AcDbEntity
  8
SOLBET_Beton
100
AcDbLine
 10
131.2042793535693
 20
83.75574317677592
 30
0.0
 11
143.7042793535681
 21
96.25574317677484
 31
0.0
1001
ACAD
1010
0.0
1020
0.0
1030
0.0
  0
LINE
  5
94D7
330
1F
100
AcDbEntity
  8
SOLBET_Beton
100
AcDbLine
 10
137.9394714443713
 20
83.7557431767758
 30
0.0
 11
150.4394714443703
 21
96.25574317677497
 31
0.0
1001
ACAD
1010
0.0
1020
0.0
1030
0.0
  0
LINE
  5
94D8
330
1F
100
AcDbEntity
  8
SOLBET_Beton
100
AcDbLine
 10
144.674663535173
 20
83.75574317677598
 30
0.0
 11
157.1746635351721
 21
96.25574317677507
 31
0.0
1001
ACAD
1010
0.0
1020
0.0
1030
0.0
  0
LINE
  5
94D9
330
1F
100
AcDbEntity
  8
SOLBET_Beton
100
AcDbLine
 10
151.4098556259748
 20
83.75574317677598
 30
0.0
 11
163.9098556259744
 21
96.25574317677553
 31
0.0
1001
ACAD
1010
0.0
1020
0.0
1030
0.0
  0
LINE
  5
94DA
330
1F
100
AcDbEntity
  8
SOLBET_Beton
100
AcDbLine
 10
158.1450477167768
 20
83.75574317677598
 30
0.0
 11
170.6450477167766
 21
96.25574317677553
 31
0.0
1001
ACAD
1010
0.0
1020
0.0
1030
0.0
  0
LINE
  5
94DB
330
1F
100
AcDbEntity
  8
SOLBET_Beton
100
AcDbLine
 10
164.8802398075786
 20
83.75574317677598
 30
0.0
 11
177.3802398075784
 21
96.25574317677575
 31
0.0
1001
ACAD
1010
0.0
1020
0.0
1030
0.0
  0
LINE
  5
94DC
330
1F
100
AcDbEntity
  8
SOLBET_Beton
100
AcDbLine
 10
171.6154318983806
 20
83.75574317677587
 30
0.0
 11
184.1154318983806
 21
96.25574317677598
 31
0.0
1001
ACAD
1010
0.0
1020
0.0
1030
0.0
  0
LINE
  5
94DD
330
1F
100
AcDbEntity
  8
SOLBET_Beton
100
AcDbLine
 10
178.3506239891824
 20
83.75574317677598
 30
0.0
 11
184.642682375513
 21
90.04780156310658
 31
0.0
1001
ACAD
1010
0.0
1020
0.0
1030
0.0
  0
LINE
  5
94DE
330
1F
100
AcDbEntity
  8
SOLBET_Beton
100
AcDbLine
 10
104.6664032962053
 20
94.26142216422309
 30
0.0
 11
105.8608134761991
 21
95.45583234421687
 31
0.0
1001
ACAD
1010
0.0
1020
0.0
1030
0.0
  0
LINE
  5
94DF
330
1F
100
AcDbEntity
  8
SOLBET_Beton
100
AcDbLine
 10
104.6416038514182
 20
87.50143062863413
 30
0.0
 11
104.6664032962053
 21
87.52623007342121
 31
0.0
1001
ACAD
1010
0.0
1020
0.0
1030
0.0
  0
LINE
  5
94E0
330
1F
100
AcDbEntity
  8
SOLBET_Beton
100
AcDbLine
 10
103.8851693137742
 20
86.74499609099029
 30
0.0
 11
104.625358444777
 21
87.48518522199313
 31
0.0
1001
ACAD
1010
0.0
1020
0.0
1030
0.0
  0
LINE
  5
94E1
330
1F
100
AcDbEntity
  8
SOLBET_Beton
100
AcDbLine
 10
108.0339993416064
 20
90.89382611882212
 30
0.0
 11
109.717797364307
 21
92.57762414152258
 31
0.0
1001
ACAD
1010
0.0
1020
0.0
1030
0.0
  0
LINE
  5
94E2
330
1F
100
AcDbEntity
  8
SOLBET_Beton
100
AcDbLine
 10
110.5596963756573
 20
93.41952315287281
 30
0.0
 11
112.2434943983578
 21
95.10332117557329
 31
0.0
1001
ACAD
1010
0.0
1020
0.0
1030
0.0
  0
LINE
  5
94E3
330
1F
100
AcDbEntity
  8
SOLBET_Beton
100
AcDbLine
 10
113.0853934097081
 20
95.9452201869235
 30
0.0
 11
113.3959163995582
 21
96.25574317677376
 31
0.0
1001
ACAD
1010
0.0
1020
0.0
1030
0.0
  0
LINE
  5
94E4
330
1F
100
AcDbEntity
  8
SOLBET_Beton
100
AcDbLine
 10
107.631108490362
 20
83.75574317677598
 30
0.0
 11
108.0339993416062
 21
84.1586340280202
 31
0.0
1001
ACAD
1010
0.0
1020
0.0
1030
0.0
  0
LINE
  5
94E5
330
1F
100
AcDbEntity
  8
SOLBET_Beton
100
AcDbLine
 10
108.8758983529565
 20
85.00053303937042
 30
0.0
 11
110.559696375657
 21
86.68433106207089
 31
0.0
1001
ACAD
1010
0.0
1020
0.0
1030
0.0
  0
LINE
  5
94E6
330
1F
100
AcDbEntity
  8
SOLBET_Beton
100
AcDbLine
 10
111.4015953870073
 20
87.52623007342112
 30
0.0
 11
113.0853934097078
 21
89.2100280961216
 31
0.0
1001
ACAD
1010
0.0
1020
0.0
1030
0.0
  0
LINE
  5
94E7
330
1F
100
AcDbEntity
  8
SOLBET_Beton
100
AcDbLine
 10
113.9272924210581
 20
90.05192710747181
 30
0.0
 11
115.6110904437587
 21
91.73572513017228
 31
0.0
1001
ACAD
1010
0.0
1020
0.0
1030
0.0
  0
LINE
  5
94E8
330
1F
100
AcDbEntity
  8
SOLBET_Beton
100
AcDbLine
 10
116.452989455109
 20
92.57762414152251
 30
0.0
 11
118.1367874778095
 21
94.26142216422297
 31
0.0
1001
ACAD
1010
0.0
1020
0.0
1030
0.0
  0
LINE
  5
94E9
330
1F
100
AcDbEntity
  8
SOLBET_Beton
100
AcDbLine
 10
118.9786864891598
 20
95.1033211755732
 30
0.0
 11
120.1311084903605
 21
96.25574317677397
 31
0.0
1001
ACAD
1010
0.0
1020
0.0
1030
0.0
  0
LINE
  5
94EA
330
1F
100
AcDbEntity
  8
SOLBET_Beton
100
AcDbLine
 10
114.769191432408
 20
84.15863402802017
 30
0.0
 11
116.4529894551085
 21
85.84243205072064
 31
0.0
1001
ACAD
1010
0.0
1020
0.0
1030
0.0
  0
LINE
  5
94EB
330
1F
100
AcDbEntity
  8
SOLBET_Beton
100
AcDbLine
 10
117.2948884664588
 20
86.68433106207087
 30
0.0
 11
118.9786864891593
 21
88.36812908477133
 31
0.0
1001
ACAD
1010
0.0
1020
0.0
1030
0.0
  0
LINE
  5
94EC
330
1F
100
AcDbEntity
  8
SOLBET_Beton
100
AcDbLine
 10
119.8205855005096
 20
89.21002809612156
 30
0.0
 11
121.5043835232102
 21
90.89382611882204
 31
0.0
1001
ACAD
1010
0.0
1020
0.0
1030
0.0
  0
LINE
  5
94ED
330
1F
100
AcDbEntity
  8
SOLBET_Beton
100
AcDbLine
 10
122.3462825345605
 20
91.73572513017225
 30
0.0
 11
124.030080557261
 21
93.41952315287272
 31
0.0
1001
ACAD
1010
0.0
1020
0.0
1030
0.0
  0
LINE
  5
94EE
330
1F
100
AcDbEntity
  8
SOLBET_Beton
100
AcDbLine
 10
124.8719795686113
 20
94.26142216422295
 30
0.0
 11
126.5557775913119
 21
95.94522018692343
 31
0.0
1001
ACAD
1010
0.0
1020
0.0
1030
0.0
  0
LINE
  5
94EF
330
1F
100
AcDbEntity
  8
SOLBET_Beton
100
AcDbLine
 10
121.1014926719656
 20
83.75574317677598
 30
0.0
 11
122.34628253456
 21
85.0005330393704
 31
0.0
1001
ACAD
1010
0.0
1020
0.0
1030
0.0
  0
LINE
  5
94F0
330
1F
100
AcDbEntity
  8
SOLBET_Beton
100
AcDbLine
 10
123.1881815459103
 20
85.84243205072061
 30
0.0
 11
124.8719795686108
 21
87.52623007342108
 31
0.0
1001
ACAD
1010
0.0
1020
0.0
1030
0.0
  0
LINE
  5
94F1
330
1F
100
AcDbEntity
  8
SOLBET_Beton
100
AcDbLine
 10
125.7138785799611
 20
88.36812908477131
 30
0.0
 11
127.3976766026617
 21
90.05192710747179
 31
0.0
1001
ACAD
1010
0.0
1020
0.0
1030
0.0
  0
LINE
  5
94F2
330
1F
100
AcDbEntity
  8
SOLBET_Beton
100
AcDbLine
 10
128.239575614012
 20
90.893826118822
 30
0.0
 11
129.9233736367125
 21
92.57762414152248
 31
0.0
1001
ACAD
1010
0.0
1020
0.0
1030
0.0
  0
LINE
  5
94F3
330
1F
100
AcDbEntity
  8
SOLBET_Beton
100
AcDbLine
 10
130.7652726480628
 20
93.4195231528727
 30
0.0
 11
132.4490706707633
 21
95.10332117557316
 31
0.0
1001
ACAD
1010
0.0
1020
0.0
1030
0.0
  0
LINE
  5
94F4
330
1F
100
AcDbEntity
  8
SOLBET_Beton
100
AcDbLine
 10
133.2909696821136
 20
95.94522018692339
 30
0.0
 11
133.6014926719647
 21
96.2557431767745
 31
0.0
1001
ACAD
1010
0.0
1020
0.0
1030
0.0
  0
LINE
  5
94F5
330
1F
100
AcDbEntity
  8
SOLBET_Beton
100
AcDbLine
 10
127.8366847627674
 20
83.75574317677587
 30
0.0
 11
128.2395756140117
 21
84.15863402802026
 31
0.0
1001
ACAD
1010
0.0
1020
0.0
1030
0.0
  0
LINE
  5
94F6
330
1F
100
AcDbEntity
  8
SOLBET_Beton
100
AcDbLine
 10
129.081474625362
 20
85.00053303937049
 30
0.0
 11
130.7652726480626
 21
86.68433106207094
 31
0.0
1001
ACAD
1010
0.0
1020
0.0
1030
0.0
  0
LINE
  5
94F7
330
1F
100
AcDbEntity
  8
SOLBET_Beton
100
AcDbLine
 10
131.6071716594128
 20
87.52623007342117
 30
0.0
 11
133.2909696821134
 21
89.21002809612165
 31
0.0
1001
ACAD
1010
0.0
1020
0.0
1030
0.0
  0
LINE
  5
94F8
330
1F
100
AcDbEntity
  8
SOLBET_Beton
100
AcDbLine
 10
134.1328686934637
 20
90.05192710747186
 30
0.0
 11
135.8166667161642
 21
91.73572513017234
 31
0.0
1001
ACAD
1010
0.0
1020
0.0
1030
0.0
  0
LINE
  5
94F9
330
1F
100
AcDbEntity
  8
SOLBET_Beton
100
AcDbLine
 10
136.6585657275145
 20
92.57762414152256
 30
0.0
 11
138.3423637502151
 21
94.26142216422304
 31
0.0
1001
ACAD
1010
0.0
1020
0.0
1030
0.0
  0
LINE
  5
94FA
330
1F
100
AcDbEntity
  8
SOLBET_Beton
100
AcDbLine
 10
139.1842627615654
 20
95.10332117557325
 30
0.0
 11
140.3366847627669
 21
96.25574317677489
 31
0.0
1001
ACAD
1010
0.0
1020
0.0
1030
0.0
  0
LINE
  5
94FB
330
1F
100
AcDbEntity
  8
SOLBET_Beton
100
AcDbLine
 10
134.9747677048137
 20
84.15863402802044
 30
0.0
 11
136.6585657275143
 21
85.84243205072089
 31
0.0
1001
ACAD
1010
0.0
1020
0.0
1030
0.0
  0
LINE
  5
94FC
330
1F
100
AcDbEntity
  8
SOLBET_Beton
100
AcDbLine
 10
137.5004647388646
 20
86.68433106207112
 30
0.0
 11
139.1842627615651
 21
88.3681290847716
 31
0.0
1001
ACAD
1010
0.0
1020
0.0
1030
0.0
  0
LINE
  5
94FD
330
1F
100
AcDbEntity
  8
SOLBET_Beton
100
AcDbLine
 10
140.0261617729154
 20
89.21002809612181
 30
0.0
 11
141.709959795616
 21
90.89382611882228
 31
0.0
1001
ACAD
1010
0.0
1020
0.0
1030
0.0
  0
LINE
  5
94FE
330
1F
100
AcDbEntity
  8
SOLBET_Beton
100
AcDbLine
 10
142.5518588069662
 20
91.73572513017251
 30
0.0
 11
144.2356568296668
 21
93.41952315287299
 31
0.0
1001
ACAD
1010
0.0
1020
0.0
1030
0.0
  0
LINE
  5
94FF
330
1F
100
AcDbEntity
  8
SOLBET_Beton
100
AcDbLine
 10
145.0775558410171
 20
94.2614221642232
 30
0.0
 11
146.7613538637176
 21
95.94522018692368
 31
0.0
1001
ACAD
1010
0.0
1020
0.0
1030
0.0
  0
LINE
  5
9500
330
1F
100
AcDbEntity
  8
SOLBET_Beton
100
AcDbLine
 10
141.3070689443714
 20
83.75574317677598
 30
0.0
 11
142.5518588069658
 21
85.0005330393704
 31
0.0
1001
ACAD
1010
0.0
1020
0.0
1030
0.0
  0
LINE
  5
9501
330
1F
100
AcDbEntity
  8
SOLBET_Beton
100
AcDbLine
 10
143.3937578183161
 20
85.84243205072061
 30
0.0
 11
145.0775558410166
 21
87.52623007342108
 31
0.0
1001
ACAD
1010
0.0
1020
0.0
1030
0.0
  0
LINE
  5
9502
330
1F
100
AcDbEntity
  8
SOLBET_Beton
100
AcDbLine
 10
145.9194548523669
 20
88.36812908477131
 30
0.0
 11
147.6032528750675
 21
90.05192710747179
 31
0.0
1001
ACAD
1010
0.0
1020
0.0
1030
0.0
  0
LINE
  5
9503
330
1F
100
AcDbEntity
  8
SOLBET_Beton
100
AcDbLine
 10
148.4451518864177
 20
90.893826118822
 30
0.0
 11
150.1289499091183
 21
92.57762414152248
 31
0.0
1001
ACAD
1010
0.0
1020
0.0
1030
0.0
  0
LINE
  5
9504
330
1F
100
AcDbEntity
  8
SOLBET_Beton
100
AcDbLine
 10
150.9708489204686
 20
93.4195231528727
 30
0.0
 11
152.6546469431691
 21
95.10332117557316
 31
0.0
1001
ACAD
1010
0.0
1020
0.0
1030
0.0
  0
LINE
  5
9505
330
1F
100
AcDbEntity
  8
SOLBET_Beton
100
AcDbLine
 10
153.4965459545194
 20
95.94522018692339
 30
0.0
 11
153.8070689443709
 21
96.25574317677489
 31
0.0
1001
ACAD
1010
0.0
1020
0.0
1030
0.0
  0
LINE
  5
9506
330
1F
100
AcDbEntity
  8
SOLBET_Beton
100
AcDbLine
 10
148.0422610351731
 20
83.75574317677598
 30
0.0
 11
148.4451518864173
 21
84.15863402802012
 31
0.0
1001
ACAD
1010
0.0
1020
0.0
1030
0.0
  0
LINE
  5
9507
330
1F
100
AcDbEntity
  8
SOLBET_Beton
100
AcDbLine
 10
149.2870508977676
 20
85.00053303937034
 30
0.0
 11
150.9708489204681
 21
86.6843310620708
 31
0.0
1001
ACAD
1010
0.0
1020
0.0
1030
0.0
  0
LINE
  5
9508
330
1F
100
AcDbEntity
  8
SOLBET_Beton
100
AcDbLine
 10
151.8127479318184
 20
87.52623007342103
 30
0.0
 11
153.496545954519
 21
89.21002809612151
 31
0.0
1001
ACAD
1010
0.0
1020
0.0
1030
0.0
  0
LINE
  5
9509
330
1F
100
AcDbEntity
  8
SOLBET_Beton
100
AcDbLine
 10
154.3384449658692
 20
90.05192710747172
 30
0.0
 11
156.0222429885698
 21
91.73572513017219
 31
0.0
1001
ACAD
1010
0.0
1020
0.0
1030
0.0
  0
LINE
  5
950A
330
1F
100
AcDbEntity
  8
SOLBET_Beton
100
AcDbLine
 10
156.8641419999201
 20
92.57762414152242
 30
0.0
 11
158.5479400226206
 21
94.2614221642229
 31
0.0
1001
ACAD
1010
0.0
1020
0.0
1030
0.0
  0
LINE
  5
950B
330
1F
100
AcDbEntity
  8
SOLBET_Beton
100
AcDbLine
 10
159.3898390339709
 20
95.10332117557311
 30
0.0
 11
160.5422610351731
 21
96.25574317677539
 31
0.0
1001
ACAD
1010
0.0
1020
0.0
1030
0.0
  0
LINE
  5
950C
330
1F
100
AcDbEntity
  8
SOLBET_Beton
100
AcDbLine
 10
155.1803439772191
 20
84.15863402802017
 30
0.0
 11
156.8641419999196
 21
85.84243205072064
 31
0.0
1001
ACAD
1010
0.0
1020
0.0
1030
0.0
  0
LINE
  5
950D
330
1F
100
AcDbEntity
  8
SOLBET_Beton
100
AcDbLine
 10
157.7060410112699
 20
86.68433106207087
 30
0.0
 11
159.3898390339704
 21
88.36812908477133
 31
0.0
1001
ACAD
1010
0.0
1020
0.0
1030
0.0
  0
LINE
  5
950E
330
1F
100
AcDbEntity
  8
SOLBET_Beton
100
AcDbLine
 10
160.2317380453207
 20
89.21002809612156
 30
0.0
 11
161.9155360680213
 21
90.89382611882204
 31
0.0
1001
ACAD
1010
0.0
1020
0.0
1030
0.0
  0
LINE
  5
950F
330
1F
100
AcDbEntity
  8
SOLBET_Beton
100
AcDbLine
 10
162.7574350793716
 20
91.73572513017225
 30
0.0
 11
164.4412331020721
 21
93.41952315287272
 31
0.0
1001
ACAD
1010
0.0
1020
0.0
1030
0.0
  0
LINE
  5
9510
330
1F
100
AcDbEntity
  8
SOLBET_Beton
100
AcDbLine
 10
165.2831321134224
 20
94.26142216422295
 30
0.0
 11
166.966930136123
 21
95.94522018692343
 31
0.0
1001
ACAD
1010
0.0
1020
0.0
1030
0.0
  0
LINE
  5
9511
330
1F
100
AcDbEntity
  8
SOLBET_Beton
100
AcDbLine
 10
161.5126452167767
 20
83.75574317677587
 30
0.0
 11
162.7574350793713
 21
85.00053303937054
 31
0.0
1001
ACAD
1010
0.0
1020
0.0
1030
0.0
  0
LINE
  5
9512
330
1F
100
AcDbEntity
  8
SOLBET_Beton
100
AcDbLine
 10
163.5993340907216
 20
85.84243205072075
 30
0.0
 11
165.2831321134222
 21
87.52623007342123
 31
0.0
1001
ACAD
1010
0.0
1020
0.0
1030
0.0
  0
LINE
  5
9513
330
1F
100
AcDbEntity
  8
SOLBET_Beton
100
AcDbLine
 10
166.1250311247725
 20
88.36812908477146
 30
0.0
 11
167.808829147473
 21
90.05192710747193
 31
0.0
1001
ACAD
1010
0.0
1020
0.0
1030
0.0
  0
LINE
  5
9514
330
1F
100
AcDbEntity
  8
SOLBET_Beton
100
AcDbLine
 10
168.6507281588233
 20
90.89382611882214
 30
0.0
 11
170.3345261815238
 21
92.57762414152262
 31
0.0
1001
ACAD
1010
0.0
1020
0.0
1030
0.0
  0
LINE
  5
9515
330
1F
100
AcDbEntity
  8
SOLBET_Beton
100
AcDbLine
 10
171.1764251928741
 20
93.41952315287285
 30
0.0
 11
172.8602232155747
 21
95.1033211755733
 31
0.0
1001
ACAD
1010
0.0
1020
0.0
1030
0.0
  0
LINE
  5
9516
330
1F
100
AcDbEntity
  8
SOLBET_Beton
100
AcDbLine
 10
173.702122226925
 20
95.94522018692353
 30
0.0
 11
174.0126452167774
 21
96.25574317677587
 31
0.0
1001
ACAD
1010
0.0
1020
0.0
1030
0.0
  0
LINE
  5
9517
330
1F
100
AcDbEntity
  8
SOLBET_Beton
100
AcDbLine
 10
168.2478373075789
 20
83.75574317677608
 30
0.0
 11
168.6507281588231
 21
84.15863402802022
 31
0.0
1001
ACAD
1010
0.0
1020
0.0
1030
0.0
  0
LINE
  5
9518
330
1F
100
AcDbEntity
  8
SOLBET_Beton
100
AcDbLine
 10
169.4926271701733
 20
85.00053303937045
 30
0.0
 11
171.1764251928739
 21
86.68433106207093
 31
0.0
1001
ACAD
1010
0.0
1020
0.0
1030
0.0
  0
LINE
  5
9519
330
1F
100
AcDbEntity
  8
SOLBET_Beton
100
AcDbLine
 10
172.0183242042242
 20
87.52623007342114
 30
0.0
 11
173.7021222269247
 21
89.21002809612161
 31
0.0
1001
ACAD
1010
0.0
1020
0.0
1030
0.0
  0
LINE
  5
951A
330
1F
100
AcDbEntity
  8
SOLBET_Beton
100
AcDbLine
 10
174.544021238275
 20
90.05192710747184
 30
0.0
 11
176.2278192609756
 21
91.73572513017232
 31
0.0
1001
ACAD
1010
0.0
1020
0.0
1030
0.0
  0
LINE
  5
951B
330
1F
100
AcDbEntity
  8
SOLBET_Beton
100
AcDbLine
 10
177.0697182723258
 20
92.57762414152253
 30
0.0
 11
178.7535162950264
 21
94.261422164223
 31
0.0
1001
ACAD
1010
0.0
1020
0.0
1030
0.0
  0
LINE
  5
951C
330
1F
100
AcDbEntity
  8
SOLBET_Beton
100
AcDbLine
 10
179.5954153063767
 20
95.10332117557323
 30
0.0
 11
180.7478373075791
 21
96.25574317677568
 31
0.0
1001
ACAD
1010
0.0
1020
0.0
1030
0.0
  0
LINE
  5
951D
330
1F
100
AcDbEntity
  8
SOLBET_Beton
100
AcDbLine
 10
175.3859202496248
 20
84.15863402802017
 30
0.0
 11
177.0697182723254
 21
85.84243205072064
 31
0.0
1001
ACAD
1010
0.0
1020
0.0
1030
0.0
  0
LINE
  5
951E
330
1F
100
AcDbEntity
  8
SOLBET_Beton
100
AcDbLine
 10
177.9116172836757
 20
86.68433106207087
 30
0.0
 11
179.5954153063762
 21
88.36812908477133
 31
0.0
1001
ACAD
1010
0.0
1020
0.0
1030
0.0
  0
LINE
  5
951F
330
1F
100
AcDbEntity
  8
SOLBET_Beton
100
AcDbLine
 10
180.4373143177265
 20
89.21002809612156
 30
0.0
 11
182.1211123404271
 21
90.89382611882204
 31
0.0
1001
ACAD
1010
0.0
1020
0.0
1030
0.0
  0
LINE
  5
9520
330
1F
100
AcDbEntity
  8
SOLBET_Beton
100
AcDbLine
 10
182.9630113517773
 20
91.73572513017225
 30
0.0
 11
184.6426823755132
 21
93.41539615390823
 31
0.0
1001
ACAD
1010
0.0
1020
0.0
1030
0.0
  0
LINE
  5
9521
330
1F
100
AcDbEntity
  8
SOLBET_Beton
100
AcDbLine
 10
181.7182214891825
 20
83.75574317677598
 30
0.0
 11
182.9630113517769
 21
85.0005330393704
 31
0.0
1001
ACAD
1010
0.0
1020
0.0
1030
0.0
  0
LINE
  5
9522
330
1F
100
AcDbEntity
  8
SOLBET_Beton
100
AcDbLine
 10
183.8049103631272
 20
85.84243205072061
 30
0.0
 11
184.642682375513
 21
86.68020406310651
 31
0.0
1001
ACAD
1010
0.0
1020
0.0
1030
0.0
  0
LINE
  5
9524
330
1F
100
AcDbEntity
  8
SOLBET_Beton
100
AcDbLine
 10
105.2466170682883
 20
88.10644384550432
 30
0.0
 11
107.1921003302561
 21
90.0519271074719
 31
0.0
1001
ACAD
1010
0.0
1020
0.0
1030
0.0
  0
LINE
  5
9526
330
1F
100
AcDbEntity
  8
SOLBET_Beton
100
AcDbLine
 10
104.2332423410293
 20
93.82826120904722
 30
0.0
 11
103.8851693137744
 21
93.48018818179202
 31
0.0
  0
LINE
  5
9529
330
1F
100
AcDbEntity
  8
SOLBET_Beton
100
AcDbLine
 10
106.2718007089549
 20
95.86681957697264
 30
0.0
 11
106.660724308758
 21
96.25574317677587
 31
0.0
  0
INSERT
  5
9539
330
1F
100
AcDbEntity
  8
SOLBET_Wymiary_Opisy
 62
     1
100
AcDbBlockReference
  2
_DotSmall
 10
121.641603851418
 20
106.8500365668503
 30
0.0
 41
2.49999999999996
 42
2.5
 43
2.5
 50
17.64542470249763
1001
ACAD
1000
DSTYLE
1002
{
1070
   147
1040
0.625
1070
    77
1070
     1
1002
}
  0
TEXT
  5
953B
330
1F
100
AcDbEntity
  8
SOLBET_Wymiary_Opisy
100
AcDbText
 10
129.5139676299041
 20
123.6888377135483
 30
0.0
 40
2.5
  1
Hydroizolacja
  7
Solbet_2_5
100
AcDbText
  0
TEXT
  5
953C
330
1F
100
AcDbEntity
  8
SOLBET_Wymiary_Opisy
100
AcDbText
 10
129.1745288559116
 20
117.4701256742431
 30
0.0
 40
2.5
  1
Bloczki SOLBET bez profilowania
  7
Solbet_2_5
100
AcDbText
  0
TEXT
  5
953D
330
1F
100
AcDbEntity
  8
SOLBET_Wymiary_Opisy
100
AcDbText
 10
129.3220284235169
 20
110.3972242397085
 30
0.0
 40
2.5
  1
Tynk SOLBET
  7
Solbet_2_5
100
AcDbText
  0
LINE
  5
953E
330
1F
100
AcDbEntity
  8
SOLBET_Wymiary_Opisy
 62
     1
100
AcDbLine
 10
121.641603851418
 20
106.8500365668503
 30
0.0
 11
129.1129734829476
 21
109.0983992446628
 31
0.0
1001
ACAD
1000
DSTYLE
1002
{
1070
   147
1040
0.625
1070
    77
1070
     1
1002
}
  0
LINE
  5
953F
330
1F
100
AcDbEntity
  8
SOLBET_Wymiary_Opisy
 62
     1
100
AcDbLine
 10
148.7376184176323
 20
109.0983992446628
 30
0.0
 11
129.1129734829476
 21
109.0983992446628
 31
0.0
1001
ACAD
1000
DSTYLE
1002
{
1070
   147
1040
0.625
1070
    77
1070
     1
1002
}
  0
INSERT
  5
9540
330
1F
100
AcDbEntity
  8
SOLBET_Wymiary_Opisy
 62
     1
100
AcDbBlockReference
  2
_DotSmall
 10
117.2598197808531
 20
111.569014636353
 30
0.0
 41
2.499999999999971
 42
2.5
 43
2.5
 50
192.3498400641062
1001
ACAD
1000
DSTYLE
1002
{
1070
   147
1040
0.625
1070
    77
1070
     1
1002
}
  0
LWPOLYLINE
  5
9541
330
1F
100
AcDbEntity
  8
SOLBET_Wymiary_Opisy
 62
     1
100
AcDbPolyline
 90
        2
 70
     0
 43
0.0
 10
117.2598197808531
 20
111.569014636353
 10
129.7271304339167
 20
115.9198011531338
1001
ACAD
1000
DSTYLE
1002
{
1070
   147
1040
0.625
1070
    77
1070
     1
1002
}
  0
LINE
  5
9542
330
1F
100
AcDbEntity
  8
SOLBET_Wymiary_Opisy
100
AcDbLine
 10
129.7271304339167
 20
115.9198011531338
 30
0.0
 11
179.3982920723217
 21
115.9198011531338
 31
0.0
  0
LINE
  5
9544
330
1F
100
AcDbEntity
  8
SOLBET_Wymiary_Opisy
100
AcDbLine
 10
130.0665692079092
 20
122.138513192439
 30
0.0
 11
149.0826612342055
 21
122.138513192439
 31
0.0
  0
LINE
  5
9614
330
1F
100
AcDbEntity
  8
SOLBET_Grunt
100
AcDbLine
 10
30.70338712527359
 20
86.72648205725659
 30
0.0
 11
31.50282154745151
 21
86.65654060808378
 31
0.0
1001
ACAD
1010
0.0
1020
0.0
1030
0.0
  0
LINE
  5
961A
330
1F
100
AcDbEntity
  8
SOLBET_Grunt
100
AcDbLine
 10
31.48793497887823
 20
86.60694957340139
 30
0.0
 11
31.40139901163389
 21
87.07609465760606
 31
0.0
1001
ACAD
1010
0.0
1020
0.0
1030
0.0
  0
LINE
  5
961C
330
1F
100
AcDbEntity
  8
SOLBET_Grunt
100
AcDbLine
 10
13.67735654154171
 20
57.91265893466311
 30
0.0
 11
13.07129977369936
 21
63.12230185856265
 31
0.0
1001
ACAD
1010
0.0
1020
0.0
1030
0.0
  0
LINE
  5
961D
330
1F
100
AcDbEntity
  8
SOLBET_Grunt
100
AcDbLine
 10
12.5001792850137
 20
58.08164974169267
 30
0.0
 11
13.67700558709407
 21
57.89913088242224
 31
0.0
1001
ACAD
1010
0.0
1020
0.0
1030
0.0
  0
LINE
  5
961F
330
1F
100
AcDbEntity
  8
SOLBET_Grunt
100
AcDbLine
 10
33.01714212329284
 20
69.34966295249319
 30
0.0
 11
36.09043641069116
 21
70.52939009850456
 31
0.0
1001
ACAD
1010
0.0
1020
0.0
1030
0.0
  0
LINE
  5
9622
330
1F
100
AcDbEntity
  8
SOLBET_Grunt
100
AcDbLine
 10
33.00364605533582
 20
69.35554241347062
 30
0.0
 11
36.09043641069116
 21
67.27347602907594
 31
0.0
1001
ACAD
1010
0.0
1020
0.0
1030
0.0
  0
LINE
  5
962E
330
1F
100
AcDbEntity
  8
SOLBET_Beton
100
AcDbLine
 10
26.13590291766036
 20
50.69390220358354
 30
0.0
 11
26.13590291766036
 21
29.76246706574693
 31
0.0
1001
ASO_SCHRAFF
1005
0
1070
     1
1002
{
1070
     1
1005
0
1002
}
1002
{
1070
     2
1005
0
1002
}
1002
{
1070
     4
1000
BRASS
1040
0.2
1040
45.0
1070
     0
1000
T__SCHR
1070
   256
1000
VONLAYER
1040
50.0
1070
     1
1002
}
  0
LINE
  5
9631
330
1F
100
AcDbEntity
  8
SOLBET_Grunt
100
AcDbLine
 10
14.98999607063456
 20
65.5450805514422
 30
0.0
 11
14.98999607063456
 21
65.5450805514422
 31
0.0
1001
ACAD
1010
0.0
1020
0.0
1030
0.0
  0
LINE
  5
9632
330
1F
100
AcDbEntity
  8
SOLBET_Grunt
100
AcDbLine
 10
30.88657511668794
 20
67.63790488595032
 30
0.0
 11
30.88657511668794
 21
67.63790488595032
 31
0.0
1001
ACAD
1010
0.0
1020
0.0
1030
0.0
  0
LINE
  5
9638
330
1F
100
AcDbEntity
  8
SOLBET_Grunt
100
AcDbLine
 10
37.00678753504894
 20
84.17749558930745
 30
0.0
 11
37.00678753504894
 21
84.17749558930745
 31
0.0
1001
ACAD
1010
0.0
1020
0.0
1030
0.0
  0
LINE
  5
963B
330
1F
100
AcDbEntity
  8
SOLBET_Grunt
100
AcDbLine
 10
24.37350746500511
 20
51.8997867017199
 30
0.0
 11
24.37350746500511
 21
51.8997867017199
 31
0.0
1001
ACAD
1010
0.0
1020
0.0
1030
0.0
  0
LINE
  5
9641
330
1F
100
AcDbEntity
  8
SOLBET_Grunt
100
AcDbLine
 10
33.62909569431508
 20
87.9945136540398
 30
0.0
 11
33.62909569431508
 21
87.9945136540398
 31
0.0
1001
ACAD
1010
0.0
1020
0.0
1030
0.0
  0
LINE
  5
9647
330
1F
100
AcDbEntity
  8
SOLBET_Emulsje_Folie
100
AcDbLine
 10
36.09043641069116
 20
66.37980462832297
 30
0.0
 11
38.09043641069115
 21
66.37980462832297
 31
0.0
  0
LINE
  5
9648
330
1F
100
AcDbEntity
  8
SOLBET_Emulsje_Folie
100
AcDbLine
 10
36.09043641069116
 20
73.0732998197609
 30
0.0
 11
38.09043641069115
 21
72.318029108269
 31
0.0
  0
LINE
  5
9649
330
1F
100
AcDbEntity
  8
SOLBET_Emulsje_Folie
100
AcDbLine
 10
36.09043641069116
 20
67.95817323425035
 30
0.0
 11
38.09043641069115
 21
68.71344394574203
 31
0.0
  0
LINE
  5
964A
330
1F
100
AcDbEntity
  8
SOLBET_Emulsje_Folie
100
AcDbLine
 10
36.09043641069116
 20
76.86928935704054
 30
0.0
 11
38.09043641069115
 21
77.62456006853312
 31
0.0
  0
LINE
  5
964B
330
1F
100
AcDbEntity
  8
SOLBET_Emulsje_Folie
100
AcDbLine
 10
36.09043641069116
 20
81.98441594255109
 30
0.0
 11
38.09043641069115
 21
81.22914523105919
 31
0.0
  0
LINE
  5
964E
330
1F
100
AcDbEntity
  8
SOLBET_Emulsje_Folie
100
AcDbLine
 10
36.09043641069116
 20
85.78040547983073
 30
0.0
 11
38.09043641069115
 21
86.53567619132331
 31
0.0
  0
LINE
  5
9653
330
1F
100
AcDbEntity
  8
SOLBET_Emulsje_Folie
100
AcDbLine
 10
66.37639946598778
 20
83.67998708062442
 30
0.0
 11
66.37639946598778
 21
66.37980462832297
 31
0.0
  0
LINE
  5
9655
330
1F
100
AcDbEntity
  8
SOLBET_Izolacja
  6
Continuous
100
AcDbLine
 10
38.91807560588154
 20
66.37980462832297
 30
0.0
 11
63.91807560588154
 21
66.37980462832297
 31
0.0
  0
LINE
  5
9660
330
1F
100
AcDbEntity
  8
SOLBET_Emulsje_Folie
100
AcDbLine
 10
36.19662299029483
 20
62.16883583859408
 30
0.0
 11
79.32904481714036
 21
62.16883583859408
 31
0.0
  0
LINE
  5
9661
330
1F
100
AcDbEntity
  8
SOLBET_Izolacja
  6
Continuous
100
AcDbLine
 10
63.91807560588154
 20
66.37980462832297
 30
0.0
 11
63.91807560588154
 21
85.36899917867186
 31
0.0
  0
LINE
  5
9662
330
1F
100
AcDbEntity
  8
SOLBET_Izolacja
  6
Continuous
100
AcDbLine
 10
38.91807560588154
 20
66.37980462832297
 30
0.0
 11
38.91807560588245
 21
89.6860269158226
 31
0.0
  0
ARC
  5
9664
330
1F
100
AcDbEntity
  8
SOLBET_Emulsje_Folie
100
AcDbCircle
 10
65.12639946598778
 20
66.37980462832297
 30
0.0
 40
1.25
100
AcDbArc
 50
270.0
 51
0.0
  0
LINE
  5
9669
330
1F
100
AcDbEntity
  8
SOLBET_Beton
100
AcDbLine
 10
26.13590291766036
 20
30.57441544678113
 30
0.0
 11
56.85165084657933
 21
61.29016337569646
 31
0.0
1001
ACAD
1010
0.0
1020
0.0
1030
0.0
  0
LINE
  5
966A
330
1F
100
AcDbEntity
  8
SOLBET_Beton
100
AcDbLine
 10
53.17136121012959
 20
23.93391328523581
 30
0.0
 11
79.00802002358091
 21
49.77057209868712
 31
0.0
1001
ACAD
1010
0.0
1020
0.0
1030
0.0
  0
LINE
  5
966E
330
1F
100
AcDbEntity
  8
SOLBET_Beton
100
AcDbLine
 10
30.04207282981611
 20
51.31855831294297
 30
0.0
 11
36.01412372978507
 21
57.29060921291216
 31
0.0
1001
ACAD
1010
0.0
1020
0.0
1030
0.0
  0
LINE
  5
9671
330
1F
100
AcDbEntity
  8
SOLBET_Beton
100
AcDbLine
 10
36.87855926390444
 20
24.4790842930222
 30
0.0
 11
42.67055800007006
 21
30.27108302918714
 31
0.0
1001
ACAD
1010
0.0
1020
0.0
1030
0.0
  0
LINE
  5
9672
330
1F
100
AcDbEntity
  8
SOLBET_Beton
100
AcDbLine
 10
46.88005305682168
 20
34.4805780859383
 30
0.0
 11
55.29904317032401
 21
42.89956819944063
 31
0.0
1001
ACAD
1010
0.0
1020
0.0
1030
0.0
  0
LINE
  5
9673
330
1F
100
AcDbEntity
  8
SOLBET_Beton
100
AcDbLine
 10
59.50853822707563
 20
47.10906325619157
 30
0.0
 11
67.92752834057797
 21
55.52805336969413
 31
0.0
1001
ACAD
1010
0.0
1020
0.0
1030
0.0
  0
LINE
  5
9674
330
1F
100
AcDbEntity
  8
SOLBET_Beton
100
AcDbLine
 10
72.13702339732958
 20
59.73754842644507
 30
0.0
 11
73.68963834658029
 21
61.29016337569646
 31
0.0
1001
ACAD
1010
0.0
1020
0.0
1030
0.0
  0
LINE
  5
9682
330
1F
100
AcDbEntity
  8
SOLBET_Izolacja
  6
BATTING
 48
1.215
100
AcDbLine
 10
51.41807560588154
 20
90.04481446164414
 30
0.0
 11
51.41807560588154
 21
66.88298799974541
 31
0.0
  0
LINE
  5
968A
330
1F
100
AcDbEntity
  8
SOLBET_Zaprawy
100
AcDbLine
 10
64.91807560588245
 20
84.72044609294039
 30
0.0
 11
64.91807560588154
 21
66.37980462832297
 31
0.0
  0
CIRCLE
  5
968D
330
1F
100
AcDbEntity
  8
SOLBET_Wymiary_Opisy
100
AcDbCircle
 10
46.11642019409305
 20
56.8255131147232
 30
0.0
 40
33.6397017240473
  0
LINE
  5
968E
330
1F
100
AcDbEntity
  8
SOLBET_Emulsje_Folie
100
AcDbLine
 10
35.59161462706584
 20
63.04875171585672
 30
0.0
 11
24.08590291765745
 21
51.54304000644856
 31
0.0
1001
ASO_SCHRAFF
1005
0
1070
     1
1002
{
1070
     1
1005
0
1002
}
1002
{
1070
     2
1005
0
1002
}
1002
{
1070
     4
1000
BRASS
1040
0.2
1040
45.0
1070
     0
1000
T__SCHR
1070
   256
1000
VONLAYER
1040
50.0
1070
     1
1002
}
  0
LINE
  5
968F
330
1F
100
AcDbEntity
  8
SOLBET_Emulsje_Folie
100
AcDbLine
 10
36.19662299029392
 20
62.16883583859408
 30
0.0
 11
25.13590291765763
 21
51.10811576595688
 31
0.0
1001
ASO_SCHRAFF
1005
0
1070
     1
1002
{
1070
     1
1005
0
1002
}
1002
{
1070
     2
1005
0
1002
}
1002
{
1070
     4
1000
BRASS
1040
0.2
1040
45.0
1070
     0
1000
T__SCHR
1070
   256
1000
VONLAYER
1040
50.0
1070
     1
1002
}
  0
LINE
  5
9690
330
1F
100
AcDbEntity
  8
SOLBET_Beton
100
AcDbLine
 10
36.73216408977919
 20
61.2901633757067
 30
0.0
 11
26.13590291766036
 21
50.69390220358468
 31
0.0
1001
ASO_SCHRAFF
1005
0
1070
     1
1002
{
1070
     1
1005
0
1002
}
1002
{
1070
     2
1005
0
1002
}
1002
{
1070
     4
1000
BRASS
1040
0.2
1040
45.0
1070
     0
1000
T__SCHR
1070
   256
1000
VONLAYER
1040
50.0
1070
     1
1002
}
  0
LINE
  5
9691
330
1F
100
AcDbEntity
  8
SOLBET_Emulsje_Folie
  6
DASHED2
370
    30
100
AcDbLine
 10
35.44915250681993
 20
63.64875171585708
 30
0.0
 11
30.70932315656341
 21
58.90892236559989
 31
0.0
1001
ASO_SCHRAFF
1005
0
1070
     1
1002
{
1070
     1
1005
0
1002
}
1002
{
1070
     2
1005
0
1002
}
1002
{
1070
     4
1000
BRASS
1040
0.2
1040
45.0
1070
     0
1000
T__SCHR
1070
   256
1000
VONLAYER
1040
50.0
1070
     1
1002
}
  0
LINE
  5
9692
330
1F
100
AcDbEntity
  8
SOLBET_Emulsje_Folie
100
AcDbLine
 10
35.30669038657402
 20
64.24875171585677
 30
0.0
 11
23.03590291765727
 21
51.97796424694047
 31
0.0
1001
ASO_SCHRAFF
1005
0
1070
     1
1002
{
1070
     1
1005
0
1002
}
1002
{
1070
     2
1005
0
1002
}
1002
{
1070
     4
1000
BRASS
1040
0.2
1040
45.0
1070
     0
1000
T__SCHR
1070
   256
1000
VONLAYER
1040
50.0
1070
     1
1002
}
  0
LINE
  5
9693
330
1F
100
AcDbEntity
  8
SOLBET_Emulsje_Folie
100
AcDbLine
 10
34.91495109290395
 20
65.12980462832297
 30
0.0
 11
22.13590291765763
 21
52.35075645307597
 31
0.0
1001
ASO_SCHRAFF
1005
0
1070
     1
1002
{
1070
     1
1005
0
1002
}
1002
{
1070
     2
1005
0
1002
}
1002
{
1070
     4
1000
BRASS
1040
0.2
1040
45.0
1070
     0
1000
T__SCHR
1070
   256
1000
VONLAYER
1040
50.0
1070
     1
1002
}
  0
LINE
  5
9694
330
1F
100
AcDbEntity
  8
SOLBET_Emulsje_Folie
100
AcDbLine
 10
65.12639946598778
 20
65.12980462832297
 30
0.0
 11
34.91495109290395
 21
65.12980462832297
 31
0.0
  0
LWPOLYLINE
  5
9695
330
1F
100
AcDbEntity
  8
SOLBET_Emulsje_Folie
100
AcDbPolyline
 90
        2
 70
     0
 43
0.0
 10
79.175470897286
 20
63.04875171585672
 10
35.59161462706584
 20
63.04875171585672
  0
LWPOLYLINE
  5
9696
330
1F
100
AcDbEntity
  8
SOLBET_Emulsje_Folie
100
AcDbPolyline
 90
        2
 70
     0
 43
0.0
 10
35.30669038657402
 20
64.24875171585677
 10
78.92686153147065
 20
64.24875171585677
  0
LINE
  5
9697
330
1F
100
AcDbEntity
  8
SOLBET_Emulsje_Folie
  6
DASHED2
370
    30
100
AcDbLine
 10
35.44915250681993
 20
63.64875171585663
 30
0.0
 11
79.05686565366273
 21
63.64875171585663
 31
0.0
  0
LINE
  5
9698
330
1F
100
AcDbEntity
  8
SOLBET_Emulsje_Folie
100
AcDbLine
 10
24.08590291765745
 20
51.54304000644856
 30
0.0
 11
24.08590291765745
 21
38.04304000644857
 31
0.0
  0
LINE
  5
9699
330
1F
100
AcDbEntity
  8
SOLBET_Emulsje_Folie
100
AcDbLine
 10
25.13590291765763
 20
51.10811576595688
 30
0.0
 11
25.13590291765763
 21
38.04304000644857
 31
0.0
  0
LINE
  5
969A
330
1F
100
AcDbEntity
  8
SOLBET_Emulsje_Folie
100
AcDbLine
 10
23.03590291765727
 20
38.04304000644857
 30
0.0
 11
23.03590291765727
 21
51.97796424694047
 31
0.0
  0
LINE
  5
969B
330
1F
100
AcDbEntity
  8
SOLBET_Emulsje_Folie
100
AcDbLine
 10
22.13590291765763
 20
38.04304000644857
 30
0.0
 11
22.13590291765763
 21
52.35075645307597
 31
0.0
  0
LINE
  5
969C
330
1F
100
AcDbEntity
  8
SOLBET_Emulsje_Folie
  6
DASHED2
370
    30
100
AcDbLine
 10
23.56090291765781
 20
38.04304000644857
 30
0.0
 11
23.56090291765781
 21
43.78360077009233
 31
0.0
  0
LINE
  5
969D
330
1F
100
AcDbEntity
  8
SOLBET_Emulsje_Folie
  6
DASHED2
370
    30
100
AcDbLine
 10
23.56090291765781
 20
51.76050212669474
 30
0.0
 11
27.73017579891098
 21
55.929775007947
 31
0.0
  0
LINE
  5
969E
330
1F
100
AcDbEntity
  8
SOLBET_Emulsje_Folie
100
AcDbLine
 10
24.08590291765745
 20
38.04304000644857
 30
0.0
 11
23.03590291765727
 21
38.04304000644857
 31
0.0
  0
LINE
  5
969F
330
1F
100
AcDbEntity
  8
SOLBET_Beton
100
AcDbLine
 10
27.87626805393597
 20
49.15275353706374
 30
0.0
 11
26.13590291766127
 21
47.41238840078745
 31
0.0
  0
LINE
  5
96A0
330
1F
100
AcDbEntity
  8
SOLBET_Beton
100
AcDbLine
 10
38.0690598935646
 20
59.34554537669055
 30
0.0
 11
40.01367789258006
 21
61.2901633757067
 31
0.0
  0
LINE
  5
96CC
330
1F
100
AcDbEntity
  8
SOLBET_Emulsje_Folie
100
AcDbLine
 10
38.09043641069298
 20
89.49374104939193
 30
0.0
 11
38.09043641069115
 21
66.37980462832297
 31
0.0
  0
LINE
  5
96CD
330
1F
100
AcDbEntity
  8
SOLBET_Emulsje_Folie
100
AcDbLine
 10
36.09043641069116
 20
88.93640194168961
 30
0.0
 11
36.09043641069116
 21
66.37980462832297
 31
0.0
  0
LINE
  5
96CE
330
1F
100
AcDbEntity
  8
SOLBET_Beton
100
AcDbLine
 10
79.45853215674401
 20
61.2901633757067
 30
0.0
 11
36.73216408977919
 21
61.2901633757067
 31
0.0
1001
ASO_SCHRAFF
1005
0
1070
     1
1002
{
1070
     1
1005
0
1002
}
1002
{
1070
     2
1005
0
1002
}
1002
{
1070
     4
1000
BRASS
1040
0.2
1040
45.0
1070
     0
1000
T__SCHR
1070
   256
1000
VONLAYER
1040
50.0
1070
     1
1002
}
  0
LINE
  5
9703
330
1F
100
AcDbEntity
  8
SOLBET_Bloczki
100
AcDbLine
 10
67.41807692240058
 20
82.86142970531455
 30
0.0
 11
67.41807692240058
 21
66.37980462252494
 31
0.0
  0
LINE
  5
9704
330
1F
100
AcDbEntity
  8
SOLBET_Bloczki
100
AcDbLine
 10
67.41807692240058
 20
66.37980462252494
 30
0.0
 11
78.37080045270091
 21
66.37980462252494
 31
0.0
  0
INSERT
  5
9830
330
1F
100
AcDbEntity
  8
SOLBET_Bloczki
100
AcDbBlockReference
  2
SOLBET_Bloczek_Optimal_240x240x590_P+W_KG400_PRA
 10
112.1426829027587
 20
211.0736711874154
 30
0.0
  0
INSERT
  5
9831
330
1F
100
AcDbEntity
  8
SOLBET_Bloczki
100
AcDbBlockReference
  2
SOLBET_Bloczek_Optimal_240x240x590_P+W_KG400_PRA
 10
112.1426829027584
 20
199.0736711874154
 30
0.0
  0
INSERT
  5
9832
330
1F
100
AcDbEntity
  8
SOLBET_Bloczki
100
AcDbBlockReference
  2
SOLBET_Bloczek_Optimal_240x240x590_P+W_KG400_PRA
 10
112.1426829027584
 20
187.0736711874154
 30
0.0
  0
INSERT
  5
9842
330
1F
100
AcDbEntity
  8
SOLBET_Bloczki
100
AcDbBlockReference
  2
SOLBET_Bloczek_Optimal_180x240x590_G_KG500_PRA
 10
112.1416043780259
 20
145.2736714226606
 30
0.0
  0
INSERT
  5
9843
330
1F
100
AcDbEntity
  8
SOLBET_Bloczki
100
AcDbBlockReference
  2
SOLBET_Bloczek_Optimal_180x240x590_G_KG500_PRA
 10
112.1416046413296
 20
157.273671421501
 30
0.0
  0
INSERT
  5
9844
330
1F
100
AcDbEntity
  8
SOLBET_Bloczki
100
AcDbBlockReference
  2
SOLBET_Bloczek_Optimal_180x240x590_G_KG500_PRA
 10
112.1416041147222
 20
121.2736714238202
 30
0.0
  0
INSERT
  5
9845
330
1F
100
AcDbEntity
  8
SOLBET_Bloczki
100
AcDbBlockReference
  2
SOLBET_Bloczek_Optimal_180x240x590_G_KG500_PRA
 10
112.1416041147222
 20
109.2736714238202
 30
0.0
  0
INSERT
  5
9846
330
1F
100
AcDbEntity
  8
SOLBET_Bloczki
100
AcDbBlockReference
  2
SOLBET_Bloczek_Optimal_180x240x590_G_KG500_PRA
 10
112.1416041147217
 20
97.27367142382025
 30
0.0
  0
MTEXT
  5
9896
102
{ACAD_XDICTIONARY
360
9897
102
}
330
1F
100
AcDbEntity
  8
SOLBET_Wymiary_Opisy
100
AcDbMText
 10
301.2542633255816
 20
7.273150535415538
 30
0.0
 40
5.0
 41
0.0
 71
     1
 72
     5
  1
Skala 1:20
  7
Solbet_5
 73
     1
 44
1.0
1001
ACAD
1000
MTEXTBEGIN
1070
    73
1070
     1
1070
    44
1040
1.0
1070
    74
1070
     0
1000
MTEXTEND
1000
ACAD_MTEXT_DEFINED_HEIGHT_BEGIN
1070
    46
1040
5.395147572682731
1000
ACAD_MTEXT_DEFINED_HEIGHT_END
  0
LWPOLYLINE
  5
9899
330
1F
100
AcDbEntity
  8
SOLBET_Ramka_05
100
AcDbPolyline
 90
        4
 70
     1
 43
0.0
 10
298.2355972046678
 20
9.804221198935465
 10
334.35177409209
 20
9.804221198935465
 10
334.35177409209
 20
0.0
 10
298.2355972046678
 20
0.0
  0
POINT
  5
98A0
330
1F
100
AcDbEntity
  8
SOLBET_Bloczki
100
AcDbPoint
 10
0.0
 20
0.0
 30
0.0
  0
ENDSEC
  0
SECTION
  2
OBJECTS
  0
DICTIONARY
  5
C
330
0
100
AcDbDictionary
281
     1
  3
ACAD_COLOR
350
6B
  3
ACAD_GROUP
350
D
  3
ACAD_LAYOUT
350
1A
  3
ACAD_MATERIAL
350
6A
  3
ACAD_MLEADERSTYLE
350
12D
  3
ACAD_MLINESTYLE
350
17
  3
ACAD_PLOTSETTINGS
350
19
  3
ACAD_PLOTSTYLENAME
350
E
  3
ACAD_SCALELIST
350
10C
  3
ACAD_TABLESTYLE
350
7E
  3
ACAD_VISUALSTYLE
350
EF
  3
ACDB_RECOMPOSE_DATA
350
15D
  3
AcDbVariableDictionary
350
5E
  3
DWGPROPS
350
98EB
  0
DICTIONARY
  5
443
330
8
100
AcDbDictionary
280
     1
281
     1
  0
DICTIONARY
  5
3E5
330
2
100
AcDbDictionary
280
     1
281
     1
  3
ACAD_LAYERFILTERS
360
1883
  3
ACLYDICTIONARY
360
1882
  0
DICTIONARY
  5
13C
330
10
100
AcDbDictionary
280
     1
281
     1
  3
ADSK_XREC_LAYER_RECONCILED
360
3F4
  0
DICTIONARY
  5
403
330
3DD
100
AcDbDictionary
280
     1
281
     1
  3
ADSK_XREC_LAYER_RECONCILED
360
404
  0
DICTIONARY
  5
405
330
3DF
100
AcDbDictionary
280
     1
281
     1
  3
ADSK_XREC_LAYER_RECONCILED
360
406
  0
DICTIONARY
  5
407
330
3E0
100
AcDbDictionary
280
     1
281
     1
  3
ADSK_XREC_LAYER_RECONCILED
360
408
  0
DICTIONARY
  5
409
330
3E1
100
AcDbDictionary
280
     1
281
     1
  3
ADSK_XREC_LAYER_RECONCILED
360
40A
  0
DICTIONARY
  5
40B
330
3E2
100
AcDbDictionary
280
     1
281
     1
  3
ADSK_XREC_LAYER_RECONCILED
360
40C
  0
DICTIONARY
  5
40D
330
3E3
100
AcDbDictionary
280
     1
281
     1
  3
ADSK_XREC_LAYER_RECONCILED
360
40E
  0
DICTIONARY
  5
40F
330
3E4
100
AcDbDictionary
280
     1
281
     1
  3
ADSK_XREC_LAYER_RECONCILED
360
410
  0
DICTIONARY
  5
411
330
3E8
100
AcDbDictionary
280
     1
281
     1
  3
ADSK_XREC_LAYER_RECONCILED
360
412
  0
DICTIONARY
  5
4A3
330
1F
100
AcDbDictionary
280
     1
281
     1
  3
ACAD_SORTENTS
360
4A4
  0
DICTIONARY
  5
6F6A
330
6F5E
100
AcDbDictionary
280
     1
281
     1
  3
ACAD_SORTENTS
360
7DC2
  0
DICTIONARY
  5
8781
330
8776
100
AcDbDictionary
280
     1
281
     1
  3
ACAD_SORTENTS
360
8782
  0
DICTIONARY
  5
8E1C
330
8E17
100
AcDbDictionary
280
     1
281
     1
  3
ACAD_SORTENTS
360
8E1D
  0
DICTIONARY
  5
982C
330
9820
100
AcDbDictionary
280
     1
281
     1
  3
ACAD_SORTENTS
360
982D
  0
DICTIONARY
  5
983E
330
9833
100
AcDbDictionary
280
     1
281
     1
  3
ACAD_SORTENTS
360
983F
  0
DICTIONARY
  5
9916
330
8E1B
100
AcDbDictionary
280
     1
281
     1
  3
ACAD_MTEXT_RT
360
9917
  0
DICTIONARY
  5
97C9
330
8266
100
AcDbDictionary
280
     1
281
     1
  3
ACAD_MTEXT_2008_RT
360
97CA
  0
DICTIONARY
  5
98FA
330
8521
100
AcDbDictionary
280
     1
281
     1
  3
ACAD_MTEXT_RT
360
98FB
  0
DICTIONARY
  5
98FC
330
8527
100
AcDbDictionary
280
     1
281
     1
  3
ACAD_MTEXT_RT
360
98FD
  0
DICTIONARY
  5
98FE
330
8529
100
AcDbDictionary
280
     1
281
     1
  3
ACAD_MTEXT_RT
360
98FF
  0
DICTIONARY
  5
97CB
330
852D
100
AcDbDictionary
280
     1
281
     1
  3
ACAD_MTEXT_2008_RT
360
97CC
  0
DICTIONARY
  5
97CD
330
8582
100
AcDbDictionary
280
     1
281
     1
  3
ACAD_MTEXT_2008_RT
360
97CE
  0
DICTIONARY
  5
9900
330
8584
100
AcDbDictionary
280
     1
281
     1
  3
ACAD_MTEXT_RT
360
9901
  0
DICTIONARY
  5
9902
330
858A
100
AcDbDictionary
280
     1
281
     1
  3
ACAD_MTEXT_RT
360
9903
  0
DICTIONARY
  5
9904
330
85B1
100
AcDbDictionary
280
     1
281
     1
  3
ACAD_MTEXT_RT
360
9905
  0
DICTIONARY
  5
9906
330
85E9
100
AcDbDictionary
280
     1
281
     1
  3
ACAD_MTEXT_RT
360
9907
  0
DICTIONARY
  5
9908
330
862E
100
AcDbDictionary
280
     1
281
     1
  3
ACAD_MTEXT_RT
360
9909
  0
DICTIONARY
  5
990A
330
8631
100
AcDbDictionary
280
     1
281
     1
  3
ACAD_MTEXT_RT
360
990B
  0
DICTIONARY
  5
990C
330
8633
100
AcDbDictionary
280
     1
281
     1
  3
ACAD_MTEXT_RT
360
990D
  0
DICTIONARY
  5
990E
330
8656
100
AcDbDictionary
280
     1
281
     1
  3
ACAD_MTEXT_RT
360
990F
  0
DICTIONARY
  5
9910
330
865C
100
AcDbDictionary
280
     1
281
     1
  3
ACAD_MTEXT_RT
360
9911
  0
DICTIONARY
  5
9912
330
8660
100
AcDbDictionary
280
     1
281
     1
  3
ACAD_MTEXT_RT
360
9913
  0
DICTIONARY
  5
97CF
330
8681
100
AcDbDictionary
280
     1
281
     1
  3
ACAD_MTEXT_2008_RT
360
97D0
  0
DICTIONARY
  5
9914
330
869B
100
AcDbDictionary
280
     1
281
     1
  3
ACAD_MTEXT_RT
360
9915
  0
DICTIONARY
  5
97D1
330
869D
100
AcDbDictionary
280
     1
281
     1
  3
ACAD_MTEXT_2008_RT
360
97D2
  0
DICTIONARY
  5
97D3
330
9476
100
AcDbDictionary
280
     1
281
     1
  3
ACAD_MTEXT_2008_RT
360
97D4
  0
DICTIONARY
  5
9897
330
9896
100
AcDbDictionary
280
     1
281
     1
  3
ACAD_MTEXT_2008_RT
360
9898
  0
DICTIONARY
  5
6B
102
{ACAD_REACTORS
330
C
102
}
330
C
100
AcDbDictionary
281
     1
  0
DICTIONARY
  5
D
102
{ACAD_REACTORS
330
C
102
}
330
C
100
AcDbDictionary
281
     1
  0
DICTIONARY
  5
1A
102
{ACAD_REACTORS
330
C
102
}
330
C
100
AcDbDictionary
281
     1
  3
Arkusz1
350
D3
  3
Arkusz2
350
D7
  3
Model
350
22
  0
DICTIONARY
  5
6A
102
{ACAD_REACTORS
330
C
102
}
330
C
100
AcDbDictionary
281
     1
  3
ByBlock
350
ED
  3
ByLayer
350
EC
  3
Global
350
EE
  0
DICTIONARY
  5
12D
102
{ACAD_REACTORS
330
C
102
}
330
C
100
AcDbDictionary
281
     1
  3
Standard
350
12E
  0
DICTIONARY
  5
17
102
{ACAD_REACTORS
330
C
102
}
330
C
100
AcDbDictionary
281
     1
  3
SOLBET_IZOLACJA
350
7E9
  3
Standard
350
18
  0
DICTIONARY
  5
19
102
{ACAD_REACTORS
330
C
102
}
330
C
100
AcDbDictionary
281
     1
  3
Ustawienia1
350
4FA3
  0
ACDBDICTIONARYWDFLT
  5
E
102
{ACAD_REACTORS
330
C
102
}
330
C
100
AcDbDictionary
281
     1
  3
Normal
350
F
100
AcDbDictionaryWithDefault
340
F
  0
DICTIONARY
  5
10C
102
{ACAD_REACTORS
330
C
102
}
330
C
100
AcDbDictionary
281
     1
  3
A0
350
10D
  3
A1
350
188
  3
A2
350
189
  3
A3
350
18A
  3
A4
350
18B
  3
A5
350
18C
  3
A6
350
18D
  3
A7
350
18E
  3
A8
350
18F
  3
A9
350
190
  3
B0
350
191
  3
B1
350
192
  3
B2
350
193
  3
B3
350
194
  3
B4
350
195
  3
B5
350
196
  3
B6
350
197
  3
B7
350
198
  3
B8
350
199
  3
B9
350
19A
  3
C0
350
19B
  3
C1
350
19C
  3
C2
350
19D
  3
C3
350
19E
  3
C4
350
19F
  3
C5
350
1A0
  3
C6
350
1A1
  3
C7
350
1A2
  3
C8
350
1A3
  3
C9
350
1A4
  3
D0
350
1A5
  3
D1
350
1A6
  3
D2
350
1A7
  0
DICTIONARY
  5
7E
102
{ACAD_REACTORS
330
C
102
}
330
C
100
AcDbDictionary
281
     1
  3
Standard
350
7F
  0
DICTIONARY
  5
EF
102
{ACAD_REACTORS
330
C
102
}
330
C
100
AcDbDictionary
281
     1
  3
2dWireframe
350
F5
  3
3D Hidden
350
F7
  3
3dWireframe
350
F6
  3
Basic
350
F4
  3
Brighten
350
FB
  3
ColorChange
350
FF
  3
Conceptual
350
F8
  3
Dim
350
FA
  3
Facepattern
350
FE
  3
Flat
350
F0
  3
FlatWithEdges
350
F1
  3
Gouraud
350
F2
  3
GouraudWithEdges
350
F3
  3
Linepattern
350
FD
  3
Realistic
350
F9
  3
Thicken
350
FC
  0
XRECORD
  5
15D
102
{ACAD_REACTORS
330
C
102
}
330
C
100
AcDbXrecord
280
     1
 90
        1
330
7F
330
8266
330
852D
330
8582
330
8681
330
869D
330
9476
  0
DICTIONARY
  5
5E
102
{ACAD_REACTORS
330
C
102
}
330
C
100
AcDbDictionary
281
     1
  3
CANNOSCALE
350
146
  3
CMLEADERSTYLE
350
145
  3
CTABLESTYLE
350
84
  3
DIMASSOC
350
5F
  3
HIDETEXT
350
63
  3
INDEXCTL
350
466
  3
LIGHTINGUNITS
350
464
  3
MSLTSCALE
350
463
  3
PSOLHEIGHT
350
98EA
  3
PSOLWIDTH
350
98E9
  3
SORTENTS
350
465
  0
XRECORD
  5
98EB
102
{ACAD_REACTORS
330
C
102
}
330
C
100
AcDbXrecord
280
     1
  1
DWGPROPS COOKIE
  2

  3

  4

  6

  7

  8
Olus
  9

300
=
301
=
302
=
303
=
304
=
305
=
306
=
307
=
308
=
309
=
 40
1.065323773148148
 41
2454690.075573148
 42
2454848.859733889
  1

 90
        0
  0
DICTIONARY
  5
1883
102
{ACAD_REACTORS
330
3E5
102
}
330
3E5
100
AcDbDictionary
281
     1
  0
DICTIONARY
  5
1882
102
{ACAD_REACTORS
330
3E5
102
}
330
3E5
100
AcDbDictionary
281
     1
1001
ACAD
1000
<All
  0
XRECORD
  5
3F4
102
{ACAD_REACTORS
330
13C
102
}
330
13C
100
AcDbXrecord
280
     1
290
     1
  0
XRECORD
  5
404
102
{ACAD_REACTORS
330
403
102
}
330
403
100
AcDbXrecord
280
     1
290
     1
  0
XRECORD
  5
406
102
{ACAD_REACTORS
330
405
102
}
330
405
100
AcDbXrecord
280
     1
290
     1
  0
XRECORD
  5
408
102
{ACAD_REACTORS
330
407
102
}
330
407
100
AcDbXrecord
280
     1
290
     1
  0
XRECORD
  5
40A
102
{ACAD_REACTORS
330
409
102
}
330
409
100
AcDbXrecord
280
     1
290
     1
  0
XRECORD
  5
40C
102
{ACAD_REACTORS
330
40B
102
}
330
40B
100
AcDbXrecord
280
     1
290
     1
  0
XRECORD
  5
40E
102
{ACAD_REACTORS
330
40D
102
}
330
40D
100
AcDbXrecord
280
     1
290
     1
  0
XRECORD
  5
410
102
{ACAD_REACTORS
330
40F
102
}
330
40F
100
AcDbXrecord
280
     1
290
     1
  0
XRECORD
  5
412
102
{ACAD_REACTORS
330
411
102
}
330
411
100
AcDbXrecord
280
     1
290
     1
  0
SORTENTSTABLE
  5
4A4
102
{ACAD_REACTORS
330
4A3
102
}
330
4A3
100
AcDbSortentsTable
330
1F
331
77CA
  5
82AD
331
7849
  5
84B4
331
7880
  5
854C
331
82C4
  5
8F96
331
7851
  5
84D0
331
78E7
  5
857D
331
7859
  5
84F3
331
78A8
  5
855D
331
78EF
  5
8583
331
84B3
  5
912E
331
78B0
  5
8566
331
82EC
  5
9139
331
9194
  5
785E
331
9155
  5
77AE
331
94D2
  5
858D
331
9509
  5
867C
331
919C
  5
786E
331
915D
  5
77B6
331
94DA
  5
8608
331
9511
  5
8688
331
9519
  5
8785
331
9165
  5
77BE
331
91A4
  5
7879
331
94E2
  5
862D
331
96CE
  5
9630
331
854C
  5
9167
331
8583
  5
9194
331
8679
  5
9460
331
9521
  5
87B2
331
94EA
  5
8654
331
916D
  5
77C8
331
91AC
  5
78A2
331
8F96
  5
914F
331
84CD
  5
9125
331
8554
  5
9169
331
858B
  5
919C
331
8632
  5
943E
331
8681
  5
9469
331
87B8
  5
9494
331
9126
  5
94D5
331
855C
  5
916E
331
8652
  5
9441
331
8689
  5
946C
331
912E
  5
7786
331
8564
  5
9175
331
865A
  5
9449
331
8699
  5
946E
331
9136
  5
778E
331
8F67
  5
94C0
331
7786
  5
78B1
331
778E
  5
78B9
331
77AB
  5
7CD4
331
78B8
  5
856E
331
77B3
  5
7D2F
331
7869
  5
8526
331
78C0
  5
8577
331
77BB
  5
7DC9
331
7871
  5
852B
331
82AD
  5
8F73
331
7CD7
  5
87B7
331
7879
  5
8546
331
7DD6
  5
8E4F
331
8444
  5
9140
331
7CE7
  5
87B8
331
9638
  5
963B
331
94F2
  5
865C
331
9529
  5
9541
331
91B4
  5
78AA
331
9175
  5
781F
331
949B
  5
9526
331
94FA
  5
8664
331
9539
  5
91B3
331
917D
  5
7837
331
9648
  5
964C
331
9502
  5
8675
331
9541
  5
91AF
331
9185
  5
784A
331
968F
  5
96CB
331
856C
  5
917D
331
84F5
  5
914E
331
8662
  5
9451
331
918D
  5
7852
331
94C3
  5
782C
331
9697
  5
96FB
331
8574
  5
9185
331
8525
  5
9153
331
969F
  5
9703
331
913E
  5
7796
331
857C
  5
918D
331
8672
  5
9459
331
852D
  5
915B
331
9146
  5
779E
331
8F7F
  5
94C3
331
8545
  5
9160
331
914E
  5
77A7
331
7796
  5
78C1
331
779E
  5
78EB
331
77A6
  5
78F4
331
77CB
  5
82AE
331
784A
  5
84BE
331
82C5
  5
8F97
331
7852
  5
84D2
331
78A1
  5
854D
331
82CD
  5
9127
331
7D17
  5
885F
331
781B
  5
82C9
331
78A9
  5
855E
331
78F0
  5
8585
331
84B4
  5
912F
331
7D2F
  5
8A94
331
78B1
  5
8567
331
82ED
  5
913A
331
9195
  5
7864
331
9156
  5
77AF
331
94D3
  5
858E
331
950A
  5
867D
331
919D
  5
7871
331
915E
  5
77B7
331
94DB
  5
8609
331
9512
  5
8689
331
9660
  5
9667
331
951A
  5
8791
331
94E3
  5
862E
331
9166
  5
77BF
331
91A5
  5
787A
331
87A9
  5
9498
331
8584
  5
9195
331
867A
  5
9462
331
9522
  5
87B3
331
9494
  5
951B
331
916E
  5
77CA
331
91AD
  5
78A3
331
94EB
  5
8655
331
9631
  5
9634
331
8F97
  5
9150
331
858C
  5
919D
331
8633
  5
943F
331
8E50
  5
94A0
331
855D
  5
916F
331
8653
  5
9442
331
868A
  5
946D
331
87B9
  5
949C
331
9127
  5
94D6
331
912F
  5
7787
331
8565
  5
9176
331
865B
  5
944A
331
869A
  5
946F
331
9137
  5
778F
331
7787
  5
78B2
331
778F
  5
78BA
331
77AC
  5
7CD6
331
782B
  5
8437
331
78B9
  5
856F
331
77B4
  5
7D30
331
7833
  5
843C
331
786A
  5
8529
331
78C1
  5
8578
331
8266
  5
8F70
331
77BC
  5
7DD6
331
783B
  5
845F
331
82AE
  5
8F7F
331
842D
  5
9147
331
77C4
  5
824B
331
787A
  5
8547
331
82BE
  5
8F81
331
8445
  5
913B
331
94F3
  5
865D
331
91B5
  5
78AB
331
9176
  5
7820
331
949C
  5
9529
331
94FB
  5
8665
331
9641
  5
9644
331
917E
  5
783B
331
9649
  5
964D
331
9503
  5
8676
331
9542
  5
9542
331
9186
  5
784B
331
9690
  5
96CC
331
8F68
  5
94C1
331
918E
  5
7853
331
9698
  5
96FC
331
856D
  5
917E
331
8663
  5
9452
331
913F
  5
7797
331
8F70
  5
9437
331
8575
  5
9186
331
8526
  5
9154
331
9147
  5
779F
331
857D
  5
918E
331
8673
  5
945A
331
914F
  5
77A8
331
8F80
  5
94C4
331
8546
  5
9161
331
7797
  5
78C2
331
779F
  5
78EC
331
77A7
  5
78F5
331
7CE8
  5
87B9
331
77CC
  5
82C4
331
784B
  5
84BF
331
848D
  5
9137
331
7853
  5
84EF
331
78A2
  5
854E
331
78AA
  5
855F
331
78F1
  5
8586
331
84B5
  5
9130
331
7D30
  5
8A95
331
78B2
  5
8568
331
9196
  5
7865
331
9157
  5
77B0
331
94D4
  5
858F
331
950B
  5
867E
331
961A
  5
961A
331
96A0
  5
9704
331
9661
  5
9668
331
919E
  5
7873
331
915F
  5
77B8
331
94DC
  5
860C
331
9513
  5
868A
331
9622
  5
9622
331
951B
  5
8794
331
94E4
  5
862F
331
9167
  5
77C1
331
91A6
  5
787C
331
9669
  5
9673
331
87AA
  5
9499
331
9671
  5
967B
331
9495
  5
951E
331
916F
  5
77CB
331
91AE
  5
78A4
331
94EC
  5
8656
331
9632
  5
9635
331
8585
  5
9196
331
867B
  5
9463
331
858D
  5
919E
331
87BA
  5
949D
331
855E
  5
9170
331
8654
  5
9443
331
9130
  5
7788
331
84EF
  5
9148
331
8566
  5
9177
331
865C
  5
944B
331
869B
  5
9470
331
7788
  5
78B3
331
77AD
  5
7CD7
331
782C
  5
8439
331
78BA
  5
8570
331
82F6
  5
9141
331
77B5
  5
7D32
331
7834
  5
843D
331
78C2
  5
8579
331
77BD
  5
7DD8
331
783C
  5
84AE
331
7873
  5
852C
331
82AF
  5
8F80
331
77C5
  5
824C
331
7844
  5
84AF
331
82BF
  5
8F82
331
8446
  5
913C
331
94F4
  5
865E
331
91B6
  5
78AC
331
9177
  5
7821
331
949D
  5
9539
331
94FC
  5
8666
331
953B
  5
91AA
331
917F
  5
783C
331
9504
  5
8677
331
964A
  5
964E
331
94BD
  5
951C
331
9187
  5
784C
331
9691
  5
96CD
331
9138
  5
7790
331
8F69
  5
94C2
331
918F
  5
7854
331
9699
  5
96FD
331
856E
  5
917F
331
8664
  5
9453
331
9140
  5
7798
331
8F71
  5
9438
331
8576
  5
9187
331
8527
  5
9155
331
9148
  5
77A0
331
857E
  5
918F
331
8674
  5
945B
331
8F81
  5
94D1
331
8547
  5
9162
331
7790
  5
78BB
331
7798
  5
78C3
331
77A0
  5
78ED
331
7DD8
  5
8E50
331
77CD
  5
82C5
331
784C
  5
84CB
331
848E
  5
9138
331
7854
  5
84F0
331
78A3
  5
854F
331
78EA
  5
857E
331
78AB
  5
8560
331
78F2
  5
8587
331
84B6
  5
9131
331
78B3
  5
8569
331
82EF
  5
913E
331
9150
  5
77A9
331
94D5
  5
8590
331
9197
  5
7867
331
950C
  5
867F
331
9158
  5
77B1
331
94DD
  5
860D
331
9476
  5
951A
331
919F
  5
7874
331
9160
  5
77B9
331
9514
  5
8699
331
9662
  5
9669
331
84B8
  5
9133
331
951C
  5
87AD
331
94E5
  5
8632
331
9168
  5
77C2
331
91A7
  5
787D
331
966A
  5
9674
331
87AB
  5
949A
331
8586
  5
9197
331
862D
  5
9439
331
867C
  5
9464
331
9524
  5
8612
331
9496
  5
951F
331
91AF
  5
78A5
331
94ED
  5
8657
331
9672
  5
967C
331
87B3
  5
9477
331
858E
  5
919F
331
8655
  5
9444
331
9131
  5
7789
331
8567
  5
9178
331
865D
  5
944C
331
869C
  5
9471
331
7789
  5
78B4
331
77AE
  5
7CE7
331
782D
  5
843A
331
7864
  5
8521
331
78BB
  5
8571
331
82F7
  5
9142
331
77B6
  5
7D63
331
7835
  5
844A
331
78C3
  5
857A
331
77BE
  5
7DD9
331
7874
  5
852D
331
77C6
  5
8266
331
7845
  5
84B1
331
787C
  5
8548
331
78DB
  5
857C
331
8447
  5
913D
331
9170
  5
77CC
331
94F5
  5
865F
331
963B
  5
963E
331
9178
  5
782D
331
949E
  5
953B
331
9682
  5
968E
331
94FD
  5
8667
331
953C
  5
91B2
331
9180
  5
7844
331
968A
  5
969E
331
84F0
  5
9149
331
964B
  5
964F
331
9505
  5
8678
331
9544
  5
9544
331
94BE
  5
953A
331
9188
  5
784D
331
9692
  5
96CE
331
8DFB
  5
8438
331
856F
  5
9180
331
8665
  5
9454
331
9614
  5
9614
331
969A
  5
96FE
331
9139
  5
7791
331
8F72
  5
9435
331
8577
  5
9188
331
8528
  5
9156
331
9141
  5
7799
331
857F
  5
9190
331
8675
  5
945C
331
9149
  5
77A1
331
8F82
  5
94D2
331
7791
  5
78BC
331
7799
  5
78D6
331
77A1
  5
78EE
331
7DD9
  5
8EEE
331
784D
  5
84CC
331
7DE9
  5
8F65
331
7855
  5
84F1
331
78A4
  5
8550
331
78EB
  5
857F
331
849F
  5
9136
331
785D
  5
84F4
331
78AC
  5
8561
331
78F3
  5
8588
331
7D32
  5
8DE5
331
78B4
  5
856A
331
84B7
  5
9132
331
9190
  5
7855
331
9151
  5
77AA
331
9653
  5
9658
331
9198
  5
7868
331
9159
  5
77B2
331
944F
  5
94F3
331
94D6
  5
85B0
331
950D
  5
8680
331
961C
  5
961C
331
9477
  5
7823
331
91A0
  5
7875
331
94DE
  5
860E
331
9515
  5
869B
331
84B9
  5
9134
331
8548
  5
9163
331
951D
  5
87AE
331
94E6
  5
8633
331
9169
  5
77C4
331
91A8
  5
787E
331
87AC
  5
949B
331
8587
  5
9198
331
862E
  5
943A
331
867D
  5
9465
331
9497
  5
9520
331
94EE
  5
8658
331
9673
  5
967D
331
87B4
  5
9479
331
84D1
  5
9126
331
8558
  5
916A
331
858F
  5
91A0
331
8560
  5
9171
331
8656
  5
9445
331
9132
  5
778A
331
865E
  5
944D
331
869D
  5
9472
331
7782
  5
78AD
331
778A
  5
78B5
331
77AF
  5
7CE8
331
7865
  5
8522
331
78BC
  5
8572
331
82F8
  5
9143
331
77B7
  5
7D64
331
7CD3
  5
87B4
331
77BF
  5
7DE9
331
7875
  5
8541
331
77C7
  5
82AB
331
787D
  5
8549
331
91B0
  5
78A6
331
9171
  5
77CD
331
94F6
  5
8660
331
9179
  5
782F
331
949F
  5
953C
331
94FE
  5
8668
331
953D
  5
91B6
331
9181
  5
7845
331
8568
  5
9179
331
84F1
  5
914A
331
9506
  5
8679
331
9693
  5
96CF
331
94BF
  5
8545
331
9189
  5
784E
331
8DFC
  5
949E
331
8570
  5
9181
331
8521
  5
9151
331
8666
  5
9455
331
969B
  5
96FF
331
913A
  5
7792
331
8F73
  5
9436
331
8578
  5
9189
331
8529
  5
9157
331
8607
  5
91A6
331
9142
  5
779A
331
8676
  5
945D
331
8541
  5
915C
331
860F
  5
91B9
331
914A
  5
77A2
331
8F83
  5
94D3
331
7792
  5
78BD
331
779A
  5
78DA
331
77A2
  5
78EF
331
784E
  5
84CD
331
78A5
  5
8551
331
78EC
  5
8580
331
823A
  5
8F66
331
82D9
  5
912C
331
781F
  5
82CB
331
785E
  5
84F5
331
78AD
  5
8562
331
78F4
  5
8589
331
7827
  5
82FA
331
78B5
  5
856B
331
9448
  5
94EC
331
9191
  5
7858
331
9152
  5
77AB
331
9199
  5
7869
331
915A
  5
77B3
331
94D7
  5
85B1
331
950E
  5
8681
331
961D
  5
961D
331
94DF
  5
860F
331
9478
  5
7827
331
9162
  5
77BB
331
91A1
  5
7876
331
9516
  5
869C
331
9664
  5
966B
331
84BA
  5
9135
331
8549
  5
9164
331
8580
  5
9191
331
9703
  5
969B
331
951E
  5
87AF
331
94E7
  5
8651
331
916A
  5
77C5
331
91A9
  5
787F
331
862F
  5
943B
331
8588
  5
9199
331
867E
  5
9466
331
9526
  5
9540
331
94EF
  5
8659
331
9674
  5
967E
331
87B5
  5
947A
331
8559
  5
916B
331
8590
  5
91A1
331
8686
  5
9461
331
8561
  5
9172
331
85B0
  5
91A2
331
8657
  5
9446
331
8D45
  5
78F1
331
9133
  5
778B
331
865F
  5
944E
331
7783
  5
78AE
331
778B
  5
78B6
331
77A8
  5
78F8
331
77B0
  5
7D14
331
782F
  5
843B
331
78BD
  5
8573
331
82F9
  5
9144
331
77B8
  5
7D65
331
7837
  5
845E
331
786E
  5
852A
331
7CD4
  5
87B5
331
7876
  5
8543
331
7847
  5
84B2
331
787E
  5
854A
331
91B1
  5
78A7
331
9172
  5
77D0
331
9498
  5
9521
331
94F7
  5
8661
331
91B9
  5
94D7
331
917A
  5
7833
331
94A0
  5
953D
331
94FF
  5
8671
331
953E
  5
91B4
331
9182
  5
7847
331
8569
  5
917A
331
84F2
  5
914B
331
85E8
  5
91A4
331
9507
  5
867A
331
9694
  5
96D0
331
918A
  5
784F
331
94C0
  5
953F
331
8571
  5
9182
331
8667
  5
9456
331
969C
  5
9700
331
913B
  5
7793
331
8579
  5
918A
331
852A
  5
9158
331
8608
  5
91A7
331
9143
  5
779B
331
8677
  5
945E
331
8542
  5
915D
331
8610
  5
91BA
331
914B
  5
77A3
331
7793
  5
78BE
331
779B
  5
78DB
331
77A3
  5
78F0
331
77C8
  5
82AC
331
77D0
  5
82C6
331
784F
  5
84CE
331
7D14
  5
87BA
331
78A6
  5
8558
331
78ED
  5
8581
331
823B
  5
8F67
331
7820
  5
82D5
331
78AE
  5
8563
331
78F5
  5
858A
331
78B6
  5
856C
331
9192
  5
7859
331
9153
  5
77AC
331
9449
  5
94ED
331
919A
  5
786A
331
915B
  5
77B4
331
94D8
  5
85E8
331
950F
  5
8682
331
9655
  5
965A
331
96CC
  5
9651
331
9517
  5
869D
331
9479
  5
7828
331
9163
  5
77BC
331
91A2
  5
7877
331
94E0
  5
8610
331
854A
  5
9165
331
8581
  5
9192
331
962E
  5
9631
331
951F
  5
87B0
331
94E8
  5
8652
331
916B
  5
77C6
331
91AA
  5
7880
331
9704
  5
969C
331
8E4D
  5
949F
331
8589
  5
919A
331
8630
  5
943C
331
867F
  5
9467
331
87B6
  5
9495
331
855A
  5
916C
331
8687
  5
946A
331
912C
  5
7784
331
8562
  5
9173
331
85B1
  5
91A3
331
8658
  5
9447
331
8F65
  5
94BE
331
9134
  5
778C
331
7784
  5
78AF
331
778C
  5
78B7
331
77A9
  5
78F9
331
7828
  5
8435
331
824B
  5
8F68
331
77B1
  5
7D15
331
7867
  5
8523
331
78BE
  5
8575
331
82FA
  5
9145
331
77B9
  5
7DC3
331
82AB
  5
8F71
331
77C1
  5
823A
331
7877
  5
8544
331
78D6
  5
857B
331
787F
  5
854B
331
94F0
  5
865A
331
91B2
  5
78A8
331
9173
  5
781B
331
9499
  5
9522
331
94F8
  5
8662
331
91BA
  5
94D8
331
917B
  5
7834
331
94A1
  5
953E
331
968D
  5
96A1
331
9500
  5
8672
331
953F
  5
91B5
331
9183
  5
7848
331
8660
  5
944F
331
856A
  5
917B
331
84F3
  5
914C
331
85E9
  5
91A5
331
964E
  5
9653
331
9695
  5
96F9
331
918B
  5
7850
331
8572
  5
9183
331
8668
  5
9457
331
969D
  5
9701
331
913C
  5
7794
331
857A
  5
918B
331
852B
  5
9159
331
8609
  5
91A8
331
9144
  5
779C
331
8543
  5
915E
331
914C
  5
77A4
331
7794
  5
78BF
331
779C
  5
78E7
331
77A4
  5
78F2
331
7848
  5
84B3
331
82C3
  5
8F83
331
7850
  5
84CF
331
7D15
  5
87CF
331
7858
  5
84F2
331
78A7
  5
8559
331
78EE
  5
8582
331
78AF
  5
8565
331
84B2
  5
912D
331
78B7
  5
856D
331
9193
  5
785D
331
9154
  5
77AD
331
94D1
  5
858C
331
9508
  5
867B
331
919B
  5
786C
331
915C
  5
77B5
331
94D9
  5
85E9
331
9510
  5
8687
331
961F
  5
961F
331
9518
  5
8738
331
9164
  5
77BD
331
91A3
  5
7878
331
94E1
  5
8613
331
96CD
  5
964A
331
854B
  5
9166
331
8582
  5
9193
331
8678
  5
945F
331
9520
  5
87B1
331
94E9
  5
8653
331
916C
  5
77C7
331
91AB
  5
78A1
331
966E
  5
9678
331
8553
  5
9168
331
858A
  5
919B
331
8631
  5
943D
331
8680
  5
9468
331
87B7
  5
9478
331
9125
  5
94D4
331
855B
  5
916D
331
8651
  5
9440
331
8688
  5
946B
331
912D
  5
7785
331
8EEE
  5
94BD
331
8563
  5
9174
331
8659
  5
9448
331
9135
  5
778D
331
8F66
  5
94BF
331
7785
  5
78B0
331
778D
  5
78B8
331
77AA
  5
7CD3
331
7829
  5
8436
331
824C
  5
8F69
331
77B2
  5
7D17
331
7868
  5
8524
331
78BF
  5
8576
331
82FB
  5
9146
331
77BA
  5
7DC6
331
82AC
  5
8F72
331
7CD6
  5
87B6
331
77C2
  5
823B
331
8443
  5
913F
331
94F1
  5
865B
331
91B3
  5
78A9
331
9174
  5
781E
331
949A
  5
9523
331
94F9
  5
8663
331
917C
  5
7835
331
9647
  5
964B
331
9501
  5
8674
331
9540
  5
91AE
331
9184
  5
7849
331
968E
  5
96CA
331
856B
  5
917C
331
84F4
  5
914D
331
8661
  5
9450
331
8738
  5
9473
331
918C
  5
7851
331
94C2
  5
951D
331
9696
  5
96FA
331
8573
  5
9184
331
8524
  5
9152
331
969E
  5
9702
331
913D
  5
7795
331
857B
  5
918C
331
8671
  5
9458
331
852C
  5
915A
331
9145
  5
779D
331
8544
  5
915F
331
914D
  5
77A6
331
7795
  5
78C0
331
77A5
  5
78F3
  0
SORTENTSTABLE
  5
7DC2
102
{ACAD_REACTORS
330
6F6A
102
}
330
6F6A
100
AcDbSortentsTable
330
6F5E
  0
SORTENTSTABLE
  5
8782
102
{ACAD_REACTORS
330
8781
102
}
330
8781
100
AcDbSortentsTable
330
8776
  0
SORTENTSTABLE
  5
8E1D
102
{ACAD_REACTORS
330
8E1C
102
}
330
8E1C
100
AcDbSortentsTable
330
8E17
  0
SORTENTSTABLE
  5
982D
102
{ACAD_REACTORS
330
982C
102
}
330
982C
100
AcDbSortentsTable
330
9820
  0
SORTENTSTABLE
  5
983F
102
{ACAD_REACTORS
330
983E
102
}
330
983E
100
AcDbSortentsTable
330
9833
  0
XRECORD
  5
9917
102
{ACAD_REACTORS
330
9916
102
}
330
9916
100
AcDbXrecord
280
     1
 40
544230.0
  1
Sytemy hydroizolacji stosować wg zalecen producentow\PStyropian wodoodporny wg zalecen producentow
  0
XRECORD
  5
97CA
102
{ACAD_REACTORS
330
97C9
102
}
330
97C9
100
AcDbXrecord
280
     1
 40
24693.0
  1
\pxqc;A\P(5 : 1)
  0
XRECORD
  5
98FB
102
{ACAD_REACTORS
330
98FA
102
}
330
98FA
100
AcDbXrecord
280
     1
 40
33376.0
  1
Tynk zewnętrzny SOLBET
  0
XRECORD
  5
98FD
102
{ACAD_REACTORS
330
98FC
102
}
330
98FC
100
AcDbXrecord
280
     1
 40
22651.0
  1
Emulsja izolująca
  0
XRECORD
  5
98FF
102
{ACAD_REACTORS
330
98FE
102
}
330
98FE
100
AcDbXrecord
280
     1
 40
16059.0
  1
Tynk cokołowy
  0
XRECORD
  5
97CC
102
{ACAD_REACTORS
330
97CB
102
}
330
97CB
100
AcDbXrecord
280
     1
 40
38784.0
  1
\pxql;Warstwa izolacji termicznej
  0
XRECORD
  5
97CE
102
{ACAD_REACTORS
330
97CD
102
}
330
97CD
100
AcDbXrecord
280
     1
 40
24709.0
  1
\pxqc;B\P(3 : 1)
  0
XRECORD
  5
9901
102
{ACAD_REACTORS
330
9900
102
}
330
9900
100
AcDbXrecord
280
     1
 40
34960.0
  1
Warstwa wykończeniowa
  0
XRECORD
  5
9903
102
{ACAD_REACTORS
330
9902
102
}
330
9902
100
AcDbXrecord
280
     1
 40
42625.0
  1
Płyty izolacyjne twarde
  0
XRECORD
  5
9905
102
{ACAD_REACTORS
330
9904
102
}
330
9904
100
AcDbXrecord
280
     1
 40
190037.0
  1
Mocowanie mechaniczne styropianu\P(w części naziemnej)
  0
XRECORD
  5
9907
102
{ACAD_REACTORS
330
9906
102
}
330
9906
100
AcDbXrecord
280
     1
 40
25446.0
  1
Wieniec żelbetowy
  0
XRECORD
  5
9909
102
{ACAD_REACTORS
330
9908
102
}
330
9908
100
AcDbXrecord
280
     1
 40
26527.0
  1
Cięcie tynkarskie
  0
XRECORD
  5
990B
102
{ACAD_REACTORS
330
990A
102
}
330
990A
100
AcDbXrecord
280
     1
 40
791367.0
  1
Posadowienie na płycie fundamentowej\Pbudynku podpiwniczonego\Ppiwnica z dociepleniem\Pwariant ściany z dociepleniem
  0
XRECORD
  5
990D
102
{ACAD_REACTORS
330
990C
102
}
330
990C
100
AcDbXrecord
280
     1
 40
727596.0
  1
Sytemy hydroizolacji stosować wg zaleceń producentów\PStyropian wodoodporny wg zaleceń producentów
  0
XRECORD
  5
990F
102
{ACAD_REACTORS
330
990E
102
}
330
990E
100
AcDbXrecord
280
     1
 40
34960.0
  1
Warstwa wykończeniowa
  0
XRECORD
  5
9911
102
{ACAD_REACTORS
330
9910
102
}
330
9910
100
AcDbXrecord
280
     1
 40
42625.0
  1
Płyty izolacyjne twarde
  0
XRECORD
  5
9913
102
{ACAD_REACTORS
330
9912
102
}
330
9912
100
AcDbXrecord
280
     1
 40
32623.0
  1
Płyta żelbetowa
  0
XRECORD
  5
97D0
102
{ACAD_REACTORS
330
97CF
102
}
330
97CF
100
AcDbXrecord
280
     1
 40
24700.0
  1
\pxqc;C\P(3 : 1)
  0
XRECORD
  5
9915
102
{ACAD_REACTORS
330
9914
102
}
330
9914
100
AcDbXrecord
280
     1
 40
33358.0
  1
Tynk wewnętrzny SOLBET
  0
XRECORD
  5
97D2
102
{ACAD_REACTORS
330
97D1
102
}
330
97D1
100
AcDbXrecord
280
     1
 40
23552.0
  1
\pxql;Bloczki SOLBET Optimal 
  0
XRECORD
  5
97D4
102
{ACAD_REACTORS
330
97D3
102
}
330
97D3
100
AcDbXrecord
280
     1
 40
24777.0
  1
\pxqc;D\P(5 : 1)
  0
XRECORD
  5
9898
102
{ACAD_REACTORS
330
9897
102
}
330
9897
100
AcDbXrecord
280
     1
 40
24748.0
  1
\pxqc;C\P(5 : 1)
  0
LAYOUT
  5
D3
102
{ACAD_XDICTIONARY
360
98EF
102
}
102
{ACAD_REACTORS
330
1A
102
}
330
1A
100
AcDbPlotSettings
  1

  2
C:\Documents and Settings\basas\Application Data\Autodesk\AutoCAD 2005\R16.1\enu\plotters\Default Windows System Printer.pc3
  4

  6

 40
0.0
 41
0.0
 42
0.0
 43
0.0
 44
0.0
 45
0.0
 46
0.0
 47
0.0
 48
0.0
 49
0.0
140
0.0
141
0.0
142
1.0
143
1.0
 70
   688
 72
     0
 73
     0
 74
     5
  7

 75
    16
147
1.0
148
0.0
149
0.0
100
AcDbLayout
  1
Arkusz1
 70
     1
 71
     1
 10
0.0
 20
0.0
 11
12.0
 21
9.0
 12
0.0
 22
0.0
 32
0.0
 14
0.0
 24
0.0
 34
0.0
 15
0.0
 25
0.0
 35
0.0
146
0.0
 13
0.0
 23
0.0
 33
0.0
 16
1.0
 26
0.0
 36
0.0
 17
0.0
 27
1.0
 37
0.0
 76
     0
330
D2
  0
LAYOUT
  5
D7
102
{ACAD_XDICTIONARY
360
98F1
102
}
102
{ACAD_REACTORS
330
1A
102
}
330
1A
100
AcDbPlotSettings
  1

  2
C:\Documents and Settings\basas\Application Data\Autodesk\AutoCAD 2005\R16.1\enu\plotters\Default Windows System Printer.pc3
  4

  6

 40
0.0
 41
0.0
 42
0.0
 43
0.0
 44
0.0
 45
0.0
 46
0.0
 47
0.0
 48
0.0
 49
0.0
140
0.0
141
0.0
142
1.0
143
1.0
 70
   688
 72
     0
 73
     0
 74
     5
  7

 75
    16
147
1.0
148
0.0
149
0.0
100
AcDbLayout
  1
Arkusz2
 70
     1
 71
     2
 10
0.0
 20
0.0
 11
12.0
 21
9.0
 12
0.0
 22
0.0
 32
0.0
 14
0.0
 24
0.0
 34
0.0
 15
0.0
 25
0.0
 35
0.0
146
0.0
 13
0.0
 23
0.0
 33
0.0
 16
1.0
 26
0.0
 36
0.0
 17
0.0
 27
1.0
 37
0.0
 76
     0
330
D6
  0
LAYOUT
  5
22
102
{ACAD_XDICTIONARY
360
98EC
102
}
102
{ACAD_REACTORS
330
1A
102
}
330
1A
100
AcDbPlotSettings
  1

  2
none_device
  4
Letter_(8.50_x_11.00_Inches)
  6

 40
6.349999904632568
 41
6.349999904632568
 42
6.350006103515625
 43
6.350006103515625
 44
215.8999938964844
 45
279.3999938964844
 46
11.54999923706054
 47
-13.65000009536743
 48
0.0
 49
0.0
140
210.0
141
297.0
142
1.0
143
1.0
 70
 11936
 72
     1
 73
     0
 74
     4
  7

 75
     0
147
0.9999999999999998
148
0.0
149
0.0
100
AcDbLayout
  1
Model
 70
     1
 71
     0
 10
0.0
 20
0.0
 11
12.0
 21
9.0
 12
0.0
 22
0.0
 32
0.0
 14
0.0
 24
0.0
 34
0.0
 15
0.0
 25
0.0
 35
0.0
146
0.0
 13
0.0
 23
0.0
 33
0.0
 16
1.0
 26
0.0
 36
0.0
 17
0.0
 27
1.0
 37
0.0
 76
     0
330
1F
331
EA
1001
ACAD_PSEXT
1000
Brak
1000
Brak
1000
Nie można zastosować.
1000
Arkusz nie zostanie wydrukowany dopóki nie wybrano konfiguracji plotera.
1070
     0
  0
MATERIAL
  5
ED
102
{ACAD_XDICTIONARY
360
98F5
102
}
102
{ACAD_REACTORS
330
6A
102
}
330
6A
100
AcDbMaterial
  1
ByBlock
 73
     2
 78
     2
172
     2
176
     2
270
     2
274
     2
  0
MATERIAL
  5
EC
102
{ACAD_XDICTIONARY
360
98F3
102
}
102
{ACAD_REACTORS
330
6A
102
}
330
6A
100
AcDbMaterial
  1
ByLayer
 73
     2
 78
     2
172
     2
176
     2
270
     2
274
     2
  0
MATERIAL
  5
EE
102
{ACAD_XDICTIONARY
360
173
102
}
102
{ACAD_REACTORS
330
6A
102
}
330
6A
100
AcDbMaterial
  1
Global
 73
     2
 43
0.0007999999797903
 43
0.0
 43
0.0
 43
0.0
 43
0.0
 43
0.0007999999797903
 43
0.0
 43
0.0
 43
0.0
 43
0.0
 43
1.0
 43
0.0
 43
0.0
 43
0.0
 43
0.0
 43
1.0
 78
     2
172
     2
 49
0.0007999999797903
 49
0.0
 49
0.0
 49
0.0
 49
0.0
 49
0.0007999999797903
 49
0.0
 49
0.0
 49
0.0
 49
0.0
 49
1.0
 49
0.0
 49
0.0
 49
0.0
 49
0.0
 49
1.0
176
     2
142
0.0007999999797903
142
0.0
142
0.0
142
0.0
142
0.0
142
0.0007999999797903
142
0.0
142
0.0
142
0.0
142
0.0
142
1.0
142
0.0
142
0.0
142
0.0
142
0.0
142
1.0
270
     2
144
0.0007999999797903
144
0.0
144
0.0
144
0.0
144
0.0
144
0.0007999999797903
144
0.0
144
0.0
144
0.0
144
0.0
144
1.0
144
0.0
144
0.0
144
0.0
144
0.0
144
1.0
274
     2
1001
ACAD
1070
    -1
1070
     3
1070
     0
1000

1071
        0
1070
     0
  0
ACAD_PROXY_OBJECT
  5
12E
102
{ACAD_REACTORS
330
12D
102
}
330
12D
100
AcDbProxyObject
 90
      499
 91
      508
 95
       23
 70
     0
 93
      618
310
40901902A4063FBFFFFFE0000000000000020400000000000020404254DD185B99185C99000000000000000104090140501A0000000000000410000000000000004102576400000000000003903F
340
14
340
0
340
11
340
0
 94
        0
1001
ACAD_MLEADERVER
1070
     2
1001
ACAD
1000
AcRTDxfName
1000
MLEADERSTYLE
1000
AcRTDxfName
1000
MLEADERSTYLE
  0
MLINESTYLE
  5
7E9
102
{ACAD_REACTORS
330
17
102
}
330
17
100
AcDbMlineStyle
  2
SOLBET_IZOLACJA
 70
   272
  3

 62
   256
 51
90.0
 52
90.0
 71
     2
 49
0.008
 62
   256
  6
BYLAYER
 49
-0.008
 62
   256
  6
BYLAYER
  0
MLINESTYLE
  5
18
102
{ACAD_REACTORS
330
17
102
}
330
17
100
AcDbMlineStyle
  2
STANDARD
 70
     0
  3

 62
   256
 51
90.0
 52
90.0
 71
     2
 49
0.5
 62
   256
  6
BYLAYER
 49
-0.5
 62
   256
  6
BYLAYER
  0
PLOTSETTINGS
  5
4FA3
102
{ACAD_XDICTIONARY
360
98F8
102
}
102
{ACAD_REACTORS
330
19
102
}
330
19
100
AcDbPlotSettings
  1
Ustawienia1
  2
PDF995
  4
User66
  6

 40
3.174999952316284
 41
3.174999952316284
 42
3.17498779296875
 43
3.17498779296875
 44
420.0
 45
594.0
 46
11.54999923706054
 47
-13.65000009536743
 48
-316.0724066439061
 49
0.0
140
18.27936744818385
141
297.0
142
1.0
143
1.0
 70
 11936
 72
     1
 73
     0
 74
     4
  7

 75
     0
147
0.9999999999999998
148
316.0724066439061
149
0.0
1001
ACAD_PSEXT
1000
PDF995
1000
PDF995 Printer Driver
1000
PDF995PORT
1000

1070
     0
  0
ACDBPLACEHOLDER
  5
F
102
{ACAD_REACTORS
330
E
102
}
330
E
  0
ACAD_PROXY_OBJECT
  5
10D
102
{ACAD_REACTORS
330
10C
102
}
330
10C
100
AcDbProxyObject
 90
      499
 91
      507
 95
       23
 70
     0
 93
       49
310
904313A31005FF
 94
        0
1001
ACAD
1000
AcRTDxfName
1000
SCALE
1000
AcRTDxfName
1000
SCALE
  0
ACAD_PROXY_OBJECT
  5
188
102
{ACAD_REACTORS
330
10C
102
}
330
10C
100
AcDbProxyObject
 90
      499
 91
      507
 95
       23
 70
     0
 93
      113
310
904313A3200400000000000000407F
 94
        0
1001
ACAD
1000
AcRTDxfName
1000
SCALE
1000
AcRTDxfName
1000
SCALE
  0
ACAD_PROXY_OBJECT
  5
189
102
{ACAD_REACTORS
330
10C
102
}
330
10C
100
AcDbProxyObject
 90
      499
 91
      507
 95
       23
 70
     0
 93
      113
310
904313A3400400000000000010407F
 94
        0
1001
ACAD
1000
AcRTDxfName
1000
SCALE
1000
AcRTDxfName
1000
SCALE
  0
ACAD_PROXY_OBJECT
  5
18A
102
{ACAD_REACTORS
330
10C
102
}
330
10C
100
AcDbProxyObject
 90
      499
 91
      507
 95
       23
 70
     0
 93
      113
310
904313A3500400000000000014407F
 94
        0
1001
ACAD
1000
AcRTDxfName
1000
SCALE
1000
AcRTDxfName
1000
SCALE
  0
ACAD_PROXY_OBJECT
  5
18B
102
{ACAD_REACTORS
330
10C
102
}
330
10C
100
AcDbProxyObject
 90
      499
 91
      507
 95
       23
 70
     0
 93
      113
310
904313A3800400000000000020407F
 94
        0
1001
ACAD
1000
AcRTDxfName
1000
SCALE
1000
AcRTDxfName
1000
SCALE
  0
ACAD_PROXY_OBJECT
  5
18C
102
{ACAD_REACTORS
330
10C
102
}
330
10C
100
AcDbProxyObject
 90
      499
 91
      507
 95
       23
 70
     0
 93
      121
310
905313A313000400000000000024407F
 94
        0
1001
ACAD
1000
AcRTDxfName
1000
SCALE
1000
AcRTDxfName
1000
SCALE
  0
ACAD_PROXY_OBJECT
  5
18D
102
{ACAD_REACTORS
330
10C
102
}
330
10C
100
AcDbProxyObject
 90
      499
 91
      507
 95
       23
 70
     0
 93
      121
310
905313A313600400000000000030407F
 94
        0
1001
ACAD
1000
AcRTDxfName
1000
SCALE
1000
AcRTDxfName
1000
SCALE
  0
ACAD_PROXY_OBJECT
  5
18E
102
{ACAD_REACTORS
330
10C
102
}
330
10C
100
AcDbProxyObject
 90
      499
 91
      507
 95
       23
 70
     0
 93
      121
310
905313A323000400000000000034407F
 94
        0
1001
ACAD
1000
AcRTDxfName
1000
SCALE
1000
AcRTDxfName
1000
SCALE
  0
ACAD_PROXY_OBJECT
  5
18F
102
{ACAD_REACTORS
330
10C
102
}
330
10C
100
AcDbProxyObject
 90
      499
 91
      507
 95
       23
 70
     0
 93
      121
310
905313A33300040000000000003E407F
 94
        0
1001
ACAD
1000
AcRTDxfName
1000
SCALE
1000
AcRTDxfName
1000
SCALE
  0
ACAD_PROXY_OBJECT
  5
190
102
{ACAD_REACTORS
330
10C
102
}
330
10C
100
AcDbProxyObject
 90
      499
 91
      507
 95
       23
 70
     0
 93
      121
310
905313A343000400000000000044407F
 94
        0
1001
ACAD
1000
AcRTDxfName
1000
SCALE
1000
AcRTDxfName
1000
SCALE
  0
ACAD_PROXY_OBJECT
  5
191
102
{ACAD_REACTORS
330
10C
102
}
330
10C
100
AcDbProxyObject
 90
      499
 91
      507
 95
       23
 70
     0
 93
      121
310
905313A353000400000000000049407F
 94
        0
1001
ACAD
1000
AcRTDxfName
1000
SCALE
1000
AcRTDxfName
1000
SCALE
  0
ACAD_PROXY_OBJECT
  5
192
102
{ACAD_REACTORS
330
10C
102
}
330
10C
100
AcDbProxyObject
 90
      499
 91
      507
 95
       23
 70
     0
 93
      129
310
906313A31303000400000000000059407F
 94
        0
1001
ACAD
1000
AcRTDxfName
1000
SCALE
1000
AcRTDxfName
1000
SCALE
  0
ACAD_PROXY_OBJECT
  5
193
102
{ACAD_REACTORS
330
10C
102
}
330
10C
100
AcDbProxyObject
 90
      499
 91
      507
 95
       23
 70
     0
 93
      113
310
904323A3100000000000000001017F
 94
        0
1001
ACAD
1000
AcRTDxfName
1000
SCALE
1000
AcRTDxfName
1000
SCALE
  0
ACAD_PROXY_OBJECT
  5
194
102
{ACAD_REACTORS
330
10C
102
}
330
10C
100
AcDbProxyObject
 90
      499
 91
      507
 95
       23
 70
     0
 93
      113
310
904343A3100000000000000041017F
 94
        0
1001
ACAD
1000
AcRTDxfName
1000
SCALE
1000
AcRTDxfName
1000
SCALE
  0
ACAD_PROXY_OBJECT
  5
195
102
{ACAD_REACTORS
330
10C
102
}
330
10C
100
AcDbProxyObject
 90
      499
 91
      507
 95
       23
 70
     0
 93
      113
310
904383A3100000000000000081017F
 94
        0
1001
ACAD
1000
AcRTDxfName
1000
SCALE
1000
AcRTDxfName
1000
SCALE
  0
ACAD_PROXY_OBJECT
  5
196
102
{ACAD_REACTORS
330
10C
102
}
330
10C
100
AcDbProxyObject
 90
      499
 91
      507
 95
       23
 70
     0
 93
      121
310
90531303A3100000000000000091017F
 94
        0
1001
ACAD
1000
AcRTDxfName
1000
SCALE
1000
AcRTDxfName
1000
SCALE
  0
ACAD_PROXY_OBJECT
  5
197
102
{ACAD_REACTORS
330
10C
102
}
330
10C
100
AcDbProxyObject
 90
      499
 91
      507
 95
       23
 70
     0
 93
      129
310
9063130303A3100000000000000165017F
 94
        0
1001
ACAD
1000
AcRTDxfName
1000
SCALE
1000
AcRTDxfName
1000
SCALE
  0
ACAD_PROXY_OBJECT
  5
198
102
{ACAD_REACTORS
330
10C
102
}
330
10C
100
AcDbProxyObject
 90
      499
 91
      507
 95
       23
 70
     0
 93
      265
310
90F312F31323822203D2031272D302200000000000000200FC00000000000028407F
 94
        0
1001
ACAD
1000
AcRTDxfName
1000
SCALE
1000
AcRTDxfName
1000
SCALE
  0
ACAD_PROXY_OBJECT
  5
199
102
{ACAD_REACTORS
330
10C
102
}
330
10C
100
AcDbProxyObject
 90
      499
 91
      507
 95
       23
 70
     0
 93
      257
310
90E312F363422203D2031272D302200000000000000240FC00000000000028407F
 94
        0
1001
ACAD
1000
AcRTDxfName
1000
SCALE
1000
AcRTDxfName
1000
SCALE
  0
ACAD_PROXY_OBJECT
  5
19A
102
{ACAD_REACTORS
330
10C
102
}
330
10C
100
AcDbProxyObject
 90
      499
 91
      507
 95
       23
 70
     0
 93
      257
310
90E312F333222203D2031272D302200000000000000280FC00000000000028407F
 94
        0
1001
ACAD
1000
AcRTDxfName
1000
SCALE
1000
AcRTDxfName
1000
SCALE
  0
ACAD_PROXY_OBJECT
  5
19B
102
{ACAD_REACTORS
330
10C
102
}
330
10C
100
AcDbProxyObject
 90
      499
 91
      507
 95
       23
 70
     0
 93
      257
310
90E312F313622203D2031272D3022000000000000002C0FC00000000000028407F
 94
        0
1001
ACAD
1000
AcRTDxfName
1000
SCALE
1000
AcRTDxfName
1000
SCALE
  0
ACAD_PROXY_OBJECT
  5
19C
102
{ACAD_REACTORS
330
10C
102
}
330
10C
100
AcDbProxyObject
 90
      499
 91
      507
 95
       23
 70
     0
 93
      257
310
90E332F333222203D2031272D3022000000000000002E0FC00000000000028407F
 94
        0
1001
ACAD
1000
AcRTDxfName
1000
SCALE
1000
AcRTDxfName
1000
SCALE
  0
ACAD_PROXY_OBJECT
  5
19D
102
{ACAD_REACTORS
330
10C
102
}
330
10C
100
AcDbProxyObject
 90
      499
 91
      507
 95
       23
 70
     0
 93
      249
310
90D312F3822203D2031272D302200000000000000300FC00000000000028407F
 94
        0
1001
ACAD
1000
AcRTDxfName
1000
SCALE
1000
AcRTDxfName
1000
SCALE
  0
ACAD_PROXY_OBJECT
  5
19E
102
{ACAD_REACTORS
330
10C
102
}
330
10C
100
AcDbProxyObject
 90
      499
 91
      507
 95
       23
 70
     0
 93
      257
310
90E332F313622203D2031272D302200000000000000320FC00000000000028407F
 94
        0
1001
ACAD
1000
AcRTDxfName
1000
SCALE
1000
AcRTDxfName
1000
SCALE
  0
ACAD_PROXY_OBJECT
  5
19F
102
{ACAD_REACTORS
330
10C
102
}
330
10C
100
AcDbProxyObject
 90
      499
 91
      507
 95
       23
 70
     0
 93
      249
310
90D312F3422203D2031272D302200000000000000340FC00000000000028407F
 94
        0
1001
ACAD
1000
AcRTDxfName
1000
SCALE
1000
AcRTDxfName
1000
SCALE
  0
ACAD_PROXY_OBJECT
  5
1A0
102
{ACAD_REACTORS
330
10C
102
}
330
10C
100
AcDbProxyObject
 90
      499
 91
      507
 95
       23
 70
     0
 93
      249
310
90D332F3822203D2031272D302200000000000000360FC00000000000028407F
 94
        0
1001
ACAD
1000
AcRTDxfName
1000
SCALE
1000
AcRTDxfName
1000
SCALE
  0
ACAD_PROXY_OBJECT
  5
1A1
102
{ACAD_REACTORS
330
10C
102
}
330
10C
100
AcDbProxyObject
 90
      499
 91
      507
 95
       23
 70
     0
 93
      249
310
90D312F3222203D2031272D302200000000000000380FC00000000000028407F
 94
        0
1001
ACAD
1000
AcRTDxfName
1000
SCALE
1000
AcRTDxfName
1000
SCALE
  0
ACAD_PROXY_OBJECT
  5
1A2
102
{ACAD_REACTORS
330
10C
102
}
330
10C
100
AcDbProxyObject
 90
      499
 91
      507
 95
       23
 70
     0
 93
      249
310
90D332F3422203D2031272D3022000000000000003A0FC00000000000028407F
 94
        0
1001
ACAD
1000
AcRTDxfName
1000
SCALE
1000
AcRTDxfName
1000
SCALE
  0
ACAD_PROXY_OBJECT
  5
1A3
102
{ACAD_REACTORS
330
10C
102
}
330
10C
100
AcDbProxyObject
 90
      499
 91
      507
 95
       23
 70
     0
 93
      169
310
90B3122203D2031272D302200400000000000028407F
 94
        0
1001
ACAD
1000
AcRTDxfName
1000
SCALE
1000
AcRTDxfName
1000
SCALE
  0
ACAD_PROXY_OBJECT
  5
1A4
102
{ACAD_REACTORS
330
10C
102
}
330
10C
100
AcDbProxyObject
 90
      499
 91
      507
 95
       23
 70
     0
 93
      265
310
90F312D312F3222203D2031272D3022000000000000003E0FC00000000000028407F
 94
        0
1001
ACAD
1000
AcRTDxfName
1000
SCALE
1000
AcRTDxfName
1000
SCALE
  0
ACAD_PROXY_OBJECT
  5
1A5
102
{ACAD_REACTORS
330
10C
102
}
330
10C
100
AcDbProxyObject
 90
      499
 91
      507
 95
       23
 70
     0
 93
      233
310
90B3322203D2031272D3022000000000000000210000000000000028407F
 94
        0
1001
ACAD
1000
AcRTDxfName
1000
SCALE
1000
AcRTDxfName
1000
SCALE
  0
ACAD_PROXY_OBJECT
  5
1A6
102
{ACAD_REACTORS
330
10C
102
}
330
10C
100
AcDbProxyObject
 90
      499
 91
      507
 95
       23
 70
     0
 93
      233
310
90B3622203D2031272D3022000000000000000610000000000000028407F
 94
        0
1001
ACAD
1000
AcRTDxfName
1000
SCALE
1000
AcRTDxfName
1000
SCALE
  0
ACAD_PROXY_OBJECT
  5
1A7
102
{ACAD_REACTORS
330
10C
102
}
330
10C
100
AcDbProxyObject
 90
      499
 91
      507
 95
       23
 70
     0
 93
      257
310
90E31272D3022203D2031272D3022000000000000000A10000000000000028407F
 94
        0
1001
ACAD
1000
AcRTDxfName
1000
SCALE
1000
AcRTDxfName
1000
SCALE
  0
TABLESTYLE
  5
7F
102
{ACAD_XDICTIONARY
360
162
102
}
102
{ACAD_REACTORS
330
7E
102
}
330
7E
100
AcDbTableStyle
  3
Standard
 70
     0
 71
     0
 40
1.5
 41
1.5
280
     0
281
     0
  7
Standard
140
4.5
170
     2
 62
     0
 63
     7
283
     0
274
    -2
284
     1
 64
     0
275
    -2
285
     1
 65
     0
276
    -2
286
     1
 66
     0
277
    -2
287
     1
 67
     0
278
    -2
288
     1
 68
     0
279
    -2
289
     1
 69
     0
  7
Standard
140
6.0
170
     5
 62
     0
 63
     7
283
     0
274
    -2
284
     1
 64
     0
275
    -2
285
     1
 65
     0
276
    -2
286
     1
 66
     0
277
    -2
287
     1
 67
     0
278
    -2
288
     1
 68
     0
279
    -2
289
     1
 69
     0
  7
Standard
140
4.5
170
     5
 62
     0
 63
     7
283
     0
274
    -2
284
     1
 64
     0
275
    -2
285
     1
 65
     0
276
    -2
286
     1
 66
     0
277
    -2
287
     1
 67
     0
278
    -2
288
     1
 68
     0
279
    -2
289
     1
 69
     0
  0
VISUALSTYLE
  5
F5
102
{ACAD_REACTORS
330
EF
102
}
330
EF
100
AcDbVisualStyle
  2
2dWireframe
 70
     4
 71
     0
 72
     2
 73
     1
 90
        0
 40
-0.6
 41
-30.0
 62
     5
 63
     7
 74
     1
 91
        4
 64
     7
 65
   257
 75
     1
175
     1
 42
1.0
 92
        0
 66
   257
 43
1.0
 76
     1
 77
     6
 78
     2
 67
     7
 79
     5
170
     0
171
     0
290
     0
174
     0
 93
        1
 44
0.0
173
     0
291
     0
 45
0.0
1001
ACAD
1000
AcDbSavedByObjectVersion
1070
     0
  0
VISUALSTYLE
  5
F7
102
{ACAD_REACTORS
330
EF
102
}
330
EF
100
AcDbVisualStyle
  2
3D Hidden
 70
     6
 71
     1
 72
     2
 73
     2
 90
        0
 40
-0.6
 41
-30.0
 62
     5
 63
     7
 74
     2
 91
        2
 64
     7
 65
   257
 75
     2
175
     1
 42
40.0
 92
        0
 66
   257
 43
1.0
 76
     1
 77
     6
 78
     2
 67
     7
 79
     3
170
     0
171
     0
290
     0
174
     0
 93
        1
 44
0.0
173
     0
291
     0
 45
0.0
1001
ACAD
1000
AcDbSavedByObjectVersion
1070
     0
  0
VISUALSTYLE
  5
F6
102
{ACAD_REACTORS
330
EF
102
}
330
EF
100
AcDbVisualStyle
  2
3dWireframe
 70
     5
 71
     0
 72
     2
 73
     1
 90
        0
 40
-0.6
 41
-30.0
 62
     5
 63
     7
 74
     1
 91
        4
 64
     7
 65
   257
 75
     1
175
     1
 42
1.0
 92
        0
 66
   257
 43
1.0
 76
     1
 77
     6
 78
     2
 67
     7
 79
     5
170
     0
171
     0
290
     0
174
     0
 93
        1
 44
0.0
173
     0
291
     0
 45
0.0
1001
ACAD
1000
AcDbSavedByObjectVersion
1070
     0
  0
VISUALSTYLE
  5
F4
102
{ACAD_REACTORS
330
EF
102
}
330
EF
100
AcDbVisualStyle
  2
Basic
 70
     7
 71
     1
 72
     0
 73
     1
 90
        0
 40
-0.6
 41
-30.0
 62
     5
 63
     7
 74
     0
 91
        4
 64
     7
 65
   257
 75
     1
175
     1
 42
1.0
 92
        8
 66
     7
 43
1.0
 76
     1
 77
     6
 78
     2
 67
     7
 79
     5
170
     0
171
     0
290
     0
174
     0
 93
        1
 44
0.0
173
     0
291
     1
 45
0.0
1001
ACAD
1000
AcDbSavedByObjectVersion
1070
     0
  0
VISUALSTYLE
  5
FB
102
{ACAD_REACTORS
330
EF
102
}
330
EF
100
AcDbVisualStyle
  2
Brighten
 70
    12
 71
     2
 72
     2
 73
     1
 90
        0
 40
-0.6
 41
-30.0
 62
     5
 63
     7
 74
     1
 91
        4
 64
     7
 65
   257
 75
     1
175
     1
 42
1.0
 92
        8
 66
     7
 43
1.0
 76
     1
 77
     6
 78
     2
 67
     7
 79
     5
170
     0
171
     0
290
     0
174
     0
 93
        1
 44
50.0
173
     0
291
     1
 45
0.0
1001
ACAD
1000
AcDbSavedByObjectVersion
1070
     0
  0
VISUALSTYLE
  5
FF
102
{ACAD_REACTORS
330
EF
102
}
330
EF
100
AcDbVisualStyle
  2
ColorChange
 70
    16
 71
     2
 72
     2
 73
     3
 90
        0
 40
-0.6
 41
-30.0
 62
     5
 63
     8
 74
     1
 91
        4
 64
     7
 65
   257
 75
     1
175
     1
 42
1.0
 92
        8
 66
     8
 43
1.0
 76
     1
 77
     6
 78
     2
 67
     7
 79
     5
170
     0
171
     0
290
     0
174
     0
 93
        1
 44
0.0
173
     0
291
     1
 45
0.0
1001
ACAD
1000
AcDbSavedByObjectVersion
1070
     0
  0
VISUALSTYLE
  5
F8
102
{ACAD_REACTORS
330
EF
102
}
330
EF
100
AcDbVisualStyle
  2
Conceptual
 70
     9
 71
     3
 72
     2
 73
     1
 90
        0
 40
-0.6
 41
-30.0
 62
     5
 63
     7
 74
     2
 91
        2
 64
     7
 65
   257
 75
     1
175
     1
 42
40.0
 92
        8
 66
     7
 43
1.0
 76
     1
 77
     6
 78
     2
 67
     7
 79
     3
170
     0
171
     0
290
     0
174
     0
 93
        1
 44
0.0
173
     0
291
     0
 45
0.0
1001
ACAD
1000
AcDbSavedByObjectVersion
1070
     0
  0
VISUALSTYLE
  5
FA
102
{ACAD_REACTORS
330
EF
102
}
330
EF
100
AcDbVisualStyle
  2
Dim
 70
    11
 71
     2
 72
     2
 73
     1
 90
        0
 40
-0.6
 41
-30.0
 62
     5
 63
     7
 74
     1
 91
        4
 64
     7
 65
   257
 75
     1
175
     1
 42
1.0
 92
        8
 66
     7
 43
1.0
 76
     1
 77
     6
 78
     2
 67
     7
 79
     5
170
     0
171
     0
290
     0
174
     0
 93
        1
 44
-50.0
173
     0
291
     1
 45
0.0
1001
ACAD
1000
AcDbSavedByObjectVersion
1070
     0
  0
VISUALSTYLE
  5
FE
102
{ACAD_REACTORS
330
EF
102
}
330
EF
100
AcDbVisualStyle
  2
Facepattern
 70
    15
 71
     2
 72
     2
 73
     1
 90
        0
 40
-0.6
 41
-30.0
 62
     5
 63
     7
 74
     1
 91
        4
 64
     7
 65
   257
 75
     1
175
     1
 42
1.0
 92
        8
 66
     7
 43
1.0
 76
     1
 77
     6
 78
     2
 67
     7
 79
     5
170
     0
171
     0
290
     0
174
     0
 93
        1
 44
0.0
173
     0
291
     1
 45
0.0
1001
ACAD
1000
AcDbSavedByObjectVersion
1070
     0
  0
VISUALSTYLE
  5
F0
102
{ACAD_REACTORS
330
EF
102
}
330
EF
100
AcDbVisualStyle
  2
Flat
 70
     0
 71
     2
 72
     1
 73
     1
 90
        2
 40
-0.6
 41
30.0
 62
     5
 63
     7
 74
     0
 91
        4
 64
     7
 65
   257
 75
     1
175
     1
 42
1.0
 92
        8
 66
     7
 43
1.0
 76
     1
 77
     6
 78
     2
 67
     7
 79
     5
170
     0
171
     0
290
     0
174
     0
 93
        1
 44
0.0
173
     0
291
     1
 45
0.0
1001
ACAD
1000
AcDbSavedByObjectVersion
1070
     0
  0
VISUALSTYLE
  5
F1
102
{ACAD_REACTORS
330
EF
102
}
330
EF
100
AcDbVisualStyle
  2
FlatWithEdges
 70
     1
 71
     2
 72
     1
 73
     1
 90
        2
 40
-0.6
 41
30.0
 62
     5
 63
     7
 74
     1
 91
        4
 64
     7
 65
   257
 75
     1
175
     1
 42
1.0
 92
        0
 66
   257
 43
1.0
 76
     1
 77
     6
 78
     2
 67
     7
 79
     5
170
     0
171
     0
290
     0
174
     0
 93
        1
 44
0.0
173
     0
291
     1
 45
0.0
1001
ACAD
1000
AcDbSavedByObjectVersion
1070
     0
  0
VISUALSTYLE
  5
F2
102
{ACAD_REACTORS
330
EF
102
}
330
EF
100
AcDbVisualStyle
  2
Gouraud
 70
     2
 71
     2
 72
     2
 73
     1
 90
        2
 40
-0.6
 41
30.0
 62
     5
 63
     7
 74
     0
 91
        4
 64
     7
 65
   257
 75
     1
175
     1
 42
1.0
 92
        0
 66
     7
 43
1.0
 76
     1
 77
     6
 78
     2
 67
     7
 79
     5
170
     0
171
     0
290
     0
174
     0
 93
        1
 44
0.0
173
     0
291
     1
 45
0.0
1001
ACAD
1000
AcDbSavedByObjectVersion
1070
     0
  0
VISUALSTYLE
  5
F3
102
{ACAD_REACTORS
330
EF
102
}
330
EF
100
AcDbVisualStyle
  2
GouraudWithEdges
 70
     3
 71
     2
 72
     2
 73
     1
 90
        2
 40
-0.6
 41
30.0
 62
     5
 63
     7
 74
     1
 91
        4
 64
     7
 65
   257
 75
     1
175
     1
 42
1.0
 92
        0
 66
   257
 43
1.0
 76
     1
 77
     6
 78
     2
 67
     7
 79
     5
170
     0
171
     0
290
     0
174
     0
 93
        1
 44
0.0
173
     0
291
     1
 45
0.0
1001
ACAD
1000
AcDbSavedByObjectVersion
1070
     0
  0
VISUALSTYLE
  5
FD
102
{ACAD_REACTORS
330
EF
102
}
330
EF
100
AcDbVisualStyle
  2
Linepattern
 70
    14
 71
     2
 72
     2
 73
     1
 90
        0
 40
-0.6
 41
-30.0
 62
     5
 63
     7
 74
     1
 91
        4
 64
     7
 65
   257
 75
     7
175
     7
 42
1.0
 92
        8
 66
     7
 43
1.0
 76
     1
 77
     6
 78
     2
 67
     7
 79
     5
170
     0
171
     0
290
     0
174
     0
 93
        1
 44
0.0
173
     0
291
     1
 45
0.0
1001
ACAD
1000
AcDbSavedByObjectVersion
1070
     0
  0
VISUALSTYLE
  5
F9
102
{ACAD_REACTORS
330
EF
102
}
330
EF
100
AcDbVisualStyle
  2
Realistic
 70
     8
 71
     2
 72
     2
 73
     1
 90
        0
 40
-0.6
 41
-30.0
 62
     5
 63
     7
 74
     1
 91
        0
 64
     7
 65
   257
 75
     1
175
     1
 42
1.0
 92
        8
 66
     8
 43
1.0
 76
     1
 77
     6
 78
     2
 67
     7
 79
     5
170
     0
171
     0
290
     0
174
     0
 93
       13
 44
0.0
173
     0
291
     0
 45
0.0
1001
ACAD
1000
AcDbSavedByObjectVersion
1070
     0
  0
VISUALSTYLE
  5
FC
102
{ACAD_REACTORS
330
EF
102
}
330
EF
100
AcDbVisualStyle
  2
Thicken
 70
    13
 71
     2
 72
     2
 73
     1
 90
        0
 40
-0.6
 41
-30.0
 62
     5
 63
     7
 74
     1
 91
        4
 64
     7
 65
   257
 75
     1
175
     1
 42
1.0
 92
       12
 66
     7
 43
1.0
 76
     1
 77
     6
 78
     2
 67
     7
 79
     5
170
     0
171
     0
290
     0
174
     0
 93
        1
 44
0.0
173
     0
291
     1
 45
0.0
1001
ACAD
1000
AcDbSavedByObjectVersion
1070
     0
  0
DICTIONARYVAR
  5
146
102
{ACAD_REACTORS
330
5E
102
}
330
5E
100
DictionaryVariables
280
     0
  1
1:1
  0
DICTIONARYVAR
  5
145
102
{ACAD_REACTORS
330
5E
102
}
330
5E
100
DictionaryVariables
280
     0
  1
STANDARD
  0
DICTIONARYVAR
  5
84
102
{ACAD_REACTORS
330
5E
102
}
330
5E
100
DictionaryVariables
280
     0
  1
STANDARD
  0
DICTIONARYVAR
  5
5F
102
{ACAD_REACTORS
330
5E
102
}
330
5E
100
DictionaryVariables
280
     0
  1
2
  0
DICTIONARYVAR
  5
63
102
{ACAD_REACTORS
330
5E
102
}
330
5E
100
DictionaryVariables
280
     0
  1
1
  0
DICTIONARYVAR
  5
466
102
{ACAD_REACTORS
330
5E
102
}
330
5E
100
DictionaryVariables
280
     0
  1
0
  0
DICTIONARYVAR
  5
464
102
{ACAD_REACTORS
330
5E
102
}
330
5E
100
DictionaryVariables
280
     0
  1
2
  0
DICTIONARYVAR
  5
463
102
{ACAD_REACTORS
330
5E
102
}
330
5E
100
DictionaryVariables
280
     0
  1
1
  0
DICTIONARYVAR
  5
98EA
102
{ACAD_REACTORS
330
5E
102
}
330
5E
100
DictionaryVariables
280
     0
  1
80.000000
  0
DICTIONARYVAR
  5
98E9
102
{ACAD_REACTORS
330
5E
102
}
330
5E
100
DictionaryVariables
280
     0
  1
5.000000
  0
DICTIONARYVAR
  5
465
102
{ACAD_REACTORS
330
5E
102
}
330
5E
100
DictionaryVariables
280
     0
  1
127
  0
DICTIONARY
  5
98EF
330
D3
100
AcDbDictionary
280
     1
281
     1
  3
ACAD_XREC_ROUNDTRIP
360
98F0
  0
DICTIONARY
  5
98F1
330
D7
100
AcDbDictionary
280
     1
281
     1
  3
ACAD_XREC_ROUNDTRIP
360
98F2
  0
DICTIONARY
  5
98EC
330
22
100
AcDbDictionary
280
     1
281
     1
  3
ACAD_XREC_ROUNDTRIP
360
98ED
  0
DICTIONARY
  5
98F5
330
ED
100
AcDbDictionary
280
     1
281
     1
  3
ACAD_XREC_ROUNDTRIP
360
98F6
  0
DICTIONARY
  5
98F3
330
EC
100
AcDbDictionary
280
     1
281
     1
  3
ACAD_XREC_ROUNDTRIP
360
98F4
  0
DICTIONARY
  5
173
330
EE
100
AcDbDictionary
280
     1
281
     1
  3
ACAD_XREC_ROUNDTRIP
360
98F7
  3
BUMPTILE
360
175
  3
DIFFUSETILE
360
174
  3
OPACITYTILE
360
176
  3
REFLECTIONTILE
360
177
  0
DICTIONARY
  5
98F8
330
4FA3
100
AcDbDictionary
280
     1
281
     1
  3
ACAD_XREC_ROUNDTRIP
360
98F9
  0
DICTIONARY
  5
162
330
7F
100
AcDbDictionary
280
     1
281
     1
  3
ACAD_ROUNDTRIP_2008_TABLESTYLE_CELLSTYLEMAP
360
97C8
  3
ACAD_XREC_ROUNDTRIP
360
98EE
  0
XRECORD
  5
98F0
102
{ACAD_REACTORS
330
98EF
102
}
330
98EF
100
AcDbXrecord
280
     1
102
SHADEPLOT
 70
     0
102
SHADEPLOTRESLEVEL
 70
     2
102
SHADEPLOTCUSTOMDPI
 70
   300
  0
XRECORD
  5
98F2
102
{ACAD_REACTORS
330
98F1
102
}
330
98F1
100
AcDbXrecord
280
     1
102
SHADEPLOT
 70
     0
102
SHADEPLOTRESLEVEL
 70
     2
102
SHADEPLOTCUSTOMDPI
 70
   300
  0
XRECORD
  5
98ED
102
{ACAD_REACTORS
330
98EC
102
}
330
98EC
100
AcDbXrecord
280
     1
102
SHADEPLOT
 70
     0
102
SHADEPLOTRESLEVEL
 70
     2
102
SHADEPLOTCUSTOMDPI
 70
   300
  0
XRECORD
  5
98F6
102
{ACAD_REACTORS
330
98F5
102
}
330
98F5
100
AcDbXrecord
280
     1
102
MATERIAL
148
0.0
149
0.0
149
0.0
 93
        0
 94
       63
282
     0
 72
     1
 77
     1
171
     1
175
     1
179
     1
273
     0
  0
XRECORD
  5
98F4
102
{ACAD_REACTORS
330
98F3
102
}
330
98F3
100
AcDbXrecord
280
     1
102
MATERIAL
148
0.0
149
0.0
149
0.0
 93
        0
 94
       63
282
     0
 72
     1
 77
     1
171
     1
175
     1
179
     1
273
     0
  0
XRECORD
  5
98F7
102
{ACAD_REACTORS
330
173
102
}
330
173
100
AcDbXrecord
280
     1
102
MATERIAL
148
0.0
149
0.0
149
0.0
 93
        0
 94
       63
282
     0
 72
     1
 77
     1
171
     1
175
     1
179
     1
273
     0
  0
XRECORD
  5
175
102
{ACAD_REACTORS
330
173
102
}
330
173
100
AcDbXrecord
280
     1
270
     1
271
     1
  0
XRECORD
  5
174
102
{ACAD_REACTORS
330
173
102
}
330
173
100
AcDbXrecord
280
     1
270
     1
271
     1
  0
XRECORD
  5
176
102
{ACAD_REACTORS
330
173
102
}
330
173
100
AcDbXrecord
280
     1
270
     1
271
     1
  0
XRECORD
  5
177
102
{ACAD_REACTORS
330
173
102
}
330
173
100
AcDbXrecord
280
     1
270
     1
271
     1
  0
XRECORD
  5
98F9
102
{ACAD_REACTORS
330
98F8
102
}
330
98F8
100
AcDbXrecord
280
     1
102
SHADEPLOT
 70
     0
102
SHADEPLOTRESLEVEL
 70
     2
102
SHADEPLOTCUSTOMDPI
 70
   300
  0
ACAD_PROXY_OBJECT
  5
97C8
102
{ACAD_REACTORS
330
162
102
}
330
162
100
AcDbProxyObject
 90
      499
 91
      509
 95
       23
 70
     0
 93
     5304
310
40D054060020000020000003200101A000080002A5058000000C10000000000000006101010000000000003E0FC000000000000F83F0000000000003E0FC000000000000F83F000000000000049000000000000001240419019018000000C1003FBFFFFFE0000000000003C8FD029018000000C1003FBFFFFFE00000000000
310
03C8FD049018000000C1003FBFFFFFE0000000000003C8FD089018000000C1003FBFFFFFE0000000000003C8FD109018000000C1003FBFFFFFE0000000000003C8FD209018000000C1003FBFFFFFE0000000000003C8FD01405075F5449544C450041501A8000000C800406800020000A94160000003040000000000000012
310
40404000000000000F83F0000000000003E0FC000000000000F83F0000000000003E0FC0000000000001240000000000000049010640640600000030400FEFFFFFF8000000000000F23F40A40600000030400FEFFFFFF8000000000000F23F41240600000030400FEFFFFFF8000000000000F23F42240600000030400FEFFF
310
FFF8000000000000F23F44240600000030400FEFFFFFF8000000000000F23F48240600000030400FEFFFFFF8000000000000F23F409014217D2115051115480105406A0000003200101A000080002A5028000000C10000000000000004901010000000000003E0FC000000000000F83F0000000000003E0FC000000000000F
310
83F000000000000049000000000000001240419019018000000C1003FBFFFFFE0000000000003C8FD029018000000C1003FBFFFFFE0000000000003C8FD049018000000C1003FBFFFFFE0000000000003C8FD089018000000C1003FBFFFFFE0000000000003C8FD109018000000C1003FBFFFFFE0000000000003C8FD20901
310
8000000C1003FBFFFFFE0000000000003C8FD03409065F444154410000
340
11
340
14
340
14
340
14
340
14
340
14
340
14
340
11
340
14
340
14
340
14
340
14
340
14
340
14
340
11
340
14
340
14
340
14
340
14
340
14
340
14
 94
        0
1001
ACAD
1000
AcRTDxfName
1000
CELLSTYLEMAP
1000
AcRTDxfName
1000
CELLSTYLEMAP
  0
XRECORD
  5
98EE
102
{ACAD_REACTORS
330
162
102
}
330
162
100
AcDbXrecord
280
     1
102
ACAD_ROUNDTRIP_PRE2007_TABLESTYLE
 90
      512
 91
        0
  1

 92
      512
 93
        0
  2

 94
      512
 95
        0
  3

  0
ENDSEC
  0
EOF
