  0
SECTION
  2
HEADER
  9
$ACADVER
  1
AC1015
  9
$ACADMAINTVER
 70
    20
  9
$DWGCODEPAGE
  3
ANSI_1250
  9
$INSBASE
 10
0.0
 20
0.0
 30
0.0
  9
$EXTMIN
 10
-0.025500062620722
 20
-0.0226513486250042
 30
-0.0000000000000053
  9
$EXTMAX
 10
334.3517779849088
 20
297.000003457936
 30
0.0000000000000099
  9
$LIMMIN
 10
0.0
 20
0.0
  9
$LIMMAX
 10
334.3517740920902
 20
297.0
  9
$ORTHOMODE
 70
     0
  9
$REGENMODE
 70
     1
  9
$FILLMODE
 70
     1
  9
$QTEXTMODE
 70
     0
  9
$MIRRTEXT
 70
     0
  9
$LTSCALE
 40
1.0
  9
$ATTMODE
 70
     2
  9
$TEXTSIZE
 40
2.5
  9
$TRACEWID
 40
1.0
  9
$TEXTSTYLE
  7
Standard
  9
$CLAYER
  8
SOLBET_Emulsje_Folie
  9
$CELTYPE
  6
ByLayer
  9
$CECOLOR
 62
   256
  9
$CELTSCALE
 40
1.0
  9
$DISPSILH
 70
     0
  9
$DIMSCALE
 40
1.0
  9
$DIMASZ
 40
2.5
  9
$DIMEXO
 40
0.0
  9
$DIMDLI
 40
3.75
  9
$DIMRND
 40
0.0
  9
$DIMDLE
 40
0.0
  9
$DIMEXE
 40
1.25
  9
$DIMTP
 40
0.0
  9
$DIMTM
 40
0.0
  9
$DIMTXT
 40
2.5
  9
$DIMCEN
 40
2.5
  9
$DIMTSZ
 40
0.0
  9
$DIMTOL
 70
     0
  9
$DIMLIM
 70
     0
  9
$DIMTIH
 70
     0
  9
$DIMTOH
 70
     0
  9
$DIMSE1
 70
     0
  9
$DIMSE2
 70
     0
  9
$DIMTAD
 70
     1
  9
$DIMZIN
 70
     8
  9
$DIMBLK
  1

  9
$DIMASO
 70
     1
  9
$DIMSHO
 70
     1
  9
$DIMPOST
  1

  9
$DIMAPOST
  1

  9
$DIMALT
 70
     0
  9
$DIMALTD
 70
     3
  9
$DIMALTF
 40
0.03937007874016
  9
$DIMLFAC
 40
1.0
  9
$DIMTOFL
 70
     1
  9
$DIMTVP
 40
0.0
  9
$DIMTIX
 70
     0
  9
$DIMSOXD
 70
     0
  9
$DIMSAH
 70
     0
  9
$DIMBLK1
  1

  9
$DIMBLK2
  1

  9
$DIMSTYLE
  2
Solbet
  9
$DIMCLRD
 70
     0
  9
$DIMCLRE
 70
     0
  9
$DIMCLRT
 70
     0
  9
$DIMTFAC
 40
1.0
  9
$DIMGAP
 40
0.625
  9
$DIMJUST
 70
     0
  9
$DIMSD1
 70
     0
  9
$DIMSD2
 70
     0
  9
$DIMTOLJ
 70
     0
  9
$DIMTZIN
 70
     8
  9
$DIMALTZ
 70
     0
  9
$DIMALTTZ
 70
     0
  9
$DIMUPT
 70
     0
  9
$DIMDEC
 70
     2
  9
$DIMTDEC
 70
     2
  9
$DIMALTU
 70
     2
  9
$DIMALTTD
 70
     3
  9
$DIMTXSTY
  7
Solbet_2_5
  9
$DIMAUNIT
 70
     0
  9
$DIMADEC
 70
     0
  9
$DIMALTRND
 40
0.0
  9
$DIMAZIN
 70
     0
  9
$DIMDSEP
 70
    44
  9
$DIMATFIT
 70
     3
  9
$DIMFRAC
 70
     0
  9
$DIMLDRBLK
  1

  9
$DIMLUNIT
 70
     2
  9
$DIMLWD
 70
    -2
  9
$DIMLWE
 70
    -2
  9
$DIMTMOVE
 70
     0
  9
$LUNITS
 70
     2
  9
$LUPREC
 70
     4
  9
$SKETCHINC
 40
1.0
  9
$FILLETRAD
 40
0.0
  9
$AUNITS
 70
     0
  9
$AUPREC
 70
     0
  9
$MENU
  1
.
  9
$ELEVATION
 40
0.0
  9
$PELEVATION
 40
0.0
  9
$THICKNESS
 40
0.0
  9
$LIMCHECK
 70
     0
  9
$CHAMFERA
 40
2.2
  9
$CHAMFERB
 40
2.2
  9
$CHAMFERC
 40
0.0
  9
$CHAMFERD
 40
0.0
  9
$SKPOLY
 70
     0
  9
$TDCREATE
 40
2454690.075573148
  9
$TDUCREATE
 40
2454690.033906482
  9
$TDUPDATE
 40
2454848.860210776
  9
$TDUUPDATE
 40
2454848.818544109
  9
$TDINDWG
 40
1.2089811343
  9
$TDUSRTIMER
 40
1.2089766088
  9
$USRTIMER
 70
     1
  9
$ANGBASE
 50
0.0
  9
$ANGDIR
 70
     0
  9
$PDMODE
 70
     0
  9
$PDSIZE
 40
0.0
  9
$PLINEWID
 40
0.0
  9
$SPLFRAME
 70
     0
  9
$SPLINETYPE
 70
     6
  9
$SPLINESEGS
 70
     8
  9
$HANDSEED
  5
ACB1
  9
$SURFTAB1
 70
     6
  9
$SURFTAB2
 70
     6
  9
$SURFTYPE
 70
     6
  9
$SURFU
 70
     6
  9
$SURFV
 70
     6
  9
$UCSBASE
  2

  9
$UCSNAME
  2

  9
$UCSORG
 10
0.0
 20
0.0
 30
0.0
  9
$UCSXDIR
 10
1.0
 20
0.0
 30
0.0
  9
$UCSYDIR
 10
0.0
 20
1.0
 30
0.0
  9
$UCSORTHOREF
  2

  9
$UCSORTHOVIEW
 70
     0
  9
$UCSORGTOP
 10
0.0
 20
0.0
 30
0.0
  9
$UCSORGBOTTOM
 10
0.0
 20
0.0
 30
0.0
  9
$UCSORGLEFT
 10
0.0
 20
0.0
 30
0.0
  9
$UCSORGRIGHT
 10
0.0
 20
0.0
 30
0.0
  9
$UCSORGFRONT
 10
0.0
 20
0.0
 30
0.0
  9
$UCSORGBACK
 10
0.0
 20
0.0
 30
0.0
  9
$PUCSBASE
  2

  9
$PUCSNAME
  2

  9
$PUCSORG
 10
0.0
 20
0.0
 30
0.0
  9
$PUCSXDIR
 10
1.0
 20
0.0
 30
0.0
  9
$PUCSYDIR
 10
0.0
 20
1.0
 30
0.0
  9
$PUCSORTHOREF
  2

  9
$PUCSORTHOVIEW
 70
     0
  9
$PUCSORGTOP
 10
0.0
 20
0.0
 30
0.0
  9
$PUCSORGBOTTOM
 10
0.0
 20
0.0
 30
0.0
  9
$PUCSORGLEFT
 10
0.0
 20
0.0
 30
0.0
  9
$PUCSORGRIGHT
 10
0.0
 20
0.0
 30
0.0
  9
$PUCSORGFRONT
 10
0.0
 20
0.0
 30
0.0
  9
$PUCSORGBACK
 10
0.0
 20
0.0
 30
0.0
  9
$USERI1
 70
     0
  9
$USERI2
 70
     0
  9
$USERI3
 70
     0
  9
$USERI4
 70
     0
  9
$USERI5
 70
     0
  9
$USERR1
 40
0.0
  9
$USERR2
 40
0.0
  9
$USERR3
 40
0.0
  9
$USERR4
 40
0.0
  9
$USERR5
 40
0.0
  9
$WORLDVIEW
 70
     1
  9
$SHADEDGE
 70
     3
  9
$SHADEDIF
 70
    70
  9
$TILEMODE
 70
     1
  9
$MAXACTVP
 70
    64
  9
$PINSBASE
 10
0.0
 20
0.0
 30
0.0
  9
$PLIMCHECK
 70
     0
  9
$PEXTMIN
 10
0.0
 20
0.0
 30
0.0
  9
$PEXTMAX
 10
0.0
 20
0.0
 30
0.0
  9
$PLIMMIN
 10
0.0
 20
0.0
  9
$PLIMMAX
 10
12.0
 20
9.0
  9
$UNITMODE
 70
     0
  9
$VISRETAIN
 70
     1
  9
$PLINEGEN
 70
     0
  9
$PSLTSCALE
 70
     1
  9
$TREEDEPTH
 70
  3020
  9
$CMLSTYLE
  2
SOLBET_IZOLACJA
  9
$CMLJUST
 70
     0
  9
$CMLSCALE
 40
20.0
  9
$PROXYGRAPHICS
 70
     1
  9
$MEASUREMENT
 70
     1
  9
$CELWEIGHT
370
    -1
  9
$ENDCAPS
280
     0
  9
$JOINSTYLE
280
     0
  9
$LWDISPLAY
290
     1
  9
$INSUNITS
 70
     4
  9
$HYPERLINKBASE
  1

  9
$STYLESHEET
  1

  9
$XEDIT
290
     1
  9
$CEPSNTYPE
380
     0
  9
$PSTYLEMODE
290
     1
  9
$FINGERPRINTGUID
  2
{6B12AB33-8E39-428E-8E85-461C8D99A3CB}
  9
$VERSIONGUID
  2
{2B86B30F-0B72-450A-9ACB-F5F5F48BBB47}
  9
$EXTNAMES
290
     1
  9
$PSVPSCALE
 40
0.0
  9
$OLESTARTUP
290
     0
  0
ENDSEC
  0
SECTION
  2
CLASSES
  0
CLASS
  1
ACDBDICTIONARYWDFLT
  2
AcDbDictionaryWithDefault
  3
ObjectDBX Classes
 90
        0
280
     0
281
     0
  0
CLASS
  1
ACDBPLACEHOLDER
  2
AcDbPlaceHolder
  3
ObjectDBX Classes
 90
        0
280
     0
281
     0
  0
CLASS
  1
LAYOUT
  2
AcDbLayout
  3
ObjectDBX Classes
 90
        0
280
     0
281
     0
  0
CLASS
  1
DICTIONARYVAR
  2
AcDbDictionaryVar
  3
ObjectDBX Classes
 90
        0
280
     0
281
     0
  0
CLASS
  1
TABLESTYLE
  2
AcDbTableStyle
  3
ObjectDBX Classes
 90
     4095
280
     0
281
     0
  0
CLASS
  1
MATERIAL
  2
AcDbMaterial
  3
ObjectDBX Classes
 90
     1024
280
     0
281
     0
  0
CLASS
  1
VISUALSTYLE
  2
AcDbVisualStyle
  3
ObjectDBX Classes
 90
     4095
280
     0
281
     0
  0
CLASS
  1
SCALE
  2
AcDbScale
  3
ObjectDBX Classes
 90
     1153
280
     0
281
     0
  0
CLASS
  1
MLEADERSTYLE
  2
AcDbMLeaderStyle
  3
ACDB_MLEADERSTYLE_CLASS
 90
     4095
280
     0
281
     0
  0
CLASS
  1
CELLSTYLEMAP
  2
AcDbCellStyleMap
  3
ObjectDBX Classes
 90
     1152
280
     0
281
     0
  0
CLASS
  1
DIMASSOC
  2
AcDbDimAssoc
  3
"AcDbDimAssoc|Product Desc:     AcDim ARX App For Dimension|Company:          Autodesk, Inc.|WEB Address:      www.autodesk.com"
 90
    32768
280
     0
281
     0
  0
CLASS
  1
SORTENTSTABLE
  2
AcDbSortentsTable
  3
ObjectDBX Classes
 90
        0
280
     0
281
     0
  0
CLASS
  1
MULTILEADER
  2
AcDbMLeader
  3
ACDB_MLEADER_CLASS
 90
    33793
280
     0
281
     1
  0
CLASS
  1
ACDB_MTEXTOBJECTCONTEXTDATA_CLASS
  2
AcDbMTextObjectContextData
  3
ObjectDBX Classes
 90
    33921
280
     0
281
     0
  0
CLASS
  1
PLOTSETTINGS
  2
AcDbPlotSettings
  3
ObjectDBX Classes
 90
        0
280
     0
281
     0
  0
CLASS
  1
ACAD_EVALUATION_GRAPH
  2
AcDbEvalGraph
  3
ObjectDBX Classes
 90
    33921
280
     0
281
     0
  0
CLASS
  1
ACAECUSTOBJ
  2
AcAeEditorObj
  3
AcAeEditorObj
 90
    33792
280
     0
281
     0
  0
ENDSEC
  0
SECTION
  2
TABLES
  0
TABLE
  2
VPORT
  5
8
102
{ACAD_XDICTIONARY
360
443
102
}
330
0
100
AcDbSymbolTable
 70
     1
  0
VPORT
  5
EA
330
8
100
AcDbSymbolTableRecord
100
AcDbViewportTableRecord
  2
*Active
 70
     0
 10
0.0
 20
0.0
 11
1.0
 21
1.0
 12
167.163138961144
 22
148.4886760546555
 13
0.0
 23
0.0
 14
10.0
 24
10.0
 15
10.0
 25
10.0
 16
0.0
 26
0.0
 36
1.0
 17
0.0
 27
0.0
 37
0.0
 40
300.3229065266339
 41
1.74582560296846
 42
50.0
 43
0.0
 44
0.0
 50
0.0
 51
0.0
 71
     0
 72
  1000
 73
     1
 74
     3
 75
     0
 76
     0
 77
     0
 78
     0
281
     0
 65
     1
110
0.0
120
0.0
130
0.0
111
1.0
121
0.0
131
0.0
112
0.0
122
1.0
132
0.0
 79
     0
146
0.0
  0
ENDTAB
  0
TABLE
  2
LTYPE
  5
5
330
0
100
AcDbSymbolTable
 70
     3
  0
LTYPE
  5
14
330
5
100
AcDbSymbolTableRecord
100
AcDbLinetypeTableRecord
  2
ByBlock
 70
     0
  3

 72
    65
 73
     0
 40
0.0
  0
LTYPE
  5
15
330
5
100
AcDbSymbolTableRecord
100
AcDbLinetypeTableRecord
  2
ByLayer
 70
     0
  3

 72
    65
 73
     0
 40
0.0
  0
LTYPE
  5
16
330
5
100
AcDbSymbolTableRecord
100
AcDbLinetypeTableRecord
  2
Continuous
 70
     0
  3
Solid line
 72
    65
 73
     0
 40
0.0
  0
LTYPE
  5
982
330
5
100
AcDbSymbolTableRecord
100
AcDbLinetypeTableRecord
  2
BATTING
 70
     0
  3
Batting SSSSSSSSSSSSSSSSSSSSSSSSSSSSSSSSSSSSSSSSSSSSSSS
 72
    65
 73
     4
 40
10.16254
 49
0.00254
 74
     0
 49
-2.54
 74
     4
 75
   134
340
7E7
 46
2.54
 50
0.0
 44
-2.54
 45
0.0
 49
-5.08
 74
     4
 75
   134
340
7E7
 46
2.54
 50
180.0
 44
2.54
 45
0.0
 49
-2.54
 74
     0
  0
LTYPE
  5
A75A
330
5
100
AcDbSymbolTableRecord
100
AcDbLinetypeTableRecord
  2
DASHED2
 70
     0
  3
Dashed (.5x) _ _ _ _ _ _ _ _ _ _ _ _ _ _ _ _ _
 72
    65
 73
     2
 40
9.524999999999998
 49
6.349999999999999
 74
     0
 49
-3.174999999999999
 74
     0
  0
ENDTAB
  0
TABLE
  2
LAYER
  5
2
102
{ACAD_XDICTIONARY
360
3E5
102
}
330
0
100
AcDbSymbolTable
 70
    13
  0
LAYER
  5
10
102
{ACAD_XDICTIONARY
360
13C
102
}
330
2
100
AcDbSymbolTableRecord
100
AcDbLayerTableRecord
  2
0
 70
     0
 62
     7
  6
Continuous
370
    -3
390
F
  0
LAYER
  5
2BB
330
2
100
AcDbSymbolTableRecord
100
AcDbLayerTableRecord
  2
DEFPOINTS
 70
     0
 62
     7
  6
Continuous
290
     0
370
    -3
390
F
  0
LAYER
  5
3DD
102
{ACAD_XDICTIONARY
360
403
102
}
330
2
100
AcDbSymbolTableRecord
100
AcDbLayerTableRecord
  2
SOLBET_Bloczki
 70
     0
 62
   140
  6
Continuous
370
    -3
390
F
1001
AcAecLayerStandard
1000

1000

  0
LAYER
  5
3DF
102
{ACAD_XDICTIONARY
360
405
102
}
330
2
100
AcDbSymbolTableRecord
100
AcDbLayerTableRecord
  2
SOLBET_Wymiary_Opisy
 70
     0
 62
     1
  6
Continuous
370
    -3
390
F
1001
AcAecLayerStandard
1000

1000

  0
LAYER
  5
3E0
102
{ACAD_XDICTIONARY
360
407
102
}
330
2
100
AcDbSymbolTableRecord
100
AcDbLayerTableRecord
  2
SOLBET_Beton
 70
     0
 62
     9
  6
Continuous
370
    -3
390
F
1001
AcAecLayerStandard
1000

1000

  0
LAYER
  5
3E1
102
{ACAD_XDICTIONARY
360
409
102
}
330
2
100
AcDbSymbolTableRecord
100
AcDbLayerTableRecord
  2
SOLBET_Izolacja
 70
     0
 62
    40
  6
Continuous
370
    -3
390
F
1001
AcAecLayerStandard
1000

1000

  0
LAYER
  5
3E2
102
{ACAD_XDICTIONARY
360
40B
102
}
330
2
100
AcDbSymbolTableRecord
100
AcDbLayerTableRecord
  2
SOLBET_Zbrojenie_Konstrukcja
 70
     0
 62
     7
  6
Continuous
370
    -3
390
F
1001
AcAecLayerStandard
1000

1000

  0
LAYER
  5
3E3
102
{ACAD_XDICTIONARY
360
40D
102
}
330
2
100
AcDbSymbolTableRecord
100
AcDbLayerTableRecord
  2
SOLBET_Grunt
 70
     0
 62
    42
  6
Continuous
370
    -3
390
F
1001
AcAecLayerStandard
1000

1000

  0
LAYER
  5
3E4
102
{ACAD_XDICTIONARY
360
40F
102
}
330
2
100
AcDbSymbolTableRecord
100
AcDbLayerTableRecord
  2
SOLBET_Tynki_Posadzki
 70
     0
 62
     3
  6
Continuous
370
    -3
390
F
1001
AcAecLayerStandard
1000

1000

  0
LAYER
  5
3E8
102
{ACAD_XDICTIONARY
360
411
102
}
330
2
100
AcDbSymbolTableRecord
100
AcDbLayerTableRecord
  2
SOLBET_Ramka_05
 70
     0
 62
     2
  6
Continuous
370
    -3
390
F
1001
AcAecLayerStandard
1000

1000

  0
LAYER
  5
4E2
330
2
100
AcDbSymbolTableRecord
100
AcDbLayerTableRecord
  2
SOLBET_Emulsje_Folie
 70
     0
 62
     6
  6
Continuous
370
    -3
390
F
1001
AcAecLayerStandard
1000

1000

  0
LAYER
  5
A6A5
330
2
100
AcDbSymbolTableRecord
100
AcDbLayerTableRecord
  2
SOLBET_Zaprawy
 70
     0
 62
     4
  6
Continuous
370
    -3
390
F
1001
AcAecLayerStandard
1000

1000

  0
LAYER
  5
AB8E
102
{ACAD_XDICTIONARY
360
AB8F
102
}
330
2
100
AcDbSymbolTableRecord
100
AcDbLayerTableRecord
  2
SOLBET_Wymiary_Opisy @ 1
 70
     0
 62
     1
  6
Continuous
370
    -3
390
F
1001
AcAecLayerStandard
1000

1000

1001
AcadAnnotativeDecomposition
1000
AnnotativeData
1002
{
1070
     1
1070
     1
1002
}
  0
ENDTAB
  0
TABLE
  2
STYLE
  5
3
330
0
100
AcDbSymbolTable
 70
     5
  0
STYLE
  5
11
330
3
100
AcDbSymbolTableRecord
100
AcDbTextStyleTableRecord
  2
Standard
 70
     0
 40
0.0
 41
1.0
 50
0.0
 71
     0
 42
2.5
  3
txt.shx
  4

  0
STYLE
  5
7D7
330
3
100
AcDbSymbolTableRecord
100
AcDbTextStyleTableRecord
  2
Solbet_5
 70
     0
 40
5.0
 41
1.0
 50
0.0
 71
     0
 42
5.0
  3
isocpeur.ttf
  4

1001
ACAD
1000
ISOCPEUR
1071
       34
  0
STYLE
  5
7D9
330
3
100
AcDbSymbolTableRecord
100
AcDbTextStyleTableRecord
  2
Solbet_2_5
 70
     0
 40
2.5
 41
1.0
 50
0.0
 71
     0
 42
2.5
  3
isocpeur.ttf
  4

1001
ACAD
1000
ISOCPEUR
1071
       34
  0
STYLE
  5
7E7
330
3
100
AcDbSymbolTableRecord
100
AcDbTextStyleTableRecord
  2

 70
     1
 40
0.0
 41
1.0
 50
0.0
 71
     0
 42
2.5
  3
ltypeshp.shx
  4

  0
STYLE
  5
2A72
330
3
100
AcDbSymbolTableRecord
100
AcDbTextStyleTableRecord
  2
Solbet_1
 70
     0
 40
1.0
 41
1.0
 50
0.0
 71
     0
 42
2.5
  3
isocpeur.ttf
  4

1001
ACAD
1000
ISOCPEUR
1071
       34
  0
ENDTAB
  0
TABLE
  2
VIEW
  5
6
330
0
100
AcDbSymbolTable
 70
     0
  0
ENDTAB
  0
TABLE
  2
UCS
  5
7
330
0
100
AcDbSymbolTable
 70
     0
  0
ENDTAB
  0
TABLE
  2
APPID
  5
9
330
0
100
AcDbSymbolTable
 70
    14
  0
APPID
  5
12
330
9
100
AcDbSymbolTableRecord
100
AcDbRegAppTableRecord
  2
ACAD
 70
     0
  0
APPID
  5
9E
330
9
100
AcDbSymbolTableRecord
100
AcDbRegAppTableRecord
  2
ACAD_PSEXT
 70
     0
  0
APPID
  5
133
330
9
100
AcDbSymbolTableRecord
100
AcDbRegAppTableRecord
  2
AcadAnnoPO
 70
     0
  0
APPID
  5
134
330
9
100
AcDbSymbolTableRecord
100
AcDbRegAppTableRecord
  2
AcadAnnotative
 70
     0
  0
APPID
  5
135
330
9
100
AcDbSymbolTableRecord
100
AcDbRegAppTableRecord
  2
ACAD_DSTYLE_DIMJAG
 70
     0
  0
APPID
  5
136
330
9
100
AcDbSymbolTableRecord
100
AcDbRegAppTableRecord
  2
ACAD_DSTYLE_DIMTALN
 70
     0
  0
APPID
  5
165
330
9
100
AcDbSymbolTableRecord
100
AcDbRegAppTableRecord
  2
ACAD_MLEADERVER
 70
     0
  0
APPID
  5
2C4
330
9
100
AcDbSymbolTableRecord
100
AcDbRegAppTableRecord
  2
ASO_SCHRAFF
 70
     0
  0
APPID
  5
3DE
330
9
100
AcDbSymbolTableRecord
100
AcDbRegAppTableRecord
  2
AcAecLayerStandard
 70
     0
  0
APPID
  5
7DE
330
9
100
AcDbSymbolTableRecord
100
AcDbRegAppTableRecord
  2
ACAD_EXEMPT_FROM_CAD_STANDARDS
 70
     0
  0
APPID
  5
948
330
9
100
AcDbSymbolTableRecord
100
AcDbRegAppTableRecord
  2
ACAD_DSTYLE_DIMBREAK
 70
     0
  0
APPID
  5
1D0A
330
9
100
AcDbSymbolTableRecord
100
AcDbRegAppTableRecord
  2
AcadAnnotativeDecomposition
 70
     0
  0
APPID
  5
2A73
330
9
100
AcDbSymbolTableRecord
100
AcDbRegAppTableRecord
  2
AcDbAttr
 70
     0
  0
APPID
  5
6F16
330
9
100
AcDbSymbolTableRecord
100
AcDbRegAppTableRecord
  2
ACAUTHENVIRON
 70
     0
  0
ENDTAB
  0
TABLE
  2
DIMSTYLE
  5
A
330
0
100
AcDbSymbolTable
 70
     3
100
AcDbDimStyleTable
 71
     1
340
949
  0
DIMSTYLE
105
4DDB
330
A
100
AcDbSymbolTableRecord
100
AcDbDimStyleTableRecord
  2
Standard
 70
     0
340
11
  0
DIMSTYLE
105
949
102
{ACAD_REACTORS
330
A33A
102
}
330
A
100
AcDbSymbolTableRecord
100
AcDbDimStyleTableRecord
  2
Solbet
 70
     0
 41
2.5
 42
0.0
 43
3.75
 44
1.25
 73
     0
 74
     0
 77
     1
 78
     8
140
2.5
141
2.5
143
0.03937007874016
147
0.625
171
     3
172
     1
271
     2
272
     2
274
     3
278
    44
283
     0
284
     8
340
7D9
1001
ACAD_DSTYLE_DIMBREAK
1070
   391
1040
3.75
1001
ACAD_DSTYLE_DIMJAG
1070
   388
1040
1.5
1001
ACAD_DSTYLE_DIMTALN
1070
   392
1070
     0
  0
DIMSTYLE
105
954
330
A
100
AcDbSymbolTableRecord
100
AcDbDimStyleTableRecord
  2
Solbet$7
 70
     0
 41
2.5
 42
0.0
 43
3.75
 44
1.25
 73
     0
 74
     0
 77
     1
 78
     8
140
2.5
141
2.5
143
0.03937007874016
147
0.625
171
     3
172
     1
271
     2
272
     2
274
     3
278
    44
283
     0
284
     8
340
7D9
341
958
1001
ACAD_DSTYLE_DIMBREAK
1070
   391
1040
3.75
1001
ACAD_DSTYLE_DIMJAG
1070
   388
1040
1.5
1001
ACAD_DSTYLE_DIMTALN
1070
   392
1070
     0
  0
ENDTAB
  0
TABLE
  2
BLOCK_RECORD
  5
1
330
0
100
AcDbSymbolTable
 70
     9
  0
BLOCK_RECORD
  5
1F
102
{ACAD_XDICTIONARY
360
4A3
102
}
330
1
100
AcDbSymbolTableRecord
100
AcDbBlockTableRecord
  2
*Model_Space
340
22
  0
BLOCK_RECORD
  5
D2
330
1
100
AcDbSymbolTableRecord
100
AcDbBlockTableRecord
  2
*Paper_Space
340
D3
  0
BLOCK_RECORD
  5
D6
330
1
100
AcDbSymbolTableRecord
100
AcDbBlockTableRecord
  2
*Paper_Space0
340
D7
  0
BLOCK_RECORD
  5
958
330
1
100
AcDbSymbolTableRecord
100
AcDbBlockTableRecord
  2
_DotSmall
340
0
102
{BLKREFS
331
9C41
331
9C5F
331
A21B
331
A242
331
A26D
331
A26F
331
A2B6
331
A2B9
331
A2BB
331
A2BE
331
A2D8
331
A2DA
331
A2DE
331
A32D
331
A32F
331
A8FF
331
A903
331
A946
102
}
  0
BLOCK_RECORD
  5
6F5E
102
{ACAD_XDICTIONARY
360
6F6A
102
}
330
1
100
AcDbSymbolTableRecord
100
AcDbBlockTableRecord
  2
SOLBET_Bloczek_OPTIMAL_240x240x590_P+W_PRA
340
0
1001
ACAD
1000
DesignCenter Data
1002
{
1070
     1
1070
     4
1002
}
  0
BLOCK_RECORD
  5
790F
330
1
100
AcDbSymbolTableRecord
100
AcDbBlockTableRecord
  2
_None
340
0
  0
BLOCK_RECORD
  5
8F71
330
1
100
AcDbSymbolTableRecord
100
AcDbBlockTableRecord
  2
*X4
340
0
102
{BLKREFS
331
9260
102
}
  0
BLOCK_RECORD
  5
900D
330
1
100
AcDbSymbolTableRecord
100
AcDbBlockTableRecord
  2
*X5
340
0
102
{BLKREFS
331
92D7
102
}
  0
BLOCK_RECORD
  5
A33B
330
1
100
AcDbSymbolTableRecord
100
AcDbBlockTableRecord
  2
*D6
340
0
  0
BLOCK_RECORD
  5
ABE4
102
{ACAD_XDICTIONARY
360
ABEF
102
}
330
1
100
AcDbSymbolTableRecord
100
AcDbBlockTableRecord
  2
SOLBET_Bloczek_Optimal_240x240x590_G_KG700_PRA
340
0
102
{BLKREFS
331
ABF3
331
ABF4
331
ABF5
102
}
1001
ACAD
1000
DesignCenter Data
1002
{
1070
     1
1070
     4
1002
}
  0
ENDTAB
  0
ENDSEC
  0
SECTION
  2
BLOCKS
  0
BLOCK
  5
20
330
1F
100
AcDbEntity
  8
0
100
AcDbBlockBegin
  2
*Model_Space
 70
     0
 10
0.0
 20
0.0
 30
0.0
  3
*Model_Space
  1

  0
ENDBLK
  5
21
330
1F
100
AcDbEntity
  8
0
100
AcDbBlockEnd
  0
BLOCK
  5
D4
330
D2
100
AcDbEntity
 67
     1
  8
0
100
AcDbBlockBegin
  2
*Paper_Space
 70
     0
 10
0.0
 20
0.0
 30
0.0
  3
*Paper_Space
  1

  0
ENDBLK
  5
D5
330
D2
100
AcDbEntity
 67
     1
  8
0
100
AcDbBlockEnd
  0
BLOCK
  5
D8
330
D6
100
AcDbEntity
 67
     1
  8
0
100
AcDbBlockBegin
  2
*Paper_Space0
 70
     0
 10
0.0
 20
0.0
 30
0.0
  3
*Paper_Space0
  1

  0
ENDBLK
  5
D9
330
D6
100
AcDbEntity
 67
     1
  8
0
100
AcDbBlockEnd
  0
BLOCK
  5
95A
330
958
100
AcDbEntity
  8
0
100
AcDbBlockBegin
  2
_DotSmall
 70
     0
 10
0.0
 20
0.0
 30
0.0
  3
_DotSmall
  1

  0
LWPOLYLINE
  5
959
330
958
100
AcDbEntity
  8
0
  6
ByBlock
 62
     0
100
AcDbPolyline
 90
        2
 70
     1
 43
0.5
 10
-0.0625
 20
0.0
 42
1.0
 10
0.0625
 20
0.0
 42
1.0
  0
ENDBLK
  5
95B
330
958
100
AcDbEntity
  8
0
100
AcDbBlockEnd
  0
BLOCK
  5
6F6C
330
6F5E
100
AcDbEntity
  8
0
100
AcDbBlockBegin
  2
SOLBET_Bloczek_OPTIMAL_240x240x590_P+W_PRA
 70
     2
 10
0.0
 20
0.0
 30
0.0
  3
SOLBET_Bloczek_OPTIMAL_240x240x590_P+W_PRA
  1

  0
ATTDEF
  5
9AC6
330
6F5E
100
AcDbEntity
  8
SOLBET_Wymiary_Opisy
100
AcDbText
 10
-0.0000000878742412
 20
6.303237404038322
 30
0.0
 40
0.9913121336814832
  1
240x240x590
  7
Solbet_1
100
AcDbAttributeDefinition
  3

  2
WYMIARY
 70
     3
1001
AcDbAttr
1070
     0
1070
     1
  0
ATTDEF
  5
9AC7
330
6F5E
100
AcDbEntity
  8
SOLBET_Wymiary_Opisy
100
AcDbText
 10
-0.0000000878742412
 20
4.790717996322224
 30
0.0
 40
0.9913121336814832
  1
400, 500, 600, 700
  7
Solbet_1
100
AcDbAttributeDefinition
  3

  2
KLASA_GĘSTOŚCI
 70
     9
1001
AcDbAttr
1070
     0
1070
     1
  0
ATTDEF
  5
9AC8
330
6F5E
100
AcDbEntity
  8
SOLBET_Wymiary_Opisy
100
AcDbText
 10
-0.0000000878742412
 20
3.269569161109998
 30
0.0
 40
0.9913121336814832
  1
pióra+wpusty
  7
Solbet_1
100
AcDbAttributeDefinition
  3

  2
PROFILOWANIE
 70
    11
1001
AcDbAttr
1070
     0
1070
     1
  0
ATTDEF
  5
9AC9
330
6F5E
100
AcDbEntity
  8
SOLBET_Wymiary_Opisy
100
AcDbText
 10
-0.0000000878742412
 20
0.2448647517692188
 30
0.0
 40
0.9913121336814832
  1
SOLBET
  7
Solbet_1
100
AcDbAttributeDefinition
  3

  2
FIRMA
 70
     3
1001
AcDbAttr
1070
     0
1070
     1
  0
ATTDEF
  5
9ACA
330
6F5E
100
AcDbEntity
  8
SOLBET_Wymiary_Opisy
100
AcDbText
 10
-0.0000000878742412
 20
9.333547402386153
 30
0.0
 40
0.9913121336814832
  1
Bloczek
  7
Solbet_1
100
AcDbAttributeDefinition
  3
Nazwa
  2
NAZWA
 70
     3
1001
AcDbAttr
1070
     0
1070
     1
  0
ATTDEF
  5
9ACB
330
6F5E
100
AcDbEntity
  8
SOLBET_Wymiary_Opisy
100
AcDbText
 10
-0.0000000878742412
 20
7.794499222151949
 30
0.0
 40
0.9913121336814832
  1
SOLBET OPTIMAL
  7
Solbet_1
100
AcDbAttributeDefinition
  3

  2
SYSTEM
 70
     3
1001
AcDbAttr
1070
     0
1070
     1
  0
ATTDEF
  5
9ACC
330
6F5E
100
AcDbEntity
  8
SOLBET_Wymiary_Opisy
100
AcDbText
 10
-0.0000000878742412
 20
1.744181511296331
 30
0.0
 40
0.9913121336814832
  1
Prawo
  7
Solbet_1
100
AcDbAttributeDefinition
  3

  2
WIDOK
 70
    11
1001
AcDbAttr
1070
     0
1070
     1
  0
LINE
  5
9ACD
330
6F5E
100
AcDbEntity
  8
SOLBET_Bloczki
100
AcDbLine
 10
12.00000017574848
 20
11.99999995881262
 30
0.0
 11
12.00000017574848
 21
-0.0000000411874908
 31
0.0
  0
LINE
  5
9ACE
330
6F5E
100
AcDbEntity
  8
SOLBET_Bloczki
100
AcDbLine
 10
12.00000017574848
 20
11.99999995881262
 30
0.0
 11
0.0000001757484824
 21
11.99999995881262
 31
0.0
  0
LINE
  5
9ACF
330
6F5E
100
AcDbEntity
  8
SOLBET_Bloczki
100
AcDbLine
 10
0.0000001757484824
 20
11.99999995881262
 30
0.0
 11
0.0000001757484824
 21
-0.0000000411873771
 31
0.0
  0
LINE
  5
9AD0
330
6F5E
100
AcDbEntity
  8
SOLBET_Bloczki
100
AcDbLine
 10
0.0000001757484824
 20
-0.0000000411873771
 30
0.0
 11
12.00000017574848
 21
-0.0000000411874908
 31
0.0
  0
ENDBLK
  5
6F6D
330
6F5E
100
AcDbEntity
  8
0
100
AcDbBlockEnd
  0
BLOCK
  5
7910
330
790F
100
AcDbEntity
  8
0
100
AcDbBlockBegin
  2
_None
 70
     0
 10
0.0
 20
0.0
 30
0.0
  3
_None
  1

  0
ENDBLK
  5
7911
330
790F
100
AcDbEntity
  8
0
100
AcDbBlockEnd
  0
BLOCK
  5
8F72
330
8F71
100
AcDbEntity
  8
0
100
AcDbBlockBegin
  2
*X4
 70
     1
 10
0.0
 20
0.0
 30
0.0
  3
*X4
  1
ASOWDBLK
  0
LINE
  5
8F73
330
8F71
100
AcDbEntity
  8
0
 62
     0
100
AcDbLine
 10
2.651650429449553
 20
2.430679560328757
 30
0.0
 11
2.651650429449553
 21
2.430679560328757
 31
0.0
  0
LINE
  5
8F74
330
8F71
100
AcDbEntity
  8
0
 62
     0
100
AcDbLine
 10
2.706893146729752
 20
2.485922277608956
 30
0.0
 11
2.706893146729752
 21
2.485922277608956
 31
0.0
  0
LINE
  5
8F75
330
8F71
100
AcDbEntity
  8
0
 62
     0
100
AcDbLine
 10
2.762135864009951
 20
2.541164994889155
 30
0.0
 11
2.762135864009951
 21
2.541164994889155
 31
0.0
  0
LINE
  5
8F76
330
8F71
100
AcDbEntity
  8
0
 62
     0
100
AcDbLine
 10
2.81737858129015
 20
2.596407712169354
 30
0.0
 11
2.81737858129015
 21
2.596407712169354
 31
0.0
  0
LINE
  5
8F77
330
8F71
100
AcDbEntity
  8
0
 62
     0
100
AcDbLine
 10
2.872621298570349
 20
2.651650429449553
 30
0.0
 11
2.872621298570349
 21
2.651650429449553
 31
0.0
  0
LINE
  5
8F78
330
8F71
100
AcDbEntity
  8
0
 62
     0
100
AcDbLine
 10
2.927864015850548
 20
2.706893146729752
 30
0.0
 11
2.927864015850548
 21
2.706893146729752
 31
0.0
  0
LINE
  5
8F79
330
8F71
100
AcDbEntity
  8
0
 62
     0
100
AcDbLine
 10
2.513543636249055
 20
2.403058201688657
 30
0.0
 11
2.513543636249055
 21
2.403058201688657
 31
0.0
  0
LINE
  5
8F7A
330
8F71
100
AcDbEntity
  8
0
 62
     0
100
AcDbLine
 10
2.568786353529254
 20
2.458300918968856
 30
0.0
 11
2.568786353529254
 21
2.458300918968856
 31
0.0
  0
LINE
  5
8F7B
330
8F71
100
AcDbEntity
  8
0
 62
     0
100
AcDbLine
 10
2.624029070809454
 20
2.513543636249055
 30
0.0
 11
2.624029070809454
 21
2.513543636249055
 31
0.0
  0
LINE
  5
8F7C
330
8F71
100
AcDbEntity
  8
0
 62
     0
100
AcDbLine
 10
2.679271788089653
 20
2.568786353529254
 30
0.0
 11
2.679271788089653
 21
2.568786353529254
 31
0.0
  0
LINE
  5
8F7D
330
8F71
100
AcDbEntity
  8
0
 62
     0
100
AcDbLine
 10
2.734514505369852
 20
2.624029070809454
 30
0.0
 11
2.734514505369852
 21
2.624029070809454
 31
0.0
  0
LINE
  5
8F7E
330
8F71
100
AcDbEntity
  8
0
 62
     0
100
AcDbLine
 10
2.789757222650051
 20
2.679271788089653
 30
0.0
 11
2.789757222650051
 21
2.679271788089653
 31
0.0
  0
LINE
  5
8F7F
330
8F71
100
AcDbEntity
  8
0
 62
     0
100
AcDbLine
 10
2.84499993993025
 20
2.734514505369852
 30
0.0
 11
2.84499993993025
 21
2.734514505369852
 31
0.0
  0
LINE
  5
8F80
330
8F71
100
AcDbEntity
  8
0
 62
     0
100
AcDbLine
 10
2.430679560328757
 20
2.430679560328757
 30
0.0
 11
2.430679560328757
 21
2.430679560328757
 31
0.0
  0
LINE
  5
8F81
330
8F71
100
AcDbEntity
  8
0
 62
     0
100
AcDbLine
 10
2.485922277608956
 20
2.485922277608956
 30
0.0
 11
2.485922277608956
 21
2.485922277608956
 31
0.0
  0
LINE
  5
8F82
330
8F71
100
AcDbEntity
  8
0
 62
     0
100
AcDbLine
 10
2.541164994889155
 20
2.541164994889155
 30
0.0
 11
2.541164994889155
 21
2.541164994889155
 31
0.0
  0
LINE
  5
8F83
330
8F71
100
AcDbEntity
  8
0
 62
     0
100
AcDbLine
 10
2.596407712169354
 20
2.596407712169354
 30
0.0
 11
2.596407712169354
 21
2.596407712169354
 31
0.0
  0
LINE
  5
8F84
330
8F71
100
AcDbEntity
  8
0
 62
     0
100
AcDbLine
 10
2.651650429449553
 20
2.651650429449553
 30
0.0
 11
2.651650429449553
 21
2.651650429449553
 31
0.0
  0
LINE
  5
8F85
330
8F71
100
AcDbEntity
  8
0
 62
     0
100
AcDbLine
 10
2.706893146729752
 20
2.706893146729752
 30
0.0
 11
2.706893146729752
 21
2.706893146729752
 31
0.0
  0
LINE
  5
8F86
330
8F71
100
AcDbEntity
  8
0
 62
     0
100
AcDbLine
 10
2.347815484408458
 20
2.458300918968856
 30
0.0
 11
2.347815484408458
 21
2.458300918968856
 31
0.0
  0
LINE
  5
8F87
330
8F71
100
AcDbEntity
  8
0
 62
     0
100
AcDbLine
 10
2.403058201688657
 20
2.513543636249055
 30
0.0
 11
2.403058201688657
 21
2.513543636249055
 31
0.0
  0
LINE
  5
8F88
330
8F71
100
AcDbEntity
  8
0
 62
     0
100
AcDbLine
 10
2.458300918968856
 20
2.568786353529254
 30
0.0
 11
2.458300918968856
 21
2.568786353529254
 31
0.0
  0
LINE
  5
8F89
330
8F71
100
AcDbEntity
  8
0
 62
     0
100
AcDbLine
 10
2.513543636249055
 20
2.624029070809454
 30
0.0
 11
2.513543636249055
 21
2.624029070809454
 31
0.0
  0
LINE
  5
8F8A
330
8F71
100
AcDbEntity
  8
0
 62
     0
100
AcDbLine
 10
2.568786353529254
 20
2.679271788089653
 30
0.0
 11
2.568786353529254
 21
2.679271788089653
 31
0.0
  0
LINE
  5
8F8B
330
8F71
100
AcDbEntity
  8
0
 62
     0
100
AcDbLine
 10
2.624029070809454
 20
2.734514505369852
 30
0.0
 11
2.624029070809454
 21
2.734514505369852
 31
0.0
  0
LINE
  5
8F8C
330
8F71
100
AcDbEntity
  8
0
 62
     0
100
AcDbLine
 10
2.375436843048558
 20
2.596407712169354
 30
0.0
 11
2.375436843048558
 21
2.596407712169354
 31
0.0
  0
LINE
  5
8F8D
330
8F71
100
AcDbEntity
  8
0
 62
     0
100
AcDbLine
 10
2.430679560328757
 20
2.651650429449553
 30
0.0
 11
2.430679560328757
 21
2.651650429449553
 31
0.0
  0
LINE
  5
8F8E
330
8F71
100
AcDbEntity
  8
0
 62
     0
100
AcDbLine
 10
2.485922277608956
 20
2.706893146729752
 30
0.0
 11
2.485922277608956
 21
2.706893146729752
 31
0.0
  0
LINE
  5
8F8F
330
8F71
100
AcDbEntity
  8
0
 62
     0
100
AcDbLine
 10
2.347815484408458
 20
2.679271788089653
 30
0.0
 11
2.347815484408458
 21
2.679271788089653
 31
0.0
  0
LINE
  5
8F90
330
8F71
100
AcDbEntity
  8
0
 62
     0
100
AcDbLine
 10
2.403058201688657
 20
2.734514505369852
 30
0.0
 11
2.403058201688657
 21
2.734514505369852
 31
0.0
  0
LINE
  5
8F91
330
8F71
100
AcDbEntity
  8
0
 62
     0
100
AcDbLine
 10
2.734514505369852
 20
2.403058201688657
 30
0.0
 11
2.734514505369852
 21
2.403058201688657
 31
0.0
  0
LINE
  5
8F92
330
8F71
100
AcDbEntity
  8
0
 62
     0
100
AcDbLine
 10
2.789757222650051
 20
2.458300918968856
 30
0.0
 11
2.789757222650051
 21
2.458300918968856
 31
0.0
  0
LINE
  5
8F93
330
8F71
100
AcDbEntity
  8
0
 62
     0
100
AcDbLine
 10
2.84499993993025
 20
2.513543636249055
 30
0.0
 11
2.84499993993025
 21
2.513543636249055
 31
0.0
  0
LINE
  5
8F94
330
8F71
100
AcDbEntity
  8
0
 62
     0
100
AcDbLine
 10
2.900242657210449
 20
2.568786353529254
 30
0.0
 11
2.900242657210449
 21
2.568786353529254
 31
0.0
  0
LINE
  5
8F95
330
8F71
100
AcDbEntity
  8
0
 62
     0
100
AcDbLine
 10
2.955485374490648
 20
2.624029070809454
 30
0.0
 11
2.955485374490648
 21
2.624029070809454
 31
0.0
  0
LINE
  5
8F96
330
8F71
100
AcDbEntity
  8
0
 62
     0
100
AcDbLine
 10
3.010728091770847
 20
2.679271788089653
 30
0.0
 11
3.010728091770847
 21
2.679271788089653
 31
0.0
  0
LINE
  5
8F97
330
8F71
100
AcDbEntity
  8
0
 62
     0
100
AcDbLine
 10
3.065970809051046
 20
2.734514505369852
 30
0.0
 11
3.065970809051046
 21
2.734514505369852
 31
0.0
  0
LINE
  5
8F98
330
8F71
100
AcDbEntity
  8
0
 62
     0
100
AcDbLine
 10
2.872621298570349
 20
2.430679560328757
 30
0.0
 11
2.872621298570349
 21
2.430679560328757
 31
0.0
  0
LINE
  5
8F99
330
8F71
100
AcDbEntity
  8
0
 62
     0
100
AcDbLine
 10
2.927864015850548
 20
2.485922277608956
 30
0.0
 11
2.927864015850548
 21
2.485922277608956
 31
0.0
  0
LINE
  5
8F9A
330
8F71
100
AcDbEntity
  8
0
 62
     0
100
AcDbLine
 10
2.983106733130747
 20
2.541164994889155
 30
0.0
 11
2.983106733130747
 21
2.541164994889155
 31
0.0
  0
LINE
  5
8F9B
330
8F71
100
AcDbEntity
  8
0
 62
     0
100
AcDbLine
 10
3.038349450410946
 20
2.596407712169354
 30
0.0
 11
3.038349450410946
 21
2.596407712169354
 31
0.0
  0
LINE
  5
8F9C
330
8F71
100
AcDbEntity
  8
0
 62
     0
100
AcDbLine
 10
3.093592167691145
 20
2.651650429449553
 30
0.0
 11
3.093592167691145
 21
2.651650429449553
 31
0.0
  0
LINE
  5
8F9D
330
8F71
100
AcDbEntity
  8
0
 62
     0
100
AcDbLine
 10
3.148834884971344
 20
2.706893146729752
 30
0.0
 11
3.148834884971344
 21
2.706893146729752
 31
0.0
  0
LINE
  5
8F9E
330
8F71
100
AcDbEntity
  8
0
 62
     0
100
AcDbLine
 10
2.955485374490648
 20
2.403058201688657
 30
0.0
 11
2.955485374490648
 21
2.403058201688657
 31
0.0
  0
LINE
  5
8F9F
330
8F71
100
AcDbEntity
  8
0
 62
     0
100
AcDbLine
 10
3.010728091770847
 20
2.458300918968856
 30
0.0
 11
3.010728091770847
 21
2.458300918968856
 31
0.0
  0
LINE
  5
8FA0
330
8F71
100
AcDbEntity
  8
0
 62
     0
100
AcDbLine
 10
3.065970809051046
 20
2.513543636249055
 30
0.0
 11
3.065970809051046
 21
2.513543636249055
 31
0.0
  0
LINE
  5
8FA1
330
8F71
100
AcDbEntity
  8
0
 62
     0
100
AcDbLine
 10
3.121213526331245
 20
2.568786353529254
 30
0.0
 11
3.121213526331245
 21
2.568786353529254
 31
0.0
  0
LINE
  5
8FA2
330
8F71
100
AcDbEntity
  8
0
 62
     0
100
AcDbLine
 10
3.176456243611444
 20
2.624029070809454
 30
0.0
 11
3.176456243611444
 21
2.624029070809454
 31
0.0
  0
LINE
  5
8FA3
330
8F71
100
AcDbEntity
  8
0
 62
     0
100
AcDbLine
 10
3.231698960891643
 20
2.679271788089653
 30
0.0
 11
3.231698960891643
 21
2.679271788089653
 31
0.0
  0
LINE
  5
8FA4
330
8F71
100
AcDbEntity
  8
0
 62
     0
100
AcDbLine
 10
3.286941678171842
 20
2.734514505369852
 30
0.0
 11
3.286941678171842
 21
2.734514505369852
 31
0.0
  0
LINE
  5
8FA5
330
8F71
100
AcDbEntity
  8
0
 62
     0
100
AcDbLine
 10
3.093592167691145
 20
2.430679560328757
 30
0.0
 11
3.093592167691145
 21
2.430679560328757
 31
0.0
  0
LINE
  5
8FA6
330
8F71
100
AcDbEntity
  8
0
 62
     0
100
AcDbLine
 10
3.148834884971345
 20
2.485922277608956
 30
0.0
 11
3.148834884971345
 21
2.485922277608956
 31
0.0
  0
LINE
  5
8FA7
330
8F71
100
AcDbEntity
  8
0
 62
     0
100
AcDbLine
 10
3.204077602251544
 20
2.541164994889155
 30
0.0
 11
3.204077602251544
 21
2.541164994889155
 31
0.0
  0
LINE
  5
8FA8
330
8F71
100
AcDbEntity
  8
0
 62
     0
100
AcDbLine
 10
3.259320319531743
 20
2.596407712169354
 30
0.0
 11
3.259320319531743
 21
2.596407712169354
 31
0.0
  0
LINE
  5
8FA9
330
8F71
100
AcDbEntity
  8
0
 62
     0
100
AcDbLine
 10
3.314563036811942
 20
2.651650429449553
 30
0.0
 11
3.314563036811942
 21
2.651650429449553
 31
0.0
  0
LINE
  5
8FAA
330
8F71
100
AcDbEntity
  8
0
 62
     0
100
AcDbLine
 10
3.369805754092141
 20
2.706893146729752
 30
0.0
 11
3.369805754092141
 21
2.706893146729752
 31
0.0
  0
LINE
  5
8FAB
330
8F71
100
AcDbEntity
  8
0
 62
     0
100
AcDbLine
 10
3.176456243611444
 20
2.403058201688658
 30
0.0
 11
3.176456243611444
 21
2.403058201688658
 31
0.0
  0
LINE
  5
8FAC
330
8F71
100
AcDbEntity
  8
0
 62
     0
100
AcDbLine
 10
3.231698960891643
 20
2.458300918968857
 30
0.0
 11
3.231698960891643
 21
2.458300918968857
 31
0.0
  0
LINE
  5
8FAD
330
8F71
100
AcDbEntity
  8
0
 62
     0
100
AcDbLine
 10
3.286941678171842
 20
2.513543636249056
 30
0.0
 11
3.286941678171842
 21
2.513543636249056
 31
0.0
  0
LINE
  5
8FAE
330
8F71
100
AcDbEntity
  8
0
 62
     0
100
AcDbLine
 10
3.342184395452041
 20
2.568786353529255
 30
0.0
 11
3.342184395452041
 21
2.568786353529255
 31
0.0
  0
LINE
  5
8FAF
330
8F71
100
AcDbEntity
  8
0
 62
     0
100
AcDbLine
 10
3.39742711273224
 20
2.624029070809454
 30
0.0
 11
3.39742711273224
 21
2.624029070809454
 31
0.0
  0
LINE
  5
8FB0
330
8F71
100
AcDbEntity
  8
0
 62
     0
100
AcDbLine
 10
3.314563036811942
 20
2.430679560328757
 30
0.0
 11
3.314563036811942
 21
2.430679560328757
 31
0.0
  0
LINE
  5
8FB1
330
8F71
100
AcDbEntity
  8
0
 62
     0
100
AcDbLine
 10
3.369805754092141
 20
2.485922277608956
 30
0.0
 11
3.369805754092141
 21
2.485922277608956
 31
0.0
  0
LINE
  5
8FB2
330
8F71
100
AcDbEntity
  8
0
 62
     0
100
AcDbLine
 10
3.42504847137234
 20
2.541164994889155
 30
0.0
 11
3.42504847137234
 21
2.541164994889155
 31
0.0
  0
LINE
  5
8FB3
330
8F71
100
AcDbEntity
  8
0
 62
     0
100
AcDbLine
 10
3.39742711273224
 20
2.403058201688658
 30
0.0
 11
3.39742711273224
 21
2.403058201688658
 31
0.0
  0
ENDBLK
  5
8FB4
330
8F71
100
AcDbEntity
  8
0
100
AcDbBlockEnd
  0
BLOCK
  5
900E
330
900D
100
AcDbEntity
  8
0
100
AcDbBlockBegin
  2
*X5
 70
     1
 10
0.0
 20
0.0
 30
0.0
  3
*X5
  1
*ANON
  0
LINE
  5
900F
330
900D
100
AcDbEntity
  8
0
 62
     0
100
AcDbLine
 10
15.44516487541152
 20
8.084398466236077
 30
0.0
 11
15.45681484317317
 21
8.09828235716963
 31
0.0
  0
LINE
  5
9010
330
900D
100
AcDbEntity
  8
0
 62
     0
100
AcDbLine
 10
15.6244799210617
 20
8.068710432490426
 30
0.0
 11
15.63653218874333
 21
8.083073765798907
 31
0.0
  0
LINE
  5
9011
330
900D
100
AcDbEntity
  8
0
 62
     0
100
AcDbLine
 10
15.80379496671189
 20
8.053022398744779
 30
0.0
 11
15.81584723439352
 21
8.06738573205326
 31
0.0
  0
LINE
  5
9012
330
900D
100
AcDbEntity
  8
0
 62
     0
100
AcDbLine
 10
15.99229646855448
 20
8.048282357169629
 30
0.0
 11
15.9951622800437
 21
8.051697698307611
 31
0.0
  0
LINE
  5
9013
330
900D
100
AcDbEntity
  8
0
 62
     0
100
AcDbLine
 10
15.44516487945961
 20
8.084398469995621
 30
0.0
 11
15.46010779993098
 21
8.083091133854406
 31
0.0
  0
LINE
  5
9014
330
900D
100
AcDbEntity
  8
0
 62
     0
100
AcDbLine
 10
15.62447992511612
 20
8.068710436301042
 30
0.0
 11
15.6394228455875
 21
8.067403100159827
 31
0.0
  0
LINE
  5
9015
330
900D
100
AcDbEntity
  8
0
 62
     0
100
AcDbLine
 10
15.80379497077264
 20
8.053022402606464
 30
0.0
 11
15.81873789124402
 21
8.051715066465249
 31
0.0
  0
LINE
  5
9016
330
900D
100
AcDbEntity
  8
0
 62
     0
100
AcDbLine
 10
15.46011397588577
 20
8.083078971280462
 30
0.0
 11
15.45730953172387
 21
8.098282357169628
 31
0.0
  0
LINE
  5
9017
330
900D
100
AcDbEntity
  8
0
 62
     0
100
AcDbLine
 10
15.63942900786426
 20
8.067390796724982
 30
0.0
 11
15.63653836740157
 21
8.083061467946812
 31
0.0
  0
LINE
  5
9018
330
900D
100
AcDbEntity
  8
0
 62
     0
100
AcDbLine
 10
15.81874403984275
 20
8.0517026221695
 30
0.0
 11
15.81585339938006
 21
8.06737329339133
 31
0.0
  0
LINE
  5
9019
330
900D
100
AcDbEntity
  8
0
 62
     0
100
AcDbLine
 10
15.995796110953
 20
8.048282357169631
 30
0.0
 11
15.99516843135855
 21
8.051685118835848
 31
0.0
  0
LINE
  5
901A
330
900D
100
AcDbEntity
  8
0
 62
     0
100
AcDbLine
 10
15.04906928461802
 20
8.067482970562082
 30
0.0
 11
15.06854140847582
 21
8.087777108076803
 31
0.0
  0
LINE
  5
901B
330
900D
100
AcDbEntity
  8
0
 62
     0
100
AcDbLine
 10
15.07130961097137
 20
8.064023893309624
 30
0.0
 11
15.06854756485477
 21
8.087766345783304
 31
0.0
  0
LINE
  5
901C
330
900D
100
AcDbEntity
  8
0
 62
     0
100
AcDbLine
 10
15.04906928458949
 20
8.067482974404446
 30
0.0
 11
15.07130347310374
 21
8.064034661612243
 31
0.0
  0
LINE
  5
901D
330
900D
100
AcDbEntity
  8
0
 62
     0
100
AcDbLine
 10
15.16038418645876
 20
8.058554786439476
 30
0.0
 11
15.17788881945558
 21
8.06527418549345
 31
0.0
  0
LINE
  5
901E
330
900D
100
AcDbEntity
  8
0
 62
     0
100
AcDbLine
 10
15.16038419246613
 20
8.058554784978554
 30
0.0
 11
15.17281975605446
 21
8.050166891426492
 31
0.0
  0
LINE
  5
901F
330
900D
100
AcDbEntity
  8
0
 62
     0
100
AcDbLine
 10
15.17282588488492
 20
8.050155029759084
 30
0.0
 11
15.17789496593406
 21
8.065262317938785
 31
0.0
  0
LINE
  5
9020
330
900D
100
AcDbEntity
  8
0
 62
     0
100
AcDbLine
 10
15.46981959111566
 20
8.068541664480582
 30
0.0
 11
15.46981959111566
 21
8.068541664480582
 31
0.0
  0
LINE
  5
9021
330
900D
100
AcDbEntity
  8
0
 62
     0
100
AcDbLine
 10
15.3399728704462
 20
8.049797588579449
 30
0.0
 11
15.3399728704462
 21
8.049797588579449
 31
0.0
  0
LINE
  5
9022
330
900D
100
AcDbEntity
  8
0
 62
     0
100
AcDbLine
 10
15.59817877427207
 20
8.086144312702323
 30
0.0
 11
15.59817877427207
 21
8.086144312702323
 31
0.0
  0
LINE
  5
9023
330
900D
100
AcDbEntity
  8
0
 62
     0
100
AcDbLine
 10
15.97962134490677
 20
8.055272222837961
 30
0.0
 11
15.97962134490677
 21
8.055272222837961
 31
0.0
  0
LINE
  5
9024
330
900D
100
AcDbEntity
  8
0
 62
     0
100
AcDbLine
 10
15.37427353110377
 20
8.050342175463855
 30
0.0
 11
15.37427353110377
 21
8.050342175463855
 31
0.0
  0
LINE
  5
9025
330
900D
100
AcDbEntity
  8
0
 62
     0
100
AcDbLine
 10
15.43685848797799
 20
8.058581641347746
 30
0.0
 11
15.43685848797799
 21
8.058581641347746
 31
0.0
  0
LINE
  5
9026
330
900D
100
AcDbEntity
  8
0
 62
     0
100
AcDbLine
 10
15.53154147223919
 20
8.07104689270476
 30
0.0
 11
15.53154147223919
 21
8.07104689270476
 31
0.0
  0
LINE
  5
9027
330
900D
100
AcDbEntity
  8
0
 62
     0
100
AcDbLine
 10
15.68942906641297
 20
8.091833188815803
 30
0.0
 11
15.68942906641297
 21
8.091833188815803
 31
0.0
  0
LINE
  5
9028
330
900D
100
AcDbEntity
  8
0
 62
     0
100
AcDbLine
 10
16.02157930168925
 20
8.094826307325517
 30
0.0
 11
16.02157930168925
 21
8.094826307325517
 31
0.0
  0
LINE
  5
9029
330
900D
100
AcDbEntity
  8
0
 62
     0
100
AcDbLine
 10
15.53201201000202
 20
8.059546354588624
 30
0.0
 11
15.53201201000202
 21
8.059546354588624
 31
0.0
  0
LINE
  5
902A
330
900D
100
AcDbEntity
  8
0
 62
     0
100
AcDbLine
 10
15.67780855233761
 20
8.084572600171703
 30
0.0
 11
15.67780855233761
 21
8.084572600171703
 31
0.0
  0
LINE
  5
902B
330
900D
100
AcDbEntity
  8
0
 62
     0
100
AcDbLine
 10
15.88350887828903
 20
8.054707141386009
 30
0.0
 11
15.88350887828903
 21
8.054707141386009
 31
0.0
  0
LINE
  5
902C
330
900D
100
AcDbEntity
  8
0
 62
     0
100
AcDbLine
 10
16.02930542062463
 20
8.07973338696909
 30
0.0
 11
16.02930542062463
 21
8.07973338696909
 31
0.0
  0
ENDBLK
  5
902D
330
900D
100
AcDbEntity
  8
0
100
AcDbBlockEnd
  0
BLOCK
  5
A33C
330
A33B
100
AcDbEntity
  8
0
100
AcDbBlockBegin
  2
*D6
 70
     1
 10
0.0
 20
0.0
 30
0.0
  3
*D6
  1

  0
LINE
  5
A712
330
A33B
100
AcDbEntity
  8
SOLBET_Wymiary_Opisy
 62
     0
370
    -2
100
AcDbLine
 10
87.10070129884162
 20
178.3037448340969
 30
0.0
 11
19.80641354818274
 21
178.3037448340969
 31
0.0
  0
LINE
  5
A713
330
A33B
100
AcDbEntity
  8
SOLBET_Wymiary_Opisy
 62
     0
370
    -2
100
AcDbLine
 10
89.23534385321863
 20
163.123744834094
 30
0.0
 11
19.80641354818274
 21
163.123744834094
 31
0.0
  0
LINE
  5
A714
330
A33B
100
AcDbEntity
  8
SOLBET_Wymiary_Opisy
 62
     0
370
    -2
100
AcDbLine
 10
21.05641354818275
 20
175.8037448340969
 30
0.0
 11
21.05641354818274
 21
165.623744834094
 31
0.0
  0
SOLID
  5
A715
330
A33B
100
AcDbEntity
  8
SOLBET_Wymiary_Opisy
 62
     0
100
AcDbTrace
 10
20.63974688151608
 20
175.8037448340969
 30
0.0
 11
21.47308021484942
 21
175.8037448340969
 31
0.0
 12
21.05641354818275
 22
178.3037448340969
 32
0.0
 13
21.05641354818275
 23
178.3037448340969
 33
0.0
  0
SOLID
  5
A716
330
A33B
100
AcDbEntity
  8
SOLBET_Wymiary_Opisy
 62
     0
100
AcDbTrace
 10
20.63974688151608
 20
165.623744834094
 30
0.0
 11
21.47308021484941
 21
165.623744834094
 31
0.0
 12
21.05641354818274
 22
163.123744834094
 32
0.0
 13
21.05641354818274
 23
163.123744834094
 33
0.0
  0
MTEXT
  5
A717
330
A33B
100
AcDbEntity
  8
SOLBET_Wymiary_Opisy
 62
     0
100
AcDbMText
 10
19.18046657848575
 20
170.7137448340957
 30
0.0
 40
2.5
 41
0.0
 71
     5
 72
     1
  1
Min. 30cm
  7
Solbet_2_5
 11
0.0000000000000001
 21
1.0
 31
0.0
 73
     1
 44
1.0
1001
ACAD
1000
MTEXTBEGIN
1070
    73
1070
     1
1070
    44
1040
1.0
1070
    74
1070
     0
1000
MTEXTEND
  0
POINT
  5
A718
330
A33B
100
AcDbEntity
  8
DEFPOINTS
 62
     0
100
AcDbPoint
 10
87.10070129884162
 20
178.3037448340969
 30
0.0
  0
POINT
  5
A719
330
A33B
100
AcDbEntity
  8
DEFPOINTS
 62
     0
100
AcDbPoint
 10
89.23534385321863
 20
163.123744834094
 30
0.0
  0
POINT
  5
A71A
330
A33B
100
AcDbEntity
  8
DEFPOINTS
 62
     0
100
AcDbPoint
 10
21.05641354818274
 20
163.123744834094
 30
0.0
  0
ENDBLK
  5
A33D
330
A33B
100
AcDbEntity
  8
0
100
AcDbBlockEnd
  0
BLOCK
  5
ABF1
330
ABE4
100
AcDbEntity
  8
0
100
AcDbBlockBegin
  2
SOLBET_Bloczek_Optimal_240x240x590_G_KG700_PRA
 70
     2
 10
0.0
 20
0.0
 30
0.0
  3
SOLBET_Bloczek_Optimal_240x240x590_G_KG700_PRA
  1

  0
ATTDEF
  5
ABE5
330
ABE4
100
AcDbEntity
  8
SOLBET_Wymiary_Opisy
100
AcDbText
 10
0.0000001757484824
 20
4.927022981232882
 30
0.0
 40
0.9913121336814832
  1
240x240x590
  7
Solbet_1
100
AcDbAttributeDefinition
  3

  2
WYMIARY
 70
    11
1001
AcDbAttr
1070
     0
1070
     1
  0
ATTDEF
  5
ABE6
330
ABE4
100
AcDbEntity
  8
SOLBET_Wymiary_Opisy
100
AcDbText
 10
0.0000001757484824
 20
3.414503573516785
 30
0.0
 40
0.9913121336814832
  1
700
  7
Solbet_1
100
AcDbAttributeDefinition
  3

  2
KLASA_GĘSTOŚCI
 70
    11
1001
AcDbAttr
1070
     0
1070
     1
  0
ATTDEF
  5
ABE7
330
ABE4
100
AcDbEntity
  8
SOLBET_Wymiary_Opisy
100
AcDbText
 10
-0.0000000878742412
 20
0.2448647517692188
 30
0.0
 40
0.9913121336814832
  1
SOLBET
  7
Solbet_1
100
AcDbAttributeDefinition
  3

  2
FIRMA
 70
    11
1001
AcDbAttr
1070
     0
1070
     1
  0
ATTDEF
  5
ABE8
330
ABE4
100
AcDbEntity
  8
SOLBET_Wymiary_Opisy
100
AcDbText
 10
0.0000001757484824
 20
7.957332979580714
 30
0.0
 40
0.9913121336814832
  1
Bloczek
  7
Solbet_1
100
AcDbAttributeDefinition
  3
Nazwa
  2
NAZWA
 70
    11
1001
AcDbAttr
1070
     0
1070
     1
  0
ATTDEF
  5
ABE9
330
ABE4
100
AcDbEntity
  8
SOLBET_Wymiary_Opisy
100
AcDbText
 10
0.0000001757484824
 20
6.418284799346509
 30
0.0
 40
0.9913121336814832
  1
SOLBET Optimal
  7
Solbet_1
100
AcDbAttributeDefinition
  3

  2
SYSTEM
 70
    11
1001
AcDbAttr
1070
     0
1070
     1
  0
ATTDEF
  5
ABEA
330
ABE4
100
AcDbEntity
  8
SOLBET_Wymiary_Opisy
100
AcDbText
 10
-0.0000000878742412
 20
1.744181511296331
 30
0.0
 40
0.9913121336814832
  1
Prawo
  7
Solbet_1
100
AcDbAttributeDefinition
  3

  2
WIDOK
 70
    11
1001
AcDbAttr
1070
     0
1070
     1
  0
LINE
  5
ABEB
330
ABE4
100
AcDbEntity
  8
SOLBET_Bloczki
100
AcDbLine
 10
12.00000017574848
 20
11.99999995881262
 30
0.0
 11
12.00000017574848
 21
-0.0000000411874908
 31
0.0
  0
LINE
  5
ABEC
330
ABE4
100
AcDbEntity
  8
SOLBET_Bloczki
100
AcDbLine
 10
12.00000017574848
 20
11.99999995881262
 30
0.0
 11
0.0000001757484824
 21
11.99999995881262
 31
0.0
  0
LINE
  5
ABED
330
ABE4
100
AcDbEntity
  8
SOLBET_Bloczki
100
AcDbLine
 10
0.0000001757484824
 20
11.99999995881262
 30
0.0
 11
0.0000001757484824
 21
-0.0000000411873771
 31
0.0
  0
LINE
  5
ABEE
330
ABE4
100
AcDbEntity
  8
SOLBET_Bloczki
100
AcDbLine
 10
0.0000001757484824
 20
-0.0000000411873771
 30
0.0
 11
12.00000017574848
 21
-0.0000000411874908
 31
0.0
  0
ENDBLK
  5
ABF2
330
ABE4
100
AcDbEntity
  8
0
100
AcDbBlockEnd
  0
ENDSEC
  0
SECTION
  2
ENTITIES
  0
LWPOLYLINE
  5
920F
330
1F
100
AcDbEntity
  8
SOLBET_Beton
100
AcDbPolyline
 90
        4
 70
     1
 43
0.0
 10
91.30087169226953
 20
118.6237448340969
 10
110.3008716922695
 20
118.6237448340969
 10
110.3008716922695
 20
125.623744834094
 10
91.30087169226953
 20
125.623744834094
  0
LWPOLYLINE
  5
9210
330
1F
100
AcDbEntity
  8
SOLBET_Beton
100
AcDbPolyline
 90
        4
 70
     1
 43
0.0
 10
91.30087169226953
 20
126.123744834094
 10
110.3008716922695
 20
126.123744834094
 10
110.3008716922695
 20
133.1237448340969
 10
91.30087169226953
 20
133.1237448340969
  0
LWPOLYLINE
  5
9211
330
1F
100
AcDbEntity
  8
SOLBET_Beton
100
AcDbPolyline
 90
        4
 70
     1
 43
0.0
 10
91.30087169226953
 20
133.6237448340969
 10
110.3008716922695
 20
133.6237448340969
 10
110.3008716922695
 20
140.6237448340969
 10
91.30087169226953
 20
140.6237448340969
  0
LWPOLYLINE
  5
9212
330
1F
100
AcDbEntity
  8
SOLBET_Beton
100
AcDbPolyline
 90
        4
 70
     1
 43
0.0
 10
91.30087169226953
 20
141.1237448340969
 10
110.3008716922695
 20
141.1237448340969
 10
110.3008716922695
 20
148.1237448340969
 10
91.30087169226953
 20
148.1237448340969
  0
LINE
  5
9213
330
1F
100
AcDbEntity
  8
SOLBET_Wymiary_Opisy
100
AcDbLine
 10
65.39931745973627
 20
151.0237448340969
 30
0.0
 11
111.8008716922695
 21
151.0237448340969
 31
0.0
  0
LWPOLYLINE
  5
9214
330
1F
100
AcDbEntity
  8
SOLBET_Beton
100
AcDbPolyline
 90
        4
 70
     1
 43
0.0
 10
91.30087169226953
 20
156.1237448340969
 10
110.3008716922695
 20
156.1237448340969
 10
110.3008716922695
 20
163.123744834094
 10
91.30087169226953
 20
163.123744834094
  0
LWPOLYLINE
  5
9215
330
1F
100
AcDbEntity
  8
SOLBET_Beton
100
AcDbPolyline
 90
        4
 70
     1
 43
0.0
 10
91.30087169226953
 20
163.623744834094
 10
110.3008716922695
 20
163.623744834094
 10
110.3008716922695
 20
170.6237448340969
 10
91.30087169226953
 20
170.6237448340969
  0
LWPOLYLINE
  5
9216
330
1F
100
AcDbEntity
  8
SOLBET_Beton
100
AcDbPolyline
 90
        4
 70
     1
 43
0.0
 10
91.30087169226953
 20
171.1237448340969
 10
110.3008716922695
 20
171.1237448340969
 10
110.3008716922695
 20
178.1237448340969
 10
91.30087169226953
 20
178.1237448340969
  0
LINE
  5
9217
330
1F
100
AcDbEntity
  8
SOLBET_Wymiary_Opisy
100
AcDbLine
 10
65.22836690528539
 20
152.5237448340969
 30
0.0
 11
111.8008716922695
 21
152.5237448340969
 31
0.0
  0
LWPOLYLINE
  5
921F
330
1F
100
AcDbEntity
  8
SOLBET_Beton
100
AcDbPolyline
 90
        3
 70
     0
 43
0.0
 10
91.30087169226953
 20
148.6237448340969
 10
110.3008716922695
 20
148.6237448340969
 10
110.3008716922695
 20
151.0237448340969
  0
LWPOLYLINE
  5
9220
330
1F
100
AcDbEntity
  8
SOLBET_Beton
100
AcDbPolyline
 90
        4
 70
     0
 43
0.0
 10
110.3008716922695
 20
152.5237448340969
 10
110.3008716922695
 20
155.6237448340969
 10
91.30087169226953
 20
155.6237448340969
 10
91.30087169226953
 20
152.5237448340969
  0
LINE
  5
9223
330
1F
100
AcDbEntity
  8
SOLBET_Emulsje_Folie
100
AcDbLine
 10
110.3687985996921
 20
178.1883200106374
 30
0.0
 11
110.3687985996921
 21
152.5237448340969
 31
0.0
  0
LINE
  5
9227
330
1F
100
AcDbEntity
  8
SOLBET_Wymiary_Opisy
100
AcDbLine
 10
79.09597445046256
 20
221.0237447929095
 30
0.0
 11
112.8008716922695
 21
221.0237447929095
 31
0.0
  0
LINE
  5
922A
330
1F
100
AcDbEntity
  8
SOLBET_Emulsje_Folie
100
AcDbLine
 10
110.3959418611343
 20
151.0237448340969
 30
0.0
 11
110.3959418611343
 21
118.6237448340969
 31
0.0
  0
LINE
  5
922E
330
1F
100
AcDbEntity
  8
SOLBET_Izolacja
  6
Continuous
100
AcDbLine
 10
110.8008716922695
 20
178.5977917371979
 30
0.0
 11
166.3008716922695
 21
178.5977917371978
 31
0.0
  0
LINE
  5
9230
330
1F
100
AcDbEntity
  8
SOLBET_Tynki_Posadzki
100
AcDbLine
 10
110.8008716922695
 20
183.9710985707547
 30
0.0
 11
110.8008716922695
 21
221.0237447929095
 31
0.0
  0
LINE
  5
9231
330
1F
100
AcDbEntity
  8
SOLBET_Izolacja
  6
Continuous
100
AcDbLine
 10
111.3008716922695
 20
181.0977917372007
 30
0.0
 11
166.3008716922695
 21
181.0977917372008
 31
0.0
  0
LINE
  5
9232
330
1F
100
AcDbEntity
  8
SOLBET_Izolacja
  6
Continuous
100
AcDbLine
 10
111.3008716922695
 20
178.5977917371979
 30
0.0
 11
111.3008716922695
 21
183.9710985707547
 31
0.0
  0
LINE
  5
9235
330
1F
100
AcDbEntity
  8
SOLBET_Tynki_Posadzki
100
AcDbLine
 10
111.5989378834583
 20
184.4710985707547
 30
0.0
 11
166.3008716922695
 21
184.4710985707547
 31
0.0
  0
LINE
  5
9236
330
1F
100
AcDbEntity
  8
SOLBET_Izolacja
  6
Continuous
100
AcDbLine
 10
111.3008716922695
 20
178.5977917371979
 30
0.0
 11
110.3008716922695
 21
178.5977917371979
 31
0.0
  0
LINE
  5
9237
330
1F
100
AcDbEntity
  8
SOLBET_Izolacja
  6
Continuous
100
AcDbLine
 10
110.3008716922695
 20
178.9237447929094
 30
0.0
 11
110.3008716922695
 21
178.5977917371979
 31
0.0
  0
LINE
  5
9238
330
1F
100
AcDbEntity
  8
SOLBET_Izolacja
  6
Continuous
100
AcDbLine
 10
111.3008716922695
 20
183.9710985707547
 30
0.0
 11
110.3008716922695
 21
183.9710985707547
 31
0.0
  0
LINE
  5
923B
330
1F
100
AcDbEntity
  8
SOLBET_Grunt
  6
Continuous
100
AcDbLine
 10
89.23534385321863
 20
163.123744834094
 30
0.0
 11
54.1465130425031
 21
163.123744834094
 31
0.0
  0
LINE
  5
923C
330
1F
100
AcDbEntity
  8
SOLBET_Wymiary_Opisy
100
AcDbLine
 10
54.1465130425031
 20
164.1657497303695
 30
0.0
 11
54.1465130425031
 21
149.6389024275635
 31
0.0
  0
LINE
  5
923D
330
1F
100
AcDbEntity
  8
SOLBET_Grunt
  6
Continuous
100
AcDbLine
 10
63.14243502400086
 20
159.9078797239857
 30
0.0
 11
60.20509972730406
 21
163.123744834094
 31
0.0
  0
LINE
  5
923E
330
1F
100
AcDbEntity
  8
SOLBET_Grunt
  6
Continuous
100
AcDbLine
 10
62.79985509796279
 20
162.125861184065
 30
0.0
 11
61.8883993102213
 21
163.123744834094
 31
0.0
  0
LINE
  5
923F
330
1F
100
AcDbEntity
  8
SOLBET_Grunt
  6
Continuous
100
AcDbLine
 10
66.50903418983535
 20
159.9078797239857
 30
0.0
 11
63.57169889313855
 21
163.123744834094
 31
0.0
  0
ARC
  5
925C
330
1F
100
AcDbEntity
  8
SOLBET_Tynki_Posadzki
100
AcDbCircle
 10
110.8008716922695
 20
184.4710985707547
 30
0.0
 40
1.5000521396288
100
AcDbArc
 50
0.0
 51
90.0
  0
LINE
  5
925D
330
1F
100
AcDbEntity
  8
SOLBET_Tynki_Posadzki
100
AcDbLine
 10
111.5989378834583
 20
184.4710985707547
 30
0.0
 11
111.5989378834583
 21
183.9710985707547
 31
0.0
  0
INSERT
  5
9260
330
1F
100
AcDbEntity
  8
SOLBET_Grunt
100
AcDbBlockReference
  2
*X4
 10
-5.972995805673235
 20
32.38528298356863
 30
0.0
 41
50.0
 42
50.0
 43
50.0
1001
ASO_SCHRAFF
1005
9260
1070
     0
1005
0
1001
ACAD
1000
HATCH
1002
{
1070
    16
1000
DOTS
1040
1.25
1040
0.7853981633974483
1002
}
  0
LWPOLYLINE
  5
9261
102
{ACAD_REACTORS
330
9AAB
102
}
330
1F
100
AcDbEntity
  8
SOLBET_Beton
100
AcDbPolyline
 90
        4
 70
     1
 43
0.0
 10
110.5448288528456
 20
170.4237448340969
 10
166.3008716922695
 20
170.4237448340969
 10
166.3008716922695
 20
177.923744834094
 10
110.5448288528456
 20
177.923744834094
1001
ASO_SCHRAFF
1005
9261
1070
     1
1002
{
1070
     1
1005
9261
1002
}
1002
{
1070
     2
1005
9262
1002
}
1002
{
1070
     4
1000
INSUL
1040
0.2
1040
135.0
1070
     0
1000
T__SCHR
1070
   256
1000
VONLAYER
1040
50.0
1070
     1
1002
}
  0
LINE
  5
9264
330
1F
100
AcDbEntity
  8
SOLBET_Emulsje_Folie
100
AcDbLine
 10
91.2329447848465
 20
178.1883200106374
 30
0.0
 11
110.3687985996921
 21
178.1883200106374
 31
0.0
  0
LINE
  5
9265
330
1F
100
AcDbEntity
  8
SOLBET_Wymiary_Opisy
100
AcDbLine
 10
67.15280868091849
 20
163.123744834094
 30
0.0
 11
68.14306612137897
 21
152.5237448340969
 31
0.0
  0
LINE
  5
929B
330
1F
100
AcDbEntity
  8
SOLBET_Grunt
  6
Continuous
100
AcDbLine
 10
55.67859438992764
 20
159.9078797239857
 30
0.0
 11
58.61592968662489
 21
163.123744834094
 31
0.0
  0
LINE
  5
929C
330
1F
100
AcDbEntity
  8
SOLBET_Grunt
  6
Continuous
100
AcDbLine
 10
56.02117431596616
 20
162.125861184065
 30
0.0
 11
56.93263010370765
 21
163.123744834094
 31
0.0
  0
LINE
  5
92B3
330
1F
100
AcDbEntity
  8
SOLBET_Wymiary_Opisy
100
AcDbLine
 10
70.4659502005411
 20
151.0237448340969
 30
0.0
 11
75.77371563368706
 21
94.20789948567579
 31
0.0
  0
LINE
  5
92B4
330
1F
100
AcDbEntity
  8
SOLBET_Wymiary_Opisy
100
AcDbLine
 10
80.85696925325056
 20
94.20789948567579
 30
0.0
 11
75.77371563368706
 21
94.20789948567579
 31
0.0
  0
LINE
  5
92BD
330
1F
100
AcDbEntity
  8
SOLBET_Emulsje_Folie
100
AcDbLine
 10
110.6225914417041
 20
178.1449353398831
 30
0.0
 11
166.3008716922695
 21
178.1449353398831
 31
0.0
  0
LINE
  5
92BE
330
1F
100
AcDbEntity
  8
SOLBET_Emulsje_Folie
100
AcDbLine
 10
111.4156877419418
 20
184.2210985707547
 30
0.0
 11
111.4156877419418
 21
181.5436310507698
 31
0.0
  0
LINE
  5
92BF
330
1F
100
AcDbEntity
  8
SOLBET_Emulsje_Folie
100
AcDbLine
 10
111.6656877419418
 20
181.2936310507698
 30
0.0
 11
166.3008716922695
 21
181.2936310507698
 31
0.0
  0
ARC
  5
92C0
330
1F
100
AcDbEntity
  8
SOLBET_Emulsje_Folie
100
AcDbCircle
 10
111.6656877419418
 20
181.5436310507698
 30
0.0
 40
0.25
100
AcDbArc
 50
180.0
 51
270.0
  0
LWPOLYLINE
  5
92CE
330
1F
100
AcDbEntity
  8
SOLBET_Tynki_Posadzki
100
AcDbPolyline
 90
        5
 70
     1
 43
0.0
 10
111.4156877419418
 20
181.5436310507698
 42
0.0737237824442343
 10
111.4264409251486
 20
181.4710985707547
 10
166.3008716922695
 20
181.4710985707547
 10
166.3008716922695
 20
183.9710985707547
 10
111.4156877419418
 20
183.9710985707547
1001
ASO_SCHRAFF
1005
92CE
1070
     1
1002
{
1070
     1
1005
92CE
1002
}
1002
{
1070
     2
1005
92D7
1002
}
1002
{
1070
     4
1000
AR-CONC
1040
0.01
1040
0.0
1070
     0
1000
T__SCHR
1070
   256
1000
VONLAYER
1040
50.0
1070
     1
1002
}
  0
LWPOLYLINE
  5
92D0
330
1F
100
AcDbEntity
  8
SOLBET_Beton
100
AcDbPolyline
 90
        4
 70
     1
 43
0.0
 10
80.85696925325056
 20
94.20789948567579
 10
120.7447741312881
 20
94.20789948567579
 10
117.5008716922693
 20
97.7078994856758
 10
84.10087169226926
 20
97.7078994856758
1001
ASO_SCHRAFF
1005
92D0
1070
     1
1002
{
1070
     1
1005
92D0
1002
}
1002
{
1070
     2
1005
92D6
1002
}
1002
{
1070
     4
1000
ANSI31
1040
0.1
1040
90.0
1070
     0
1000
T__SCHR
1070
   256
1000
VONLAYER
1040
50.0
1070
     1
1002
}
  0
LINE
  5
92D1
330
1F
100
AcDbEntity
  8
SOLBET_Izolacja
100
AcDbLine
 10
98.30087169226954
 20
178.9237447929094
 30
0.0
 11
98.30087169226954
 21
221.0237447929095
 31
0.0
  0
INSERT
  5
92D7
330
1F
100
AcDbEntity
  8
SOLBET_Tynki_Posadzki
100
AcDbBlockReference
  2
*X5
 10
-639.9614845368805
 20
-220.9430192877256
 30
0.0
 41
50.0
 42
50.0
 43
50.0
1001
ASO_SCHRAFF
1005
0
1070
     0
1005
0
1001
ACAD
1000
HATCH
1002
{
1070
    16
1000
AR-CONC
1040
0.025
1040
0.0
1002
}
  0
LINE
  5
92D8
330
1F
100
AcDbEntity
  8
SOLBET_Izolacja
100
AcDbLine
 10
93.30087169226954
 20
178.9237447929094
 30
0.0
 11
93.30087169226954
 21
221.0237447929095
 31
0.0
  0
LINE
  5
92D9
330
1F
100
AcDbEntity
  8
SOLBET_Tynki_Posadzki
100
AcDbLine
 10
92.30087169226953
 20
178.9237447929094
 30
0.0
 11
92.30087169226953
 21
221.0237447929095
 31
0.0
  0
LINE
  5
92DA
330
1F
100
AcDbEntity
  8
SOLBET_Tynki_Posadzki
100
AcDbLine
 10
86.30087169226953
 20
178.9237447929094
 30
0.0
 11
86.30087169226953
 21
221.0237447929095
 31
0.0
  0
LINE
  5
92DB
330
1F
100
AcDbEntity
  8
SOLBET_Izolacja
  6
Continuous
100
AcDbLine
 10
90.80087169226954
 20
118.6237448340969
 30
0.0
 11
90.80087169226954
 21
151.0237448340969
 31
0.0
  0
LINE
  5
92DD
330
1F
100
AcDbEntity
  8
SOLBET_Izolacja
  6
Continuous
100
AcDbLine
 10
90.80087169226954
 20
152.5237448340969
 30
0.0
 11
90.80087169226954
 21
178.1237448340969
 31
0.0
  0
LINE
  5
92E0
330
1F
100
AcDbEntity
  8
SOLBET_Emulsje_Folie
100
AcDbLine
 10
91.12299127464394
 20
178.1883200106374
 30
0.0
 11
91.12299127464394
 21
152.5237448340969
 31
0.0
  0
LINE
  5
92E1
330
1F
100
AcDbEntity
  8
SOLBET_Emulsje_Folie
100
AcDbLine
 10
91.12299127464394
 20
151.0237448340969
 30
0.0
 11
91.12299127464394
 21
118.6237448340969
 31
0.0
  0
ARC
  5
92E3
330
1F
100
AcDbEntity
  8
SOLBET_Emulsje_Folie
100
AcDbCircle
 10
90.87299127462074
 20
118.6237448340969
 30
0.0
 40
0.25
100
AcDbArc
 50
270.0
 51
0.0
  0
LINE
  5
92E4
330
1F
100
AcDbEntity
  8
SOLBET_Izolacja
  6
Continuous
100
AcDbLine
 10
89.80087169226953
 20
152.5237448340969
 30
0.0
 11
89.80087169226953
 21
178.1237448340969
 31
0.0
  0
LINE
  5
92E8
330
1F
100
AcDbEntity
  8
SOLBET_Izolacja
  6
Continuous
100
AcDbLine
 10
89.80087169226953
 20
118.6237448340969
 30
0.0
 11
89.80087169226953
 21
151.0237448340969
 31
0.0
  0
LINE
  5
92E9
330
1F
100
AcDbEntity
  8
SOLBET_Zbrojenie_Konstrukcja
100
AcDbLine
 10
89.96564778082301
 20
167.1157366389077
 30
0.0
 11
98.80087169226953
 21
167.1157366389077
 31
0.0
  0
LINE
  5
92EA
330
1F
100
AcDbEntity
  8
SOLBET_Zbrojenie_Konstrukcja
100
AcDbLine
 10
90.21386444780274
 20
169.4108743442327
 30
0.0
 11
90.21386444780274
 21
164.8205989335856
 31
0.0
  0
LINE
  5
92EC
330
1F
100
AcDbEntity
  8
SOLBET_Emulsje_Folie
100
AcDbLine
 10
89.23534385321863
 20
143.8905436990946
 30
0.0
 11
89.63534385324193
 21
144.0415978413937
 31
0.0
  0
LINE
  5
92ED
330
1F
100
AcDbEntity
  8
SOLBET_Emulsje_Folie
100
AcDbLine
 10
89.23534385321863
 20
144.9135690161976
 30
0.0
 11
89.63534385324193
 21
144.7625148738985
 31
0.0
  0
LINE
  5
92EE
330
1F
100
AcDbEntity
  8
SOLBET_Emulsje_Folie
100
AcDbLine
 10
89.23534385321863
 20
118.6237448340969
 30
0.0
 11
89.63534385324193
 21
118.6237448340969
 31
0.0
  0
LINE
  5
92EF
330
1F
100
AcDbEntity
  8
SOLBET_Emulsje_Folie
100
AcDbLine
 10
89.23534385321863
 20
119.9624438723858
 30
0.0
 11
89.63534385324193
 21
119.8113897300867
 31
0.0
  0
LINE
  5
92F0
330
1F
100
AcDbEntity
  8
SOLBET_Emulsje_Folie
100
AcDbLine
 10
89.23534385321863
 20
118.9394185552828
 30
0.0
 11
89.63534385324193
 21
119.0904726975819
 31
0.0
  0
LINE
  5
92F1
330
1F
100
AcDbEntity
  8
SOLBET_Emulsje_Folie
100
AcDbLine
 10
89.23534385321863
 20
120.7216417798412
 30
0.0
 11
89.63534385324193
 21
120.8726959221403
 31
0.0
  0
LINE
  5
92F2
330
1F
100
AcDbEntity
  8
SOLBET_Emulsje_Folie
100
AcDbLine
 10
89.23534385321863
 20
121.7446670969413
 30
0.0
 11
89.63534385324193
 21
121.5936129546422
 31
0.0
  0
LINE
  5
92F3
330
1F
100
AcDbEntity
  8
SOLBET_Emulsje_Folie
100
AcDbLine
 10
89.23534385321863
 20
123.5268903214997
 30
0.0
 11
89.63534385324193
 21
123.3758361792006
 31
0.0
  0
LINE
  5
92F4
330
1F
100
AcDbEntity
  8
SOLBET_Emulsje_Folie
100
AcDbLine
 10
89.23534385321863
 20
122.5038650043996
 30
0.0
 11
89.63534385324193
 21
122.6549191466987
 31
0.0
  0
LINE
  5
92F5
330
1F
100
AcDbEntity
  8
SOLBET_Emulsje_Folie
100
AcDbLine
 10
89.23534385321863
 20
124.2860882289551
 30
0.0
 11
89.63534385324193
 21
124.4371423712542
 31
0.0
  0
LINE
  5
92F6
330
1F
100
AcDbEntity
  8
SOLBET_Emulsje_Folie
100
AcDbLine
 10
89.23534385321863
 20
125.3091135460581
 30
0.0
 11
89.63534385324193
 21
125.158059403759
 31
0.0
  0
LINE
  5
92F7
330
1F
100
AcDbEntity
  8
SOLBET_Emulsje_Folie
100
AcDbLine
 10
89.23534385321863
 20
126.0683114535135
 30
0.0
 11
89.63534385324193
 21
126.2193655958126
 31
0.0
  0
LINE
  5
92F8
330
1F
100
AcDbEntity
  8
SOLBET_Emulsje_Folie
100
AcDbLine
 10
89.23534385321863
 20
127.0913367706165
 30
0.0
 11
89.63534385324193
 21
126.9402826283174
 31
0.0
  0
LINE
  5
92F9
330
1F
100
AcDbEntity
  8
SOLBET_Emulsje_Folie
100
AcDbLine
 10
89.23534385321863
 20
127.8505346780719
 30
0.0
 11
89.63534385324193
 21
128.001588820371
 31
0.0
  0
LINE
  5
92FA
330
1F
100
AcDbEntity
  8
SOLBET_Emulsje_Folie
100
AcDbLine
 10
89.23534385321863
 20
128.8735599951749
 30
0.0
 11
89.63534385324193
 21
128.7225058528758
 31
0.0
  0
LINE
  5
92FB
330
1F
100
AcDbEntity
  8
SOLBET_Emulsje_Folie
100
AcDbLine
 10
89.23534385321863
 20
129.6327579026303
 30
0.0
 11
89.63534385324193
 21
129.7838120449294
 31
0.0
  0
LINE
  5
92FC
330
1F
100
AcDbEntity
  8
SOLBET_Emulsje_Folie
100
AcDbLine
 10
89.23534385321863
 20
130.6557832197304
 30
0.0
 11
89.63534385324193
 21
130.5047290774342
 31
0.0
  0
LINE
  5
92FD
330
1F
100
AcDbEntity
  8
SOLBET_Emulsje_Folie
100
AcDbLine
 10
89.23534385321863
 20
131.4149811271887
 30
0.0
 11
89.63534385324193
 21
131.5660352694849
 31
0.0
  0
LINE
  5
92FE
330
1F
100
AcDbEntity
  8
SOLBET_Emulsje_Folie
100
AcDbLine
 10
89.23534385321863
 20
132.4380064442888
 30
0.0
 11
89.63534385324193
 21
132.2869523019926
 31
0.0
  0
LINE
  5
92FF
330
1F
100
AcDbEntity
  8
SOLBET_Emulsje_Folie
100
AcDbLine
 10
89.23534385321863
 20
143.1313457916392
 30
0.0
 11
89.63534385324193
 21
142.9802916493401
 31
0.0
  0
LINE
  5
9300
330
1F
100
AcDbEntity
  8
SOLBET_Emulsje_Folie
100
AcDbLine
 10
89.23534385321863
 20
142.1083204745362
 30
0.0
 11
89.63534385324193
 21
142.2593746168353
 31
0.0
  0
LINE
  5
9301
330
1F
100
AcDbEntity
  8
SOLBET_Emulsje_Folie
100
AcDbLine
 10
89.23534385321863
 20
141.3491225670808
 30
0.0
 11
89.63534385324193
 21
141.1980684247817
 31
0.0
  0
LINE
  5
9302
330
1F
100
AcDbEntity
  8
SOLBET_Emulsje_Folie
100
AcDbLine
 10
89.23534385321863
 20
140.3260972499807
 30
0.0
 11
89.63534385324193
 21
140.4771513922769
 31
0.0
  0
LINE
  5
9303
330
1F
100
AcDbEntity
  8
SOLBET_Emulsje_Folie
100
AcDbLine
 10
89.23534385321863
 20
139.5668993425224
 30
0.0
 11
89.63534385324193
 21
139.4158452002233
 31
0.0
  0
LINE
  5
9304
330
1F
100
AcDbEntity
  8
SOLBET_Emulsje_Folie
100
AcDbLine
 10
89.23534385321863
 20
138.5438740254223
 30
0.0
 11
89.63534385324193
 21
138.6949281677214
 31
0.0
  0
LINE
  5
9305
330
1F
100
AcDbEntity
  8
SOLBET_Emulsje_Folie
100
AcDbLine
 10
89.23534385321863
 20
137.784676117964
 30
0.0
 11
89.63534385324193
 21
137.6336219756678
 31
0.0
  0
LINE
  5
9306
330
1F
100
AcDbEntity
  8
SOLBET_Emulsje_Folie
100
AcDbLine
 10
89.23534385321863
 20
136.7616508008639
 30
0.0
 11
89.63534385324193
 21
136.9127049431601
 31
0.0
  0
LINE
  5
9307
330
1F
100
AcDbEntity
  8
SOLBET_Emulsje_Folie
100
AcDbLine
 10
89.23534385321863
 20
136.0024528934085
 30
0.0
 11
89.63534385324193
 21
135.8513987511094
 31
0.0
  0
LINE
  5
9308
330
1F
100
AcDbEntity
  8
SOLBET_Emulsje_Folie
100
AcDbLine
 10
89.23534385321863
 20
134.9794275763026
 30
0.0
 11
89.63534385324193
 21
135.1304817186017
 31
0.0
  0
LINE
  5
9309
330
1F
100
AcDbEntity
  8
SOLBET_Emulsje_Folie
100
AcDbLine
 10
89.23534385321863
 20
133.1972043517442
 30
0.0
 11
89.63534385324193
 21
133.3482584940433
 31
0.0
  0
LINE
  5
930A
330
1F
100
AcDbEntity
  8
SOLBET_Emulsje_Folie
100
AcDbLine
 10
89.23534385321863
 20
134.2202296688501
 30
0.0
 11
89.63534385324193
 21
134.069175526551
 31
0.0
  0
LINE
  5
930B
330
1F
100
AcDbEntity
  8
SOLBET_Emulsje_Folie
100
AcDbLine
 10
89.23534385321863
 20
147.4549901482114
 30
0.0
 11
89.63534385324193
 21
147.6060442905105
 31
0.0
  0
LINE
  5
930C
330
1F
100
AcDbEntity
  8
SOLBET_Emulsje_Folie
100
AcDbLine
 10
89.23534385321863
 20
148.4780154653115
 30
0.0
 11
89.63534385324193
 21
148.3269613230124
 31
0.0
  0
LINE
  5
930D
330
1F
100
AcDbEntity
  8
SOLBET_Emulsje_Folie
100
AcDbLine
 10
89.23534385321863
 20
149.2372133727698
 30
0.0
 11
89.63534385324193
 21
149.388267515066
 31
0.0
  0
LINE
  5
930E
330
1F
100
AcDbEntity
  8
SOLBET_Emulsje_Folie
100
AcDbLine
 10
89.23534385321863
 20
150.2602386898699
 30
0.0
 11
89.63534385324193
 21
150.1091845475737
 31
0.0
  0
LINE
  5
930F
330
1F
100
AcDbEntity
  8
SOLBET_Emulsje_Folie
100
AcDbLine
 10
89.23534385321863
 20
145.672766923653
 30
0.0
 11
89.63534385324193
 21
145.8238210659521
 31
0.0
  0
LINE
  5
9310
330
1F
100
AcDbEntity
  8
SOLBET_Emulsje_Folie
100
AcDbLine
 10
89.23534385321863
 20
146.6957922407531
 30
0.0
 11
89.63534385324193
 21
146.5447380984569
 31
0.0
  0
LINE
  5
9311
330
1F
100
AcDbEntity
  8
SOLBET_Emulsje_Folie
100
AcDbLine
 10
89.14729592893037
 20
164.5039742597368
 30
0.0
 11
89.63534385324193
 21
165.1856467530062
 31
0.0
  0
LINE
  5
9312
330
1F
100
AcDbEntity
  8
SOLBET_Emulsje_Folie
100
AcDbLine
 10
89.14729592893037
 20
164.5039742597368
 30
0.0
 11
89.14729592893037
 21
163.4245106544742
 31
0.0
  0
LINE
  5
9313
330
1F
100
AcDbEntity
  8
SOLBET_Emulsje_Folie
100
AcDbLine
 10
89.23534385321863
 20
161.4437517450092
 30
0.0
 11
89.63534385324193
 21
161.5948058873083
 31
0.0
  0
LINE
  5
9314
330
1F
100
AcDbEntity
  8
SOLBET_Emulsje_Folie
100
AcDbLine
 10
89.23534385321863
 20
162.4667770621122
 30
0.0
 11
89.63534385324193
 21
162.3157229198131
 31
0.0
  0
LINE
  5
9315
330
1F
100
AcDbEntity
  8
SOLBET_Emulsje_Folie
100
AcDbLine
 10
89.23534385321863
 20
163.2259749695705
 30
0.0
 11
89.63534385324193
 21
163.3770291118638
 31
0.0
  0
LINE
  5
9316
330
1F
100
AcDbEntity
  8
SOLBET_Emulsje_Folie
100
AcDbLine
 10
89.23534385321863
 20
157.8793052958924
 30
0.0
 11
89.63534385324193
 21
158.0303594381915
 31
0.0
  0
LINE
  5
9317
330
1F
100
AcDbEntity
  8
SOLBET_Emulsje_Folie
100
AcDbLine
 10
89.23534385321863
 20
158.9023306129954
 30
0.0
 11
89.63534385324193
 21
158.7512764706993
 31
0.0
  0
LINE
  5
9318
330
1F
100
AcDbEntity
  8
SOLBET_Emulsje_Folie
100
AcDbLine
 10
89.23534385321863
 20
159.6615285204508
 30
0.0
 11
89.63534385324193
 21
159.8125826627499
 31
0.0
  0
LINE
  5
9319
330
1F
100
AcDbEntity
  8
SOLBET_Emulsje_Folie
100
AcDbLine
 10
89.23534385321863
 20
160.6845538375538
 30
0.0
 11
89.63534385324193
 21
160.5334996952576
 31
0.0
  0
LINE
  5
931A
330
1F
100
AcDbEntity
  8
SOLBET_Emulsje_Folie
100
AcDbLine
 10
89.23534385321863
 20
154.3148588467785
 30
0.0
 11
89.63534385324193
 21
154.4659129890747
 31
0.0
  0
LINE
  5
931B
330
1F
100
AcDbEntity
  8
SOLBET_Emulsje_Folie
100
AcDbLine
 10
89.23534385321863
 20
155.3378841638787
 30
0.0
 11
89.63534385324193
 21
155.1868300215796
 31
0.0
  0
LINE
  5
931C
330
1F
100
AcDbEntity
  8
SOLBET_Emulsje_Folie
100
AcDbLine
 10
89.23534385321863
 20
156.097082071334
 30
0.0
 11
89.63534385324193
 21
156.2481362136331
 31
0.0
  0
LINE
  5
931D
330
1F
100
AcDbEntity
  8
SOLBET_Emulsje_Folie
100
AcDbLine
 10
89.23534385321863
 20
157.1201073884371
 30
0.0
 11
89.63534385324193
 21
156.9690532461379
 31
0.0
  0
LINE
  5
931E
330
1F
100
AcDbEntity
  8
SOLBET_Emulsje_Folie
100
AcDbLine
 10
89.63534385324193
 20
164.1237448340969
 30
0.0
 11
89.23534385321863
 21
164.1237448340969
 31
0.0
  0
LINE
  5
931F
330
1F
100
AcDbEntity
  8
SOLBET_Emulsje_Folie
100
AcDbLine
 10
89.23534385321863
 20
164.1237448340969
 30
0.0
 11
89.23534385321863
 21
152.5237448340969
 31
0.0
  0
LINE
  5
9320
330
1F
100
AcDbEntity
  8
SOLBET_Emulsje_Folie
100
AcDbLine
 10
89.63534385324193
 20
164.1237448340969
 30
0.0
 11
89.63534385324193
 21
152.5237448340969
 31
0.0
  0
LINE
  5
9321
330
1F
100
AcDbEntity
  8
SOLBET_Emulsje_Folie
100
AcDbLine
 10
89.23534385321863
 20
151.0237448340969
 30
0.0
 11
89.23534385321863
 21
118.6237448340969
 31
0.0
  0
LINE
  5
9322
330
1F
100
AcDbEntity
  8
SOLBET_Emulsje_Folie
100
AcDbLine
 10
89.63534385324193
 20
151.0237448340969
 30
0.0
 11
89.63534385324193
 21
118.6237448340969
 31
0.0
  0
LINE
  5
9323
330
1F
100
AcDbEntity
  8
SOLBET_Emulsje_Folie
100
AcDbLine
 10
89.23534385321863
 20
153.5556609393202
 30
0.0
 11
89.63534385324193
 21
153.4046067970211
 31
0.0
  0
LINE
  5
9324
330
1F
100
AcDbEntity
  8
SOLBET_Emulsje_Folie
100
AcDbLine
 10
89.23534385321863
 20
152.5326356222201
 30
0.0
 11
89.63534385324193
 21
152.6836897645192
 31
0.0
  0
LWPOLYLINE
  5
932E
330
1F
100
AcDbEntity
  8
SOLBET_Zbrojenie_Konstrukcja
100
AcDbPolyline
 90
        4
 70
     1
 43
0.0
 10
86.30087169226953
 20
178.9237447929094
 10
92.30087169226953
 20
178.9237447929094
 10
92.30087169226953
 20
182.1737447929094
 10
86.30087169226953
 20
182.1737447929094
  0
LWPOLYLINE
  5
932F
330
1F
100
AcDbEntity
  8
SOLBET_Tynki_Posadzki
100
AcDbPolyline
 90
        4
 70
     1
 43
0.0
 10
86.30087169226953
 20
182.9237447929094
 10
92.30087169226953
 20
182.9237447929094
 10
92.30087169226953
 20
186.1737447929094
 10
86.30087169226953
 20
186.1737447929094
  0
LWPOLYLINE
  5
9330
330
1F
100
AcDbEntity
  8
SOLBET_Tynki_Posadzki
100
AcDbPolyline
 90
        4
 70
     1
 43
0.0
 10
86.30087169226953
 20
186.9237447929065
 10
92.30087169226953
 20
186.9237447929065
 10
92.30087169226953
 20
190.1737447929065
 10
86.30087169226953
 20
190.1737447929065
  0
LWPOLYLINE
  5
9331
330
1F
100
AcDbEntity
  8
SOLBET_Tynki_Posadzki
100
AcDbPolyline
 90
        4
 70
     1
 43
0.0
 10
86.30087169226953
 20
190.9237447929094
 10
92.30087169226953
 20
190.9237447929094
 10
92.30087169226953
 20
194.1737447929094
 10
86.30087169226953
 20
194.1737447929094
  0
LWPOLYLINE
  5
9332
330
1F
100
AcDbEntity
  8
SOLBET_Tynki_Posadzki
100
AcDbPolyline
 90
        4
 70
     1
 43
0.0
 10
86.30087169226953
 20
194.9237447929094
 10
92.30087169226953
 20
194.9237447929094
 10
92.30087169226953
 20
198.1737447929094
 10
86.30087169226953
 20
198.1737447929094
  0
LWPOLYLINE
  5
9333
330
1F
100
AcDbEntity
  8
SOLBET_Tynki_Posadzki
100
AcDbPolyline
 90
        4
 70
     1
 43
0.0
 10
86.30087169226953
 20
198.9237447929094
 10
92.30087169226953
 20
198.9237447929094
 10
92.30087169226953
 20
202.1737447929095
 10
86.30087169226953
 20
202.1737447929095
  0
LWPOLYLINE
  5
9334
330
1F
100
AcDbEntity
  8
SOLBET_Tynki_Posadzki
100
AcDbPolyline
 90
        4
 70
     1
 43
0.0
 10
86.30087169226953
 20
202.9237447929066
 10
92.30087169226953
 20
202.9237447929066
 10
92.30087169226953
 20
206.1737447929065
 10
86.30087169226953
 20
206.1737447929065
  0
LWPOLYLINE
  5
9335
330
1F
100
AcDbEntity
  8
SOLBET_Tynki_Posadzki
100
AcDbPolyline
 90
        4
 70
     1
 43
0.0
 10
86.30087169226953
 20
206.9237447929094
 10
92.30087169226953
 20
206.9237447929094
 10
92.30087169226953
 20
210.1737447929095
 10
86.30087169226953
 20
210.1737447929095
  0
LWPOLYLINE
  5
9336
330
1F
100
AcDbEntity
  8
SOLBET_Tynki_Posadzki
100
AcDbPolyline
 90
        4
 70
     1
 43
0.0
 10
86.30087169226953
 20
210.9237447929094
 10
92.30087169226953
 20
210.9237447929094
 10
92.30087169226953
 20
214.1737447929095
 10
86.30087169226953
 20
214.1737447929095
  0
LWPOLYLINE
  5
9337
330
1F
100
AcDbEntity
  8
SOLBET_Tynki_Posadzki
100
AcDbPolyline
 90
        4
 70
     1
 43
0.0
 10
86.30087169226953
 20
214.9237447929094
 10
92.30087169226953
 20
214.9237447929094
 10
92.30087169226953
 20
218.1737447929065
 10
86.30087169226953
 20
218.1737447929065
  0
LWPOLYLINE
  5
9338
330
1F
100
AcDbEntity
  8
SOLBET_Tynki_Posadzki
100
AcDbPolyline
 90
        3
 70
     0
 43
0.0
 10
86.30087169226953
 20
218.9237447929066
 10
92.30087169226953
 20
218.9237447929066
 10
92.30087169226953
 20
221.0237447929095
  0
LWPOLYLINE
  5
9339
330
1F
100
AcDbEntity
  8
SOLBET_Tynki_Posadzki
100
AcDbPolyline
 90
        2
 70
     0
 43
0.0
 10
86.30087169226953
 20
221.0237447929095
 10
86.30087169226953
 20
218.9237447929066
  0
LINE
  5
933B
330
1F
100
AcDbEntity
  8
SOLBET_Tynki_Posadzki
100
AcDbLine
 10
89.54755044395325
 20
178.1237448458636
 30
0.0
 11
89.54755044395325
 21
164.4655167979963
 31
0.0
  0
LINE
  5
933C
330
1F
100
AcDbEntity
  8
SOLBET_Emulsje_Folie
100
AcDbLine
 10
110.6780920530177
 20
190.9237447929094
 30
0.0
 11
98.22493181514756
 21
190.9237447929094
 31
0.0
  0
LINE
  5
933D
330
1F
100
AcDbEntity
  8
SOLBET_Emulsje_Folie
100
AcDbLine
 10
98.22493181514756
 20
190.9237447929094
 30
0.0
 11
98.22493181514756
 21
178.7647147979841
 31
0.0
  0
LINE
  5
933E
330
1F
100
AcDbEntity
  8
SOLBET_Emulsje_Folie
100
AcDbLine
 10
98.22493181514756
 20
178.7647147979841
 30
0.0
 11
84.97162484682394
 21
178.7647147979841
 31
0.0
  0
LWPOLYLINE
  5
9340
330
1F
100
AcDbEntity
  8
SOLBET_Zbrojenie_Konstrukcja
100
AcDbPolyline
 90
        4
 70
     0
 43
0.0
 10
86.60529649811541
 20
190.5273452578773
 10
91.64254969774948
 20
190.5273452578773
 10
98.22493181514756
 20
190.9237447929094
 10
104.4294211716833
 20
190.9237447929094
  0
LINE
  5
9341
330
1F
100
AcDbEntity
  8
SOLBET_Zbrojenie_Konstrukcja
100
AcDbLine
 10
92.99848218047737
 20
192.2358069696833
 30
0.0
 11
92.99848218047737
 21
188.982195549568
 31
0.0
  0
LWPOLYLINE
  5
9342
330
1F
100
AcDbEntity
  8
SOLBET_Zbrojenie_Konstrukcja
100
AcDbPolyline
 90
        4
 70
     1
 43
0.0
 10
92.84349228150404
 20
191.3062041691409
 10
92.99848218047737
 20
191.3062041691409
 10
92.99848218047737
 20
189.9117983501105
 10
92.84349228150404
 20
189.9117983501105
  0
LWPOLYLINE
  5
9343
330
1F
100
AcDbEntity
  8
SOLBET_Zbrojenie_Konstrukcja
100
AcDbPolyline
 90
        4
 70
     0
 43
0.0
 10
86.60529649811541
 20
214.5273452578802
 10
91.64254969774948
 20
214.5273452578802
 10
98.22493181514756
 20
214.9237447929094
 10
104.4294211716833
 20
214.9237447929094
  0
LWPOLYLINE
  5
9344
330
1F
100
AcDbEntity
  8
SOLBET_Zbrojenie_Konstrukcja
100
AcDbPolyline
 90
        4
 70
     1
 43
0.0
 10
92.84349228150404
 20
215.3062041691409
 10
92.99848218047737
 20
215.3062041691409
 10
92.99848218047737
 20
213.9117983501134
 10
92.84349228150404
 20
213.9117983501134
  0
LINE
  5
9345
330
1F
100
AcDbEntity
  8
SOLBET_Zbrojenie_Konstrukcja
100
AcDbLine
 10
92.99848218047737
 20
216.2358069696833
 30
0.0
 11
92.99848218047737
 21
212.982195549568
 31
0.0
  0
LINE
  5
934E
330
1F
100
AcDbEntity
  8
SOLBET_Zbrojenie_Konstrukcja
100
AcDbLine
 10
86.30087169226953
 20
182.1737447929094
 30
0.0
 11
92.30087169226953
 21
178.9237447929094
 31
0.0
  0
LINE
  5
934F
330
1F
100
AcDbEntity
  8
SOLBET_Zbrojenie_Konstrukcja
100
AcDbLine
 10
92.30087169226953
 20
182.1737447929094
 30
0.0
 11
86.30087169226953
 21
178.9237447929094
 31
0.0
  0
LINE
  5
935C
330
1F
100
AcDbEntity
  8
SOLBET_Izolacja
100
AcDbLine
 10
110.3008716922695
 20
183.9710985707547
 30
0.0
 11
110.3008716922695
 21
178.9237447929094
 31
0.0
  0
LINE
  5
935D
330
1F
100
AcDbEntity
  8
SOLBET_Izolacja
  6
BATTING
 48
0.048
100
AcDbLine
 10
110.8008716922695
 20
183.9527660093036
 30
0.0
 11
110.8008716922693
 21
178.5977917371979
 31
0.0
  0
LINE
  5
935E
330
1F
100
AcDbEntity
  8
SOLBET_Izolacja
100
AcDbLine
 10
111.3008716922695
 20
181.0977917372007
 30
0.0
 11
111.3008716922695
 21
178.5977917371979
 31
0.0
  0
LINE
  5
9360
330
1F
100
AcDbEntity
  8
SOLBET_Izolacja
  6
BATTING
 48
0.12
100
AcDbLine
 10
111.3008716922695
 20
179.8477917371993
 30
0.0
 11
166.3008716922695
 21
179.8477917371993
 31
0.0
  0
HATCH
  5
9441
330
1F
100
AcDbEntity
  8
SOLBET_Grunt
100
AcDbHatch
 10
0.0
 20
0.0
 30
0.0
210
0.0
220
0.0
230
1.0
  2
AR-CONC
 70
     0
 71
     0
 91
        1
 92
        7
 72
     0
 73
     1
 93
       10
 10
89.23534385321842
 20
125.2520909456489
 10
72.23423325761974
 20
132.0955352195885
 10
75.77371563368728
 20
94.20789948567586
 10
80.85696925325033
 20
94.20789948567579
 10
84.10087169226949
 20
97.7078994856758
 10
85.80087169226954
 20
97.7078994856758
 10
85.80087169226954
 20
117.7078994856728
 10
85.80087169226954
 20
119.1060422207584
 10
88.30087169226976
 20
118.6237448340969
 10
89.23534385321842
 20
118.6237448340969
 97
        0
 75
     0
 76
     1
 52
0.0
 41
0.05
 77
     0
 78
    13
 53
50.0
 43
-1820.112435482792
 44
373.3158449529047
 45
9.1092334498002
 46
-0.7969542769451543
 79
     2
 49
0.9525000000000002
 49
-10.4775
 53
355.0
 43
-1820.112435482792
 44
373.3158449529047
 45
-1.762141298783349
 46
9.552832144108998
 79
     2
 49
0.762
 49
-8.381999999999999
 53
100.451
 43
-1819.353335482793
 44
373.2494324529047
 45
7.347125083297962
 46
8.755834391014593
 79
     2
 49
0.8095
 49
-8.9045
 53
46.1842
 43
-1820.112435482792
 44
375.8558449529047
 45
13.5539520446065
 46
-2.102116396636357
 79
     2
 49
1.428749999999999
 49
-15.71625
 53
96.63559999999996
 43
-1818.982940482792
 44
375.6806699529047
 45
11.87021172331186
 46
12.37127779450246
 79
     2
 49
1.214249999999999
 49
-13.35674999999999
 53
351.184
 43
-1820.112435482792
 44
375.8558449529047
 45
11.87023029069669
 46
12.37125589302988
 79
     2
 49
1.143
 49
-12.573
 53
21.0
 43
-1818.842435482793
 44
375.2208449529047
 45
7.580743991769164
 46
-5.113275925838125
 79
     2
 49
0.9525000000000002
 49
-10.4775
 53
326.0
 43
-1818.842435482793
 44
375.2208449529047
 45
3.090101417382353
 46
9.209398306115962
 79
     2
 49
0.762
 49
-8.381999999999999
 53
71.45140000000001
 43
-1818.210710482793
 44
374.7947399529047
 45
10.67082453850622
 46
4.096142885802872
 79
     2
 49
0.8095
 49
-8.9045
 53
37.5
 43
-1820.112435482792
 44
373.3158449529047
 45
0.1544301625295909
 46
4.227751943657655
 79
     6
 49
0.0
 49
-8.2804
 49
0.0
 49
-8.509
 49
0.0
 49
-8.41375
 53
7.499999999999999
 43
-1820.112435482792
 44
373.3158449529047
 45
3.340983125515287
 46
5.009028740905975
 79
     6
 49
0.0
 49
-4.851399999999999
 49
0.0
 49
-8.0899
 49
0.0
 49
-3.20675
 53
327.5
 43
-1822.944535482793
 44
373.3158449529047
 45
6.779529758343568
 46
-0.2864371996336732
 79
     6
 49
0.0
 49
-3.175
 49
0.0
 49
-9.906
 49
0.0
 49
-13.1445
 53
317.5
 43
-1824.214535482792
 44
373.3158449529047
 45
7.406459069300902
 46
1.27132455166665
 79
     6
 49
0.0
 49
-4.1275
 49
0.0
 49
-6.5786
 49
0.0
 49
-9.3345
 47
0.3152440736740272
 98
        4
 10
77.570411278145
 20
120.2209766088446
 10
81.06495337911747
 20
137.6789242575588
 10
71.27044475344064
 20
150.176886297154
 10
48.63912935305939
 20
515.3454521683264
1001
ACAD
1010
0.0
1020
0.0
1030
0.0
  0
HATCH
  5
9446
330
1F
100
AcDbEntity
  8
SOLBET_Grunt
100
AcDbHatch
 10
0.0
 20
0.0
 30
0.0
210
0.0
220
0.0
230
1.0
  2
AR-CONC
 70
     0
 71
     0
 91
        1
 92
        7
 72
     0
 73
     1
 93
        6
 10
84.80087169226953
 20
160.6802732227481
 10
84.80087169226932
 20
163.123744834094
 10
81.16034385321837
 20
163.123744834094
 10
67.15280868091804
 20
163.123744834094
 10
68.14306612137897
 20
152.5237448340969
 10
75.52929623893238
 20
152.5237448340968
 97
        0
 75
     0
 76
     1
 52
0.0
 41
0.02
 77
     0
 78
    13
 53
50.0
 43
-1820.112435482792
 44
373.3158449529047
 45
3.64369337992008
 46
-0.3187817107780617
 79
     2
 49
0.381
 49
-4.191
 53
355.0
 43
-1820.112435482792
 44
373.3158449529047
 45
-0.7048565195133399
 46
3.821132857643599
 79
     2
 49
0.3048
 49
-3.352799999999999
 53
100.451
 43
-1819.808795482792
 44
373.2892799529047
 45
2.938850033319184
 46
3.502333756405837
 79
     2
 49
0.3238
 49
-3.5618
 53
46.1842
 43
-1820.112435482792
 44
374.3318449529048
 45
5.421580817842598
 46
-0.8408465586545428
 79
     2
 49
0.5715
 49
-6.2865
 53
96.63559999999996
 43
-1819.660637482792
 44
374.2617749529047
 45
4.748084689324742
 46
4.948511117800984
 79
     2
 49
0.4856999999999999
 49
-5.342699999999997
 53
351.184
 43
-1820.112435482792
 44
374.3318449529048
 45
4.748092116278678
 46
4.948502357211953
 79
     2
 49
0.4572
 49
-5.0292
 53
21.0
 43
-1819.604435482792
 44
374.0778449529047
 45
3.032297596707665
 46
-2.04531037033525
 79
     2
 49
0.381
 49
-4.191
 53
326.0
 43
-1819.604435482792
 44
374.0778449529047
 45
1.236040566952941
 46
3.683759322446385
 79
     2
 49
0.3048
 49
-3.352799999999999
 53
71.45140000000001
 43
-1819.351745482792
 44
373.9074029529048
 45
4.268329815402489
 46
1.638457154321149
 79
     2
 49
0.3238
 49
-3.5618
 53
37.5
 43
-1820.112435482792
 44
373.3158449529047
 45
0.0617720650118363
 46
1.691100777463062
 79
     6
 49
0.0
 49
-3.312159999999999
 49
0.0
 49
-3.4036
 49
0.0
 49
-3.3655
 53
7.499999999999999
 43
-1820.112435482792
 44
373.3158449529047
 45
1.336393250206114
 46
2.00361149636239
 79
     6
 49
0.0
 49
-1.940559999999999
 49
0.0
 49
-3.235959999999999
 49
0.0
 49
-1.2827
 53
327.5
 43
-1821.245275482792
 44
373.3158449529047
 45
2.711811903337427
 46
-0.1145748798534693
 79
     6
 49
0.0
 49
-1.27
 49
0.0
 49
-3.9624
 49
0.0
 49
-5.257799999999999
 53
317.5
 43
-1821.753275482792
 44
373.3158449529047
 45
2.962583627720361
 46
0.5085298206666603
 79
     6
 49
0.0
 49
-1.650999999999999
 49
0.0
 49
-2.63144
 49
0.0
 49
-3.7338
 47
0.1117294479320777
 98
        1
 10
74.074582768043
 20
158.4230423681121
1001
ACAD
1010
0.0
1020
0.0
1030
0.0
  0
HATCH
  5
9AAB
330
1F
100
AcDbEntity
  8
SOLBET_Beton
100
AcDbHatch
 10
0.0
 20
0.0
 30
0.0
210
0.0
220
0.0
230
1.0
  2
ANSI33
 70
     0
 71
     1
 91
        1
 92
        7
 72
     0
 73
     1
 93
        4
 10
166.3008716922695
 20
170.4237448340969
 10
166.3008716922696
 20
177.923744834094
 10
110.5448288528456
 20
177.923744834094
 10
110.5448288528456
 20
170.4237448340969
 97
        1
330
9261
 75
     0
 76
     1
 52
0.0
 41
0.75
 77
     0
 78
     2
 53
45.0
 43
-1820.112435482792
 44
373.3158449529047
 45
-3.367596045400931
 46
3.367596045400932
 79
     0
 53
45.0
 43
-1816.744837982792
 44
373.3158449529047
 45
-3.367596045400931
 46
3.367596045400932
 79
     2
 49
2.381249999999999
 49
-1.190624999999999
 47
0.0654967556322452
 98
        1
 10
134.8796808148863
 20
172.7658004356136
1001
ACAD
1010
0.0
1020
0.0
1030
0.0
  0
LINE
  5
9AAE
330
1F
100
AcDbEntity
  8
SOLBET_Izolacja
  6
BATTING
 48
0.24
100
AcDbLine
 10
95.80087169226954
 20
220.7220047285947
 30
0.0
 11
95.80087169226954
 21
179.3316765024512
 31
0.0
  0
LINE
  5
9AAF
330
1F
100
AcDbEntity
  8
SOLBET_Izolacja
100
AcDbLine
 10
95.80087169226954
 20
220.7220047285947
 30
0.0
 11
95.80087169226954
 21
221.0237447929095
 31
0.0
  0
LINE
  5
9AE5
330
1F
100
AcDbEntity
  8
SOLBET_Bloczki
100
AcDbLine
 10
110.3008718680178
 20
221.0237447929094
 30
0.0
 11
110.3008718680178
 21
214.923744751722
 31
0.0
  0
LINE
  5
9AE7
330
1F
100
AcDbEntity
  8
SOLBET_Bloczki
100
AcDbLine
 10
98.30087186801756
 20
221.0237447929095
 30
0.0
 11
98.3008718680178
 21
214.9237447517221
 31
0.0
  0
LINE
  5
9AE8
330
1F
100
AcDbEntity
  8
SOLBET_Bloczki
100
AcDbLine
 10
98.30087169226954
 20
214.9237447929094
 30
0.0
 11
110.224931990896
 21
214.923744751722
 31
0.0
  0
LWPOLYLINE
  5
9AFF
330
1F
100
AcDbEntity
  8
SOLBET_Emulsje_Folie
100
AcDbPolyline
 90
        4
 70
     0
 43
0.0
 10
113.5626026902114
 20
178.3037448340969
 10
84.56260269021232
 20
178.3037448340969
 10
84.56260269021232
 20
178.5437448340969
 10
113.5626026902114
 20
178.5437448340969
  0
LINE
  5
9B00
330
1F
100
AcDbEntity
  8
SOLBET_Emulsje_Folie
  6
DASHED2
370
    30
100
AcDbLine
 10
84.56260269021232
 20
178.4237448340969
 30
0.0
 11
113.5626026902116
 21
178.4237448340969
 31
0.0
  0
LINE
  5
9B01
330
1F
100
AcDbEntity
  8
SOLBET_Emulsje_Folie
100
AcDbLine
 10
113.5626026902114
 20
178.5437448340969
 30
0.0
 11
113.5626026902114
 21
178.3037448340969
 31
0.0
  0
LINE
  5
9B18
330
1F
100
AcDbEntity
  8
SOLBET_Izolacja
100
AcDbLine
 10
89.80087169226953
 20
178.1237448340969
 30
0.0
 11
90.80087169226954
 21
178.1237448340969
 31
0.0
  0
LINE
  5
9B19
330
1F
100
AcDbEntity
  8
SOLBET_Izolacja
100
AcDbLine
 10
90.80087169226954
 20
178.1237448340969
 30
0.0
 11
90.30087169226954
 21
178.1237448340969
 31
0.0
  0
LINE
  5
9B1A
330
1F
100
AcDbEntity
  8
SOLBET_Izolacja
  6
BATTING
 48
0.048
100
AcDbLine
 10
90.30087169226954
 20
178.1237448340969
 30
0.0
 11
90.30087169226931
 21
152.5237448340969
 31
0.0
  0
LINE
  5
9B1B
330
1F
100
AcDbEntity
  8
SOLBET_Izolacja
  6
BATTING
 48
0.048
100
AcDbLine
 10
90.30087169226954
 20
151.0237448340969
 30
0.0
 11
90.30087169226954
 21
118.6237448340969
 31
0.0
  0
HATCH
  5
9B59
330
1F
100
AcDbEntity
  8
SOLBET_Beton
100
AcDbHatch
 10
0.0
 20
0.0
 30
0.0
210
0.0
220
0.0
230
1.0
  2
ANSI33
 70
     0
 71
     0
 91
        1
 92
        1
 93
        5
 72
     1
 10
88.00087169226959
 20
117.7078994856729
 11
85.80087169226935
 21
115.5078994856726
 72
     1
 10
85.80087169226935
 20
115.5078994856726
 11
85.80087169226976
 21
97.7078994856758
 72
     1
 10
85.80087169226976
 20
97.7078994856758
 11
115.8008716922695
 21
97.70789948567585
 72
     1
 10
115.8008716922695
 20
97.70789948567585
 11
115.8008716922695
 21
117.7078994856728
 72
     1
 10
115.8008716922695
 20
117.7078994856728
 11
88.00087169226959
 21
117.7078994856729
 97
        0
 75
     0
 76
     1
 52
0.0
 41
0.75
 77
     0
 78
     2
 53
45.0
 43
-1820.112435482792
 44
373.3158449529047
 45
-3.367596045400931
 46
3.367596045400932
 79
     0
 53
45.0
 43
-1816.744837982792
 44
373.3158449529047
 45
-3.367596045400931
 46
3.367596045400932
 79
     2
 49
2.381249999999999
 49
-1.190624999999999
 98
        1
 10
96.142908033612
 20
107.2910136580332
1001
ACAD
1010
0.0
1020
0.0
1030
0.0
  0
HATCH
  5
9B5E
330
1F
100
AcDbEntity
  8
SOLBET_Beton
100
AcDbHatch
 10
0.0
 20
0.0
 30
0.0
210
0.0
220
0.0
230
1.0
  2
ANSI31
 70
     0
 71
     0
 91
        1
 92
        7
 72
     0
 73
     1
 93
        4
 10
84.10087169226949
 20
97.7078994856758
 10
80.85696925325079
 20
94.20789948567579
 10
120.7447741312881
 20
94.20789948567579
 10
117.5008716922696
 20
97.70789948567577
 97
        0
 75
     0
 76
     1
 52
90.0
 41
0.5
 77
     0
 78
     1
 53
135.0
 43
-1820.112435482792
 44
373.3158449529047
 45
-1.122532015133644
 46
-1.122532015133643
 79
     0
 47
0.1036487772428394
 98
        1
 10
90.81303432976984
 20
96.00138031113159
1001
ACAD
1010
0.0
1020
0.0
1030
0.0
  0
HATCH
  5
9BDA
330
1F
100
AcDbEntity
  8
SOLBET_Grunt
100
AcDbHatch
 10
0.0
 20
0.0
 30
0.0
210
0.0
220
0.0
230
1.0
  2
AR-CONC
 70
     0
 71
     0
 91
        1
 92
        7
 72
     0
 73
     1
 93
        5
 10
89.23534385321842
 20
151.0237448340969
 10
73.82423711115961
 20
151.0237448340969
 10
70.72099133795632
 20
148.2937112628355
 10
72.23423325761996
 20
132.0955352195886
 10
89.23534385321863
 20
125.2520909456489
 97
        0
 75
     0
 76
     1
 52
0.0
 41
0.05
 77
     0
 78
    13
 53
50.0
 43
-1820.112435482792
 44
373.3158449529047
 45
9.1092334498002
 46
-0.7969542769451543
 79
     2
 49
0.9525000000000002
 49
-10.4775
 53
355.0
 43
-1820.112435482792
 44
373.3158449529047
 45
-1.762141298783349
 46
9.552832144108998
 79
     2
 49
0.762
 49
-8.381999999999999
 53
100.451
 43
-1819.353335482793
 44
373.2494324529047
 45
7.347125083297962
 46
8.755834391014593
 79
     2
 49
0.8095
 49
-8.9045
 53
46.1842
 43
-1820.112435482792
 44
375.8558449529047
 45
13.5539520446065
 46
-2.102116396636357
 79
     2
 49
1.428749999999999
 49
-15.71625
 53
96.63559999999996
 43
-1818.982940482792
 44
375.6806699529047
 45
11.87021172331186
 46
12.37127779450246
 79
     2
 49
1.214249999999999
 49
-13.35674999999999
 53
351.184
 43
-1820.112435482792
 44
375.8558449529047
 45
11.87023029069669
 46
12.37125589302988
 79
     2
 49
1.143
 49
-12.573
 53
21.0
 43
-1818.842435482793
 44
375.2208449529047
 45
7.580743991769164
 46
-5.113275925838125
 79
     2
 49
0.9525000000000002
 49
-10.4775
 53
326.0
 43
-1818.842435482793
 44
375.2208449529047
 45
3.090101417382353
 46
9.209398306115962
 79
     2
 49
0.762
 49
-8.381999999999999
 53
71.45140000000001
 43
-1818.210710482793
 44
374.7947399529047
 45
10.67082453850622
 46
4.096142885802872
 79
     2
 49
0.8095
 49
-8.9045
 53
37.5
 43
-1820.112435482792
 44
373.3158449529047
 45
0.1544301625295909
 46
4.227751943657655
 79
     6
 49
0.0
 49
-8.2804
 49
0.0
 49
-8.509
 49
0.0
 49
-8.41375
 53
7.499999999999999
 43
-1820.112435482792
 44
373.3158449529047
 45
3.340983125515287
 46
5.009028740905975
 79
     6
 49
0.0
 49
-4.851399999999999
 49
0.0
 49
-8.0899
 49
0.0
 49
-3.20675
 53
327.5
 43
-1822.944535482793
 44
373.3158449529047
 45
6.779529758343568
 46
-0.2864371996336732
 79
     6
 49
0.0
 49
-3.175
 49
0.0
 49
-9.906
 49
0.0
 49
-13.1445
 53
317.5
 43
-1824.214535482792
 44
373.3158449529047
 45
7.406459069300902
 46
1.27132455166665
 79
     6
 49
0.0
 49
-4.1275
 49
0.0
 49
-6.5786
 49
0.0
 49
-9.3345
 47
0.3152440736740272
 98
        4
 10
77.570411278145
 20
120.2209766088446
 10
81.06495337911747
 20
137.6789242575588
 10
71.27044475344064
 20
150.176886297154
 10
48.63912935305939
 20
515.3454521683264
1001
ACAD
1010
0.0
1020
0.0
1030
0.0
  0
HATCH
  5
9BDC
330
1F
100
AcDbEntity
  8
SOLBET_Grunt
100
AcDbHatch
 10
0.0
 20
0.0
 30
0.0
210
0.0
220
0.0
230
1.0
  2
AR-CONC
 70
     0
 71
     0
 91
        1
 92
        7
 72
     0
 73
     1
 93
        5
 10
89.23534385321863
 20
163.123744834094
 10
87.57838074185542
 20
163.1237448340939
 10
75.52929623893192
 20
152.5237448340969
 10
89.21180053824969
 20
152.5237448340969
 10
89.23534385321863
 20
152.5326356222202
 97
        0
 75
     0
 76
     1
 52
0.0
 41
0.02
 77
     0
 78
    13
 53
50.0
 43
-1820.112435482792
 44
373.3158449529047
 45
3.64369337992008
 46
-0.3187817107780617
 79
     2
 49
0.381
 49
-4.191
 53
355.0
 43
-1820.112435482792
 44
373.3158449529047
 45
-0.7048565195133399
 46
3.821132857643599
 79
     2
 49
0.3048
 49
-3.352799999999999
 53
100.451
 43
-1819.808795482792
 44
373.2892799529047
 45
2.938850033319184
 46
3.502333756405837
 79
     2
 49
0.3238
 49
-3.5618
 53
46.1842
 43
-1820.112435482792
 44
374.3318449529048
 45
5.421580817842598
 46
-0.8408465586545428
 79
     2
 49
0.5715
 49
-6.2865
 53
96.63559999999996
 43
-1819.660637482792
 44
374.2617749529047
 45
4.748084689324742
 46
4.948511117800984
 79
     2
 49
0.4856999999999999
 49
-5.342699999999997
 53
351.184
 43
-1820.112435482792
 44
374.3318449529048
 45
4.748092116278678
 46
4.948502357211953
 79
     2
 49
0.4572
 49
-5.0292
 53
21.0
 43
-1819.604435482792
 44
374.0778449529047
 45
3.032297596707665
 46
-2.04531037033525
 79
     2
 49
0.381
 49
-4.191
 53
326.0
 43
-1819.604435482792
 44
374.0778449529047
 45
1.236040566952941
 46
3.683759322446385
 79
     2
 49
0.3048
 49
-3.352799999999999
 53
71.45140000000001
 43
-1819.351745482792
 44
373.9074029529048
 45
4.268329815402489
 46
1.638457154321149
 79
     2
 49
0.3238
 49
-3.5618
 53
37.5
 43
-1820.112435482792
 44
373.3158449529047
 45
0.0617720650118363
 46
1.691100777463062
 79
     6
 49
0.0
 49
-3.312159999999999
 49
0.0
 49
-3.4036
 49
0.0
 49
-3.3655
 53
7.499999999999999
 43
-1820.112435482792
 44
373.3158449529047
 45
1.336393250206114
 46
2.00361149636239
 79
     6
 49
0.0
 49
-1.940559999999999
 49
0.0
 49
-3.235959999999999
 49
0.0
 49
-1.2827
 53
327.5
 43
-1821.245275482792
 44
373.3158449529047
 45
2.711811903337427
 46
-0.1145748798534693
 79
     6
 49
0.0
 49
-1.27
 49
0.0
 49
-3.9624
 49
0.0
 49
-5.257799999999999
 53
317.5
 43
-1821.753275482792
 44
373.3158449529047
 45
2.962583627720361
 46
0.5085298206666603
 79
     6
 49
0.0
 49
-1.650999999999999
 49
0.0
 49
-2.63144
 49
0.0
 49
-3.7338
 47
0.1117294479320777
 98
        1
 10
83.02050576266173
 20
155.0711548773316
1001
ACAD
1010
0.0
1020
0.0
1030
0.0
  0
LEADER
  5
9BF5
330
1F
100
AcDbEntity
  8
SOLBET_Wymiary_Opisy
100
AcDbLeader
  3
Solbet$7
 73
     0
 74
     0
 75
     1
 40
3.5
 41
37.25
 76
     3
 10
273.6707458360435
 20
109.4964169634186
 30
0.0
 10
288.6006472905166
 20
118.7278309329481
 30
0.0
 10
291.1006472905167
 20
118.7278309329481
 30
0.0
213
1.177601578005123
223
-0.1753245211093599
233
0.0
1001
ACAD
1000
DSTYLE
1002
{
1070
   147
1040
0.625
1070
    77
1070
     1
1002
}
  0
MTEXT
  5
9BF6
102
{ACAD_XDICTIONARY
360
AC96
102
}
102
{ACAD_REACTORS
330
9BF5
102
}
330
1F
100
AcDbEntity
  8
SOLBET_Wymiary_Opisy
100
AcDbMText
 10
290.5480457125115
 20
123.0281554540575
 30
0.0
 40
2.5
 41
0.0
 71
     1
 72
     1
  1
Warstwa wyko\U+0144czeniowa
  7
Solbet_2_5
 73
     1
 44
1.0
1001
ACAD
1000
MTEXTBEGIN
1070
    73
1070
     1
1070
    44
1040
1.0
1070
    74
1070
     0
1000
MTEXTEND
  0
LEADER
  5
9BF7
330
1F
100
AcDbEntity
  8
SOLBET_Wymiary_Opisy
100
AcDbLeader
  3
Solbet$7
 73
     0
 74
     0
 75
     1
 40
3.25
 41
32.5
 76
     3
 10
273.6707458360435
 20
102.5726217485896
 30
0.0
 10
287.4230457125115
 20
112.4866244023574
 30
0.0
 10
289.9230457125115
 20
112.4866244023574
 30
0.0
213
0.0
223
-0.2322806831707567
233
0.0
1001
ACAD
1000
DSTYLE
1002
{
1070
   147
1040
0.625
1070
    77
1070
     1
1002
}
  0
MTEXT
  5
9BF8
102
{ACAD_REACTORS
330
9BF7
102
}
330
1F
100
AcDbEntity
  8
SOLBET_Wymiary_Opisy
100
AcDbMText
 10
290.5480457125115
 20
116.5939050855282
 30
0.0
 40
2.5
 41
0.0
 71
     1
 72
     1
  1
Wylewka jastrychowa
  7
Solbet_2_5
 73
     1
 44
1.0
1001
ACAD
1000
MTEXTBEGIN
1070
    73
1070
     1
1070
    44
1040
1.0
1070
    74
1070
     0
1000
MTEXTEND
  0
LEADER
  5
9BF9
330
1F
100
AcDbEntity
  8
SOLBET_Wymiary_Opisy
100
AcDbLeader
  3
Solbet$7
 73
     0
 74
     0
 75
     1
 40
3.25
 41
19.75
 76
     3
 10
273.6707458360435
 20
94.94844769616495
 30
0.0
 10
287.4230457125115
 20
106.2514673235796
 30
0.0
 10
289.9230457125115
 20
106.2514673235796
 30
0.0
213
0.0
223
-0.2322806831707567
233
0.0
1001
ACAD
1000
DSTYLE
1002
{
1070
   147
1040
0.625
1070
    77
1070
     1
1002
}
  0
MTEXT
  5
9BFA
102
{ACAD_REACTORS
330
9BF9
102
}
330
1F
100
AcDbEntity
  8
SOLBET_Wymiary_Opisy
100
AcDbMText
 10
290.5480457125115
 20
110.3587480067504
 30
0.0
 40
2.5
 41
0.0
 71
     1
 72
     1
  1
Hydroizolacja
  7
Solbet_2_5
 73
     1
 44
1.0
1001
ACAD
1000
MTEXTBEGIN
1070
    73
1070
     1
1070
    44
1040
1.0
1070
    74
1070
     0
1000
MTEXTEND
  0
LEADER
  5
9BFB
330
1F
100
AcDbEntity
  8
SOLBET_Wymiary_Opisy
100
AcDbLeader
  3
Solbet$7
 73
     0
 74
     0
 75
     1
 40
3.25
 41
36.5
 76
     3
 10
273.6707458360435
 20
87.71925112830448
 30
0.0
 10
287.4230457125115
 20
99.77952420464275
 30
0.0
 10
289.9230457125115
 20
99.77952420464275
 30
0.0
213
0.0
223
-0.2322806831707567
233
0.0
1001
ACAD
1000
DSTYLE
1002
{
1070
   147
1040
0.625
1070
    77
1070
     1
1002
}
  0
MTEXT
  5
9BFC
102
{ACAD_XDICTIONARY
360
AC98
102
}
102
{ACAD_REACTORS
330
9BFB
102
}
330
1F
100
AcDbEntity
  8
SOLBET_Wymiary_Opisy
100
AcDbMText
 10
290.5480457125115
 20
103.8868048878135
 30
0.0
 40
2.5
 41
0.0
 71
     1
 72
     1
  1
P\U+0142yty izolacyjne twarde
  7
Solbet_2_5
 73
     1
 44
1.0
1001
ACAD
1000
MTEXTBEGIN
1070
    73
1070
     1
1070
    44
1040
1.0
1070
    74
1070
     0
1000
MTEXTEND
  0
LEADER
  5
9BFD
330
1F
100
AcDbEntity
  8
SOLBET_Wymiary_Opisy
100
AcDbLeader
  3
Solbet$7
 73
     0
 74
     0
 75
     1
 40
3.25
 41
19.75
 76
     3
 10
273.6707458360435
 20
79.20496893579443
 30
0.0
 10
288.0480457125115
 20
92.87893928145493
 30
0.0
 10
290.5480457125115
 20
92.87893928145493
 30
0.0
213
0.0
223
-0.2322806831707567
233
0.0
1001
ACAD
1000
DSTYLE
1002
{
1070
   147
1040
0.625
1070
    77
1070
     1
1002
}
  0
MTEXT
  5
9BFE
102
{ACAD_REACTORS
330
9BFD
102
}
330
1F
100
AcDbEntity
  8
SOLBET_Wymiary_Opisy
100
AcDbMText
 10
290.5480457125115
 20
96.13913085079573
 30
0.0
 40
2.5
 41
0.0
 71
     1
 72
     1
  1
Hydroizolacja
  7
Solbet_2_5
 73
     1
 44
1.0
1001
ACAD
1000
MTEXTBEGIN
1070
    73
1070
     1
1070
    44
1040
1.0
1070
    74
1070
     0
1000
MTEXTEND
  0
CIRCLE
  5
9BFF
330
1F
100
AcDbEntity
  8
SOLBET_Wymiary_Opisy
100
AcDbCircle
 10
164.1344028555399
 20
179.847791778387
 30
0.0
 40
6.72794034480946
  0
LINE
  5
9C00
330
1F
100
AcDbEntity
  8
SOLBET_Wymiary_Opisy
100
AcDbLine
 10
280.8816409681205
 20
110.8357852960805
 30
0.0
 11
280.8816409681237
 21
55.87133358932269
 31
0.0
  0
LINE
  5
9C01
330
1F
100
AcDbEntity
  8
SOLBET_Izolacja
100
AcDbLine
 10
236.9952950285143
 20
81.46925112830448
 30
0.0
 11
280.8816409681205
 21
81.46925112830448
 31
0.0
  0
LINE
  5
9C02
330
1F
100
AcDbEntity
  8
SOLBET_Izolacja
100
AcDbLine
 10
236.9952950285143
 20
93.96925112830443
 30
0.0
 11
280.8816409681205
 21
93.96925112830448
 31
0.0
  0
LINE
  5
9C03
330
1F
100
AcDbEntity
  8
SOLBET_Tynki_Posadzki
100
AcDbLine
 10
245.6104878905655
 20
110.8357852960805
 30
0.0
 11
280.8816409681205
 21
110.8357852960805
 31
0.0
  0
LINE
  5
9C04
330
1F
100
AcDbEntity
  8
SOLBET_Emulsje_Folie
100
AcDbLine
 10
237.5049189162571
 20
79.20496893579443
 30
0.0
 11
280.8816409681205
 21
79.20496893579443
 31
0.0
  0
LINE
  5
9C05
330
1F
100
AcDbEntity
  8
SOLBET_Emulsje_Folie
100
AcDbLine
 10
237.1955565245555
 20
94.94844769616495
 30
0.0
 11
280.8816409681205
 21
94.94844769616495
 31
0.0
  0
HATCH
  5
9C06
330
1F
100
AcDbEntity
  8
SOLBET_Tynki_Posadzki
100
AcDbHatch
 10
0.0
 20
0.0
 30
0.0
210
0.0
220
0.0
230
1.0
  2
AR-CONC
 70
     0
 71
     0
 91
        1
 92
        5
 93
        4
 72
     2
 10
270.0492967844722
 20
87.71925112830459
 40
33.63970172404727
 50
142.2031821742316
 51
166.0379938227853
 73
     1
 72
     1
 10
237.4034485769868
 20
95.83578529608146
 11
280.8816409681201
 21
95.83578529608146
 72
     1
 10
280.8816409681205
 20
95.83578529608146
 11
280.881640968121
 21
108.3357852960803
 72
     1
 10
280.881640968121
 20
108.3357852960803
 11
243.4675727810938
 21
108.3357852960803
 97
        0
 75
     0
 76
     1
 52
0.0
 41
0.03
 77
     0
 78
    13
 53
50.0
 43
906.9774919048766
 44
10.58723234956684
 45
5.46554006988012
 46
-0.4781725661670926
 79
     2
 49
0.5715
 49
-6.2865
 53
355.0
 43
906.9774919048766
 44
10.58723234956684
 45
-1.057284779270009
 46
5.731699286465398
 79
     2
 49
0.4572
 49
-5.029199999999999
 53
100.451
 43
907.4329519048767
 44
10.54738484956689
 45
4.408275049978777
 46
5.253500634608755
 79
     2
 49
0.4857000000000001
 49
-5.342699999999999
 53
46.1842
 43
906.9774919048766
 44
12.11123234956685
 45
8.132371226763897
 46
-1.261269837981814
 79
     2
 49
0.8572499999999999
 49
-9.429749999999998
 53
96.63559999999996
 43
907.6551889048767
 44
12.00612734956687
 45
7.122127033987114
 46
7.422766676701476
 79
     2
 49
0.7285499999999987
 49
-8.014049999999977
 53
351.184
 43
906.9774919048766
 44
12.11123234956685
 45
7.122138174418017
 46
7.422753535817929
 79
     2
 49
0.6858
 49
-7.5438
 53
21.0
 43
907.7394919048764
 44
11.73023234956687
 45
4.548446395061498
 46
-3.067965555502874
 79
     2
 49
0.5715
 49
-6.2865
 53
326.0
 43
907.7394919048764
 44
11.73023234956687
 45
1.854060850429411
 46
5.525638983669577
 79
     2
 49
0.4572
 49
-5.029199999999999
 53
71.45140000000001
 43
908.1185269048763
 44
11.47456934956685
 45
6.402494723103733
 46
2.457685731481723
 79
     2
 49
0.4857000000000001
 49
-5.342699999999999
 53
37.5
 43
906.9774919048766
 44
10.58723234956684
 45
0.0926580975177545
 46
2.536651166194593
 79
     6
 49
0.0
 49
-4.968239999999999
 49
0.0
 49
-5.1054
 49
0.0
 49
-5.04825
 53
7.499999999999999
 43
906.9774919048766
 44
10.58723234956684
 45
2.004589875309172
 46
3.005417244543585
 79
     6
 49
0.0
 49
-2.910839999999999
 49
0.0
 49
-4.853939999999999
 49
0.0
 49
-1.92405
 53
327.5
 43
905.2782319048763
 44
10.58723234956684
 45
4.067717855006141
 46
-0.1718623197802037
 79
     6
 49
0.0
 49
-1.905
 49
0.0
 49
-5.943599999999999
 49
0.0
 49
-7.886699999999999
 53
317.5
 43
904.5162319048765
 44
10.58723234956684
 45
4.443875441580541
 46
0.7627947309999904
 79
     6
 49
0.0
 49
-2.476499999999999
 49
0.0
 49
-3.947159999999999
 49
0.0
 49
-5.600699999999999
 47
0.0387476598051738
 98
        1
 10
260.3520853286643
 20
101.9333235936953
1001
ACAD
1010
0.0
1020
0.0
1030
0.0
  0
LWPOLYLINE
  5
9C07
330
1F
100
AcDbEntity
  8
SOLBET_Tynki_Posadzki
100
AcDbPolyline
 90
        4
 70
     0
 43
0.0
 10
237.4034485769868
 20
95.83578529608146
 10
280.8816409681205
 20
95.83578529608146
 10
280.881640968121
 20
108.3357852960805
 10
243.4675727810942
 20
108.3357852960805
1001
ASO_SCHRAFF
1005
0
1070
     1
1002
{
1070
     1
1005
0
1002
}
1002
{
1070
     2
1005
0
1002
}
1002
{
1070
     4
1000
AR-CONC
1040
0.01
1040
0.0
1070
     0
1000
T__SCHR
1070
   256
1000
_bylayer
1040
50.0
1070
     1
1002
}
  0
HATCH
  5
9C08
330
1F
100
AcDbEntity
  8
SOLBET_Beton
100
AcDbHatch
 10
0.0
 20
0.0
 30
0.0
210
0.0
220
0.0
230
1.0
  2
ANSI33
 70
     0
 71
     1
 91
        1
 92
        7
 72
     1
 73
     1
 93
        3
 10
237.8145233869898
 20
78.09901640685243
 42
0.4253361557004719
 10
280.8816409681205
 20
55.87133358932146
 42
0.0
 10
280.8816409681205
 20
78.09901640685243
 42
0.0
 97
        2
330
9C09
330
9C0B
 75
     0
 76
     1
 52
0.0
 41
3.75
 77
     0
 78
     2
 53
45.0
 43
-528.0310278763115
 44
-558.5313825929278
 45
-16.83798022700466
 46
16.83798022700466
 79
     0
 53
45.0
 43
-511.1930403763119
 44
-558.5313825929278
 45
-16.83798022700466
 46
16.83798022700466
 79
     2
 49
11.90625
 49
-5.953124999999999
 47
0.0587362888947614
 98
        1
 10
262.7173601621172
 20
67.58252441114848
1001
ACAD
1010
0.0
1020
0.0
1030
0.0
  0
LWPOLYLINE
  5
9C09
102
{ACAD_REACTORS
330
9C08
102
}
330
1F
100
AcDbEntity
  8
SOLBET_Beton
100
AcDbPolyline
 90
        3
 70
     0
 43
0.0
 10
237.8145233869902
 20
78.09901640685243
 10
280.8816409681205
 20
78.09901640685243
 10
280.8816409681205
 20
55.87133358932146
  0
LINE
  5
9C0A
330
1F
100
AcDbEntity
  8
SOLBET_Izolacja
  6
BATTING
 48
0.6
100
AcDbLine
 10
236.4095950604252
 20
87.71925112830448
 30
0.0
 11
280.8816409681205
 21
87.71925112830448
 31
0.0
  0
ARC
  5
9C0B
102
{ACAD_REACTORS
330
9C08
102
}
330
1F
100
AcDbEntity
  8
SOLBET_Wymiary_Opisy
100
AcDbCircle
 10
270.0492967844722
 20
87.71925112830448
 30
0.0
 40
33.6397017240473
100
AcDbArc
 50
136.5926968744891
 51
288.7845676764076
  0
MTEXT
  5
9C0C
102
{ACAD_XDICTIONARY
360
AB8C
102
}
330
1F
100
AcDbEntity
  8
SOLBET_Wymiary_Opisy
100
AcDbMText
 10
244.6968642243839
 20
134.0546411760779
 30
0.0
 40
5.0
 41
30.77919768571883
 71
     1
 72
     5
  1
\pxqc;B\P(5 : 1)
  7
Solbet_5
 73
     1
 44
1.0
1001
ACAD
1000
MTEXTBEGIN
1070
    73
1070
     1
1070
    44
1040
1.0
1070
    74
1070
     0
1000
MTEXTEND
1000
ACAD_MTEXT_DEFINED_HEIGHT_BEGIN
1070
    46
1040
23.42535011036716
1000
ACAD_MTEXT_DEFINED_HEIGHT_END
  0
LEADER
  5
9C0D
330
1F
100
AcDbEntity
  8
SOLBET_Wymiary_Opisy
100
AcDbLeader
  3
Solbet$7
 73
     0
 74
     0
 75
     1
 40
5.0
 41
4.0
 76
     3
 10
170.8623432003494
 20
179.8477917783869
 30
0.0
 10
173.8334934011659
 20
183.8462785174309
 30
0.0
 10
176.3334934011659
 20
183.8462785174309
 30
0.0
213
0.8103787685154202
223
-0.1753245211093599
233
0.0
1001
ACAD
1000
DSTYLE
1002
{
1070
   341
1005
790F
1070
   147
1040
0.625
1070
    77
1070
     1
1002
}
  0
MTEXT
  5
9C0E
102
{ACAD_REACTORS
330
9C0D
102
}
330
1F
100
AcDbEntity
  8
SOLBET_Wymiary_Opisy
100
AcDbMText
 10
180.1481146326505
 20
189.6466030385402
 30
0.0
 40
5.0
 41
0.0
 71
     3
 72
     1
  1
B
  7
Solbet_5
 73
     1
 44
1.0
1001
ACAD
1000
MTEXTBEGIN
1070
    73
1070
     1
1070
    44
1040
1.0
1070
    74
1070
     0
1000
MTEXTEND
  0
LEADER
  5
9C0F
330
1F
100
AcDbEntity
  8
SOLBET_Wymiary_Opisy
100
AcDbLeader
  3
Solbet$7
 73
     0
 74
     0
 75
     1
 40
3.25
 41
18.75
 76
     3
 10
149.5656549123114
 20
174.1859658920085
 30
0.0
 10
170.8320967114732
 20
160.0353352636433
 30
0.0
 10
173.3320967114732
 20
160.0353352636433
 30
0.0
213
0.0
223
-0.2322806831707567
233
0.0
1001
ACAD
1000
DSTYLE
1002
{
1070
   147
1040
0.625
1070
    77
1070
     1
1002
}
  0
MTEXT
  5
9C10
102
{ACAD_REACTORS
330
9C0F
102
}
330
1F
100
AcDbEntity
  8
SOLBET_Wymiary_Opisy
100
AcDbMText
 10
173.3320967114732
 20
163.2853352636433
 30
0.0
 40
2.5
 41
0.0
 71
     1
 72
     1
  1
Chudy beton
  7
Solbet_2_5
 73
     1
 44
1.0
1001
ACAD
1000
MTEXTBEGIN
1070
    73
1070
     1
1070
    44
1040
1.0
1070
    74
1070
     0
1000
MTEXTEND
  0
LEADER
  5
9C11
330
1F
100
AcDbEntity
  8
SOLBET_Wymiary_Opisy
100
AcDbLeader
  3
Solbet$7
 73
     0
 74
     0
 75
     1
 40
3.25
 41
30.25
 76
     3
 10
149.9014237322435
 20
159.921240097222
 30
0.0
 10
170.2070967114732
 20
149.3188096350101
 30
0.0
 10
172.7070967114732
 20
149.3188096350101
 30
0.0
213
0.0
223
-0.2322806831707567
233
0.0
1001
ACAD
1000
DSTYLE
1002
{
1070
   147
1040
0.625
1070
    77
1070
     1
1002
}
  0
MTEXT
  5
9C12
102
{ACAD_XDICTIONARY
360
AC9A
102
}
102
{ACAD_REACTORS
330
9C11
102
}
330
1F
100
AcDbEntity
  8
SOLBET_Wymiary_Opisy
100
AcDbMText
 10
173.3320967114732
 20
153.4260903181808
 30
0.0
 40
2.5
 41
0.0
 71
     1
 72
     1
  1
Zag\U+0119szczony piasek
  7
Solbet_2_5
 73
     1
 44
1.0
1001
ACAD
1000
MTEXTBEGIN
1070
    73
1070
     1
1070
    44
1040
1.0
1070
    74
1070
     0
1000
MTEXTEND
  0
MTEXT
  5
9C18
330
1F
100
AcDbEntity
  8
SOLBET_Wymiary_Opisy
100
AcDbMText
 10
65.95000263876499
 20
132.6731175354546
 30
0.0
 40
2.5
 41
0.0
 71
     3
 72
     1
  1
Styropian wodoodporny
  7
Solbet_2_5
 73
     1
 44
1.0
1001
ACAD
1000
MTEXTBEGIN
1070
    73
1070
     1
1070
    44
1040
1.0
1070
    74
1070
     0
1000
MTEXTEND
  0
MTEXT
  5
9C1A
330
1F
100
AcDbEntity
  8
SOLBET_Wymiary_Opisy
100
AcDbMText
 10
65.95000263876499
 20
126.1270327045409
 30
0.0
 40
2.5
 41
0.0
 71
     3
 72
     1
  1
Hydroizolacja
  7
Solbet_2_5
 73
     1
 44
1.0
1001
ACAD
1000
MTEXTBEGIN
1070
    73
1070
     1
1070
    44
1040
1.0
1070
    74
1070
     0
1000
MTEXTEND
  0
MTEXT
  5
9C40
102
{ACAD_XDICTIONARY
360
AC9C
102
}
330
1F
100
AcDbEntity
  8
SOLBET_Wymiary_Opisy
100
AcDbMText
 10
65.95000263876477
 20
137.9179139719731
 30
0.0
 40
2.5
 41
0.0
 71
     3
 72
     1
  1
Folia kube\U+0142kowa
  7
Solbet_2_5
 73
     1
 44
1.0
1001
ACAD
1000
MTEXTBEGIN
1070
    73
1070
     1
1070
    44
1040
1.0
1070
    74
1070
     0
1000
MTEXTEND
  0
INSERT
  5
9C41
330
1F
100
AcDbEntity
  8
SOLBET_Wymiary_Opisy
100
AcDbBlockReference
  2
_DotSmall
 10
89.23534385321863
 20
142.1083204745362
 30
0.0
 41
2.499999999999952
 42
2.5
 43
2.5
 50
17.67730576243998
1001
ACAD
1000
DSTYLE
1002
{
1070
   147
1040
0.625
1070
    77
1070
     1
1002
}
  0
LWPOLYLINE
  5
9C42
330
1F
100
AcDbEntity
  8
SOLBET_Wymiary_Opisy
100
AcDbPolyline
 90
        3
 70
     0
 43
0.0
 10
89.23534385321863
 20
142.1083204745362
 10
66.49319158664184
 20
134.6156955114699
 10
41.81751628455208
 20
134.6156955114699
1001
ACAD
1000
DSTYLE
1002
{
1070
   147
1040
0.625
1070
    77
1070
     1
1002
}
  0
INSERT
  5
9C5F
330
1F
100
AcDbEntity
  8
SOLBET_Wymiary_Opisy
100
AcDbBlockReference
  2
_DotSmall
 10
89.14729592893014
 20
164.5039742597368
 30
0.0
 41
2.499999999999952
 42
2.5
 43
2.5
 50
17.67730576243998
1001
ACAD
1000
DSTYLE
1002
{
1070
   147
1040
0.625
1070
    77
1070
     1
1002
}
  0
LWPOLYLINE
  5
9C60
330
1F
100
AcDbEntity
  8
SOLBET_Wymiary_Opisy
100
AcDbPolyline
 90
        3
 70
     0
 43
0.0
 10
89.14729592893014
 20
164.5039742597368
 10
66.49319158664184
 20
144.5743683241209
 10
35.91932354506435
 20
144.6257817400549
1001
ACAD
1000
DSTYLE
1002
{
1070
   147
1040
0.625
1070
    77
1070
     1
1002
}
  0
MTEXT
  5
9C61
102
{ACAD_XDICTIONARY
360
AC9E
102
}
330
1F
100
AcDbEntity
  8
SOLBET_Wymiary_Opisy
100
AcDbMText
 10
62.19059000863672
 20
147.8765867846242
 30
0.0
 40
2.5
 41
0.0
 71
     3
 72
     1
  1
Profil zamykaj\U+0105cy
  7
Solbet_2_5
 73
     1
 44
1.0
1001
ACAD
1000
MTEXTBEGIN
1070
    73
1070
     1
1070
    44
1040
1.0
1070
    74
1070
     0
1000
MTEXTEND
  0
LINE
  5
9CFC
330
1F
100
AcDbEntity
  8
SOLBET_Tynki_Posadzki
100
AcDbLine
 10
89.54755044395325
 20
178.1237448458617
 30
0.0
 11
89.80087169226953
 21
178.1237448340969
 31
0.0
  0
CIRCLE
  5
9DBB
330
1F
100
AcDbEntity
  8
SOLBET_Wymiary_Opisy
100
AcDbCircle
 10
98.22493181514756
 20
183.738087029926
 30
0.0
 40
15.82398771840592
  0
LINE
  5
9FD7
330
1F
100
AcDbEntity
  8
SOLBET_Emulsje_Folie
100
AcDbLine
 10
307.1252003057539
 20
193.6691629429897
 30
0.0
 11
307.1252003057539
 21
176.109217623883
 31
0.0
  0
LINE
  5
9FE1
330
1F
100
AcDbEntity
  8
SOLBET_Izolacja
  6
Continuous
100
AcDbLine
 10
308.4214195834861
 20
194.8975782462332
 30
0.0
 11
315.591078328333
 21
194.8975782462332
 31
0.0
  0
LINE
  5
9FE3
330
1F
100
AcDbEntity
  8
SOLBET_Tynki_Posadzki
100
AcDbLine
 10
308.4214195834861
 20
211.0174987469037
 30
0.0
 11
308.4214195834861
 21
258.3722076319327
 31
0.0
  0
LINE
  5
9FE4
330
1F
100
AcDbEntity
  8
SOLBET_Izolacja
  6
Continuous
100
AcDbLine
 10
309.9214195834861
 20
202.3975782462419
 30
0.0
 11
326.5625348442304
 21
202.3975782462419
 31
0.0
  0
LINE
  5
9FE5
330
1F
100
AcDbEntity
  8
SOLBET_Izolacja
  6
Continuous
100
AcDbLine
 10
309.9214195834861
 20
194.8975782462332
 30
0.0
 11
309.9214195834861
 21
211.0174987469037
 31
0.0
  0
LINE
  5
9FE8
330
1F
100
AcDbEntity
  8
SOLBET_Tynki_Posadzki
100
AcDbLine
 10
310.8156181570525
 20
212.5174987469037
 30
0.0
 11
318.1146030260702
 21
212.5174987469037
 31
0.0
  0
LINE
  5
9FE9
330
1F
100
AcDbEntity
  8
SOLBET_Izolacja
  6
Continuous
100
AcDbLine
 10
309.9214195834861
 20
194.8975782462332
 30
0.0
 11
306.9214195834861
 21
194.8975782462332
 31
0.0
  0
LINE
  5
9FEA
330
1F
100
AcDbEntity
  8
SOLBET_Izolacja
  6
Continuous
100
AcDbLine
 10
306.9214195834861
 20
195.8754374133679
 30
0.0
 11
306.9214195834861
 21
194.8975782462332
 31
0.0
  0
LINE
  5
9FEB
330
1F
100
AcDbEntity
  8
SOLBET_Izolacja
  6
Continuous
100
AcDbLine
 10
309.9214195834861
 20
211.0174987469037
 30
0.0
 11
306.9214195834861
 21
211.0174987469037
 31
0.0
  0
ARC
  5
A007
330
1F
100
AcDbEntity
  8
SOLBET_Tynki_Posadzki
100
AcDbCircle
 10
308.4214195834861
 20
212.5174987469037
 30
0.0
 40
4.5001564188864
100
AcDbArc
 50
0.0
 51
90.0
  0
LINE
  5
A008
330
1F
100
AcDbEntity
  8
SOLBET_Tynki_Posadzki
100
AcDbLine
 10
310.8156181570525
 20
212.5174987469037
 30
0.0
 11
310.8156181570525
 21
211.0174987469037
 31
0.0
  0
HATCH
  5
A00D
330
1F
100
AcDbEntity
  8
SOLBET_Beton
100
AcDbHatch
 10
0.0
 20
0.0
 30
0.0
210
0.0
220
0.0
230
1.0
  2
ANSI33
 70
     0
 71
     0
 91
        1
 92
        1
 93
        3
 72
     2
 10
278.3652265594042
 20
217.7040962783361
 40
50.56945738456565
 50
304.9759579241576
 51
330.594898778267
 73
     1
 72
     1
 10
322.4198258554598
 20
192.8754374133594
 11
307.3532910652143
 21
192.8754374133594
 72
     1
 10
307.3532910652143
 20
192.8754374133594
 11
307.3532910652143
 21
176.2678544557914
 97
        0
 75
     0
 76
     1
 52
0.0
 41
2.25
 77
     0
 78
     2
 53
45.0
 43
-6791.825084190674
 44
779.0517377697916
 45
-10.10278813620279
 46
10.1027881362028
 79
     0
 53
45.0
 43
-6781.722291690674
 44
779.0517377697916
 45
-10.10278813620279
 46
10.1027881362028
 79
     2
 49
7.143749999999998
 49
-3.571874999999999
 98
        2
 10
396.671668177602
 20
185.7484752590347
 10
396.671668177602
 20
185.7484752590347
1001
ACAD
1010
0.0
1020
0.0
1030
0.0
  0
LINE
  5
A00F
330
1F
100
AcDbEntity
  8
SOLBET_Emulsje_Folie
100
AcDbLine
 10
249.7176388612186
 20
193.6691629429897
 30
0.0
 11
307.1252003057539
 21
193.6691629429897
 31
0.0
  0
LINE
  5
A014
330
1F
100
AcDbEntity
  8
SOLBET_Emulsje_Folie
100
AcDbLine
 10
307.8865788317912
 20
193.5390089307269
 30
0.0
 11
322.7872770934781
 21
193.5390089307269
 31
0.0
  0
LINE
  5
A015
330
1F
100
AcDbEntity
  8
SOLBET_Emulsje_Folie
100
AcDbLine
 10
310.265867732503
 20
211.7674987469038
 30
0.0
 11
310.265867732503
 21
203.735096186949
 31
0.0
  0
LINE
  5
A016
330
1F
100
AcDbEntity
  8
SOLBET_Emulsje_Folie
100
AcDbLine
 10
311.015867732503
 20
202.9850961869489
 30
0.0
 11
326.7451920046083
 21
202.9850961869489
 31
0.0
  0
ARC
  5
A017
330
1F
100
AcDbEntity
  8
SOLBET_Emulsje_Folie
100
AcDbCircle
 10
311.015867732503
 20
203.735096186949
 30
0.0
 40
0.75
100
AcDbArc
 50
180.0
 51
270.0
  0
LINE
  5
A027
330
1F
100
AcDbEntity
  8
SOLBET_Izolacja
100
AcDbLine
 10
270.9214195834866
 20
195.8754374133679
 30
0.0
 11
270.9214195834857
 21
257.7898806192509
 31
0.0
  0
LINE
  5
A02A
330
1F
100
AcDbEntity
  8
SOLBET_Izolacja
100
AcDbLine
 10
255.9214195834863
 20
195.8754374133679
 30
0.0
 11
255.9214195834856
 21
263.0201590883057
 31
0.0
  0
LINE
  5
A02B
330
1F
100
AcDbEntity
  8
SOLBET_Tynki_Posadzki
100
AcDbLine
 10
249.9214195834863
 20
195.8754374133679
 30
0.0
 11
249.9214195834863
 21
259.5158155073528
 31
0.0
  0
LINE
  5
A02C
330
1F
100
AcDbEntity
  8
SOLBET_Tynki_Posadzki
100
AcDbLine
 10
231.9214195834863
 20
195.8754374133679
 30
0.0
 11
231.9214195834863
 21
237.7101657012157
 31
0.0
  0
LINE
  5
A032
330
1F
100
AcDbEntity
  8
SOLBET_Emulsje_Folie
100
AcDbLine
 10
249.3877783306095
 20
193.6691629429897
 30
0.0
 11
249.3877783306095
 21
176.2604295207129
 31
0.0
  0
LWPOLYLINE
  5
A07A
330
1F
100
AcDbEntity
  8
SOLBET_Zbrojenie_Konstrukcja
100
AcDbPolyline
 90
        4
 70
     1
 43
0.0
 10
231.9214195834863
 20
195.8754374133679
 10
249.9214195834863
 20
195.8754374133679
 10
249.9214195834863
 20
205.6254374133679
 10
231.9214195834863
 20
205.6254374133679
  0
LWPOLYLINE
  5
A07B
330
1F
100
AcDbEntity
  8
SOLBET_Tynki_Posadzki
100
AcDbPolyline
 90
        4
 70
     1
 43
0.0
 10
231.9214195834863
 20
207.875437413368
 10
249.9214195834863
 20
207.875437413368
 10
249.9214195834863
 20
217.6254374133679
 10
231.9214195834863
 20
217.6254374133679
  0
LWPOLYLINE
  5
A07C
330
1F
100
AcDbEntity
  8
SOLBET_Tynki_Posadzki
100
AcDbPolyline
 90
        4
 70
     1
 43
0.0
 10
231.9214195834863
 20
219.8754374133593
 10
249.9214195834863
 20
219.8754374133593
 10
249.9214195834863
 20
229.6254374133593
 10
231.9214195834863
 20
229.6254374133593
  0
LWPOLYLINE
  5
A07D
330
1F
100
AcDbEntity
  8
SOLBET_Tynki_Posadzki
100
AcDbPolyline
 90
        5
 70
     0
 43
0.0
 10
231.9214195834863
 20
237.7101657012155
 10
231.9214195834863
 20
231.8754374133679
 10
249.9214195834863
 20
231.8754374133679
 10
249.9214195834863
 20
241.6254374133679
 10
233.8114449188876
 20
241.6254374133679
  0
LINE
  5
A086
330
1F
100
AcDbEntity
  8
SOLBET_Tynki_Posadzki
100
AcDbLine
 10
244.6614558385388
 20
193.4754374486682
 30
0.0
 11
244.6614558385388
 21
180.0036206929436
 31
0.0
  0
LINE
  5
A087
330
1F
100
AcDbEntity
  8
SOLBET_Emulsje_Folie
370
    30
100
AcDbLine
 10
308.0530806657321
 20
231.8754374133679
 30
0.0
 11
270.693599952122
 21
231.8754374133679
 31
0.0
  0
LINE
  5
A088
330
1F
100
AcDbEntity
  8
SOLBET_Emulsje_Folie
370
    30
100
AcDbLine
 10
270.693599952122
 20
231.8754374133679
 30
0.0
 11
270.693599952122
 21
195.3983474285919
 31
0.0
  0
LINE
  5
A089
330
1F
100
AcDbEntity
  8
SOLBET_Emulsje_Folie
370
    30
100
AcDbLine
 10
270.693599952122
 20
195.3983474285919
 30
0.0
 11
228.0209084032039
 21
195.3983474285919
 31
0.0
  0
LWPOLYLINE
  5
A08B
330
1F
100
AcDbEntity
  8
SOLBET_Zbrojenie_Konstrukcja
100
AcDbPolyline
 90
        4
 70
     0
 43
0.0
 10
235.834694001024
 20
230.6862388082716
 10
250.9464535999275
 20
230.6862388082716
 10
270.693599952122
 20
231.8754374133679
 10
289.3070680217274
 20
231.8754374133679
  0
LINE
  5
A08C
330
1F
100
AcDbEntity
  8
SOLBET_Zbrojenie_Konstrukcja
100
AcDbLine
 10
255.0142510481098
 20
235.8116239436896
 30
0.0
 11
255.0142510481098
 21
226.0507896833437
 31
0.0
  0
LWPOLYLINE
  5
A08D
330
1F
100
AcDbEntity
  8
SOLBET_Zbrojenie_Konstrukcja
100
AcDbPolyline
 90
        4
 70
     1
 43
0.0
 10
254.5492813511899
 20
233.0228155420623
 10
255.0142510481098
 20
233.0228155420623
 10
255.0142510481098
 20
228.8395980849711
 10
254.5492813511899
 20
228.8395980849711
  0
LINE
  5
A098
330
1F
100
AcDbEntity
  8
SOLBET_Zbrojenie_Konstrukcja
100
AcDbLine
 10
231.9214195834863
 20
205.6254374133679
 30
0.0
 11
249.9214195834863
 21
195.8754374133679
 31
0.0
  0
LINE
  5
A099
330
1F
100
AcDbEntity
  8
SOLBET_Zbrojenie_Konstrukcja
100
AcDbLine
 10
249.9214195834863
 20
205.6254374133679
 30
0.0
 11
231.9214195834863
 21
195.8754374133679
 31
0.0
  0
LINE
  5
A09D
330
1F
100
AcDbEntity
  8
SOLBET_Izolacja
100
AcDbLine
 10
306.9214195834861
 20
211.0174987469037
 30
0.0
 11
306.9214195834861
 21
195.8754374133679
 31
0.0
  0
LINE
  5
A09E
330
1F
100
AcDbEntity
  8
SOLBET_Izolacja
  6
BATTING
 48
0.144
100
AcDbLine
 10
308.4214195834861
 20
210.9625010625504
 30
0.0
 11
308.4214195834861
 21
194.8975782462332
 31
0.0
  0
LINE
  5
A09F
330
1F
100
AcDbEntity
  8
SOLBET_Izolacja
100
AcDbLine
 10
309.9214195834861
 20
202.3975782462419
 30
0.0
 11
309.9214195834861
 21
194.8975782462332
 31
0.0
  0
LINE
  5
A0A0
330
1F
100
AcDbEntity
  8
SOLBET_Izolacja
  6
BATTING
 48
0.36
100
AcDbLine
 10
309.9214195834861
 20
198.6475782462376
 30
0.0
 11
324.3917054804346
 21
198.6475782462376
 31
0.0
  0
LINE
  5
A0A5
330
1F
100
AcDbEntity
  8
SOLBET_Izolacja
  6
BATTING
 48
0.72
100
AcDbLine
 10
263.4214195834866
 20
266.0150955770043
 30
0.0
 11
263.4214195834866
 21
196.9809446430764
 31
0.0
  0
LWPOLYLINE
  5
A0B3
330
1F
100
AcDbEntity
  8
SOLBET_Emulsje_Folie
100
AcDbPolyline
 90
        4
 70
     0
 43
0.0
 10
323.0431569204736
 20
194.015437413368
 10
226.8209084032039
 20
194.015437413368
 10
226.8209084032039
 20
194.735437413368
 10
323.4175376001724
 20
194.735437413368
  0
LINE
  5
A0B4
330
1F
100
AcDbEntity
  8
SOLBET_Emulsje_Folie
  6
DASHED2
370
    30
100
AcDbLine
 10
226.8209084032039
 20
194.3754374133679
 30
0.0
 11
323.2321820582047
 21
194.375437413368
 31
0.0
  0
LINE
  5
A0B6
330
1F
100
AcDbEntity
  8
SOLBET_Izolacja
100
AcDbLine
 10
245.4214195834863
 20
193.4754374133681
 30
0.0
 11
248.4214195834864
 21
193.4754374133681
 31
0.0
  0
LINE
  5
A0B7
330
1F
100
AcDbEntity
  8
SOLBET_Izolacja
100
AcDbLine
 10
248.4214195834864
 20
193.4754374133681
 30
0.0
 11
246.9214195834863
 21
193.4754374133681
 31
0.0
  0
LINE
  5
A0B8
330
1F
100
AcDbEntity
  8
SOLBET_Izolacja
  6
BATTING
 48
0.143
100
AcDbLine
 10
246.9214195834863
 20
193.4754374133681
 30
0.0
 11
246.9214195834863
 21
178.6287368232186
 31
0.0
  0
LINE
  5
A0C0
330
1F
100
AcDbEntity
  8
SOLBET_Tynki_Posadzki
100
AcDbLine
 10
310.8805761733959
 20
212.5174987469037
 30
0.0
 11
328.6146030260708
 21
212.5174987469037
 31
0.0
  0
LINE
  5
A0DB
330
1F
100
AcDbEntity
  8
SOLBET_Tynki_Posadzki
100
AcDbLine
 10
244.6614558385388
 20
193.4754374486625
 30
0.0
 11
245.4214195834863
 21
193.4754374133681
 31
0.0
  0
LINE
  5
A0E8
330
1F
100
AcDbEntity
  8
SOLBET_Bloczki
100
AcDbLine
 10
306.921420110732
 20
259.439139467825
 30
0.0
 11
306.921420110732
 21
231.8754372898056
 31
0.0
  0
LINE
  5
A0EA
330
1F
100
AcDbEntity
  8
SOLBET_Bloczki
100
AcDbLine
 10
270.9214201107325
 20
267.7226904781346
 30
0.0
 11
270.9214201107325
 21
231.8754372898058
 31
0.0
  0
LINE
  5
A0EB
330
1F
100
AcDbEntity
  8
SOLBET_Bloczki
100
AcDbLine
 10
270.9214201107325
 20
231.8754372898058
 30
0.0
 11
306.921420110732
 21
231.8754372898056
 31
0.0
  0
LINE
  5
A151
330
1F
100
AcDbEntity
  8
SOLBET_Izolacja
  6
Continuous
100
AcDbLine
 10
245.4214195834863
 20
179.3377620502285
 30
0.0
 11
245.4214195834863
 21
193.4754374133681
 31
0.0
  0
LINE
  5
A153
330
1F
100
AcDbEntity
  8
SOLBET_Izolacja
  6
Continuous
100
AcDbLine
 10
248.4214195834864
 20
176.9531644612798
 30
0.0
 11
248.4214195834864
 21
193.4754374133681
 31
0.0
  0
LINE
  5
A15D
330
1F
100
AcDbEntity
  8
SOLBET_Beton
100
AcDbLine
 10
255.7458004516147
 20
172.4754374133681
 30
0.0
 11
300.9846526671937
 21
172.4754374133681
 31
0.0
  0
LINE
  5
A15E
330
1F
100
AcDbEntity
  8
SOLBET_Beton
100
AcDbLine
 10
306.9214195834861
 20
175.969052728092
 30
0.0
 11
306.9214195834861
 21
193.4754374133681
 31
0.0
  0
LINE
  5
A15F
330
1F
100
AcDbEntity
  8
SOLBET_Beton
100
AcDbLine
 10
306.9214195834861
 20
193.4754374133681
 30
0.0
 11
249.9214195834863
 21
193.4754374133681
 31
0.0
  0
LINE
  5
A160
330
1F
100
AcDbEntity
  8
SOLBET_Beton
100
AcDbLine
 10
249.9214195834863
 20
193.4754374133681
 30
0.0
 11
249.9214195834864
 21
175.8923770493194
 31
0.0
  0
LINE
  5
A161
330
1F
100
AcDbEntity
  8
SOLBET_Beton
100
AcDbLine
 10
322.4198258554598
 20
192.8754374133594
 30
0.0
 11
307.3532910652143
 21
192.8754374133594
 31
0.0
1001
ASO_SCHRAFF
1005
9261
1070
     1
1002
{
1070
     1
1005
9261
1002
}
1002
{
1070
     2
1005
9262
1002
}
1002
{
1070
     4
1000
INSUL
1040
0.2
1040
135.0
1070
     0
1000
T__SCHR
1070
   256
1000
VONLAYER
1040
50.0
1070
     1
1002
}
  0
LINE
  5
A162
330
1F
100
AcDbEntity
  8
SOLBET_Beton
100
AcDbLine
 10
307.3532910652143
 20
192.8754374133594
 30
0.0
 11
307.3532910652143
 21
176.2678544557915
 31
0.0
1001
ASO_SCHRAFF
1005
9261
1070
     1
1002
{
1070
     1
1005
9261
1002
}
1002
{
1070
     2
1005
9262
1002
}
1002
{
1070
     4
1000
INSUL
1040
0.2
1040
135.0
1070
     0
1000
T__SCHR
1070
   256
1000
VONLAYER
1040
50.0
1070
     1
1002
}
  0
LINE
  5
A16B
330
1F
100
AcDbEntity
  8
SOLBET_Bloczki
100
AcDbLine
 10
306.921420110732
 20
231.8754372898058
 30
0.0
 11
306.921420110732
 21
195.8754372898056
 31
0.0
  0
LINE
  5
A16C
330
1F
100
AcDbEntity
  8
SOLBET_Bloczki
100
AcDbLine
 10
306.921420110732
 20
231.8754372898058
 30
0.0
 11
270.9214201107325
 21
231.8754372898058
 31
0.0
  0
LINE
  5
A16D
330
1F
100
AcDbEntity
  8
SOLBET_Bloczki
100
AcDbLine
 10
270.9214201107325
 20
231.8754372898058
 30
0.0
 11
270.9214201107325
 21
195.8754372898058
 31
0.0
  0
LINE
  5
A16E
330
1F
100
AcDbEntity
  8
SOLBET_Bloczki
100
AcDbLine
 10
270.9214201107325
 20
195.8754372898058
 30
0.0
 11
306.921420110732
 21
195.8754372898056
 31
0.0
  0
MTEXT
  5
A1A4
102
{ACAD_XDICTIONARY
360
ACA0
102
}
330
1F
100
AcDbEntity
  8
SOLBET_Wymiary_Opisy
100
AcDbMText
 10
225.1640258923469
 20
264.7197799423658
 30
0.0
 40
2.5
 41
53.46628558939642
 71
     3
 72
     1
  1
Tynk wewn\U+0119trzny SOLBET 
  7
Solbet_2_5
 73
     1
 44
1.0
1001
ACAD
1000
MTEXTBEGIN
1070
    73
1070
     1
1070
    44
1040
1.0
1070
    74
1070
     0
1000
MTEXTEND
1000
ACAD_MTEXT_DEFINED_HEIGHT_BEGIN
1070
    46
1040
2.727466215838973
1000
ACAD_MTEXT_DEFINED_HEIGHT_END
  0
MTEXT
  5
A1A8
330
1F
100
AcDbEntity
  8
SOLBET_Wymiary_Opisy
100
AcDbMText
 10
233.1922660472844
 20
189.7650858268099
 30
0.0
 40
2.5
 41
0.0
 71
     3
 72
     1
  1
Izolacja z folii
  7
Solbet_2_5
 73
     1
 44
1.0
1001
ACAD
1000
MTEXTBEGIN
1070
    73
1070
     1
1070
    44
1040
1.0
1070
    74
1070
     0
1000
MTEXTEND
  0
MTEXT
  5
A1AA
102
{ACAD_XDICTIONARY
360
ACA2
102
}
330
1F
100
AcDbEntity
  8
SOLBET_Wymiary_Opisy
100
AcDbMText
 10
233.1922660472844
 20
171.3347649089834
 30
0.0
 40
2.5
 41
0.0
 71
     3
 72
     1
  1
Emulsja izoluj\U+0105ca
  7
Solbet_2_5
 73
     1
 44
1.0
1001
ACAD
1000
MTEXTBEGIN
1070
    73
1070
     1
1070
    44
1040
1.0
1070
    74
1070
     0
1000
MTEXTEND
  0
MTEXT
  5
A1AC
102
{ACAD_XDICTIONARY
360
ACA4
102
}
330
1F
100
AcDbEntity
  8
SOLBET_Wymiary_Opisy
100
AcDbMText
 10
233.1922660472844
 20
180.5038871658897
 30
0.0
 40
2.5
 41
0.0
 71
     3
 72
     1
  1
Tynk coko\U+0142owy
  7
Solbet_2_5
 73
     1
 44
1.0
1001
ACAD
1000
MTEXTBEGIN
1070
    73
1070
     1
1070
    44
1040
1.0
1070
    74
1070
     0
1000
MTEXTEND
  0
ARC
  5
A1E1
102
{ACAD_REACTORS
330
A00D
102
}
330
1F
100
AcDbEntity
  8
SOLBET_Wymiary_Opisy
100
AcDbCircle
 10
278.3652265594042
 20
217.7040962783361
 30
0.0
 40
50.56945738456563
100
AcDbArc
 50
228.2036697681077
 51
156.6956230685944
  0
MTEXT
  5
A21A
102
{ACAD_XDICTIONARY
360
ACA6
102
}
330
1F
100
AcDbEntity
  8
SOLBET_Wymiary_Opisy
100
AcDbMText
 10
171.3213305738072
 20
199.4440417861535
 30
0.0
 40
2.5
 41
0.0
 71
     1
 72
     1
  1
Puszka wentylacyjno-odwadniaj\U+0105ca
  7
Solbet_2_5
 73
     1
 44
1.0
1001
ACAD
1000
MTEXTBEGIN
1070
    73
1070
     1
1070
    44
1040
1.0
1070
    74
1070
     0
1000
MTEXTEND
  0
INSERT
  5
A21B
330
1F
100
AcDbEntity
  8
SOLBET_Wymiary_Opisy
100
AcDbBlockReference
  2
_DotSmall
 10
235.4897006252302
 20
201.9269799871235
 30
0.0
 41
2.499999999999993
 42
2.5
 43
2.5
 50
29.57641977877391
1001
ACAD
1000
DSTYLE
1002
{
1070
   147
1040
0.625
1070
    77
1070
     1
1002
}
  0
LWPOLYLINE
  5
A21C
330
1F
100
AcDbEntity
  8
SOLBET_Wymiary_Opisy
100
AcDbPolyline
 90
        3
 70
     0
 43
0.0
 10
235.4897006252302
 20
201.9269799871235
 10
222.6922660472844
 20
196.1263707748687
 10
170.6219147843189
 20
196.1263707748687
1001
ACAD
1000
DSTYLE
1002
{
1070
   147
1040
0.625
1070
    77
1070
     1
1002
}
  0
MTEXT
  5
A23D
102
{ACAD_XDICTIONARY
360
A23E
102
}
330
1F
100
AcDbEntity
  8
SOLBET_Wymiary_Opisy @ 1
100
AcDbMText
 10
222.6922660472844
 20
206.9298158415335
 30
0.0
 40
2.5
 41
41.61228963896337
 71
     3
 72
     1
  1
Zetka z folii izoluj\U+0105cej
  7
Solbet_2_5
 73
     1
 44
1.0
1001
AcadAnnotative
1000
AnnotativeData
1002
{
1070
     1
1070
     0
1002
}
1001
ACAD
1000
MTEXTBEGIN
1070
    73
1070
     1
1070
    44
1040
1.0
1070
    74
1070
     0
1000
MTEXTEND
  0
INSERT
  5
A242
330
1F
100
AcDbEntity
  8
SOLBET_Wymiary_Opisy
100
AcDbBlockReference
  2
_DotSmall
 10
270.693599952122
 20
224.2315488563372
 30
0.0
 41
2.50000000000003
 42
2.5
 43
2.5
 50
26.32030125505836
1001
ACAD
1000
DSTYLE
1002
{
1070
   147
1040
0.625
1070
    77
1070
     1
1002
}
  0
LWPOLYLINE
  5
A243
330
1F
100
AcDbEntity
  8
SOLBET_Wymiary_Opisy
100
AcDbPolyline
 90
        3
 70
     0
 43
0.0
 10
270.693599952122
 20
224.2315488563372
 10
222.6922660472844
 20
203.6798158415335
 10
188.780728028021
 20
203.6798158415335
1001
ACAD
1000
DSTYLE
1002
{
1070
   147
1040
0.625
1070
    77
1070
     1
1002
}
  0
MTEXT
  5
A246
102
{ACAD_XDICTIONARY
360
ACA9
102
}
330
1F
100
AcDbEntity
  8
SOLBET_Wymiary_Opisy
100
AcDbMText
 10
222.6922660472844
 20
216.6500090193321
 30
0.0
 40
2.5
 41
0.0
 71
     3
 72
     1
  1
Kr\U+0105\U+017Cek dociskowy z kapinosem
  7
Solbet_2_5
 73
     1
 44
1.0
1001
ACAD
1000
MTEXTBEGIN
1070
    73
1070
     1
1070
    44
1040
1.0
1070
    74
1070
     0
1000
MTEXTEND
  0
MTEXT
  5
A265
330
1F
100
AcDbEntity
  8
SOLBET_Wymiary_Opisy
100
AcDbMText
 10
225.1640258923469
 20
239.1538341002426
 30
0.0
 40
2.5
 41
0.0
 71
     3
 72
     1
  1
Warstwa licowa
  7
Solbet_2_5
 73
     1
 44
1.0
1001
ACAD
1000
MTEXTBEGIN
1070
    73
1070
     1
1070
    44
1040
1.0
1070
    74
1070
     0
1000
MTEXTEND
  0
MTEXT
  5
A268
330
1F
100
AcDbEntity
  8
SOLBET_Wymiary_Opisy
100
AcDbMText
 10
225.1640258923469
 20
245.5367836763472
 30
0.0
 40
2.5
 41
0.0
 71
     3
 72
     1
  1
Pustka powietrzna
  7
Solbet_2_5
 73
     1
 44
1.0
1001
ACAD
1000
MTEXTBEGIN
1070
    73
1070
     1
1070
    44
1040
1.0
1070
    74
1070
     0
1000
MTEXTEND
  0
MTEXT
  5
A26A
102
{ACAD_XDICTIONARY
360
AB91
102
}
330
1F
100
AcDbEntity
  8
SOLBET_Wymiary_Opisy
100
AcDbMText
 10
225.1640258923469
 20
257.650314119361
 30
0.0
 40
2.5
 41
45.00054679308596
 71
     3
 72
     1
  1
\pxql;Bloczki SOLBET Optimal 24cm
  7
Solbet_2_5
 73
     1
 44
1.0
1001
ACAD
1000
MTEXTBEGIN
1070
    73
1070
     1
1070
    44
1040
1.0
1070
    74
1070
     0
1000
MTEXTEND
1000
ACAD_MTEXT_DEFINED_HEIGHT_BEGIN
1070
    46
1040
2.892273496682515
1000
ACAD_MTEXT_DEFINED_HEIGHT_END
  0
MTEXT
  5
A26C
102
{ACAD_XDICTIONARY
360
AB93
102
}
330
1F
100
AcDbEntity
  8
SOLBET_Wymiary_Opisy
100
AcDbMText
 10
225.1640258923469
 20
251.2906735649802
 30
0.0
 40
2.5
 41
25.37190254817142
 71
     3
 72
     1
  1
We\U+0142na mineralna
  7
Solbet_2_5
 73
     1
 44
1.0
1001
ACAD
1000
MTEXTBEGIN
1070
    73
1070
     1
1070
    44
1040
1.0
1070
    74
1070
     0
1000
MTEXTEND
  0
INSERT
  5
A26D
330
1F
100
AcDbEntity
  8
SOLBET_Wymiary_Opisy
100
AcDbBlockReference
  2
_DotSmall
 10
274.9068912328321
 20
236.4035510426017
 30
0.0
 41
2.500000000000096
 42
2.5
 43
2.5
 50
338.200872519965
1001
ACAD
1000
DSTYLE
1002
{
1070
   147
1040
0.625
1070
    77
1070
     1
1002
}
  0
LWPOLYLINE
  5
A26E
330
1F
100
AcDbEntity
  8
SOLBET_Wymiary_Opisy
100
AcDbPolyline
 90
        3
 70
     0
 43
0.0
 10
274.9068912328321
 20
236.4035510426017
 10
226.7501751191837
 20
254.4485325868928
 10
180.3939956367678
 20
254.4485325868928
1001
ACAD
1000
DSTYLE
1002
{
1070
   147
1040
0.625
1070
    77
1070
     1
1002
}
  0
INSERT
  5
A26F
330
1F
100
AcDbEntity
  8
SOLBET_Wymiary_Opisy
100
AcDbBlockReference
  2
_DotSmall
 10
251.5658731951046
 20
232.7676861270807
 30
0.0
 41
2.500000000000096
 42
2.5
 43
2.5
 50
338.200872519965
1001
ACAD
1000
DSTYLE
1002
{
1070
   147
1040
0.625
1070
    77
1070
     1
1002
}
  0
LWPOLYLINE
  5
A270
330
1F
100
AcDbEntity
  8
SOLBET_Wymiary_Opisy
100
AcDbPolyline
 90
        3
 70
     0
 43
0.0
 10
251.5658731951046
 20
232.7676861270807
 10
226.7501751191837
 20
242.1940467438124
 10
197.0207017509417
 20
242.1527259983557
1001
ACAD
1000
DSTYLE
1002
{
1070
   147
1040
0.625
1070
    77
1070
     1
1002
}
  0
INSERT
  5
A2B6
330
1F
100
AcDbEntity
  8
SOLBET_Wymiary_Opisy
100
AcDbBlockReference
  2
_DotSmall
 10
308.4214195834861
 20
230.5032220527577
 30
0.0
 41
2.499999999999928
 42
2.5
 43
2.5
 50
339.405800156433
1001
ACAD
1000
DSTYLE
1002
{
1070
   147
1040
0.625
1070
    77
1070
     1
1002
}
  0
LWPOLYLINE
  5
A2B7
330
1F
100
AcDbEntity
  8
SOLBET_Wymiary_Opisy
100
AcDbPolyline
 90
        3
 70
     0
 43
0.0
 10
308.4214195834861
 20
230.5032220527577
 10
226.7501751191837
 20
261.1919892054175
 10
186.0584064513725
 20
261.1919892054175
1001
ACAD
1000
DSTYLE
1002
{
1070
   147
1040
0.625
1070
    77
1070
     1
1002
}
  0
INSERT
  5
A2B9
330
1F
100
AcDbEntity
  8
SOLBET_Wymiary_Opisy
100
AcDbBlockReference
  2
_DotSmall
 10
265.4659335400047
 20
233.6706967632407
 30
0.0
 41
2.500000000000076
 42
2.5
 43
2.5
 50
339.5862423654226
1001
ACAD
1000
DSTYLE
1002
{
1070
   147
1040
0.625
1070
    77
1070
     1
1002
}
  0
LWPOLYLINE
  5
A2BA
330
1F
100
AcDbEntity
  8
SOLBET_Wymiary_Opisy
100
AcDbPolyline
 90
        3
 70
     0
 43
0.0
 10
265.4659335400047
 20
233.6706967632407
 10
226.5978416447731
 20
248.1362351668958
 10
200.2604383412552
 20
248.1362351668958
1001
ACAD
1000
DSTYLE
1002
{
1070
   147
1040
0.625
1070
    77
1070
     1
1002
}
  0
INSERT
  5
A2BB
330
1F
100
AcDbEntity
  8
SOLBET_Wymiary_Opisy
100
AcDbBlockReference
  2
_DotSmall
 10
233.7107560877969
 20
233.4354006390415
 30
0.0
 41
2.50000000000003
 42
2.5
 43
2.5
 50
339.0145832890965
1001
ACAD
1000
DSTYLE
1002
{
1070
   147
1040
0.625
1070
    77
1070
     1
1002
}
  0
LWPOLYLINE
  5
A2BC
330
1F
100
AcDbEntity
  8
SOLBET_Wymiary_Opisy
100
AcDbPolyline
 90
        3
 70
     0
 43
0.0
 10
233.7107560877969
 20
233.4354006390415
 10
226.7501751191837
 20
236.1052848269881
 10
201.8362885141257
 20
236.1052848269881
1001
ACAD
1000
DSTYLE
1002
{
1070
   147
1040
0.625
1070
    77
1070
     1
1002
}
  0
INSERT
  5
A2BE
330
1F
100
AcDbEntity
  8
SOLBET_Wymiary_Opisy
100
AcDbBlockReference
  2
_DotSmall
 10
255.0142510481098
 20
226.8917712474249
 30
0.0
 41
2.499999999999975
 42
2.5
 43
2.5
 50
29.02845178528401
1001
ACAD
1000
DSTYLE
1002
{
1070
   147
1040
0.625
1070
    77
1070
     1
1002
}
  0
LWPOLYLINE
  5
A2BF
330
1F
100
AcDbEntity
  8
SOLBET_Wymiary_Opisy
100
AcDbPolyline
 90
        3
 70
     0
 43
0.0
 10
255.0142510481098
 20
226.8917712474249
 10
222.6922660472844
 20
213.7745817047985
 10
176.0853227043903
 20
213.7745817047985
1001
ACAD
1000
DSTYLE
1002
{
1070
   147
1040
0.625
1070
    77
1070
     1
1002
}
  0
INSERT
  5
A2D8
330
1F
100
AcDbEntity
  8
SOLBET_Wymiary_Opisy
100
AcDbBlockReference
  2
_DotSmall
 10
245.6288945384574
 20
194.3754374133681
 30
0.0
 41
2.500000000000055
 42
2.5
 43
2.5
 50
21.05199243829968
1001
ACAD
1000
DSTYLE
1002
{
1070
   147
1040
0.625
1070
    77
1070
     1
1002
}
  0
LWPOLYLINE
  5
A2D9
330
1F
100
AcDbEntity
  8
SOLBET_Wymiary_Opisy
100
AcDbPolyline
 90
        3
 70
     0
 43
0.0
 10
245.6288945384574
 20
194.3754374133681
 10
233.1922660472844
 20
186.8156411956422
 10
211.6922660472844
 20
186.8156411956422
1001
ACAD
1000
DSTYLE
1002
{
1070
   147
1040
0.625
1070
    77
1070
     1
1002
}
  0
INSERT
  5
A2DA
330
1F
100
AcDbEntity
  8
SOLBET_Wymiary_Opisy
100
AcDbBlockReference
  2
_DotSmall
 10
244.6614558385388
 20
184.9964812674483
 30
0.0
 41
2.499999999999962
 42
2.5
 43
2.5
 50
27.48851612894482
1001
ACAD
1000
DSTYLE
1002
{
1070
   147
1040
0.625
1070
    77
1070
     1
1002
}
  0
LWPOLYLINE
  5
A2DB
330
1F
100
AcDbEntity
  8
SOLBET_Wymiary_Opisy
100
AcDbPolyline
 90
        3
 70
     0
 43
0.0
 10
244.6614558385388
 20
184.9964812674483
 10
233.1922660472844
 20
177.2373074284928
 10
210.8505935500491
 20
177.2535895851087
1001
ACAD
1000
DSTYLE
1002
{
1070
   147
1040
0.625
1070
    77
1070
     1
1002
}
  0
INSERT
  5
A2DE
330
1F
100
AcDbEntity
  8
SOLBET_Wymiary_Opisy
100
AcDbBlockReference
  2
_DotSmall
 10
279.7482871733719
 20
193.6691629429897
 30
0.0
 41
2.50000000000004
 42
2.5
 43
2.5
 50
25.31429017195138
1001
ACAD
1000
DSTYLE
1002
{
1070
   147
1040
0.625
1070
    77
1070
     1
1002
}
  0
LWPOLYLINE
  5
A2DF
330
1F
100
AcDbEntity
  8
SOLBET_Wymiary_Opisy
100
AcDbPolyline
 90
        3
 70
     0
 43
0.0
 10
279.7482871733719
 20
193.6691629429897
 10
233.1922660472844
 20
168.0847649089834
 10
208.2875612847763
 20
168.0847649089834
1001
ACAD
1000
DSTYLE
1002
{
1070
   147
1040
0.625
1070
    77
1070
     1
1002
}
  0
INSERT
  5
A32D
330
1F
100
AcDbEntity
  8
SOLBET_Wymiary_Opisy
100
AcDbBlockReference
  2
_DotSmall
 10
90.30087169226954
 20
134.6526938331623
 30
0.0
 41
2.499999999999938
 42
2.5
 43
2.5
 50
11.56533956074902
1001
ACAD
1000
DSTYLE
1002
{
1070
   147
1040
0.625
1070
    77
1070
     1
1002
}
  0
LWPOLYLINE
  5
A32E
330
1F
100
AcDbEntity
  8
SOLBET_Wymiary_Opisy
100
AcDbPolyline
 90
        3
 70
     0
 43
0.0
 10
90.30087169226954
 20
134.6526938331623
 10
66.49319158664184
 20
129.1120263574419
 10
31.14352194542585
 20
129.1120263574419
1001
ACAD
1000
DSTYLE
1002
{
1070
   147
1040
0.625
1070
    77
1070
     1
1002
}
  0
INSERT
  5
A32F
330
1F
100
AcDbEntity
  8
SOLBET_Wymiary_Opisy
100
AcDbBlockReference
  2
_DotSmall
 10
91.12299127464394
 20
129.5874952512463
 30
0.0
 41
2.500000000000032
 42
2.5
 43
2.5
 50
13.88953710992589
1001
ACAD
1000
DSTYLE
1002
{
1070
   147
1040
0.625
1070
    77
1070
     1
1002
}
  0
LWPOLYLINE
  5
A330
330
1F
100
AcDbEntity
  8
SOLBET_Wymiary_Opisy
100
AcDbPolyline
 90
        3
 70
     0
 43
0.0
 10
91.12299127464394
 20
129.5874952512463
 10
66.49319158664184
 20
122.6890200823316
 10
46.43276671448825
 20
122.6890200823315
1001
ACAD
1000
DSTYLE
1002
{
1070
   147
1040
0.625
1070
    77
1070
     1
1002
}
  0
LEADER
  5
A338
330
1F
100
AcDbEntity
  8
SOLBET_Wymiary_Opisy
100
AcDbLeader
  3
Solbet$7
 73
     0
 75
     1
 40
7.666666666666666
 41
52.75
 76
     3
 10
91.95527956473801
 20
167.1157366389077
 30
0.0
 10
80.4429636317684
 20
171.8733493886367
 30
0.0
 10
77.9429636317684
 20
171.8733493886367
 30
0.0
213
1.177601578005123
223
4.34859754619417
233
0.0
1001
ACAD
1000
DSTYLE
1002
{
1070
   147
1040
0.625
1070
    77
1070
     1
1002
}
  0
MTEXT
  5
A339
102
{ACAD_XDICTIONARY
360
ACAC
102
}
102
{ACAD_REACTORS
330
A338
102
}
330
1F
100
AcDbEntity
  8
SOLBET_Wymiary_Opisy
100
AcDbMText
 10
75.96784565935331
 20
175.6675788895619
 30
0.0
 40
2.5
 41
0.0
 71
     3
 72
     1
  1
Mocowanie mechaniczne styropianu\P(w cz\U+0119\U+015Bci naziemnej)
  7
Solbet_2_5
 73
     1
 44
1.0
1001
ACAD
1000
MTEXTBEGIN
1070
    73
1070
     1
1070
    44
1040
1.0
1070
    74
1070
     0
1000
MTEXTEND
  0
DIMENSION
  5
A33A
330
1F
100
AcDbEntity
  8
SOLBET_Wymiary_Opisy
100
AcDbDimension
  2
*D6
 10
21.05641354818274
 20
163.123744834094
 30
0.0
 11
21.05641354818272
 21
170.7137448340957
 31
0.0
 70
   160
  1
Min. 30cm
 71
     5
 42
15.1800000000029
  3
Solbet
100
AcDbAlignedDimension
 13
87.10070129884162
 23
178.3037448340969
 33
0.0
 14
89.23534385321863
 24
163.123744834094
 34
0.0
 50
90.0
100
AcDbRotatedDimension
  0
MTEXT
  5
A3B3
102
{ACAD_XDICTIONARY
360
AB95
102
}
330
1F
100
AcDbEntity
  8
SOLBET_Wymiary_Opisy
100
AcDbMText
 10
260.1690614777842
 20
286.134778911509
 30
0.0
 40
5.0
 41
30.77919768571883
 71
     1
 72
     5
  1
\pxqc;A\P(3 : 1)
  7
Solbet_5
 73
     1
 44
1.0
1001
ACAD
1000
MTEXTBEGIN
1070
    73
1070
     1
1070
    44
1040
1.0
1070
    74
1070
     0
1000
MTEXTEND
1000
ACAD_MTEXT_DEFINED_HEIGHT_BEGIN
1070
    46
1040
23.42535011036716
1000
ACAD_MTEXT_DEFINED_HEIGHT_END
  0
LEADER
  5
A3B4
330
1F
100
AcDbEntity
  8
SOLBET_Wymiary_Opisy
100
AcDbLeader
  3
Solbet$7
 73
     0
 75
     1
 40
5.0
 41
4.5
 76
     3
 10
84.25893162120178
 20
191.177806506826
 30
0.0
 10
81.67727780258861
 20
194.9037520759223
 30
0.0
 10
79.17727780258861
 20
194.9037520759223
 30
0.0
213
-0.8791749024171622
223
-0.1753245211093599
233
0.0
1001
ACAD
1000
DSTYLE
1002
{
1070
   341
1005
790F
1070
   147
1040
0.625
1070
    77
1070
     1
1002
}
  0
MTEXT
  5
A3B5
102
{ACAD_REACTORS
330
A3B4
102
}
330
1F
100
AcDbEntity
  8
SOLBET_Wymiary_Opisy
100
AcDbMText
 10
79.83329463667906
 20
200.7040766382192
 30
0.0
 40
5.0
 41
0.0
 71
     3
 72
     1
  1
A
  7
Solbet_5
 73
     1
 44
1.0
1001
ACAD
1000
MTEXTBEGIN
1070
    73
1070
     1
1070
    44
1040
1.0
1070
    74
1070
     0
1000
MTEXTEND
  0
LWPOLYLINE
  5
A427
330
1F
100
AcDbEntity
  8
SOLBET_Ramka_05
100
AcDbPolyline
 90
        4
 70
     1
 43
0.0
 10
0.0
 20
0.0
 10
334.3517740920902
 20
0.0
 10
334.3517740920902
 20
297.0
 10
0.0
 20
297.0
  0
MTEXT
  5
A428
102
{ACAD_XDICTIONARY
360
A429
102
}
330
1F
100
AcDbEntity
  8
SOLBET_Wymiary_Opisy @ 1
100
AcDbMText
 10
12.31274468066885
 20
289.0968805151363
 30
0.0
 40
5.0
 41
124.2624847080697
 71
     1
 72
     5
  1
{\LDETAL 7\P}Posadowienie na {\fISOCPEUR|b1|i0|c238|p34;\U+0142}awie fundamentowej wariant \U+015Bciany tr\U+00F3jwarstwowej z dociepleniem z we\U+0142ny mineralnej
  7
Solbet_5
 73
     1
 44
1.0
1001
AcadAnnotative
1000
AnnotativeData
1002
{
1070
     1
1070
     0
1002
}
1001
ACAD
1000
MTEXTBEGIN
1070
    73
1070
     1
1070
    44
1040
1.0
1070
    74
1070
     0
1000
MTEXTEND
  0
MTEXT
  5
A42D
102
{ACAD_XDICTIONARY
360
ACAF
102
}
330
1F
100
AcDbEntity
  8
SOLBET_Wymiary_Opisy
100
AcDbMText
 10
11.74673776241502
 20
21.34540368514905
 30
0.0
 40
2.5
 41
106.5971338885356
 71
     1
 72
     5
  1
{\LUWAGA:\P}Systemy hydroizolacji stosowa\U+0107 wg zalece\U+0144 producent\U+00F3w.\PStyropian wodoodporny wg zalece\U+0144 producent\U+00F3w.
  7
Solbet_2_5
 73
     1
 44
1.0
1001
ACAD
1000
MTEXTBEGIN
1070
    73
1070
     1
1070
    44
1040
1.0
1070
    74
1070
     0
1000
MTEXTEND
  0
LINE
  5
A4FE
330
1F
100
AcDbEntity
  8
SOLBET_Izolacja
100
AcDbLine
 10
90.80087169226954
 20
118.6237448340969
 30
0.0
 11
89.80087169226953
 21
118.6237448340969
 31
0.0
  0
LINE
  5
A5C8
330
1F
100
AcDbEntity
  8
SOLBET_Izolacja
100
AcDbLine
 10
255.9214195834863
 20
195.8754374133679
 30
0.0
 11
270.693599952122
 21
195.8754374133681
 31
0.0
  0
LINE
  5
A5F4
330
1F
100
AcDbEntity
  8
SOLBET_Izolacja
100
AcDbLine
 10
93.30087169226954
 20
178.9237447929094
 30
0.0
 11
98.22493181514756
 21
178.9237447929094
 31
0.0
  0
LINE
  5
A5F5
330
1F
100
AcDbEntity
  8
SOLBET_Izolacja
100
AcDbLine
 10
95.80087169226954
 20
179.3316765024512
 30
0.0
 11
95.80087169226954
 21
178.9237447929094
 31
0.0
  0
LEADER
  5
A6AE
330
1F
100
AcDbEntity
  8
SOLBET_Wymiary_Opisy
100
AcDbLeader
  3
Solbet$7
 73
     0
 40
3.25
 41
34.25
 76
     2
 10
90.95097265577351
 20
145.332166476835
 30
0.0
 10
66.74399150442264
 20
139.1703194233937
 30
0.0
340
A6AF
213
1.538636532017108
223
0.3711386804793904
233
0.0
1001
ACAD
1000
DSTYLE
1002
{
1070
   147
1040
0.625
1070
    77
1070
     1
1002
}
  0
MTEXT
  5
A6AF
102
{ACAD_REACTORS
330
A6AE
102
}
330
1F
100
AcDbEntity
  8
SOLBET_Wymiary_Opisy
100
AcDbMText
 10
64.58035497240553
 20
142.6741807429143
 30
0.0
 40
2.5
 41
0.0
 71
     3
 72
     1
  1
Klej SOLBET Gabit T-1
  7
Solbet_2_5
 73
     1
 44
1.0
1001
ACAD
1000
MTEXTBEGIN
1070
    73
1070
     1
1070
    44
1040
1.0
1070
    74
1070
     0
1000
MTEXTEND
  0
LINE
  5
A6B3
330
1F
100
AcDbEntity
  8
SOLBET_Zaprawy
100
AcDbLine
 10
90.80087169226954
 20
178.1237448340969
 30
0.0
 11
90.95097265577351
 21
178.1237448340969
 31
0.0
  0
LINE
  5
A6B5
330
1F
100
AcDbEntity
  8
SOLBET_Zaprawy
100
AcDbLine
 10
90.95097265577351
 20
178.1237448340969
 30
0.0
 11
90.95097265577328
 21
152.5237448340969
 31
0.0
  0
LINE
  5
A6B6
330
1F
100
AcDbEntity
  8
SOLBET_Zaprawy
100
AcDbLine
 10
90.95097265577351
 20
151.0237448340969
 30
0.0
 11
90.95097265577351
 21
118.6198582168788
 31
0.0
  0
LINE
  5
A6B7
330
1F
100
AcDbEntity
  8
SOLBET_Zaprawy
100
AcDbLine
 10
248.4214195834864
 20
193.4754374133681
 30
0.0
 11
249.0123242979846
 21
193.4754374133681
 31
0.0
  0
LINE
  5
A6B8
330
1F
100
AcDbEntity
  8
SOLBET_Zaprawy
100
AcDbLine
 10
249.0123242979846
 20
193.4754374133681
 30
0.0
 11
249.0123242979846
 21
176.5254956585853
 31
0.0
  0
POINT
  5
A710
330
1F
100
AcDbEntity
  8
SOLBET_Zaprawy
100
AcDbPoint
 10
0.0
 20
0.0
 30
0.0
  0
POINT
  5
A711
330
1F
100
AcDbEntity
  8
SOLBET_Zaprawy
100
AcDbPoint
 10
0.0
 20
0.0
 30
0.0
  0
LINE
  5
A729
330
1F
100
AcDbEntity
  8
SOLBET_Wymiary_Opisy
100
AcDbLine
 10
166.3008716922695
 20
170.4237448340969
 30
0.0
 11
166.3008716922695
 21
184.4710985707547
 31
0.0
  0
LWPOLYLINE
  5
A81B
330
1F
100
AcDbEntity
  8
SOLBET_Tynki_Posadzki
100
AcDbPolyline
 90
        5
 70
     0
 43
0.0
 10
328.4906635512355
 20
211.0174987469037
 10
310.265867732503
 20
211.0174987469037
 10
310.265867732503
 20
203.735096186949
 42
0.0737237824442504
 10
310.2981272821248
 20
203.5174987469038
 10
326.9039788162408
 20
203.5174987469038
1001
ASO_SCHRAFF
1005
92CE
1070
     1
1002
{
1070
     1
1005
92CE
1002
}
1002
{
1070
     2
1005
92D7
1002
}
1002
{
1070
     4
1000
AR-CONC
1040
0.01
1040
0.0
1070
     0
1000
T__SCHR
1070
   256
1000
VONLAYER
1040
50.0
1070
     1
1002
}
  0
LINE
  5
A839
330
1F
100
AcDbEntity
  8
SOLBET_Tynki_Posadzki
100
AcDbLine
 10
249.9914428985951
 20
243.8754182285122
 30
0.0
 11
235.0947755847538
 21
243.8754182285122
 31
0.0
  0
LINE
  5
A882
330
1F
100
AcDbEntity
  8
SOLBET_Tynki_Posadzki
100
AcDbLine
 10
233.8114449188876
 20
241.6254374133679
 30
0.0
 11
249.9214195834863
 21
241.6254374133679
 31
0.0
  0
LINE
  5
A883
330
1F
100
AcDbEntity
  8
SOLBET_Tynki_Posadzki
100
AcDbLine
 10
249.9214195834863
 20
241.6254374133679
 30
0.0
 11
249.9214195834863
 21
251.3754374133679
 31
0.0
  0
LINE
  5
A884
330
1F
100
AcDbEntity
  8
SOLBET_Tynki_Posadzki
100
AcDbLine
 10
249.9214195834863
 20
253.6254374133679
 30
0.0
 11
242.7713047295458
 21
253.6254374133679
 31
0.0
  0
LINE
  5
A8F3
330
1F
100
AcDbEntity
  8
SOLBET_Beton
100
AcDbLine
 10
88.00087169226953
 20
117.7078994856728
 30
0.0
 11
85.80087169226954
 21
115.5078994856728
 31
0.0
1001
ASO_SCHRAFF
1005
0
1070
     1
1002
{
1070
     1
1005
0
1002
}
1002
{
1070
     2
1005
0
1002
}
1002
{
1070
     4
1000
BRASS
1040
0.2
1040
45.0
1070
     0
1000
T__SCHR
1070
   256
1000
VONLAYER
1040
50.0
1070
     1
1002
}
  0
LINE
  5
A8F4
330
1F
100
AcDbEntity
  8
SOLBET_Emulsje_Folie
100
AcDbLine
 10
87.95352161010198
 20
117.9575342516036
 30
0.0
 11
85.65237926822033
 21
115.656391909722
 31
0.0
1001
ASO_SCHRAFF
1005
0
1070
     1
1002
{
1070
     1
1005
0
1002
}
1002
{
1070
     2
1005
0
1002
}
1002
{
1070
     4
1000
BRASS
1040
0.2
1040
45.0
1070
     0
1000
T__SCHR
1070
   256
1000
VONLAYER
1040
50.0
1070
     1
1002
}
  0
LINE
  5
A8F5
330
1F
100
AcDbEntity
  8
SOLBET_Emulsje_Folie
  6
DASHED2
370
    30
100
AcDbLine
 10
87.92502918605284
 20
118.0775342516037
 30
0.0
 11
86.97706331600144
 21
117.1295683815523
 31
0.0
1001
ASO_SCHRAFF
1005
0
1070
     1
1002
{
1070
     1
1005
0
1002
}
1002
{
1070
     2
1005
0
1002
}
1002
{
1070
     4
1000
BRASS
1040
0.2
1040
45.0
1070
     0
1000
T__SCHR
1070
   256
1000
VONLAYER
1040
50.0
1070
     1
1002
}
  0
LINE
  5
A8F6
330
1F
100
AcDbEntity
  8
SOLBET_Emulsje_Folie
100
AcDbLine
 10
87.89653676200362
 20
118.1975342516036
 30
0.0
 11
85.44237926822034
 21
115.7433767578204
 31
0.0
1001
ASO_SCHRAFF
1005
0
1070
     1
1002
{
1070
     1
1005
0
1002
}
1002
{
1070
     2
1005
0
1002
}
1002
{
1070
     4
1000
BRASS
1040
0.2
1040
45.0
1070
     0
1000
T__SCHR
1070
   256
1000
VONLAYER
1040
50.0
1070
     1
1002
}
  0
LINE
  5
A8F7
330
1F
100
AcDbEntity
  8
SOLBET_Emulsje_Folie
100
AcDbLine
 10
87.81818890326968
 20
118.3737448340969
 30
0.0
 11
85.26237926822034
 21
115.8179351990475
 31
0.0
1001
ASO_SCHRAFF
1005
0
1070
     1
1002
{
1070
     1
1005
0
1002
}
1002
{
1070
     2
1005
0
1002
}
1002
{
1070
     4
1000
BRASS
1040
0.2
1040
45.0
1070
     0
1000
T__SCHR
1070
   256
1000
VONLAYER
1040
50.0
1070
     1
1002
}
  0
LINE
  5
A8F8
330
1F
100
AcDbEntity
  8
SOLBET_Emulsje_Folie
100
AcDbLine
 10
90.8729912746212
 20
118.3737448340969
 30
0.0
 11
87.81818890326968
 21
118.3737448340969
 31
0.0
  0
LWPOLYLINE
  5
A8F9
330
1F
100
AcDbEntity
  8
SOLBET_Emulsje_Folie
100
AcDbPolyline
 90
        2
 70
     0
 43
0.0
 10
115.8008716922695
 20
117.9575342516036
 10
87.95352161010198
 20
117.9575342516036
  0
LWPOLYLINE
  5
A8FA
330
1F
100
AcDbEntity
  8
SOLBET_Emulsje_Folie
100
AcDbPolyline
 90
        2
 70
     0
 43
0.0
 10
87.89653676200362
 20
118.1975342516036
 10
115.8008716922695
 20
118.1975342516036
  0
LINE
  5
A8FB
330
1F
100
AcDbEntity
  8
SOLBET_Emulsje_Folie
  6
DASHED2
370
    30
100
AcDbLine
 10
87.92502918605283
 20
118.0775342516036
 30
0.0
 11
115.8008716922695
 21
118.0775342516036
 31
0.0
  0
LINE
  5
A8FC
330
1F
100
AcDbEntity
  8
SOLBET_Emulsje_Folie
100
AcDbLine
 10
115.8008716922695
 20
118.1975342516036
 30
0.0
 11
115.8008716922695
 21
117.9575342516036
 31
0.0
  0
LEADER
  5
A8FD
330
1F
100
AcDbEntity
  8
SOLBET_Wymiary_Opisy
100
AcDbLeader
  3
Solbet$7
 73
     0
 74
     0
 75
     1
 40
7.416666666666666
 41
27.5
 76
     3
 10
111.558262216136
 20
118.1975342516036
 30
0.0
 10
119.345753196163
 20
125.8077346706569
 30
0.0
 10
121.845753196163
 20
125.8077346706569
 30
0.0
213
0.2070319087433745
223
4.563577227191373
233
0.0
1001
ACAD
1000
DSTYLE
1002
{
1070
   147
1040
0.625
1070
    77
1070
     1
1002
}
  0
MTEXT
  5
A8FE
102
{ACAD_XDICTIONARY
360
AB97
102
}
102
{ACAD_REACTORS
330
A8FD
102
}
330
1F
100
AcDbEntity
  8
SOLBET_Wymiary_Opisy
100
AcDbMText
 10
120.5332812401493
 20
129.2858241101322
 30
0.0
 40
2.5
 41
0.0
 71
     1
 72
     1
  1
\pxql;Emulsja izolazyjna\Plub izolacja z folii
  7
Solbet_2_5
 73
     1
 44
1.0
1001
ACAD
1000
MTEXTBEGIN
1070
    73
1070
     1
1070
    44
1040
1.0
1070
    74
1070
     0
1000
MTEXTEND
  0
INSERT
  5
A8FF
330
1F
100
AcDbEntity
  8
SOLBET_Wymiary_Opisy
100
AcDbBlockReference
  2
_DotSmall
 10
103.2698491737769
 20
128.3842543790703
 30
0.0
 41
2.500000000000064
 42
2.5
 43
2.5
 50
17.84879682523597
1001
ACAD
1000
DSTYLE
1002
{
1070
   147
1040
0.625
1070
    77
1070
     1
1002
}
  0
LINE
  5
A900
330
1F
100
AcDbEntity
  8
SOLBET_Wymiary_Opisy
100
AcDbLine
 10
103.2698491737769
 20
128.3842543790703
 30
0.0
 11
119.2239465593336
 21
139.9993674872002
 31
0.0
1001
ACAD
1000
DSTYLE
1002
{
1070
   147
1040
0.625
1070
    77
1070
     1
1002
}
  0
LINE
  5
A901
330
1F
100
AcDbEntity
  8
SOLBET_Wymiary_Opisy
100
AcDbLine
 10
152.8849746163348
 20
139.9993674872002
 30
0.0
 11
119.2239465593336
 21
139.9993674872002
 31
0.0
1001
ACAD
1000
DSTYLE
1002
{
1070
   147
1040
0.625
1070
    77
1070
     1
1002
}
  0
TEXT
  5
A902
330
1F
100
AcDbEntity
  8
SOLBET_Wymiary_Opisy
100
AcDbText
 10
119.6957449021006
 20
140.9944827417855
 30
0.0
 40
2.5
  1
Bloczki fundamentowe
  7
Solbet_2_5
100
AcDbText
  0
INSERT
  5
A903
330
1F
100
AcDbEntity
  8
SOLBET_Wymiary_Opisy
100
AcDbBlockReference
  2
_DotSmall
 10
110.3959418611348
 20
125.9594081929305
 30
0.0
 41
2.49999999999996
 42
2.5
 43
2.5
 50
17.64542470249763
1001
ACAD
1000
DSTYLE
1002
{
1070
   147
1040
0.625
1070
    77
1070
     1
1002
}
  0
LINE
  5
A904
330
1F
100
AcDbEntity
  8
SOLBET_Wymiary_Opisy
100
AcDbLine
 10
110.3959418611348
 20
125.9594081929305
 30
0.0
 11
119.2239465593336
 21
132.8525342141006
 31
0.0
1001
ACAD
1000
DSTYLE
1002
{
1070
   147
1040
0.625
1070
    77
1070
     1
1002
}
  0
LINE
  5
A905
330
1F
100
AcDbEntity
  8
SOLBET_Wymiary_Opisy
100
AcDbLine
 10
139.8883865852133
 20
132.8525342141004
 30
0.0
 11
119.2239465593336
 21
132.8525342141006
 31
0.0
1001
ACAD
1000
DSTYLE
1002
{
1070
   147
1040
0.625
1070
    77
1070
     1
1002
}
  0
TEXT
  5
A906
330
1F
100
AcDbEntity
  8
SOLBET_Wymiary_Opisy
100
AcDbText
 10
120.6196303312294
 20
134.0406340766541
 30
0.0
 40
2.5
  1
Hydroizolacja
  7
Solbet_2_5
100
AcDbText
  0
LEADER
  5
A907
330
1F
100
AcDbEntity
  8
SOLBET_Wymiary_Opisy
100
AcDbLeader
  3
Solbet$7
 73
     0
 75
     1
 40
5.0
 41
4.5
 76
     3
 10
82.42081392294457
 20
117.2746130354968
 30
0.0
 10
69.83966810644074
 20
108.3460053746351
 30
0.0
 10
67.33966810644074
 20
108.3460053746351
 30
0.0
213
-0.8791749024171622
223
-0.1753245211093599
233
0.0
1001
ACAD
1000
DSTYLE
1002
{
1070
   341
1005
790F
1070
   147
1040
0.625
1070
    77
1070
     1
1002
}
  0
MTEXT
  5
A908
102
{ACAD_REACTORS
330
A907
102
}
330
1F
100
AcDbEntity
  8
SOLBET_Wymiary_Opisy
100
AcDbMText
 10
67.5938430088579
 20
114.1463298957444
 30
0.0
 40
5.0
 41
0.0
 71
     3
 72
     1
  1
C
  7
Solbet_5
 73
     1
 44
1.0
1001
ACAD
1000
MTEXTBEGIN
1070
    73
1070
     1
1070
    44
1040
1.0
1070
    74
1070
     0
1000
MTEXTEND
  0
LINE
  5
A909
330
1F
100
AcDbEntity
  8
SOLBET_Emulsje_Folie
100
AcDbLine
 10
85.65237926822033
 20
115.656391909722
 30
0.0
 11
85.65237926822033
 21
112.956391909722
 31
0.0
  0
LINE
  5
A90A
330
1F
100
AcDbEntity
  8
SOLBET_Emulsje_Folie
100
AcDbLine
 10
85.44237926822034
 20
112.956391909722
 30
0.0
 11
85.44237926822034
 21
115.7433767578204
 31
0.0
  0
LINE
  5
A90B
330
1F
100
AcDbEntity
  8
SOLBET_Emulsje_Folie
100
AcDbLine
 10
85.26237926822034
 20
112.956391909722
 30
0.0
 11
85.26237926822034
 21
115.8179351990475
 31
0.0
  0
LINE
  5
A90C
330
1F
100
AcDbEntity
  8
SOLBET_Emulsje_Folie
  6
DASHED2
370
    30
100
AcDbLine
 10
85.54737926822033
 20
112.956391909722
 30
0.0
 11
85.54737926822033
 21
114.1045040624507
 31
0.0
  0
LINE
  5
A90D
330
1F
100
AcDbEntity
  8
SOLBET_Emulsje_Folie
  6
DASHED2
370
    30
100
AcDbLine
 10
85.54737926822031
 20
115.6998843337712
 30
0.0
 11
86.38123384447089
 21
116.5337389100217
 31
0.0
  0
CIRCLE
  5
A90E
330
1F
100
AcDbEntity
  8
SOLBET_Wymiary_Opisy
100
AcDbCircle
 10
89.14875426775404
 20
117.2746130354968
 30
0.0
 40
6.72794034480946
  0
LINE
  5
A910
330
1F
100
AcDbEntity
  8
SOLBET_Beton
100
AcDbLine
 10
115.8008716922695
 20
97.7078994856758
 30
0.0
 11
115.8008716922695
 21
117.7078994856728
 31
0.0
1001
ASO_SCHRAFF
1005
925E
1070
     1
1002
{
1070
     1
1005
925E
1002
}
1002
{
1070
     2
1005
0
1002
}
1002
{
1070
     4
1000
BRASS
1040
0.2
1040
45.0
1070
     0
1000
T__SCHR
1070
   256
1000
VONLAYER
1040
50.0
1070
     1
1002
}
  0
LINE
  5
A911
330
1F
100
AcDbEntity
  8
SOLBET_Beton
100
AcDbLine
 10
115.8008716922695
 20
117.7078994856728
 30
0.0
 11
88.00087169226953
 21
117.7078994856728
 31
0.0
1001
ASO_SCHRAFF
1005
925E
1070
     1
1002
{
1070
     1
1005
925E
1002
}
1002
{
1070
     2
1005
0
1002
}
1002
{
1070
     4
1000
BRASS
1040
0.2
1040
45.0
1070
     0
1000
T__SCHR
1070
   256
1000
VONLAYER
1040
50.0
1070
     1
1002
}
  0
LINE
  5
A912
330
1F
100
AcDbEntity
  8
SOLBET_Beton
100
AcDbLine
 10
85.80087169226953
 20
115.5078994856728
 30
0.0
 11
85.80087169226954
 21
97.7078994856758
 31
0.0
1001
ASO_SCHRAFF
1005
925E
1070
     1
1002
{
1070
     1
1005
925E
1002
}
1002
{
1070
     2
1005
0
1002
}
1002
{
1070
     4
1000
BRASS
1040
0.2
1040
45.0
1070
     0
1000
T__SCHR
1070
   256
1000
VONLAYER
1040
50.0
1070
     1
1002
}
  0
LINE
  5
A913
102
{ACAD_REACTORS
330
9B59
102
}
330
1F
100
AcDbEntity
  8
SOLBET_Zbrojenie_Konstrukcja
100
AcDbLine
 10
88.00087169226953
 20
117.7078994856728
 30
0.0
 11
85.80087169226953
 21
115.5078994856728
 31
0.0
1001
ASO_SCHRAFF
1005
925E
1070
     1
1002
{
1070
     1
1005
925E
1002
}
1002
{
1070
     2
1005
0
1002
}
1002
{
1070
     4
1000
BRASS
1040
0.2
1040
45.0
1070
     0
1000
T__SCHR
1070
   256
1000
VONLAYER
1040
50.0
1070
     1
1002
}
  0
INSERT
  5
A946
330
1F
100
AcDbEntity
  8
SOLBET_Wymiary_Opisy
100
AcDbBlockReference
  2
_DotSmall
 10
110.3959418611343
 20
125.9594081929301
 30
0.0
 41
2.49999999999996
 42
2.5
 43
2.5
 50
17.64542470249763
1001
ACAD
1000
DSTYLE
1002
{
1070
   147
1040
0.625
1070
    77
1070
     1
1002
}
  0
LWPOLYLINE
  5
A947
330
1F
100
AcDbEntity
  8
SOLBET_Beton
100
AcDbPolyline
 90
        3
 70
     0
 43
0.0
 10
197.7820098393492
 20
112.8984958483905
 10
197.7820098393492
 20
87.77192089301024
 10
219.9778426806126
 20
87.77192089301024
  0
HATCH
  5
A948
330
1F
100
AcDbEntity
  8
SOLBET_Beton
100
AcDbHatch
 10
0.0
 20
0.0
 30
0.0
210
0.0
220
0.0
230
1.0
  2
ANSI33
 70
     0
 71
     0
 91
        1
 92
        1
 93
        4
 72
     2
 10
187.0214227167721
 20
81.02626190001041
 40
33.6397017240473
 50
240.1580723290472
 51
363.692464015495
 73
     1
 72
     1
 10
220.5912916975297
 20
83.19269415089008
 11
181.2820098393496
 21
83.19269415089015
 72
     1
 10
181.2820098393492
 20
83.19269415089014
 11
170.2820098393496
 21
72.19269415089033
 72
     1
 10
170.2820098393497
 20
72.19269415089041
 11
170.2820098393501
 21
51.84713256752196
 97
        0
 75
     0
 76
     1
 52
0.0
 41
3.75
 77
     0
 78
     2
 53
45.0
 43
-9359.28452603596
 44
1361.232421487049
 45
-16.83798022700466
 46
16.83798022700466
 79
     0
 53
45.0
 43
-9342.446538535959
 44
1361.232421487049
 45
-16.83798022700466
 46
16.83798022700466
 79
     2
 49
11.90625
 49
-5.953124999999999
 98
        1
 10
221.9921915460616
 20
31.10826501269173
1001
ACAD
1010
0.0
1020
0.0
1030
0.0
  0
LINE
  5
A949
330
1F
100
AcDbEntity
  8
SOLBET_Beton
100
AcDbLine
 10
220.5912916975297
 20
83.19269415089001
 30
0.0
 11
181.2820098393492
 21
83.19269415089001
 31
0.0
1001
ASO_SCHRAFF
1005
0
1070
     1
1002
{
1070
     1
1005
0
1002
}
1002
{
1070
     2
1005
0
1002
}
1002
{
1070
     4
1000
BRASS
1040
0.2
1040
45.0
1070
     0
1000
T__SCHR
1070
   256
1000
VONLAYER
1040
50.0
1070
     1
1002
}
  0
LINE
  5
A94A
330
1F
100
AcDbEntity
  8
SOLBET_Beton
100
AcDbLine
 10
170.2820098393492
 20
72.19269415089001
 30
0.0
 11
170.2820098393492
 21
51.84713256752229
 31
0.0
1001
ASO_SCHRAFF
1005
0
1070
     1
1002
{
1070
     1
1005
0
1002
}
1002
{
1070
     2
1005
0
1002
}
1002
{
1070
     4
1000
BRASS
1040
0.2
1040
45.0
1070
     0
1000
T__SCHR
1070
   256
1000
VONLAYER
1040
50.0
1070
     1
1002
}
  0
LINE
  5
A94B
330
1F
100
AcDbEntity
  8
SOLBET_Beton
100
AcDbLine
 10
181.2820098393492
 20
83.19269415089001
 30
0.0
 11
170.2820098393492
 21
72.19269415089001
 31
0.0
1001
ASO_SCHRAFF
1005
0
1070
     1
1002
{
1070
     1
1005
0
1002
}
1002
{
1070
     2
1005
0
1002
}
1002
{
1070
     4
1000
BRASS
1040
0.2
1040
45.0
1070
     0
1000
T__SCHR
1070
   256
1000
VONLAYER
1040
50.0
1070
     1
1002
}
  0
LINE
  5
A94C
330
1F
100
AcDbEntity
  8
SOLBET_Emulsje_Folie
100
AcDbLine
 10
181.0452594285118
 20
84.44086798054412
 30
0.0
 11
169.5395477191032
 21
72.93515627113589
 31
0.0
1001
ASO_SCHRAFF
1005
0
1070
     1
1002
{
1070
     1
1005
0
1002
}
1002
{
1070
     2
1005
0
1002
}
1002
{
1070
     4
1000
BRASS
1040
0.2
1040
45.0
1070
     0
1000
T__SCHR
1070
   256
1000
VONLAYER
1040
50.0
1070
     1
1002
}
  0
LINE
  5
A94D
330
1F
100
AcDbEntity
  8
SOLBET_Emulsje_Folie
  6
DASHED2
370
    30
100
AcDbLine
 10
180.9027973082659
 20
85.0408679805443
 30
0.0
 11
176.1629679580089
 21
80.30103863028728
 31
0.0
1001
ASO_SCHRAFF
1005
0
1070
     1
1002
{
1070
     1
1005
0
1002
}
1002
{
1070
     2
1005
0
1002
}
1002
{
1070
     4
1000
BRASS
1040
0.2
1040
45.0
1070
     0
1000
T__SCHR
1070
   256
1000
VONLAYER
1040
50.0
1070
     1
1002
}
  0
LINE
  5
A94E
330
1F
100
AcDbEntity
  8
SOLBET_Emulsje_Folie
100
AcDbLine
 10
180.7603351880195
 20
85.64086798054416
 30
0.0
 11
168.4895477191037
 21
73.37008051162769
 31
0.0
1001
ASO_SCHRAFF
1005
0
1070
     1
1002
{
1070
     1
1005
0
1002
}
1002
{
1070
     2
1005
0
1002
}
1002
{
1070
     4
1000
BRASS
1040
0.2
1040
45.0
1070
     0
1000
T__SCHR
1070
   256
1000
VONLAYER
1040
50.0
1070
     1
1002
}
  0
LINE
  5
A94F
330
1F
100
AcDbEntity
  8
SOLBET_Emulsje_Folie
100
AcDbLine
 10
180.3685958943504
 20
86.52192089301024
 30
0.0
 11
167.5895477191031
 21
73.74287271776347
 31
0.0
1001
ASO_SCHRAFF
1005
0
1070
     1
1002
{
1070
     1
1005
0
1002
}
1002
{
1070
     2
1005
0
1002
}
1002
{
1070
     4
1000
BRASS
1040
0.2
1040
45.0
1070
     0
1000
T__SCHR
1070
   256
1000
VONLAYER
1040
50.0
1070
     1
1002
}
  0
LINE
  5
A950
330
1F
100
AcDbEntity
  8
SOLBET_Izolacja
  6
Continuous
100
AcDbLine
 10
195.2820098393492
 20
87.77192089301024
 30
0.0
 11
195.2820098393492
 21
113.6359572753609
 31
0.0
  0
LINE
  5
A951
330
1F
100
AcDbEntity
  8
SOLBET_Emulsje_Folie
100
AcDbLine
 10
196.8926077512212
 20
113.1850746594783
 30
0.0
 11
196.8926077512212
 21
87.77192089301024
 31
0.0
  0
LINE
  5
A952
330
1F
100
AcDbEntity
  8
SOLBET_Emulsje_Folie
100
AcDbLine
 10
195.6426077511075
 20
86.52192089301024
 30
0.0
 11
180.3685958943504
 21
86.52192089301024
 31
0.0
  0
ARC
  5
A953
330
1F
100
AcDbEntity
  8
SOLBET_Emulsje_Folie
100
AcDbCircle
 10
195.6426077511075
 20
87.77192089301024
 30
0.0
 40
1.25
100
AcDbArc
 50
270.0
 51
0.0
  0
LINE
  5
A954
330
1F
100
AcDbEntity
  8
SOLBET_Izolacja
  6
Continuous
100
AcDbLine
 10
190.2820098393492
 20
87.77192089301024
 30
0.0
 11
190.2820098393492
 21
114.5075716667883
 31
0.0
  0
LINE
  5
A955
330
1F
100
AcDbEntity
  8
SOLBET_Emulsje_Folie
100
AcDbLine
 10
187.454370644097
 20
87.77192089301024
 30
0.0
 11
189.4543706442134
 21
87.77192089301024
 31
0.0
  0
LINE
  5
A956
330
1F
100
AcDbEntity
  8
SOLBET_Emulsje_Folie
100
AcDbLine
 10
187.454370644097
 20
94.46541608445484
 30
0.0
 11
189.4543706442134
 21
93.71014537295934
 31
0.0
  0
LINE
  5
A957
330
1F
100
AcDbEntity
  8
SOLBET_Emulsje_Folie
100
AcDbLine
 10
187.454370644097
 20
89.35028949893974
 30
0.0
 11
189.4543706442134
 21
90.10556021043527
 31
0.0
  0
LINE
  5
A958
330
1F
100
AcDbEntity
  8
SOLBET_Emulsje_Folie
100
AcDbLine
 10
187.454370644097
 20
98.26140562173179
 30
0.0
 11
189.4543706442134
 21
99.01667633322729
 31
0.0
  0
LINE
  5
A959
330
1F
100
AcDbEntity
  8
SOLBET_Emulsje_Folie
100
AcDbLine
 10
187.454370644097
 20
103.3765322072322
 30
0.0
 11
189.4543706442134
 21
102.6212614957367
 31
0.0
  0
LINE
  5
A95A
330
1F
100
AcDbEntity
  8
SOLBET_Emulsje_Folie
100
AcDbLine
 10
187.454370644097
 20
112.2876483300243
 30
0.0
 11
189.4543706442134
 21
111.5323776185287
 31
0.0
  0
LINE
  5
A95B
330
1F
100
AcDbEntity
  8
SOLBET_Emulsje_Folie
100
AcDbLine
 10
187.454370644097
 20
107.1725217445237
 30
0.0
 11
189.4543706442134
 21
107.9277924560193
 31
0.0
  0
LINE
  5
A95C
330
1F
100
AcDbEntity
  8
SOLBET_Emulsje_Folie
100
AcDbLine
 10
187.4543706440972
 20
114.6631774568071
 30
0.0
 11
187.454370644097
 21
87.77192089301024
 31
0.0
  0
LINE
  5
A95D
330
1F
100
AcDbEntity
  8
SOLBET_Emulsje_Folie
100
AcDbLine
 10
189.4543706442134
 20
114.577868366247
 30
0.0
 11
189.4543706442134
 21
87.77192089301024
 31
0.0
  0
HATCH
  5
A95E
330
1F
100
AcDbEntity
  8
SOLBET_Grunt
100
AcDbHatch
 10
0.0
 20
0.0
 30
0.0
210
0.0
220
0.0
230
1.0
  2
AR-CONC
 70
     0
 71
     0
 91
        1
 92
        1
 93
        5
 72
     2
 10
187.0214227167719
 20
81.02626190001018
 40
33.6397017240473
 50
89.26257450035045
 51
240.1580723290458
 73
     1
 72
     1
 10
170.2820098393492
 20
51.84713256752241
 11
170.2820098393492
 21
90.18340782631799
 72
     1
 10
170.2820098393492
 20
90.18340782631794
 11
182.7820098393515
 21
87.77192089301008
 72
     1
 10
182.7820098393515
 20
87.77192089301008
 11
187.4543706440947
 21
87.77192089301022
 72
     1
 10
187.4543706440947
 20
87.77192089301024
 11
187.4543706440947
 21
114.6631774568072
 97
        0
 75
     0
 76
     1
 52
0.0
 41
0.25
 77
     0
 78
    13
 53
50.0
 43
-9359.28452603596
 44
1361.232421487049
 45
45.546167249001
 46
-3.984771384725771
 79
     2
 49
4.762500000000001
 49
-52.3875
 53
355.0
 43
-9359.28452603596
 44
1361.232421487049
 45
-8.810706493916747
 46
47.76416072054499
 79
     2
 49
3.81
 49
-41.91000000000001
 53
100.4509999999999
 43
-9355.489026035961
 44
1360.900358987049
 45
36.73562541648981
 46
43.77917195507295
 79
     2
 49
4.0475
 49
-44.52249999999999
 53
46.1842
 43
-9359.28452603596
 44
1373.932421487049
 45
67.76976022303248
 46
-10.51058198318179
 79
     2
 49
7.14375
 49
-78.58125000000001
 53
96.63559999999996
 43
-9353.637051035962
 44
1373.056546487049
 45
59.35105861655928
 46
61.8563889725123
 79
     2
 49
6.071249999999986
 49
-66.78374999999985
 53
351.184
 43
-9359.28452603596
 44
1373.932421487049
 45
59.35115145348348
 46
61.85627946514942
 79
     2
 49
5.714999999999999
 49
-62.865
 53
21.0
 43
-9352.93452603596
 44
1370.757421487049
 45
37.90371995884583
 46
-25.56637962919062
 79
     2
 49
4.762500000000001
 49
-52.3875
 53
326.0
 43
-9352.93452603596
 44
1370.757421487049
 45
15.45050708691177
 46
46.0469915305798
 79
     2
 49
3.809999999999998
 49
-41.90999999999998
 53
71.45140000000001
 43
-9349.775901035959
 44
1368.626896487049
 45
53.35412269253112
 46
20.48071442901436
 79
     2
 49
4.0475
 49
-44.5225
 53
37.49999999999999
 43
-9359.28452603596
 44
1361.232421487049
 45
0.7721508126479543
 46
21.13875971828828
 79
     6
 49
0.0
 49
-41.402
 49
0.0
 49
-42.545
 49
0.0
 49
-42.06875
 53
7.499999999999999
 43
-9359.28452603596
 44
1361.232421487049
 45
16.70491562757644
 46
25.04514370452988
 79
     6
 49
0.0
 49
-24.25699999999999
 49
0.0
 49
-40.44949999999999
 49
0.0
 49
-16.03375
 53
327.5
 43
-9373.445026035961
 44
1361.232421487049
 45
33.89764879171784
 46
-1.432185998168366
 79
     6
 49
0.0
 49
-15.875
 49
0.0
 49
-49.53
 49
0.0
 49
-65.7225
 53
317.5
 43
-9379.79502603596
 44
1361.232421487049
 45
37.03229534650451
 46
6.356622758333254
 79
     6
 49
0.0
 49
-20.6375
 49
0.0
 49
-32.893
 49
0.0
 49
-46.6725
 98
        4
 10
129.1297077687266
 20
95.75807976674866
 10
146.6024182735889
 20
183.0478180103199
 10
97.62987514520478
 20
245.5376282082961
 10
-15.52670185670035
 20
2071.380457564158
1001
ACAD
1010
0.0
1020
0.0
1030
0.0
  0
LINE
  5
A95F
330
1F
100
AcDbEntity
  8
SOLBET_Izolacja
  6
BATTING
 48
0.24
100
AcDbLine
 10
192.7820098393495
 20
114.1690615416528
 30
0.0
 11
192.7820098393492
 21
87.77192089301024
 31
0.0
  0
LWPOLYLINE
  5
A960
330
1F
100
AcDbEntity
  8
SOLBET_Emulsje_Folie
100
AcDbPolyline
 90
        2
 70
     0
 43
0.0
 10
220.4873755255241
 20
84.44086798054412
 10
181.0452594285118
 20
84.44086798054412
  0
LWPOLYLINE
  5
A961
330
1F
100
AcDbEntity
  8
SOLBET_Emulsje_Folie
100
AcDbPolyline
 90
        2
 70
     0
 43
0.0
 10
180.7603351880195
 20
85.64086798054416
 10
220.3431114915677
 20
85.64086798054416
  0
LINE
  5
A962
330
1F
100
AcDbEntity
  8
SOLBET_Emulsje_Folie
  6
DASHED2
370
    30
100
AcDbLine
 10
180.9027973082656
 20
85.04086798054414
 30
0.0
 11
220.4207111837588
 21
85.04086798054414
 31
0.0
  0
LINE
  5
A963
330
1F
100
AcDbEntity
  8
SOLBET_Izolacja
100
AcDbLine
 10
190.2820098393492
 20
87.77192089301024
 30
0.0
 11
195.2820098393492
 21
87.77192089301024
 31
0.0
  0
LINE
  5
A964
330
1F
100
AcDbEntity
  8
SOLBET_Emulsje_Folie
100
AcDbLine
 10
169.5395477191032
 20
72.93515627113589
 30
0.0
 11
169.5395477191032
 21
59.43515627113595
 31
0.0
  0
LINE
  5
A965
330
1F
100
AcDbEntity
  8
SOLBET_Emulsje_Folie
100
AcDbLine
 10
169.5395477191032
 20
59.43515627113595
 30
0.0
 11
168.4895477191037
 21
59.43515627113595
 31
0.0
  0
LINE
  5
A966
330
1F
100
AcDbEntity
  8
SOLBET_Emulsje_Folie
100
AcDbLine
 10
168.4895477191037
 20
59.43515627113595
 30
0.0
 11
168.4895477191037
 21
73.37008051162769
 31
0.0
  0
LINE
  5
A967
330
1F
100
AcDbEntity
  8
SOLBET_Emulsje_Folie
100
AcDbLine
 10
167.5895477191031
 20
59.43515627113595
 30
0.0
 11
167.5895477191031
 21
73.74287271776336
 31
0.0
  0
LINE
  5
A968
330
1F
100
AcDbEntity
  8
SOLBET_Emulsje_Folie
  6
DASHED2
370
    30
100
AcDbLine
 10
169.0145477191033
 20
59.43515627113595
 30
0.0
 11
169.0145477191033
 21
65.17571703477955
 31
0.0
  0
LINE
  5
A969
330
1F
100
AcDbEntity
  8
SOLBET_Emulsje_Folie
  6
DASHED2
370
    30
100
AcDbLine
 10
169.0145477191033
 20
68.16724386203503
 30
0.0
 11
169.0145477191031
 21
73.15261839138191
 31
0.0
  0
LINE
  5
A96A
330
1F
100
AcDbEntity
  8
SOLBET_Emulsje_Folie
  6
DASHED2
370
    30
100
AcDbLine
 10
169.0145477191031
 20
73.15261839138191
 30
0.0
 11
173.183820600356
 21
77.32189127263461
 31
0.0
  0
CIRCLE
  5
A96B
330
1F
100
AcDbEntity
  8
SOLBET_Wymiary_Opisy
100
AcDbCircle
 10
187.0214227167719
 20
81.02626190001018
 30
0.0
 40
33.6397017240473
  0
MTEXT
  5
A96C
102
{ACAD_XDICTIONARY
360
AB99
102
}
330
1F
100
AcDbEntity
  8
SOLBET_Wymiary_Opisy
100
AcDbMText
 10
170.8973385569489
 20
134.4442823466955
 30
0.0
 40
5.0
 41
30.77919768571883
 71
     1
 72
     5
  1
\pxqc;C\P(5 : 1)
  7
Solbet_5
 73
     1
 44
1.0
1001
ACAD
1000
MTEXTBEGIN
1070
    73
1070
     1
1070
    44
1040
1.0
1070
    74
1070
     0
1000
MTEXTEND
1000
ACAD_MTEXT_DEFINED_HEIGHT_BEGIN
1070
    46
1040
23.42535011036716
1000
ACAD_MTEXT_DEFINED_HEIGHT_END
  0
LINE
  5
A99D
330
1F
100
AcDbEntity
  8
SOLBET_Emulsje_Folie
100
AcDbLine
 10
85.65237926822033
 20
112.956391909722
 30
0.0
 11
85.44237926822034
 21
112.956391909722
 31
0.0
  0
INSERT
  5
ABF3
330
1F
100
AcDbEntity
  8
SOLBET_Bloczki
100
AcDbBlockReference
  2
SOLBET_Bloczek_Optimal_240x240x590_G_KG700_PRA
 10
98.30087169226931
 20
202.9237448340968
 30
0.0
  0
INSERT
  5
ABF4
330
1F
100
AcDbEntity
  8
SOLBET_Bloczki
100
AcDbBlockReference
  2
SOLBET_Bloczek_Optimal_240x240x590_G_KG700_PRA
 10
98.30087169226921
 20
190.9237448752842
 30
0.0
  0
INSERT
  5
ABF5
330
1F
100
AcDbEntity
  8
SOLBET_Bloczki
100
AcDbBlockReference
  2
SOLBET_Bloczek_Optimal_240x240x590_G_KG700_PRA
 10
98.30087169226921
 20
178.9237448752843
 30
0.0
  0
MTEXT
  5
AC44
102
{ACAD_XDICTIONARY
360
AC45
102
}
330
1F
100
AcDbEntity
  8
SOLBET_Wymiary_Opisy
100
AcDbMText
 10
301.2542633255819
 20
7.273150535415538
 30
0.0
 40
5.0
 41
0.0
 71
     1
 72
     5
  1
Skala 1:20
  7
Solbet_5
 73
     1
 44
1.0
1001
ACAD
1000
MTEXTBEGIN
1070
    73
1070
     1
1070
    44
1040
1.0
1070
    74
1070
     0
1000
MTEXTEND
1000
ACAD_MTEXT_DEFINED_HEIGHT_BEGIN
1070
    46
1040
5.395147572682731
1000
ACAD_MTEXT_DEFINED_HEIGHT_END
  0
LWPOLYLINE
  5
AC47
330
1F
100
AcDbEntity
  8
SOLBET_Ramka_05
100
AcDbPolyline
 90
        4
 70
     1
 43
0.0
 10
298.235597204668
 20
9.804221198935465
 10
334.3517740920902
 20
9.804221198935465
 10
334.3517740920902
 20
0.0
 10
298.2355972046681
 20
0.0
  0
ENDSEC
  0
SECTION
  2
OBJECTS
  0
DICTIONARY
  5
C
330
0
100
AcDbDictionary
281
     1
  3
ACAD_COLOR
350
6B
  3
ACAD_GROUP
350
D
  3
ACAD_LAYOUT
350
1A
  3
ACAD_MATERIAL
350
6A
  3
ACAD_MLEADERSTYLE
350
12D
  3
ACAD_MLINESTYLE
350
17
  3
ACAD_PLOTSETTINGS
350
19
  3
ACAD_PLOTSTYLENAME
350
E
  3
ACAD_SCALELIST
350
10C
  3
ACAD_TABLESTYLE
350
7E
  3
ACAD_VISUALSTYLE
350
EF
  3
ACDB_RECOMPOSE_DATA
350
15D
  3
AcDbVariableDictionary
350
5E
  3
DWGPROPS
350
AC87
  0
DICTIONARY
  5
443
330
8
100
AcDbDictionary
280
     1
281
     1
  0
DICTIONARY
  5
3E5
330
2
100
AcDbDictionary
280
     1
281
     1
  3
ACAD_LAYERFILTERS
360
1883
  3
ACLYDICTIONARY
360
1882
  0
DICTIONARY
  5
13C
330
10
100
AcDbDictionary
280
     1
281
     1
  3
ADSK_XREC_LAYER_RECONCILED
360
3F4
  0
DICTIONARY
  5
403
330
3DD
100
AcDbDictionary
280
     1
281
     1
  3
ADSK_XREC_LAYER_RECONCILED
360
404
  0
DICTIONARY
  5
405
330
3DF
100
AcDbDictionary
280
     1
281
     1
  3
ADSK_XREC_LAYER_RECONCILED
360
406
  0
DICTIONARY
  5
407
330
3E0
100
AcDbDictionary
280
     1
281
     1
  3
ADSK_XREC_LAYER_RECONCILED
360
408
  0
DICTIONARY
  5
409
330
3E1
100
AcDbDictionary
280
     1
281
     1
  3
ADSK_XREC_LAYER_RECONCILED
360
40A
  0
DICTIONARY
  5
40B
330
3E2
100
AcDbDictionary
280
     1
281
     1
  3
ADSK_XREC_LAYER_RECONCILED
360
40C
  0
DICTIONARY
  5
40D
330
3E3
100
AcDbDictionary
280
     1
281
     1
  3
ADSK_XREC_LAYER_RECONCILED
360
40E
  0
DICTIONARY
  5
40F
330
3E4
100
AcDbDictionary
280
     1
281
     1
  3
ADSK_XREC_LAYER_RECONCILED
360
410
  0
DICTIONARY
  5
411
330
3E8
100
AcDbDictionary
280
     1
281
     1
  3
ADSK_XREC_LAYER_RECONCILED
360
412
  0
DICTIONARY
  5
AB8F
330
AB8E
100
AcDbDictionary
280
     1
281
     1
  3
ASDK_XREC_ANNO_SCALE_INFO
360
AB90
  0
DICTIONARY
  5
4A3
330
1F
100
AcDbDictionary
280
     1
281
     1
  3
ACAD_SORTENTS
360
4A4
  0
DICTIONARY
  5
6F6A
330
6F5E
100
AcDbDictionary
280
     1
281
     1
  3
ACAD_SORTENTS
360
9AD1
  0
DICTIONARY
  5
ABEF
330
ABE4
100
AcDbDictionary
280
     1
281
     1
  3
ACAD_SORTENTS
360
ABF0
  0
DICTIONARY
  5
AC96
330
9BF6
100
AcDbDictionary
280
     1
281
     1
  3
ACAD_MTEXT_RT
360
AC97
  0
DICTIONARY
  5
AC98
330
9BFC
100
AcDbDictionary
280
     1
281
     1
  3
ACAD_MTEXT_RT
360
AC99
  0
DICTIONARY
  5
AB8C
330
9C0C
100
AcDbDictionary
280
     1
281
     1
  3
ACAD_MTEXT_2008_RT
360
AB8D
  0
DICTIONARY
  5
AC9A
330
9C12
100
AcDbDictionary
280
     1
281
     1
  3
ACAD_MTEXT_RT
360
AC9B
  0
DICTIONARY
  5
AC9C
330
9C40
100
AcDbDictionary
280
     1
281
     1
  3
ACAD_MTEXT_RT
360
AC9D
  0
DICTIONARY
  5
AC9E
330
9C61
100
AcDbDictionary
280
     1
281
     1
  3
ACAD_MTEXT_RT
360
AC9F
  0
DICTIONARY
  5
ACA0
330
A1A4
100
AcDbDictionary
280
     1
281
     1
  3
ACAD_MTEXT_RT
360
ACA1
  0
DICTIONARY
  5
ACA2
330
A1AA
100
AcDbDictionary
280
     1
281
     1
  3
ACAD_MTEXT_RT
360
ACA3
  0
DICTIONARY
  5
ACA4
330
A1AC
100
AcDbDictionary
280
     1
281
     1
  3
ACAD_MTEXT_RT
360
ACA5
  0
DICTIONARY
  5
ACA6
330
A21A
100
AcDbDictionary
280
     1
281
     1
  3
ACAD_MTEXT_RT
360
ACA7
  0
DICTIONARY
  5
A23E
330
A23D
100
AcDbDictionary
280
     1
281
     1
  3
ACAD_MTEXT_RT
360
ACA8
  3
AcDbContextDataManager
360
A23F
  0
DICTIONARY
  5
ACA9
330
A246
100
AcDbDictionary
280
     1
281
     1
  3
ACAD_MTEXT_RT
360
ACAA
  0
DICTIONARY
  5
AB91
330
A26A
100
AcDbDictionary
280
     1
281
     1
  3
ACAD_MTEXT_2008_RT
360
AB92
  0
DICTIONARY
  5
AB93
330
A26C
100
AcDbDictionary
280
     1
281
     1
  3
ACAD_MTEXT_2008_RT
360
AB94
  3
ACAD_MTEXT_RT
360
ACAB
  0
DICTIONARY
  5
ACAC
330
A339
100
AcDbDictionary
280
     1
281
     1
  3
ACAD_MTEXT_RT
360
ACAD
  0
DICTIONARY
  5
AB95
330
A3B3
100
AcDbDictionary
280
     1
281
     1
  3
ACAD_MTEXT_2008_RT
360
AB96
  0
DICTIONARY
  5
A429
330
A428
100
AcDbDictionary
280
     1
281
     1
  3
ACAD_MTEXT_RT
360
ACAE
  3
AcDbContextDataManager
360
A42A
  0
DICTIONARY
  5
ACAF
330
A42D
100
AcDbDictionary
280
     1
281
     1
  3
ACAD_MTEXT_RT
360
ACB0
  0
DICTIONARY
  5
AB97
330
A8FE
100
AcDbDictionary
280
     1
281
     1
  3
ACAD_MTEXT_2008_RT
360
AB98
  0
DICTIONARY
  5
AB99
330
A96C
100
AcDbDictionary
280
     1
281
     1
  3
ACAD_MTEXT_2008_RT
360
AB9A
  0
DICTIONARY
  5
AC45
330
AC44
100
AcDbDictionary
280
     1
281
     1
  3
ACAD_MTEXT_2008_RT
360
AC46
  0
DICTIONARY
  5
6B
102
{ACAD_REACTORS
330
C
102
}
330
C
100
AcDbDictionary
281
     1
  0
DICTIONARY
  5
D
102
{ACAD_REACTORS
330
C
102
}
330
C
100
AcDbDictionary
281
     1
  0
DICTIONARY
  5
1A
102
{ACAD_REACTORS
330
C
102
}
330
C
100
AcDbDictionary
281
     1
  3
Arkusz1
350
D3
  3
Arkusz2
350
D7
  3
Model
350
22
  0
DICTIONARY
  5
6A
102
{ACAD_REACTORS
330
C
102
}
330
C
100
AcDbDictionary
281
     1
  3
ByBlock
350
ED
  3
ByLayer
350
EC
  3
Global
350
EE
  0
DICTIONARY
  5
12D
102
{ACAD_REACTORS
330
C
102
}
330
C
100
AcDbDictionary
281
     1
  3
Standard
350
12E
  0
DICTIONARY
  5
17
102
{ACAD_REACTORS
330
C
102
}
330
C
100
AcDbDictionary
281
     1
  3
SOLBET_IZOLACJA
350
7E9
  3
Standard
350
18
  0
DICTIONARY
  5
19
102
{ACAD_REACTORS
330
C
102
}
330
C
100
AcDbDictionary
281
     1
  3
Ustawienia1
350
4FA3
  0
ACDBDICTIONARYWDFLT
  5
E
102
{ACAD_REACTORS
330
C
102
}
330
C
100
AcDbDictionary
281
     1
  3
Normal
350
F
100
AcDbDictionaryWithDefault
340
F
  0
DICTIONARY
  5
10C
102
{ACAD_REACTORS
330
C
102
}
330
C
100
AcDbDictionary
281
     1
  3
A0
350
10D
  3
A1
350
188
  3
A2
350
189
  3
A3
350
18A
  3
A4
350
18B
  3
A5
350
18C
  3
A6
350
18D
  3
A7
350
18E
  3
A8
350
18F
  3
A9
350
190
  3
B0
350
191
  3
B1
350
192
  3
B2
350
193
  3
B3
350
194
  3
B4
350
195
  3
B5
350
196
  3
B6
350
197
  3
B7
350
198
  3
B8
350
199
  3
B9
350
19A
  3
C0
350
19B
  3
C1
350
19C
  3
C2
350
19D
  3
C3
350
19E
  3
C4
350
19F
  3
C5
350
1A0
  3
C6
350
1A1
  3
C7
350
1A2
  3
C8
350
1A3
  3
C9
350
1A4
  3
D0
350
1A5
  3
D1
350
1A6
  3
D2
350
1A7
  0
DICTIONARY
  5
7E
102
{ACAD_REACTORS
330
C
102
}
330
C
100
AcDbDictionary
281
     1
  3
Standard
350
7F
  0
DICTIONARY
  5
EF
102
{ACAD_REACTORS
330
C
102
}
330
C
100
AcDbDictionary
281
     1
  3
2dWireframe
350
F5
  3
3D Hidden
350
F7
  3
3dWireframe
350
F6
  3
Basic
350
F4
  3
Brighten
350
FB
  3
ColorChange
350
FF
  3
Conceptual
350
F8
  3
Dim
350
FA
  3
Facepattern
350
FE
  3
Flat
350
F0
  3
FlatWithEdges
350
F1
  3
Gouraud
350
F2
  3
GouraudWithEdges
350
F3
  3
Linepattern
350
FD
  3
Realistic
350
F9
  3
Thicken
350
FC
  0
XRECORD
  5
15D
102
{ACAD_REACTORS
330
C
102
}
330
C
100
AcDbXrecord
280
     1
 90
        1
330
7F
330
9C0C
330
A23D
330
A26A
330
A26C
330
A3B3
330
A428
330
A8FE
330
A96C
  0
DICTIONARY
  5
5E
102
{ACAD_REACTORS
330
C
102
}
330
C
100
AcDbDictionary
281
     1
  3
CANNOSCALE
350
146
  3
CMLEADERSTYLE
350
145
  3
CTABLESTYLE
350
84
  3
DIMASSOC
350
5F
  3
HIDETEXT
350
63
  3
INDEXCTL
350
466
  3
LIGHTINGUNITS
350
464
  3
MSLTSCALE
350
463
  3
PSOLHEIGHT
350
AC86
  3
PSOLWIDTH
350
AC85
  3
SORTENTS
350
465
  0
XRECORD
  5
AC87
102
{ACAD_REACTORS
330
C
102
}
330
C
100
AcDbXrecord
280
     1
  1
DWGPROPS COOKIE
  2

  3

  4

  6

  7

  8
Olus
  9

300
=
301
=
302
=
303
=
304
=
305
=
306
=
307
=
308
=
309
=
 40
1.208980590277777
 41
2454690.075573148
 42
2454848.860210776
  1

 90
        0
  0
DICTIONARY
  5
1883
102
{ACAD_REACTORS
330
3E5
102
}
330
3E5
100
AcDbDictionary
281
     1
  0
DICTIONARY
  5
1882
102
{ACAD_REACTORS
330
3E5
102
}
330
3E5
100
AcDbDictionary
281
     1
1001
ACAD
1000
<All
  0
XRECORD
  5
3F4
102
{ACAD_REACTORS
330
13C
102
}
330
13C
100
AcDbXrecord
280
     1
290
     1
  0
XRECORD
  5
404
102
{ACAD_REACTORS
330
403
102
}
330
403
100
AcDbXrecord
280
     1
290
     1
  0
XRECORD
  5
406
102
{ACAD_REACTORS
330
405
102
}
330
405
100
AcDbXrecord
280
     1
290
     1
  0
XRECORD
  5
408
102
{ACAD_REACTORS
330
407
102
}
330
407
100
AcDbXrecord
280
     1
290
     1
  0
XRECORD
  5
40A
102
{ACAD_REACTORS
330
409
102
}
330
409
100
AcDbXrecord
280
     1
290
     1
  0
XRECORD
  5
40C
102
{ACAD_REACTORS
330
40B
102
}
330
40B
100
AcDbXrecord
280
     1
290
     1
  0
XRECORD
  5
40E
102
{ACAD_REACTORS
330
40D
102
}
330
40D
100
AcDbXrecord
280
     1
290
     1
  0
XRECORD
  5
410
102
{ACAD_REACTORS
330
40F
102
}
330
40F
100
AcDbXrecord
280
     1
290
     1
  0
XRECORD
  5
412
102
{ACAD_REACTORS
330
411
102
}
330
411
100
AcDbXrecord
280
     1
290
     1
  0
XRECORD
  5
AB90
102
{ACAD_REACTORS
330
AB8F
102
}
330
AB8F
100
AcDbXrecord
280
     1
 70
     1
340
10D
340
3DF
 70
    -1
  0
SORTENTSTABLE
  5
4A4
102
{ACAD_REACTORS
330
4A3
102
}
330
4A3
100
AcDbSortentsTable
330
1F
331
930C
  5
946E
331
923E
  5
923E
331
9BF9
  5
9BFE
331
9C60
  5
9FEA
331
A00F
  5
A0A5
331
9314
  5
9476
331
92DD
  5
9445
331
9C01
  5
9C06
331
A017
  5
A0B0
331
931C
  5
947E
331
9213
  5
9213
331
9324
  5
948F
331
A027
  5
A0B6
331
A151
  5
A0C9
331
A8FC
  5
A901
331
A4FE
  5
A711
331
A2DF
  5
A2BB
331
A161
  5
A09A
331
A32F
  5
9CC0
331
A904
  5
A909
331
A90C
  5
A911
331
9C09
  5
9C0E
331
92ED
  5
944F
331
921F
  5
921F
331
9B1A
  5
9BF8
331
9C11
  5
9C1E
331
9334
  5
949A
331
92F5
  5
9457
331
9227
  5
9227
331
92BE
  5
92D4
331
9AAB
  5
929E
331
9FE8
  5
A03F
331
933C
  5
94A2
331
92FD
  5
945F
331
9C41
  5
9FDF
331
9BDA
  5
9AFF
331
9344
  5
94B4
331
9305
  5
9467
331
9237
  5
9237
331
92CE
  5
92DB
331
A268
  5
A428
331
A02B
  5
A0C0
331
A6AE
  5
A818
331
A270
  5
A427
331
A6B6
  5
A81C
331
A07B
  5
A0E6
331
A1E1
  5
A290
331
A0EA
  5
A23D
331
A427
  5
A6B7
331
A8F5
  5
A8FA
331
A008
  5
A04D
331
930D
  5
946F
331
923F
  5
923F
331
9C61
  5
9FEC
331
9BFA
  5
9BFF
331
935C
  5
94BE
331
9315
  5
9477
331
9C02
  5
9C07
331
931D
  5
947F
331
9214
  5
9214
331
A08B
  5
A168
331
A2D8
  5
A32D
331
A8FD
  5
A902
331
A162
  5
A09C
331
A330
  5
9CCB
331
A905
  5
A90A
331
A0B3
  5
A265
331
A90D
  5
A912
331
9C0A
  5
9C0F
331
92EE
  5
9450
331
9220
  5
9220
331
9FE1
  5
A02C
331
9B1B
  5
9BF9
331
9C12
  5
9C41
331
9335
  5
949B
331
92F6
  5
9458
331
92BF
  5
92D5
331
9FE9
  5
A042
331
9C1A
  5
9D1E
331
933D
  5
94A3
331
92FE
  5
9460
331
9230
  5
9230
331
9345
  5
94B5
331
9306
  5
9468
331
9C42
  5
9FE1
331
A338
  5
A6A4
331
A02C
  5
A0C1
331
A6AF
  5
A819
331
A6B7
  5
A839
331
A1AA
  5
A2B5
331
A0DB
  5
A26C
331
A07C
  5
A0E8
331
A428
  5
A6B8
331
A2B9
  5
A5F4
331
A0EB
  5
A242
331
A8F6
  5
A8FB
331
9238
  5
9238
331
930E
  5
9470
331
92D7
  5
92E0
331
9BFB
  5
9C00
331
935D
  5
94C3
331
9316
  5
9478
331
9260
  5
929D
331
9215
  5
9215
331
9C03
  5
9C08
331
931E
  5
9480
331
A21A
  5
A2BE
331
A08C
  5
A169
331
A153
  5
A0C6
331
A2D9
  5
A292
331
A8FE
  5
A903
331
A5C8
  5
A729
331
A906
  5
A90B
331
A242
  5
A2DA
331
A0B4
  5
A26A
331
A90E
  5
A913
331
9C0B
  5
9C10
331
932E
  5
9494
331
92EF
  5
9451
331
9336
  5
949C
331
92F7
  5
9459
331
92C0
  5
92DA
331
9FEA
  5
A043
331
933E
  5
94A4
331
92FF
  5
9461
331
9231
  5
9231
331
9BDC
  5
9B01
331
9307
  5
9469
331
A339
  5
A6AE
331
A26A
  5
A2BA
331
A16B
  5
A243
331
A6B8
  5
A882
331
A07D
  5
A0E9
331
A710
  5
A883
331
A2BA
  5
A5F5
331
A8F7
  5
A8FC
331
92D0
  5
92DD
331
934E
  5
94B6
331
930F
  5
9471
331
92D8
  5
92E3
331
9AE5
  5
9B1B
331
9BFC
  5
9C01
331
935E
  5
94C7
331
9317
  5
9479
331
92E0
  5
9446
331
9261
  5
92B5
331
9216
  5
9216
331
9C04
  5
9C09
331
931F
  5
9481
331
9DBB
  5
9FFA
331
A08D
  5
A16A
331
A21B
  5
A2D8
331
A2DA
  5
A2B6
331
A8FF
  5
A904
331
A09D
  5
A1A5
331
A907
  5
A90C
331
A243
  5
A268
331
A0A5
  5
A21C
331
92E8
  5
944B
331
9C0C
  5
9C11
331
9446
  5
9B00
331
932F
  5
9495
331
92F0
  5
9452
331
9FE3
  5
A02E
331
9AAE
  5
9B18
331
9337
  5
949D
331
92F8
  5
945A
331
922A
  5
922A
331
9FEB
  5
A045
331
9300
  5
9462
331
9232
  5
9232
331
A33A
  5
A6AF
331
A1A4
  5
A2B8
331
A711
  5
A884
331
A2BB
  5
A33A
331
A086
  5
A164
331
9308
  5
946A
331
92D1
  5
92DE
331
9BF5
  5
9BFA
331
934F
  5
94BC
331
9310
  5
9472
331
92D9
  5
92E4
331
920F
  5
920F
331
9BFD
  5
9C02
331
9318
  5
947A
331
92E1
  5
9447
331
9217
  5
9217
331
9C05
  5
9C0A
331
9CFC
  5
9FF8
331
9320
  5
948B
331
A8F8
  5
A8FD
331
A21C
  5
A2D9
331
A2DB
  5
A2BF
331
A900
  5
A905
331
A729
  5
A8F3
331
A09E
  5
A1A8
331
A15D
  5
A018
331
A908
  5
A90D
331
A910
  5
9263
331
A0B6
  5
A15E
331
92E9
  5
944C
331
9C0D
  5
9C12
331
9330
  5
9496
331
92F1
  5
9453
331
9223
  5
9223
331
9FE4
  5
A033
331
9AAF
  5
9B19
331
9338
  5
949E
331
92F9
  5
945B
331
9B5E
  5
92DC
331
9340
  5
94A5
331
9301
  5
9463
331
A26C
  5
A6A3
331
A16D
  5
A245
331
A839
  5
A8F7
331
A3B3
  5
A6B3
331
A2BC
  5
A339
331
A087
  5
A165
331
9309
  5
946B
331
923B
  5
923B
331
9BF6
  5
9BFB
331
9311
  5
9473
331
92DA
  5
92E8
331
9AE7
  5
9B32
331
9BFE
  5
9C03
331
A014
  5
A0AA
331
9210
  5
9210
331
9360
  5
9AE7
331
9319
  5
947B
331
9C06
  5
9C0B
331
9321
  5
948C
331
929B
  5
92C0
331
9AFF
  5
9B5A
331
A8F9
  5
A8FE
331
A901
  5
A906
331
A23D
  5
A2DE
331
A09F
  5
A1A9
331
A15E
  5
A019
331
A909
  5
A90E
331
A911
  5
9265
331
A265
  5
A3B3
331
A0B7
  5
A26B
331
92EA
  5
944D
331
92B3
  5
92C2
331
9C0E
  5
9C1A
331
9331
  5
9497
331
92F2
  5
9454
331
9FE5
  5
A03A
331
9339
  5
94A0
331
92FA
  5
945C
331
9341
  5
94AE
331
9302
  5
9464
331
A26D
  5
A42D
331
A16E
  5
A246
331
A6B3
  5
A81A
331
A3B4
  5
A6B5
331
A882
  5
A8F4
331
930A
  5
946C
331
923C
  5
923C
331
9BF7
  5
9BFC
331
A00D
  5
A099
331
9312
  5
9474
331
92DB
  5
9443
331
925C
  5
925C
331
9211
  5
9211
331
9AE8
  5
9B33
331
9BFF
  5
9C04
331
A015
  5
A0AB
331
931A
  5
947C
331
92E3
  5
9449
331
9264
  5
92B6
331
9C07
  5
9C0C
331
9322
  5
948D
331
929C
  5
92C1
331
A088
  5
A166
331
A098
  5
A16B
331
A8FA
  5
A8FF
331
A32D
  5
9C42
331
A0A0
  5
A1AC
331
A15F
  5
A022
331
A902
  5
A907
331
A5F4
  5
A816
331
A246
  5
A338
331
A90A
  5
A90F
331
A912
  5
9266
331
9B00
  5
9BBA
331
9441
  5
9AE8
331
92B4
  5
92D0
331
9B18
  5
9BF6
331
9C0F
  5
9C1C
331
9332
  5
9498
331
92F3
  5
9455
331
92FB
  5
945D
331
9342
  5
94AF
331
9303
  5
9465
331
9235
  5
9235
331
A0B8
  5
A163
331
A26E
  5
A4FE
331
A0C0
  5
A26E
331
A81B
  5
A0B3
331
A3B5
  5
A6B6
331
A0E8
  5
A23B
331
A2B6
  5
A2DB
331
A883
  5
A8F5
331
A8F3
  5
A8F8
331
A42D
  5
A710
331
A2BE
  5
A32E
331
930B
  5
946D
331
923D
  5
923D
331
9BF8
  5
9BFD
331
9C5F
  5
9FE8
331
9313
  5
9475
331
925D
  5
925D
331
9212
  5
9212
331
9C00
  5
9C05
331
A016
  5
A0AC
331
931B
  5
947D
331
92E4
  5
944A
331
9265
  5
92BF
331
9323
  5
948E
331
A089
  5
A167
331
A8FB
  5
A900
331
A099
  5
A1A3
331
A2DE
  5
A5C8
331
A903
  5
A908
331
A160
  5
A029
331
A32E
  5
9CB9
331
A90B
  5
A910
331
A5F5
  5
A817
331
A913
  5
9267
331
9B01
  5
9BF5
331
9C08
  5
9C0D
331
92EC
  5
944E
331
9FD7
  5
A02B
331
9B19
  5
9BF7
331
9C10
  5
9C1D
331
9333
  5
9499
331
92F4
  5
9456
331
92BD
  5
92D2
331
9B59
  5
925E
331
9C18
  5
9CBD
331
933B
  5
94A1
331
92FC
  5
945E
331
922E
  5
922E
331
9C40
  5
9FE6
331
9343
  5
94B3
331
9304
  5
9466
331
9236
  5
9236
331
A007
  5
A04A
331
A02A
  5
A0B8
331
A26F
  5
A3B5
331
A032
  5
A0C7
331
A6B5
  5
A81B
331
A1A8
  5
A2B4
331
A07A
  5
A0CF
331
A2B7
  5
A291
331
A884
  5
A8F6
331
A8F4
  5
A8F9
331
A2BF
  5
A3B4
  0
SORTENTSTABLE
  5
9AD1
102
{ACAD_REACTORS
330
6F6A
102
}
330
6F6A
100
AcDbSortentsTable
330
6F5E
  0
SORTENTSTABLE
  5
ABF0
102
{ACAD_REACTORS
330
ABEF
102
}
330
ABEF
100
AcDbSortentsTable
330
ABE4
  0
XRECORD
  5
AC97
102
{ACAD_REACTORS
330
AC96
102
}
330
AC96
100
AcDbXrecord
280
     1
 40
34960.0
  1
Warstwa wykończeniowa
  0
XRECORD
  5
AC99
102
{ACAD_REACTORS
330
AC98
102
}
330
AC98
100
AcDbXrecord
280
     1
 40
42625.0
  1
Płyty izolacyjne twarde
  0
XRECORD
  5
AB8D
102
{ACAD_REACTORS
330
AB8C
102
}
330
AB8C
100
AcDbXrecord
280
     1
 40
24757.0
  1
\pxqc;B\P(5 : 1)
  0
XRECORD
  5
AC9B
102
{ACAD_REACTORS
330
AC9A
102
}
330
AC9A
100
AcDbXrecord
280
     1
 40
28851.0
  1
Zagęszczony piasek
  0
XRECORD
  5
AC9D
102
{ACAD_REACTORS
330
AC9C
102
}
330
AC9C
100
AcDbXrecord
280
     1
 40
19422.0
  1
Folia kubełkowa
  0
XRECORD
  5
AC9F
102
{ACAD_REACTORS
330
AC9E
102
}
330
AC9E
100
AcDbXrecord
280
     1
 40
23045.0
  1
Profil zamykający
  0
XRECORD
  5
ACA1
102
{ACAD_REACTORS
330
ACA0
102
}
330
ACA0
100
AcDbXrecord
280
     1
 40
34286.0
  1
Tynk wewnętrzny SOLBET 
  0
XRECORD
  5
ACA3
102
{ACAD_REACTORS
330
ACA2
102
}
330
ACA2
100
AcDbXrecord
280
     1
 40
22651.0
  1
Emulsja izolująca
  0
XRECORD
  5
ACA5
102
{ACAD_REACTORS
330
ACA4
102
}
330
ACA4
100
AcDbXrecord
280
     1
 40
16059.0
  1
Tynk cokołowy
  0
XRECORD
  5
ACA7
102
{ACAD_REACTORS
330
ACA6
102
}
330
ACA6
100
AcDbXrecord
280
     1
 40
65690.0
  1
Puszka wentylacyjno-odwadniająca
  0
XRECORD
  5
ACA8
102
{ACAD_REACTORS
330
A23E
102
}
330
A23E
100
AcDbXrecord
280
     1
 40
39573.0
  1
Zetka z folii izolującej
  0
DICTIONARY
  5
A23F
102
{ACAD_REACTORS
330
A23E
102
}
330
A23E
100
AcDbDictionary
281
     1
  3
ACDB_ANNOTATIONSCALES
350
A240
  0
XRECORD
  5
ACAA
102
{ACAD_REACTORS
330
ACA9
102
}
330
ACA9
100
AcDbXrecord
280
     1
 40
76725.0
  1
Krążek dociskowy z kapinosem
  0
XRECORD
  5
AB92
102
{ACAD_REACTORS
330
AB91
102
}
330
AB91
100
AcDbXrecord
280
     1
 40
31569.0
  1
\pxql;Bloczki SOLBET Optimal 24cm
  0
XRECORD
  5
AB94
102
{ACAD_REACTORS
330
AB93
102
}
330
AB93
100
AcDbXrecord
280
     1
 40
12792.0
  1
\pxql;Wełna mineralna
  0
XRECORD
  5
ACAB
102
{ACAD_REACTORS
330
AB93
102
}
330
AB93
100
AcDbXrecord
280
     1
 40
21294.0
  1
Wełna mineralna
  0
XRECORD
  5
ACAD
102
{ACAD_REACTORS
330
ACAC
102
}
330
ACAC
100
AcDbXrecord
280
     1
 40
190037.0
  1
Mocowanie mechaniczne styropianu\P(w części naziemnej)
  0
XRECORD
  5
AB96
102
{ACAD_REACTORS
330
AB95
102
}
330
AB95
100
AcDbXrecord
280
     1
 40
24645.0
  1
\pxqc;A\P(3 : 1)
  0
XRECORD
  5
ACAE
102
{ACAD_REACTORS
330
A429
102
}
330
A429
100
AcDbXrecord
280
     1
 40
1213139.0
  1
{\LDETAL 7\P}Posadowienie na {\fISOCPEUR|b1|i0|c238|p34;ł}awie fundamentowej wariant ściany trójwarstwowej z dociepleniem z wełny mineralnej
  0
DICTIONARY
  5
A42A
102
{ACAD_REACTORS
330
A429
102
}
330
A429
100
AcDbDictionary
281
     1
  3
ACDB_ANNOTATIONSCALES
350
A42B
  0
XRECORD
  5
ACB0
102
{ACAD_REACTORS
330
ACAF
102
}
330
ACAF
100
AcDbXrecord
280
     1
 40
901167.0
  1
{\LUWAGA:\P}Systemy hydroizolacji stosować wg zaleceń producentów.\PStyropian wodoodporny wg zaleceń producentów.
  0
XRECORD
  5
AB98
102
{ACAD_REACTORS
330
AB97
102
}
330
AB97
100
AcDbXrecord
280
     1
 40
79699.0
  1
\pxql;Emulsja izolazyjna\Plub izolacja z folii
  0
XRECORD
  5
AB9A
102
{ACAD_REACTORS
330
AB99
102
}
330
AB99
100
AcDbXrecord
280
     1
 40
24748.0
  1
\pxqc;C\P(5 : 1)
  0
XRECORD
  5
AC46
102
{ACAD_REACTORS
330
AC45
102
}
330
AC45
100
AcDbXrecord
280
     1
 40
24748.0
  1
\pxqc;C\P(5 : 1)
  0
LAYOUT
  5
D3
102
{ACAD_XDICTIONARY
360
AC8B
102
}
102
{ACAD_REACTORS
330
1A
102
}
330
1A
100
AcDbPlotSettings
  1

  2
C:\Documents and Settings\basas\Application Data\Autodesk\AutoCAD 2005\R16.1\enu\plotters\Default Windows System Printer.pc3
  4

  6

 40
0.0
 41
0.0
 42
0.0
 43
0.0
 44
0.0
 45
0.0
 46
0.0
 47
0.0
 48
0.0
 49
0.0
140
0.0
141
0.0
142
1.0
143
1.0
 70
   688
 72
     0
 73
     0
 74
     5
  7

 75
    16
147
1.0
148
0.0
149
0.0
100
AcDbLayout
  1
Arkusz1
 70
     1
 71
     1
 10
0.0
 20
0.0
 11
12.0
 21
9.0
 12
0.0
 22
0.0
 32
0.0
 14
0.0
 24
0.0
 34
0.0
 15
0.0
 25
0.0
 35
0.0
146
0.0
 13
0.0
 23
0.0
 33
0.0
 16
1.0
 26
0.0
 36
0.0
 17
0.0
 27
1.0
 37
0.0
 76
     0
330
D2
  0
LAYOUT
  5
D7
102
{ACAD_XDICTIONARY
360
AC8D
102
}
102
{ACAD_REACTORS
330
1A
102
}
330
1A
100
AcDbPlotSettings
  1

  2
C:\Documents and Settings\basas\Application Data\Autodesk\AutoCAD 2005\R16.1\enu\plotters\Default Windows System Printer.pc3
  4

  6

 40
0.0
 41
0.0
 42
0.0
 43
0.0
 44
0.0
 45
0.0
 46
0.0
 47
0.0
 48
0.0
 49
0.0
140
0.0
141
0.0
142
1.0
143
1.0
 70
   688
 72
     0
 73
     0
 74
     5
  7

 75
    16
147
1.0
148
0.0
149
0.0
100
AcDbLayout
  1
Arkusz2
 70
     1
 71
     2
 10
0.0
 20
0.0
 11
12.0
 21
9.0
 12
0.0
 22
0.0
 32
0.0
 14
0.0
 24
0.0
 34
0.0
 15
0.0
 25
0.0
 35
0.0
146
0.0
 13
0.0
 23
0.0
 33
0.0
 16
1.0
 26
0.0
 36
0.0
 17
0.0
 27
1.0
 37
0.0
 76
     0
330
D6
  0
LAYOUT
  5
22
102
{ACAD_XDICTIONARY
360
AC88
102
}
102
{ACAD_REACTORS
330
1A
102
}
330
1A
100
AcDbPlotSettings
  1

  2
none_device
  4
Letter_(8.50_x_11.00_Inches)
  6

 40
6.349999904632568
 41
6.349999904632568
 42
6.350006103515625
 43
6.350006103515625
 44
215.8999938964844
 45
279.3999938964844
 46
11.54999923706054
 47
-13.65000009536743
 48
0.0
 49
0.0
140
210.0
141
297.0
142
1.0
143
1.0
 70
 11936
 72
     1
 73
     0
 74
     4
  7

 75
     0
147
0.9999999999999998
148
0.0
149
0.0
100
AcDbLayout
  1
Model
 70
     1
 71
     0
 10
0.0
 20
0.0
 11
12.0
 21
9.0
 12
0.0
 22
0.0
 32
0.0
 14
0.0
 24
0.0
 34
0.0
 15
0.0
 25
0.0
 35
0.0
146
0.0
 13
0.0
 23
0.0
 33
0.0
 16
1.0
 26
0.0
 36
0.0
 17
0.0
 27
1.0
 37
0.0
 76
     0
330
1F
331
EA
1001
ACAD_PSEXT
1000
Brak
1000
Brak
1000
Nie można zastosować.
1000
Arkusz nie zostanie wydrukowany dopóki nie wybrano konfiguracji plotera.
1070
     0
  0
MATERIAL
  5
ED
102
{ACAD_XDICTIONARY
360
AC91
102
}
102
{ACAD_REACTORS
330
6A
102
}
330
6A
100
AcDbMaterial
  1
ByBlock
 73
     2
 78
     2
172
     2
176
     2
270
     2
274
     2
  0
MATERIAL
  5
EC
102
{ACAD_XDICTIONARY
360
AC8F
102
}
102
{ACAD_REACTORS
330
6A
102
}
330
6A
100
AcDbMaterial
  1
ByLayer
 73
     2
 78
     2
172
     2
176
     2
270
     2
274
     2
  0
MATERIAL
  5
EE
102
{ACAD_XDICTIONARY
360
173
102
}
102
{ACAD_REACTORS
330
6A
102
}
330
6A
100
AcDbMaterial
  1
Global
 73
     2
 43
0.0007999999797903
 43
0.0
 43
0.0
 43
0.0
 43
0.0
 43
0.0007999999797903
 43
0.0
 43
0.0
 43
0.0
 43
0.0
 43
1.0
 43
0.0
 43
0.0
 43
0.0
 43
0.0
 43
1.0
 78
     2
172
     2
 49
0.0007999999797903
 49
0.0
 49
0.0
 49
0.0
 49
0.0
 49
0.0007999999797903
 49
0.0
 49
0.0
 49
0.0
 49
0.0
 49
1.0
 49
0.0
 49
0.0
 49
0.0
 49
0.0
 49
1.0
176
     2
142
0.0007999999797903
142
0.0
142
0.0
142
0.0
142
0.0
142
0.0007999999797903
142
0.0
142
0.0
142
0.0
142
0.0
142
1.0
142
0.0
142
0.0
142
0.0
142
0.0
142
1.0
270
     2
144
0.0007999999797903
144
0.0
144
0.0
144
0.0
144
0.0
144
0.0007999999797903
144
0.0
144
0.0
144
0.0
144
0.0
144
1.0
144
0.0
144
0.0
144
0.0
144
0.0
144
1.0
274
     2
1001
ACAD
1070
    -1
1070
     3
1070
     0
1000

1071
        0
1070
     0
  0
ACAD_PROXY_OBJECT
  5
12E
102
{ACAD_REACTORS
330
12D
102
}
330
12D
100
AcDbProxyObject
 90
      499
 91
      508
 95
       23
 70
     0
 93
      618
310
40901902A4063FBFFFFFE0000000000000020400000000000020404254DD185B99185C99000000000000000104090140501A0000000000000410000000000000004102576400000000000003903F
340
14
340
0
340
11
340
0
 94
        0
1001
ACAD_MLEADERVER
1070
     2
1001
ACAD
1000
AcRTDxfName
1000
MLEADERSTYLE
1000
AcRTDxfName
1000
MLEADERSTYLE
  0
MLINESTYLE
  5
7E9
102
{ACAD_REACTORS
330
17
102
}
330
17
100
AcDbMlineStyle
  2
SOLBET_IZOLACJA
 70
   272
  3

 62
   256
 51
90.0
 52
90.0
 71
     2
 49
0.008
 62
   256
  6
BYLAYER
 49
-0.008
 62
   256
  6
BYLAYER
  0
MLINESTYLE
  5
18
102
{ACAD_REACTORS
330
17
102
}
330
17
100
AcDbMlineStyle
  2
STANDARD
 70
     0
  3

 62
   256
 51
90.0
 52
90.0
 71
     2
 49
0.5
 62
   256
  6
BYLAYER
 49
-0.5
 62
   256
  6
BYLAYER
  0
PLOTSETTINGS
  5
4FA3
102
{ACAD_XDICTIONARY
360
AC94
102
}
102
{ACAD_REACTORS
330
19
102
}
330
19
100
AcDbPlotSettings
  1
Ustawienia1
  2
PDF995
  4
User66
  6

 40
3.174999952316284
 41
3.174999952316284
 42
3.17498779296875
 43
3.17498779296875
 44
420.0
 45
594.0
 46
11.54999923706054
 47
-13.65000009536743
 48
-316.0724066439061
 49
0.0
140
18.27936744818385
141
297.0
142
1.0
143
1.0
 70
 11936
 72
     1
 73
     0
 74
     4
  7

 75
     0
147
0.9999999999999998
148
316.0724066439061
149
0.0
1001
ACAD_PSEXT
1000
PDF995
1000
PDF995 Printer Driver
1000
PDF995PORT
1000

1070
     0
  0
ACDBPLACEHOLDER
  5
F
102
{ACAD_REACTORS
330
E
102
}
330
E
  0
ACAD_PROXY_OBJECT
  5
10D
102
{ACAD_REACTORS
330
10C
102
}
330
10C
100
AcDbProxyObject
 90
      499
 91
      507
 95
       23
 70
     0
 93
       49
310
904313A31005FF
 94
        0
1001
ACAD
1000
AcRTDxfName
1000
SCALE
1000
AcRTDxfName
1000
SCALE
  0
ACAD_PROXY_OBJECT
  5
188
102
{ACAD_REACTORS
330
10C
102
}
330
10C
100
AcDbProxyObject
 90
      499
 91
      507
 95
       23
 70
     0
 93
      113
310
904313A3200400000000000000407F
 94
        0
1001
ACAD
1000
AcRTDxfName
1000
SCALE
1000
AcRTDxfName
1000
SCALE
  0
ACAD_PROXY_OBJECT
  5
189
102
{ACAD_REACTORS
330
10C
102
}
330
10C
100
AcDbProxyObject
 90
      499
 91
      507
 95
       23
 70
     0
 93
      113
310
904313A3400400000000000010407F
 94
        0
1001
ACAD
1000
AcRTDxfName
1000
SCALE
1000
AcRTDxfName
1000
SCALE
  0
ACAD_PROXY_OBJECT
  5
18A
102
{ACAD_REACTORS
330
10C
102
}
330
10C
100
AcDbProxyObject
 90
      499
 91
      507
 95
       23
 70
     0
 93
      113
310
904313A3500400000000000014407F
 94
        0
1001
ACAD
1000
AcRTDxfName
1000
SCALE
1000
AcRTDxfName
1000
SCALE
  0
ACAD_PROXY_OBJECT
  5
18B
102
{ACAD_REACTORS
330
10C
102
}
330
10C
100
AcDbProxyObject
 90
      499
 91
      507
 95
       23
 70
     0
 93
      113
310
904313A3800400000000000020407F
 94
        0
1001
ACAD
1000
AcRTDxfName
1000
SCALE
1000
AcRTDxfName
1000
SCALE
  0
ACAD_PROXY_OBJECT
  5
18C
102
{ACAD_REACTORS
330
10C
102
}
330
10C
100
AcDbProxyObject
 90
      499
 91
      507
 95
       23
 70
     0
 93
      121
310
905313A313000400000000000024407F
 94
        0
1001
ACAD
1000
AcRTDxfName
1000
SCALE
1000
AcRTDxfName
1000
SCALE
  0
ACAD_PROXY_OBJECT
  5
18D
102
{ACAD_REACTORS
330
10C
102
}
330
10C
100
AcDbProxyObject
 90
      499
 91
      507
 95
       23
 70
     0
 93
      121
310
905313A313600400000000000030407F
 94
        0
1001
ACAD
1000
AcRTDxfName
1000
SCALE
1000
AcRTDxfName
1000
SCALE
  0
ACAD_PROXY_OBJECT
  5
18E
102
{ACAD_REACTORS
330
10C
102
}
330
10C
100
AcDbProxyObject
 90
      499
 91
      507
 95
       23
 70
     0
 93
      121
310
905313A323000400000000000034407F
 94
        0
1001
ACAD
1000
AcRTDxfName
1000
SCALE
1000
AcRTDxfName
1000
SCALE
  0
ACAD_PROXY_OBJECT
  5
18F
102
{ACAD_REACTORS
330
10C
102
}
330
10C
100
AcDbProxyObject
 90
      499
 91
      507
 95
       23
 70
     0
 93
      121
310
905313A33300040000000000003E407F
 94
        0
1001
ACAD
1000
AcRTDxfName
1000
SCALE
1000
AcRTDxfName
1000
SCALE
  0
ACAD_PROXY_OBJECT
  5
190
102
{ACAD_REACTORS
330
10C
102
}
330
10C
100
AcDbProxyObject
 90
      499
 91
      507
 95
       23
 70
     0
 93
      121
310
905313A343000400000000000044407F
 94
        0
1001
ACAD
1000
AcRTDxfName
1000
SCALE
1000
AcRTDxfName
1000
SCALE
  0
ACAD_PROXY_OBJECT
  5
191
102
{ACAD_REACTORS
330
10C
102
}
330
10C
100
AcDbProxyObject
 90
      499
 91
      507
 95
       23
 70
     0
 93
      121
310
905313A353000400000000000049407F
 94
        0
1001
ACAD
1000
AcRTDxfName
1000
SCALE
1000
AcRTDxfName
1000
SCALE
  0
ACAD_PROXY_OBJECT
  5
192
102
{ACAD_REACTORS
330
10C
102
}
330
10C
100
AcDbProxyObject
 90
      499
 91
      507
 95
       23
 70
     0
 93
      129
310
906313A31303000400000000000059407F
 94
        0
1001
ACAD
1000
AcRTDxfName
1000
SCALE
1000
AcRTDxfName
1000
SCALE
  0
ACAD_PROXY_OBJECT
  5
193
102
{ACAD_REACTORS
330
10C
102
}
330
10C
100
AcDbProxyObject
 90
      499
 91
      507
 95
       23
 70
     0
 93
      113
310
904323A3100000000000000001017F
 94
        0
1001
ACAD
1000
AcRTDxfName
1000
SCALE
1000
AcRTDxfName
1000
SCALE
  0
ACAD_PROXY_OBJECT
  5
194
102
{ACAD_REACTORS
330
10C
102
}
330
10C
100
AcDbProxyObject
 90
      499
 91
      507
 95
       23
 70
     0
 93
      113
310
904343A3100000000000000041017F
 94
        0
1001
ACAD
1000
AcRTDxfName
1000
SCALE
1000
AcRTDxfName
1000
SCALE
  0
ACAD_PROXY_OBJECT
  5
195
102
{ACAD_REACTORS
330
10C
102
}
330
10C
100
AcDbProxyObject
 90
      499
 91
      507
 95
       23
 70
     0
 93
      113
310
904383A3100000000000000081017F
 94
        0
1001
ACAD
1000
AcRTDxfName
1000
SCALE
1000
AcRTDxfName
1000
SCALE
  0
ACAD_PROXY_OBJECT
  5
196
102
{ACAD_REACTORS
330
10C
102
}
330
10C
100
AcDbProxyObject
 90
      499
 91
      507
 95
       23
 70
     0
 93
      121
310
90531303A3100000000000000091017F
 94
        0
1001
ACAD
1000
AcRTDxfName
1000
SCALE
1000
AcRTDxfName
1000
SCALE
  0
ACAD_PROXY_OBJECT
  5
197
102
{ACAD_REACTORS
330
10C
102
}
330
10C
100
AcDbProxyObject
 90
      499
 91
      507
 95
       23
 70
     0
 93
      129
310
9063130303A3100000000000000165017F
 94
        0
1001
ACAD
1000
AcRTDxfName
1000
SCALE
1000
AcRTDxfName
1000
SCALE
  0
ACAD_PROXY_OBJECT
  5
198
102
{ACAD_REACTORS
330
10C
102
}
330
10C
100
AcDbProxyObject
 90
      499
 91
      507
 95
       23
 70
     0
 93
      265
310
90F312F31323822203D2031272D302200000000000000200FC00000000000028407F
 94
        0
1001
ACAD
1000
AcRTDxfName
1000
SCALE
1000
AcRTDxfName
1000
SCALE
  0
ACAD_PROXY_OBJECT
  5
199
102
{ACAD_REACTORS
330
10C
102
}
330
10C
100
AcDbProxyObject
 90
      499
 91
      507
 95
       23
 70
     0
 93
      257
310
90E312F363422203D2031272D302200000000000000240FC00000000000028407F
 94
        0
1001
ACAD
1000
AcRTDxfName
1000
SCALE
1000
AcRTDxfName
1000
SCALE
  0
ACAD_PROXY_OBJECT
  5
19A
102
{ACAD_REACTORS
330
10C
102
}
330
10C
100
AcDbProxyObject
 90
      499
 91
      507
 95
       23
 70
     0
 93
      257
310
90E312F333222203D2031272D302200000000000000280FC00000000000028407F
 94
        0
1001
ACAD
1000
AcRTDxfName
1000
SCALE
1000
AcRTDxfName
1000
SCALE
  0
ACAD_PROXY_OBJECT
  5
19B
102
{ACAD_REACTORS
330
10C
102
}
330
10C
100
AcDbProxyObject
 90
      499
 91
      507
 95
       23
 70
     0
 93
      257
310
90E312F313622203D2031272D3022000000000000002C0FC00000000000028407F
 94
        0
1001
ACAD
1000
AcRTDxfName
1000
SCALE
1000
AcRTDxfName
1000
SCALE
  0
ACAD_PROXY_OBJECT
  5
19C
102
{ACAD_REACTORS
330
10C
102
}
330
10C
100
AcDbProxyObject
 90
      499
 91
      507
 95
       23
 70
     0
 93
      257
310
90E332F333222203D2031272D3022000000000000002E0FC00000000000028407F
 94
        0
1001
ACAD
1000
AcRTDxfName
1000
SCALE
1000
AcRTDxfName
1000
SCALE
  0
ACAD_PROXY_OBJECT
  5
19D
102
{ACAD_REACTORS
330
10C
102
}
330
10C
100
AcDbProxyObject
 90
      499
 91
      507
 95
       23
 70
     0
 93
      249
310
90D312F3822203D2031272D302200000000000000300FC00000000000028407F
 94
        0
1001
ACAD
1000
AcRTDxfName
1000
SCALE
1000
AcRTDxfName
1000
SCALE
  0
ACAD_PROXY_OBJECT
  5
19E
102
{ACAD_REACTORS
330
10C
102
}
330
10C
100
AcDbProxyObject
 90
      499
 91
      507
 95
       23
 70
     0
 93
      257
310
90E332F313622203D2031272D302200000000000000320FC00000000000028407F
 94
        0
1001
ACAD
1000
AcRTDxfName
1000
SCALE
1000
AcRTDxfName
1000
SCALE
  0
ACAD_PROXY_OBJECT
  5
19F
102
{ACAD_REACTORS
330
10C
102
}
330
10C
100
AcDbProxyObject
 90
      499
 91
      507
 95
       23
 70
     0
 93
      249
310
90D312F3422203D2031272D302200000000000000340FC00000000000028407F
 94
        0
1001
ACAD
1000
AcRTDxfName
1000
SCALE
1000
AcRTDxfName
1000
SCALE
  0
ACAD_PROXY_OBJECT
  5
1A0
102
{ACAD_REACTORS
330
10C
102
}
330
10C
100
AcDbProxyObject
 90
      499
 91
      507
 95
       23
 70
     0
 93
      249
310
90D332F3822203D2031272D302200000000000000360FC00000000000028407F
 94
        0
1001
ACAD
1000
AcRTDxfName
1000
SCALE
1000
AcRTDxfName
1000
SCALE
  0
ACAD_PROXY_OBJECT
  5
1A1
102
{ACAD_REACTORS
330
10C
102
}
330
10C
100
AcDbProxyObject
 90
      499
 91
      507
 95
       23
 70
     0
 93
      249
310
90D312F3222203D2031272D302200000000000000380FC00000000000028407F
 94
        0
1001
ACAD
1000
AcRTDxfName
1000
SCALE
1000
AcRTDxfName
1000
SCALE
  0
ACAD_PROXY_OBJECT
  5
1A2
102
{ACAD_REACTORS
330
10C
102
}
330
10C
100
AcDbProxyObject
 90
      499
 91
      507
 95
       23
 70
     0
 93
      249
310
90D332F3422203D2031272D3022000000000000003A0FC00000000000028407F
 94
        0
1001
ACAD
1000
AcRTDxfName
1000
SCALE
1000
AcRTDxfName
1000
SCALE
  0
ACAD_PROXY_OBJECT
  5
1A3
102
{ACAD_REACTORS
330
10C
102
}
330
10C
100
AcDbProxyObject
 90
      499
 91
      507
 95
       23
 70
     0
 93
      169
310
90B3122203D2031272D302200400000000000028407F
 94
        0
1001
ACAD
1000
AcRTDxfName
1000
SCALE
1000
AcRTDxfName
1000
SCALE
  0
ACAD_PROXY_OBJECT
  5
1A4
102
{ACAD_REACTORS
330
10C
102
}
330
10C
100
AcDbProxyObject
 90
      499
 91
      507
 95
       23
 70
     0
 93
      265
310
90F312D312F3222203D2031272D3022000000000000003E0FC00000000000028407F
 94
        0
1001
ACAD
1000
AcRTDxfName
1000
SCALE
1000
AcRTDxfName
1000
SCALE
  0
ACAD_PROXY_OBJECT
  5
1A5
102
{ACAD_REACTORS
330
10C
102
}
330
10C
100
AcDbProxyObject
 90
      499
 91
      507
 95
       23
 70
     0
 93
      233
310
90B3322203D2031272D3022000000000000000210000000000000028407F
 94
        0
1001
ACAD
1000
AcRTDxfName
1000
SCALE
1000
AcRTDxfName
1000
SCALE
  0
ACAD_PROXY_OBJECT
  5
1A6
102
{ACAD_REACTORS
330
10C
102
}
330
10C
100
AcDbProxyObject
 90
      499
 91
      507
 95
       23
 70
     0
 93
      233
310
90B3622203D2031272D3022000000000000000610000000000000028407F
 94
        0
1001
ACAD
1000
AcRTDxfName
1000
SCALE
1000
AcRTDxfName
1000
SCALE
  0
ACAD_PROXY_OBJECT
  5
1A7
102
{ACAD_REACTORS
330
10C
102
}
330
10C
100
AcDbProxyObject
 90
      499
 91
      507
 95
       23
 70
     0
 93
      257
310
90E31272D3022203D2031272D3022000000000000000A10000000000000028407F
 94
        0
1001
ACAD
1000
AcRTDxfName
1000
SCALE
1000
AcRTDxfName
1000
SCALE
  0
TABLESTYLE
  5
7F
102
{ACAD_XDICTIONARY
360
162
102
}
102
{ACAD_REACTORS
330
7E
102
}
330
7E
100
AcDbTableStyle
  3
Standard
 70
     0
 71
     0
 40
1.5
 41
1.5
280
     0
281
     0
  7
Standard
140
4.5
170
     2
 62
     0
 63
     7
283
     0
274
    -2
284
     1
 64
     0
275
    -2
285
     1
 65
     0
276
    -2
286
     1
 66
     0
277
    -2
287
     1
 67
     0
278
    -2
288
     1
 68
     0
279
    -2
289
     1
 69
     0
  7
Standard
140
6.0
170
     5
 62
     0
 63
     7
283
     0
274
    -2
284
     1
 64
     0
275
    -2
285
     1
 65
     0
276
    -2
286
     1
 66
     0
277
    -2
287
     1
 67
     0
278
    -2
288
     1
 68
     0
279
    -2
289
     1
 69
     0
  7
Standard
140
4.5
170
     5
 62
     0
 63
     7
283
     0
274
    -2
284
     1
 64
     0
275
    -2
285
     1
 65
     0
276
    -2
286
     1
 66
     0
277
    -2
287
     1
 67
     0
278
    -2
288
     1
 68
     0
279
    -2
289
     1
 69
     0
  0
VISUALSTYLE
  5
F5
102
{ACAD_REACTORS
330
EF
102
}
330
EF
100
AcDbVisualStyle
  2
2dWireframe
 70
     4
 71
     0
 72
     2
 73
     1
 90
        0
 40
-0.6
 41
-30.0
 62
     5
 63
     7
 74
     1
 91
        4
 64
     7
 65
   257
 75
     1
175
     1
 42
1.0
 92
        0
 66
   257
 43
1.0
 76
     1
 77
     6
 78
     2
 67
     7
 79
     5
170
     0
171
     0
290
     0
174
     0
 93
        1
 44
0.0
173
     0
291
     0
 45
0.0
1001
ACAD
1000
AcDbSavedByObjectVersion
1070
     0
  0
VISUALSTYLE
  5
F7
102
{ACAD_REACTORS
330
EF
102
}
330
EF
100
AcDbVisualStyle
  2
3D Hidden
 70
     6
 71
     1
 72
     2
 73
     2
 90
        0
 40
-0.6
 41
-30.0
 62
     5
 63
     7
 74
     2
 91
        2
 64
     7
 65
   257
 75
     2
175
     1
 42
40.0
 92
        0
 66
   257
 43
1.0
 76
     1
 77
     6
 78
     2
 67
     7
 79
     3
170
     0
171
     0
290
     0
174
     0
 93
        1
 44
0.0
173
     0
291
     0
 45
0.0
1001
ACAD
1000
AcDbSavedByObjectVersion
1070
     0
  0
VISUALSTYLE
  5
F6
102
{ACAD_REACTORS
330
EF
102
}
330
EF
100
AcDbVisualStyle
  2
3dWireframe
 70
     5
 71
     0
 72
     2
 73
     1
 90
        0
 40
-0.6
 41
-30.0
 62
     5
 63
     7
 74
     1
 91
        4
 64
     7
 65
   257
 75
     1
175
     1
 42
1.0
 92
        0
 66
   257
 43
1.0
 76
     1
 77
     6
 78
     2
 67
     7
 79
     5
170
     0
171
     0
290
     0
174
     0
 93
        1
 44
0.0
173
     0
291
     0
 45
0.0
1001
ACAD
1000
AcDbSavedByObjectVersion
1070
     0
  0
VISUALSTYLE
  5
F4
102
{ACAD_REACTORS
330
EF
102
}
330
EF
100
AcDbVisualStyle
  2
Basic
 70
     7
 71
     1
 72
     0
 73
     1
 90
        0
 40
-0.6
 41
-30.0
 62
     5
 63
     7
 74
     0
 91
        4
 64
     7
 65
   257
 75
     1
175
     1
 42
1.0
 92
        8
 66
     7
 43
1.0
 76
     1
 77
     6
 78
     2
 67
     7
 79
     5
170
     0
171
     0
290
     0
174
     0
 93
        1
 44
0.0
173
     0
291
     1
 45
0.0
1001
ACAD
1000
AcDbSavedByObjectVersion
1070
     0
  0
VISUALSTYLE
  5
FB
102
{ACAD_REACTORS
330
EF
102
}
330
EF
100
AcDbVisualStyle
  2
Brighten
 70
    12
 71
     2
 72
     2
 73
     1
 90
        0
 40
-0.6
 41
-30.0
 62
     5
 63
     7
 74
     1
 91
        4
 64
     7
 65
   257
 75
     1
175
     1
 42
1.0
 92
        8
 66
     7
 43
1.0
 76
     1
 77
     6
 78
     2
 67
     7
 79
     5
170
     0
171
     0
290
     0
174
     0
 93
        1
 44
50.0
173
     0
291
     1
 45
0.0
1001
ACAD
1000
AcDbSavedByObjectVersion
1070
     0
  0
VISUALSTYLE
  5
FF
102
{ACAD_REACTORS
330
EF
102
}
330
EF
100
AcDbVisualStyle
  2
ColorChange
 70
    16
 71
     2
 72
     2
 73
     3
 90
        0
 40
-0.6
 41
-30.0
 62
     5
 63
     8
 74
     1
 91
        4
 64
     7
 65
   257
 75
     1
175
     1
 42
1.0
 92
        8
 66
     8
 43
1.0
 76
     1
 77
     6
 78
     2
 67
     7
 79
     5
170
     0
171
     0
290
     0
174
     0
 93
        1
 44
0.0
173
     0
291
     1
 45
0.0
1001
ACAD
1000
AcDbSavedByObjectVersion
1070
     0
  0
VISUALSTYLE
  5
F8
102
{ACAD_REACTORS
330
EF
102
}
330
EF
100
AcDbVisualStyle
  2
Conceptual
 70
     9
 71
     3
 72
     2
 73
     1
 90
        0
 40
-0.6
 41
-30.0
 62
     5
 63
     7
 74
     2
 91
        2
 64
     7
 65
   257
 75
     1
175
     1
 42
40.0
 92
        8
 66
     7
 43
1.0
 76
     1
 77
     6
 78
     2
 67
     7
 79
     3
170
     0
171
     0
290
     0
174
     0
 93
        1
 44
0.0
173
     0
291
     0
 45
0.0
1001
ACAD
1000
AcDbSavedByObjectVersion
1070
     0
  0
VISUALSTYLE
  5
FA
102
{ACAD_REACTORS
330
EF
102
}
330
EF
100
AcDbVisualStyle
  2
Dim
 70
    11
 71
     2
 72
     2
 73
     1
 90
        0
 40
-0.6
 41
-30.0
 62
     5
 63
     7
 74
     1
 91
        4
 64
     7
 65
   257
 75
     1
175
     1
 42
1.0
 92
        8
 66
     7
 43
1.0
 76
     1
 77
     6
 78
     2
 67
     7
 79
     5
170
     0
171
     0
290
     0
174
     0
 93
        1
 44
-50.0
173
     0
291
     1
 45
0.0
1001
ACAD
1000
AcDbSavedByObjectVersion
1070
     0
  0
VISUALSTYLE
  5
FE
102
{ACAD_REACTORS
330
EF
102
}
330
EF
100
AcDbVisualStyle
  2
Facepattern
 70
    15
 71
     2
 72
     2
 73
     1
 90
        0
 40
-0.6
 41
-30.0
 62
     5
 63
     7
 74
     1
 91
        4
 64
     7
 65
   257
 75
     1
175
     1
 42
1.0
 92
        8
 66
     7
 43
1.0
 76
     1
 77
     6
 78
     2
 67
     7
 79
     5
170
     0
171
     0
290
     0
174
     0
 93
        1
 44
0.0
173
     0
291
     1
 45
0.0
1001
ACAD
1000
AcDbSavedByObjectVersion
1070
     0
  0
VISUALSTYLE
  5
F0
102
{ACAD_REACTORS
330
EF
102
}
330
EF
100
AcDbVisualStyle
  2
Flat
 70
     0
 71
     2
 72
     1
 73
     1
 90
        2
 40
-0.6
 41
30.0
 62
     5
 63
     7
 74
     0
 91
        4
 64
     7
 65
   257
 75
     1
175
     1
 42
1.0
 92
        8
 66
     7
 43
1.0
 76
     1
 77
     6
 78
     2
 67
     7
 79
     5
170
     0
171
     0
290
     0
174
     0
 93
        1
 44
0.0
173
     0
291
     1
 45
0.0
1001
ACAD
1000
AcDbSavedByObjectVersion
1070
     0
  0
VISUALSTYLE
  5
F1
102
{ACAD_REACTORS
330
EF
102
}
330
EF
100
AcDbVisualStyle
  2
FlatWithEdges
 70
     1
 71
     2
 72
     1
 73
     1
 90
        2
 40
-0.6
 41
30.0
 62
     5
 63
     7
 74
     1
 91
        4
 64
     7
 65
   257
 75
     1
175
     1
 42
1.0
 92
        0
 66
   257
 43
1.0
 76
     1
 77
     6
 78
     2
 67
     7
 79
     5
170
     0
171
     0
290
     0
174
     0
 93
        1
 44
0.0
173
     0
291
     1
 45
0.0
1001
ACAD
1000
AcDbSavedByObjectVersion
1070
     0
  0
VISUALSTYLE
  5
F2
102
{ACAD_REACTORS
330
EF
102
}
330
EF
100
AcDbVisualStyle
  2
Gouraud
 70
     2
 71
     2
 72
     2
 73
     1
 90
        2
 40
-0.6
 41
30.0
 62
     5
 63
     7
 74
     0
 91
        4
 64
     7
 65
   257
 75
     1
175
     1
 42
1.0
 92
        0
 66
     7
 43
1.0
 76
     1
 77
     6
 78
     2
 67
     7
 79
     5
170
     0
171
     0
290
     0
174
     0
 93
        1
 44
0.0
173
     0
291
     1
 45
0.0
1001
ACAD
1000
AcDbSavedByObjectVersion
1070
     0
  0
VISUALSTYLE
  5
F3
102
{ACAD_REACTORS
330
EF
102
}
330
EF
100
AcDbVisualStyle
  2
GouraudWithEdges
 70
     3
 71
     2
 72
     2
 73
     1
 90
        2
 40
-0.6
 41
30.0
 62
     5
 63
     7
 74
     1
 91
        4
 64
     7
 65
   257
 75
     1
175
     1
 42
1.0
 92
        0
 66
   257
 43
1.0
 76
     1
 77
     6
 78
     2
 67
     7
 79
     5
170
     0
171
     0
290
     0
174
     0
 93
        1
 44
0.0
173
     0
291
     1
 45
0.0
1001
ACAD
1000
AcDbSavedByObjectVersion
1070
     0
  0
VISUALSTYLE
  5
FD
102
{ACAD_REACTORS
330
EF
102
}
330
EF
100
AcDbVisualStyle
  2
Linepattern
 70
    14
 71
     2
 72
     2
 73
     1
 90
        0
 40
-0.6
 41
-30.0
 62
     5
 63
     7
 74
     1
 91
        4
 64
     7
 65
   257
 75
     7
175
     7
 42
1.0
 92
        8
 66
     7
 43
1.0
 76
     1
 77
     6
 78
     2
 67
     7
 79
     5
170
     0
171
     0
290
     0
174
     0
 93
        1
 44
0.0
173
     0
291
     1
 45
0.0
1001
ACAD
1000
AcDbSavedByObjectVersion
1070
     0
  0
VISUALSTYLE
  5
F9
102
{ACAD_REACTORS
330
EF
102
}
330
EF
100
AcDbVisualStyle
  2
Realistic
 70
     8
 71
     2
 72
     2
 73
     1
 90
        0
 40
-0.6
 41
-30.0
 62
     5
 63
     7
 74
     1
 91
        0
 64
     7
 65
   257
 75
     1
175
     1
 42
1.0
 92
        8
 66
     8
 43
1.0
 76
     1
 77
     6
 78
     2
 67
     7
 79
     5
170
     0
171
     0
290
     0
174
     0
 93
       13
 44
0.0
173
     0
291
     0
 45
0.0
1001
ACAD
1000
AcDbSavedByObjectVersion
1070
     0
  0
VISUALSTYLE
  5
FC
102
{ACAD_REACTORS
330
EF
102
}
330
EF
100
AcDbVisualStyle
  2
Thicken
 70
    13
 71
     2
 72
     2
 73
     1
 90
        0
 40
-0.6
 41
-30.0
 62
     5
 63
     7
 74
     1
 91
        4
 64
     7
 65
   257
 75
     1
175
     1
 42
1.0
 92
       12
 66
     7
 43
1.0
 76
     1
 77
     6
 78
     2
 67
     7
 79
     5
170
     0
171
     0
290
     0
174
     0
 93
        1
 44
0.0
173
     0
291
     1
 45
0.0
1001
ACAD
1000
AcDbSavedByObjectVersion
1070
     0
  0
DICTIONARYVAR
  5
146
102
{ACAD_REACTORS
330
5E
102
}
330
5E
100
DictionaryVariables
280
     0
  1
1:1
  0
DICTIONARYVAR
  5
145
102
{ACAD_REACTORS
330
5E
102
}
330
5E
100
DictionaryVariables
280
     0
  1
STANDARD
  0
DICTIONARYVAR
  5
84
102
{ACAD_REACTORS
330
5E
102
}
330
5E
100
DictionaryVariables
280
     0
  1
STANDARD
  0
DICTIONARYVAR
  5
5F
102
{ACAD_REACTORS
330
5E
102
}
330
5E
100
DictionaryVariables
280
     0
  1
2
  0
DICTIONARYVAR
  5
63
102
{ACAD_REACTORS
330
5E
102
}
330
5E
100
DictionaryVariables
280
     0
  1
1
  0
DICTIONARYVAR
  5
466
102
{ACAD_REACTORS
330
5E
102
}
330
5E
100
DictionaryVariables
280
     0
  1
0
  0
DICTIONARYVAR
  5
464
102
{ACAD_REACTORS
330
5E
102
}
330
5E
100
DictionaryVariables
280
     0
  1
2
  0
DICTIONARYVAR
  5
463
102
{ACAD_REACTORS
330
5E
102
}
330
5E
100
DictionaryVariables
280
     0
  1
1
  0
DICTIONARYVAR
  5
AC86
102
{ACAD_REACTORS
330
5E
102
}
330
5E
100
DictionaryVariables
280
     0
  1
80.000000
  0
DICTIONARYVAR
  5
AC85
102
{ACAD_REACTORS
330
5E
102
}
330
5E
100
DictionaryVariables
280
     0
  1
5.000000
  0
DICTIONARYVAR
  5
465
102
{ACAD_REACTORS
330
5E
102
}
330
5E
100
DictionaryVariables
280
     0
  1
127
  0
DICTIONARY
  5
A240
102
{ACAD_REACTORS
330
A23F
102
}
330
A23F
100
AcDbDictionary
281
     1
  0
DICTIONARY
  5
A42B
102
{ACAD_REACTORS
330
A42A
102
}
330
A42A
100
AcDbDictionary
281
     1
  0
DICTIONARY
  5
AC8B
330
D3
100
AcDbDictionary
280
     1
281
     1
  3
ACAD_XREC_ROUNDTRIP
360
AC8C
  0
DICTIONARY
  5
AC8D
330
D7
100
AcDbDictionary
280
     1
281
     1
  3
ACAD_XREC_ROUNDTRIP
360
AC8E
  0
DICTIONARY
  5
AC88
330
22
100
AcDbDictionary
280
     1
281
     1
  3
ACAD_XREC_ROUNDTRIP
360
AC89
  0
DICTIONARY
  5
AC91
330
ED
100
AcDbDictionary
280
     1
281
     1
  3
ACAD_XREC_ROUNDTRIP
360
AC92
  0
DICTIONARY
  5
AC8F
330
EC
100
AcDbDictionary
280
     1
281
     1
  3
ACAD_XREC_ROUNDTRIP
360
AC90
  0
DICTIONARY
  5
173
330
EE
100
AcDbDictionary
280
     1
281
     1
  3
ACAD_XREC_ROUNDTRIP
360
AC93
  3
BUMPTILE
360
175
  3
DIFFUSETILE
360
174
  3
OPACITYTILE
360
176
  3
REFLECTIONTILE
360
177
  0
DICTIONARY
  5
AC94
330
4FA3
100
AcDbDictionary
280
     1
281
     1
  3
ACAD_XREC_ROUNDTRIP
360
AC95
  0
DICTIONARY
  5
162
330
7F
100
AcDbDictionary
280
     1
281
     1
  3
ACAD_ROUNDTRIP_2008_TABLESTYLE_CELLSTYLEMAP
360
AB8B
  3
ACAD_XREC_ROUNDTRIP
360
AC8A
  0
XRECORD
  5
AC8C
102
{ACAD_REACTORS
330
AC8B
102
}
330
AC8B
100
AcDbXrecord
280
     1
102
SHADEPLOT
 70
     0
102
SHADEPLOTRESLEVEL
 70
     2
102
SHADEPLOTCUSTOMDPI
 70
   300
  0
XRECORD
  5
AC8E
102
{ACAD_REACTORS
330
AC8D
102
}
330
AC8D
100
AcDbXrecord
280
     1
102
SHADEPLOT
 70
     0
102
SHADEPLOTRESLEVEL
 70
     2
102
SHADEPLOTCUSTOMDPI
 70
   300
  0
XRECORD
  5
AC89
102
{ACAD_REACTORS
330
AC88
102
}
330
AC88
100
AcDbXrecord
280
     1
102
SHADEPLOT
 70
     0
102
SHADEPLOTRESLEVEL
 70
     2
102
SHADEPLOTCUSTOMDPI
 70
   300
  0
XRECORD
  5
AC92
102
{ACAD_REACTORS
330
AC91
102
}
330
AC91
100
AcDbXrecord
280
     1
102
MATERIAL
148
0.0
149
0.0
149
0.0
 93
        0
 94
       63
282
     0
 72
     1
 77
     1
171
     1
175
     1
179
     1
273
     0
  0
XRECORD
  5
AC90
102
{ACAD_REACTORS
330
AC8F
102
}
330
AC8F
100
AcDbXrecord
280
     1
102
MATERIAL
148
0.0
149
0.0
149
0.0
 93
        0
 94
       63
282
     0
 72
     1
 77
     1
171
     1
175
     1
179
     1
273
     0
  0
XRECORD
  5
AC93
102
{ACAD_REACTORS
330
173
102
}
330
173
100
AcDbXrecord
280
     1
102
MATERIAL
148
0.0
149
0.0
149
0.0
 93
        0
 94
       63
282
     0
 72
     1
 77
     1
171
     1
175
     1
179
     1
273
     0
  0
XRECORD
  5
175
102
{ACAD_REACTORS
330
173
102
}
330
173
100
AcDbXrecord
280
     1
270
     1
271
     1
  0
XRECORD
  5
174
102
{ACAD_REACTORS
330
173
102
}
330
173
100
AcDbXrecord
280
     1
270
     1
271
     1
  0
XRECORD
  5
176
102
{ACAD_REACTORS
330
173
102
}
330
173
100
AcDbXrecord
280
     1
270
     1
271
     1
  0
XRECORD
  5
177
102
{ACAD_REACTORS
330
173
102
}
330
173
100
AcDbXrecord
280
     1
270
     1
271
     1
  0
XRECORD
  5
AC95
102
{ACAD_REACTORS
330
AC94
102
}
330
AC94
100
AcDbXrecord
280
     1
102
SHADEPLOT
 70
     0
102
SHADEPLOTRESLEVEL
 70
     2
102
SHADEPLOTCUSTOMDPI
 70
   300
  0
ACAD_PROXY_OBJECT
  5
AB8B
102
{ACAD_REACTORS
330
162
102
}
330
162
100
AcDbProxyObject
 90
      499
 91
      509
 95
       23
 70
     0
 93
     5304
310
40D054060020000020000003200101A000080002A5058000000C10000000000000006101010000000000003E0FC000000000000F83F0000000000003E0FC000000000000F83F02B5E8DC0F42B1CFC0AD7A3703D0AC73F419019018000000C1003FBFFFFFE0000000000003C8FD029018000000C1003FBFFFFFE00000000000
310
03C8FD049018000000C1003FBFFFFFE0000000000003C8FD089018000000C1003FBFFFFFE0000000000003C8FD109018000000C1003FBFFFFFE0000000000003C8FD209018000000C1003FBFFFFFE0000000000003C8FD01405075F5449544C450041501A8000000C800406800020000A94160000003040000000000000012
310
40404000000000000F83F0000000000003E0FC000000000000F83F0000000000003E0FC0AD7A3703D0AC73F02B5E8DC0F42B1CFD0640640600000030400FEFFFFFF8000000000000F23F40A40600000030400FEFFFFFF8000000000000F23F41240600000030400FEFFFFFF8000000000000F23F42240600000030400FEFFF
310
FFF8000000000000F23F44240600000030400FEFFFFFF8000000000000F23F48240600000030400FEFFFFFF8000000000000F23F409014217D2115051115480105406A0000003200101A000080002A5028000000C10000000000000004901010000000000003E0FC000000000000F83F0000000000003E0FC000000000000F
310
83F02B5E8DC0F42B1CFC0AD7A3703D0AC73F419019018000000C1003FBFFFFFE0000000000003C8FD029018000000C1003FBFFFFFE0000000000003C8FD049018000000C1003FBFFFFFE0000000000003C8FD089018000000C1003FBFFFFFE0000000000003C8FD109018000000C1003FBFFFFFE0000000000003C8FD20901
310
8000000C1003FBFFFFFE0000000000003C8FD03409065F444154410000
340
11
340
14
340
14
340
14
340
14
340
14
340
14
340
11
340
14
340
14
340
14
340
14
340
14
340
14
340
11
340
14
340
14
340
14
340
14
340
14
340
14
 94
        0
1001
ACAD
1000
AcRTDxfName
1000
CELLSTYLEMAP
1000
AcRTDxfName
1000
CELLSTYLEMAP
  0
XRECORD
  5
AC8A
102
{ACAD_REACTORS
330
162
102
}
330
162
100
AcDbXrecord
280
     1
102
ACAD_ROUNDTRIP_PRE2007_TABLESTYLE
 90
      512
 91
        0
  1

 92
      512
 93
        0
  2

 94
      512
 95
        0
  3

  0
ENDSEC
  0
EOF
