  0
SECTION
  2
HEADER
  9
$ACADVER
  1
AC1015
  9
$ACADMAINTVER
 70
    20
  9
$DWGCODEPAGE
  3
ANSI_1250
  9
$INSBASE
 10
0.0
 20
0.0
 30
0.0
  9
$EXTMIN
 10
0.0
 20
0.0
 30
0.0
  9
$EXTMAX
 10
334.3517740920897
 20
297.0
 30
0.0
  9
$LIMMIN
 10
0.0
 20
0.0
  9
$LIMMAX
 10
334.3517740920897
 20
297.0
  9
$ORTHOMODE
 70
     0
  9
$REGENMODE
 70
     1
  9
$FILLMODE
 70
     1
  9
$QTEXTMODE
 70
     0
  9
$MIRRTEXT
 70
     0
  9
$LTSCALE
 40
1.0
  9
$ATTMODE
 70
     2
  9
$TEXTSIZE
 40
2.5
  9
$TRACEWID
 40
1.0
  9
$TEXTSTYLE
  7
Standard
  9
$CLAYER
  8
SOLBET_Wymiary_Opisy
  9
$CELTYPE
  6
ByLayer
  9
$CECOLOR
 62
   256
  9
$CELTSCALE
 40
1.0
  9
$DISPSILH
 70
     0
  9
$DIMSCALE
 40
1.0
  9
$DIMASZ
 40
2.5
  9
$DIMEXO
 40
0.0
  9
$DIMDLI
 40
3.75
  9
$DIMRND
 40
0.0
  9
$DIMDLE
 40
0.0
  9
$DIMEXE
 40
1.25
  9
$DIMTP
 40
0.0
  9
$DIMTM
 40
0.0
  9
$DIMTXT
 40
2.5
  9
$DIMCEN
 40
2.5
  9
$DIMTSZ
 40
0.0
  9
$DIMTOL
 70
     0
  9
$DIMLIM
 70
     0
  9
$DIMTIH
 70
     0
  9
$DIMTOH
 70
     0
  9
$DIMSE1
 70
     0
  9
$DIMSE2
 70
     0
  9
$DIMTAD
 70
     1
  9
$DIMZIN
 70
     8
  9
$DIMBLK
  1

  9
$DIMASO
 70
     1
  9
$DIMSHO
 70
     1
  9
$DIMPOST
  1

  9
$DIMAPOST
  1

  9
$DIMALT
 70
     0
  9
$DIMALTD
 70
     3
  9
$DIMALTF
 40
0.03937007874016
  9
$DIMLFAC
 40
1.0
  9
$DIMTOFL
 70
     1
  9
$DIMTVP
 40
0.0
  9
$DIMTIX
 70
     0
  9
$DIMSOXD
 70
     0
  9
$DIMSAH
 70
     0
  9
$DIMBLK1
  1

  9
$DIMBLK2
  1

  9
$DIMSTYLE
  2
Solbet
  9
$DIMCLRD
 70
     0
  9
$DIMCLRE
 70
     0
  9
$DIMCLRT
 70
     0
  9
$DIMTFAC
 40
1.0
  9
$DIMGAP
 40
0.625
  9
$DIMJUST
 70
     0
  9
$DIMSD1
 70
     0
  9
$DIMSD2
 70
     0
  9
$DIMTOLJ
 70
     0
  9
$DIMTZIN
 70
     8
  9
$DIMALTZ
 70
     0
  9
$DIMALTTZ
 70
     0
  9
$DIMUPT
 70
     0
  9
$DIMDEC
 70
     2
  9
$DIMTDEC
 70
     2
  9
$DIMALTU
 70
     2
  9
$DIMALTTD
 70
     3
  9
$DIMTXSTY
  7
Solbet_2_5
  9
$DIMAUNIT
 70
     0
  9
$DIMADEC
 70
     0
  9
$DIMALTRND
 40
0.0
  9
$DIMAZIN
 70
     0
  9
$DIMDSEP
 70
    44
  9
$DIMATFIT
 70
     3
  9
$DIMFRAC
 70
     0
  9
$DIMLDRBLK
  1

  9
$DIMLUNIT
 70
     2
  9
$DIMLWD
 70
    -2
  9
$DIMLWE
 70
    -2
  9
$DIMTMOVE
 70
     0
  9
$LUNITS
 70
     2
  9
$LUPREC
 70
     4
  9
$SKETCHINC
 40
1.0
  9
$FILLETRAD
 40
0.1
  9
$AUNITS
 70
     0
  9
$AUPREC
 70
     0
  9
$MENU
  1
.
  9
$ELEVATION
 40
0.0
  9
$PELEVATION
 40
0.0
  9
$THICKNESS
 40
0.0
  9
$LIMCHECK
 70
     0
  9
$CHAMFERA
 40
2.2
  9
$CHAMFERB
 40
2.2
  9
$CHAMFERC
 40
0.0
  9
$CHAMFERD
 40
0.0
  9
$SKPOLY
 70
     0
  9
$TDCREATE
 40
2454690.075573148
  9
$TDUCREATE
 40
2454690.033906482
  9
$TDUPDATE
 40
2454849.502392570
  9
$TDUUPDATE
 40
2454849.460725903
  9
$TDINDWG
 40
1.2785968287
  9
$TDUSRTIMER
 40
1.2785923032
  9
$USRTIMER
 70
     1
  9
$ANGBASE
 50
0.0
  9
$ANGDIR
 70
     0
  9
$PDMODE
 70
     0
  9
$PDSIZE
 40
0.0
  9
$PLINEWID
 40
0.0
  9
$SPLFRAME
 70
     0
  9
$SPLINETYPE
 70
     6
  9
$SPLINESEGS
 70
     8
  9
$HANDSEED
  5
BE9D
  9
$SURFTAB1
 70
     6
  9
$SURFTAB2
 70
     6
  9
$SURFTYPE
 70
     6
  9
$SURFU
 70
     6
  9
$SURFV
 70
     6
  9
$UCSBASE
  2

  9
$UCSNAME
  2

  9
$UCSORG
 10
0.0
 20
0.0
 30
0.0
  9
$UCSXDIR
 10
1.0
 20
0.0
 30
0.0
  9
$UCSYDIR
 10
0.0
 20
1.0
 30
0.0
  9
$UCSORTHOREF
  2

  9
$UCSORTHOVIEW
 70
     0
  9
$UCSORGTOP
 10
0.0
 20
0.0
 30
0.0
  9
$UCSORGBOTTOM
 10
0.0
 20
0.0
 30
0.0
  9
$UCSORGLEFT
 10
0.0
 20
0.0
 30
0.0
  9
$UCSORGRIGHT
 10
0.0
 20
0.0
 30
0.0
  9
$UCSORGFRONT
 10
0.0
 20
0.0
 30
0.0
  9
$UCSORGBACK
 10
0.0
 20
0.0
 30
0.0
  9
$PUCSBASE
  2

  9
$PUCSNAME
  2

  9
$PUCSORG
 10
0.0
 20
0.0
 30
0.0
  9
$PUCSXDIR
 10
1.0
 20
0.0
 30
0.0
  9
$PUCSYDIR
 10
0.0
 20
1.0
 30
0.0
  9
$PUCSORTHOREF
  2

  9
$PUCSORTHOVIEW
 70
     0
  9
$PUCSORGTOP
 10
0.0
 20
0.0
 30
0.0
  9
$PUCSORGBOTTOM
 10
0.0
 20
0.0
 30
0.0
  9
$PUCSORGLEFT
 10
0.0
 20
0.0
 30
0.0
  9
$PUCSORGRIGHT
 10
0.0
 20
0.0
 30
0.0
  9
$PUCSORGFRONT
 10
0.0
 20
0.0
 30
0.0
  9
$PUCSORGBACK
 10
0.0
 20
0.0
 30
0.0
  9
$USERI1
 70
     0
  9
$USERI2
 70
     0
  9
$USERI3
 70
     0
  9
$USERI4
 70
     0
  9
$USERI5
 70
     0
  9
$USERR1
 40
0.0
  9
$USERR2
 40
0.0
  9
$USERR3
 40
0.0
  9
$USERR4
 40
0.0
  9
$USERR5
 40
0.0
  9
$WORLDVIEW
 70
     1
  9
$SHADEDGE
 70
     3
  9
$SHADEDIF
 70
    70
  9
$TILEMODE
 70
     1
  9
$MAXACTVP
 70
    64
  9
$PINSBASE
 10
0.0
 20
0.0
 30
0.0
  9
$PLIMCHECK
 70
     0
  9
$PEXTMIN
 10
0.0
 20
0.0
 30
0.0
  9
$PEXTMAX
 10
0.0
 20
0.0
 30
0.0
  9
$PLIMMIN
 10
0.0
 20
0.0
  9
$PLIMMAX
 10
12.0
 20
9.0
  9
$UNITMODE
 70
     0
  9
$VISRETAIN
 70
     1
  9
$PLINEGEN
 70
     0
  9
$PSLTSCALE
 70
     1
  9
$TREEDEPTH
 70
  3020
  9
$CMLSTYLE
  2
SOLBET_IZOLACJA
  9
$CMLJUST
 70
     0
  9
$CMLSCALE
 40
20.0
  9
$PROXYGRAPHICS
 70
     1
  9
$MEASUREMENT
 70
     1
  9
$CELWEIGHT
370
    -1
  9
$ENDCAPS
280
     0
  9
$JOINSTYLE
280
     0
  9
$LWDISPLAY
290
     1
  9
$INSUNITS
 70
     4
  9
$HYPERLINKBASE
  1

  9
$STYLESHEET
  1

  9
$XEDIT
290
     1
  9
$CEPSNTYPE
380
     0
  9
$PSTYLEMODE
290
     1
  9
$FINGERPRINTGUID
  2
{6B12AB33-8E39-428E-8E85-461C8D99A3CB}
  9
$VERSIONGUID
  2
{05859AC9-B009-4F8B-AC41-3FCB30E0EF73}
  9
$EXTNAMES
290
     1
  9
$PSVPSCALE
 40
0.0
  9
$OLESTARTUP
290
     0
  0
ENDSEC
  0
SECTION
  2
CLASSES
  0
CLASS
  1
ACDBDICTIONARYWDFLT
  2
AcDbDictionaryWithDefault
  3
ObjectDBX Classes
 90
        0
280
     0
281
     0
  0
CLASS
  1
ACDBPLACEHOLDER
  2
AcDbPlaceHolder
  3
ObjectDBX Classes
 90
        0
280
     0
281
     0
  0
CLASS
  1
LAYOUT
  2
AcDbLayout
  3
ObjectDBX Classes
 90
        0
280
     0
281
     0
  0
CLASS
  1
DICTIONARYVAR
  2
AcDbDictionaryVar
  3
ObjectDBX Classes
 90
        0
280
     0
281
     0
  0
CLASS
  1
TABLESTYLE
  2
AcDbTableStyle
  3
ObjectDBX Classes
 90
     4095
280
     0
281
     0
  0
CLASS
  1
MATERIAL
  2
AcDbMaterial
  3
ObjectDBX Classes
 90
     1153
280
     0
281
     0
  0
CLASS
  1
VISUALSTYLE
  2
AcDbVisualStyle
  3
ObjectDBX Classes
 90
     4095
280
     0
281
     0
  0
CLASS
  1
SCALE
  2
AcDbScale
  3
ObjectDBX Classes
 90
     1153
280
     0
281
     0
  0
CLASS
  1
MLEADERSTYLE
  2
AcDbMLeaderStyle
  3
ACDB_MLEADERSTYLE_CLASS
 90
     4095
280
     0
281
     0
  0
CLASS
  1
CELLSTYLEMAP
  2
AcDbCellStyleMap
  3
ObjectDBX Classes
 90
     1152
280
     0
281
     0
  0
CLASS
  1
DIMASSOC
  2
AcDbDimAssoc
  3
"AcDbDimAssoc|Product Desc:     AcDim ARX App For Dimension|Company:          Autodesk, Inc.|WEB Address:      www.autodesk.com"
 90
    32768
280
     0
281
     0
  0
CLASS
  1
SORTENTSTABLE
  2
AcDbSortentsTable
  3
ObjectDBX Classes
 90
        0
280
     0
281
     0
  0
CLASS
  1
MULTILEADER
  2
AcDbMLeader
  3
ACDB_MLEADER_CLASS
 90
    33793
280
     0
281
     1
  0
CLASS
  1
ACDB_MTEXTOBJECTCONTEXTDATA_CLASS
  2
AcDbMTextObjectContextData
  3
ObjectDBX Classes
 90
    33921
280
     0
281
     0
  0
CLASS
  1
PLOTSETTINGS
  2
AcDbPlotSettings
  3
ObjectDBX Classes
 90
        0
280
     0
281
     0
  0
CLASS
  1
ACAD_EVALUATION_GRAPH
  2
AcDbEvalGraph
  3
ObjectDBX Classes
 90
    33921
280
     0
281
     0
  0
CLASS
  1
ACAECUSTOBJ
  2
AcAeEditorObj
  3
AcAeEditorObj
 90
    33792
280
     0
281
     0
  0
ENDSEC
  0
SECTION
  2
TABLES
  0
TABLE
  2
VPORT
  5
8
102
{ACAD_XDICTIONARY
360
443
102
}
330
0
100
AcDbSymbolTable
 70
     1
  0
VPORT
  5
EA
330
8
100
AcDbSymbolTableRecord
100
AcDbViewportTableRecord
  2
*Active
 70
     0
 10
0.0
 20
0.0
 11
1.0
 21
1.0
 12
167.1700223440216
 22
162.2971647973151
 13
0.0
 23
0.0
 14
10.0
 24
10.0
 15
10.0
 25
10.0
 16
0.0
 26
0.0
 36
1.0
 17
0.0
 27
0.0
 37
0.0
 40
327.9218066529119
 41
1.598915989159891
 42
50.0
 43
0.0
 44
0.0
 50
0.0
 51
0.0
 71
     0
 72
  1000
 73
     1
 74
     3
 75
     0
 76
     0
 77
     0
 78
     0
281
     0
 65
     1
110
0.0
120
0.0
130
0.0
111
1.0
121
0.0
131
0.0
112
0.0
122
1.0
132
0.0
 79
     0
146
0.0
  0
ENDTAB
  0
TABLE
  2
LTYPE
  5
5
330
0
100
AcDbSymbolTable
 70
     3
  0
LTYPE
  5
14
330
5
100
AcDbSymbolTableRecord
100
AcDbLinetypeTableRecord
  2
ByBlock
 70
     0
  3

 72
    65
 73
     0
 40
0.0
  0
LTYPE
  5
15
330
5
100
AcDbSymbolTableRecord
100
AcDbLinetypeTableRecord
  2
ByLayer
 70
     0
  3

 72
    65
 73
     0
 40
0.0
  0
LTYPE
  5
16
330
5
100
AcDbSymbolTableRecord
100
AcDbLinetypeTableRecord
  2
Continuous
 70
     0
  3
Solid line
 72
    65
 73
     0
 40
0.0
  0
LTYPE
  5
982
330
5
100
AcDbSymbolTableRecord
100
AcDbLinetypeTableRecord
  2
BATTING
 70
     0
  3
Batting SSSSSSSSSSSSSSSSSSSSSSSSSSSSSSSSSSSSSSSSSSSSSSS
 72
    65
 73
     4
 40
10.16254
 49
0.00254
 74
     0
 49
-2.54
 74
     4
 75
   134
340
7E7
 46
2.54
 50
0.0
 44
-2.54
 45
0.0
 49
-5.08
 74
     4
 75
   134
340
7E7
 46
2.54
 50
180.0
 44
2.54
 45
0.0
 49
-2.54
 74
     0
  0
LTYPE
  5
B6D4
330
5
100
AcDbSymbolTableRecord
100
AcDbLinetypeTableRecord
  2
DASHED2
 70
     0
  3
Dashed (.5x) _ _ _ _ _ _ _ _ _ _ _ _ _ _ _ _ _
 72
    65
 73
     2
 40
9.524999999999998
 49
6.349999999999999
 74
     0
 49
-3.174999999999999
 74
     0
  0
ENDTAB
  0
TABLE
  2
LAYER
  5
2
102
{ACAD_XDICTIONARY
360
3E5
102
}
330
0
100
AcDbSymbolTable
 70
    11
  0
LAYER
  5
10
102
{ACAD_XDICTIONARY
360
13C
102
}
330
2
100
AcDbSymbolTableRecord
100
AcDbLayerTableRecord
  2
0
 70
     0
 62
     7
  6
Continuous
370
    -3
390
F
  0
LAYER
  5
2BB
330
2
100
AcDbSymbolTableRecord
100
AcDbLayerTableRecord
  2
DEFPOINTS
 70
     0
 62
     7
  6
Continuous
290
     0
370
    -3
390
F
  0
LAYER
  5
3DD
102
{ACAD_XDICTIONARY
360
403
102
}
330
2
100
AcDbSymbolTableRecord
100
AcDbLayerTableRecord
  2
SOLBET_Bloczki
 70
     0
 62
   140
  6
Continuous
370
    -3
390
F
1001
AcAecLayerStandard
1000

1000

  0
LAYER
  5
3DF
102
{ACAD_XDICTIONARY
360
405
102
}
330
2
100
AcDbSymbolTableRecord
100
AcDbLayerTableRecord
  2
SOLBET_Wymiary_Opisy
 70
     0
 62
     1
  6
Continuous
370
    -3
390
F
1001
AcAecLayerStandard
1000

1000

  0
LAYER
  5
3E0
102
{ACAD_XDICTIONARY
360
407
102
}
330
2
100
AcDbSymbolTableRecord
100
AcDbLayerTableRecord
  2
SOLBET_Beton
 70
     0
 62
     9
  6
Continuous
370
    -3
390
F
1001
AcAecLayerStandard
1000

1000

  0
LAYER
  5
3E1
102
{ACAD_XDICTIONARY
360
409
102
}
330
2
100
AcDbSymbolTableRecord
100
AcDbLayerTableRecord
  2
SOLBET_Izolacja
 70
     0
 62
    40
  6
Continuous
370
    -3
390
F
1001
AcAecLayerStandard
1000

1000

  0
LAYER
  5
3E2
102
{ACAD_XDICTIONARY
360
40B
102
}
330
2
100
AcDbSymbolTableRecord
100
AcDbLayerTableRecord
  2
SOLBET_Zbrojenie_Konstrukcja
 70
     0
 62
     7
  6
Continuous
370
    -3
390
F
1001
AcAecLayerStandard
1000

1000

  0
LAYER
  5
3E3
102
{ACAD_XDICTIONARY
360
40D
102
}
330
2
100
AcDbSymbolTableRecord
100
AcDbLayerTableRecord
  2
SOLBET_Grunt
 70
     0
 62
    42
  6
Continuous
370
    -3
390
F
1001
AcAecLayerStandard
1000

1000

  0
LAYER
  5
3E4
102
{ACAD_XDICTIONARY
360
40F
102
}
330
2
100
AcDbSymbolTableRecord
100
AcDbLayerTableRecord
  2
SOLBET_Tynki_Posadzki
 70
     0
 62
     3
  6
Continuous
370
    -3
390
F
1001
AcAecLayerStandard
1000

1000

  0
LAYER
  5
3E8
102
{ACAD_XDICTIONARY
360
411
102
}
330
2
100
AcDbSymbolTableRecord
100
AcDbLayerTableRecord
  2
SOLBET_Ramka_05
 70
     0
 62
     2
  6
Continuous
370
    -3
390
F
1001
AcAecLayerStandard
1000

1000

  0
LAYER
  5
4E2
330
2
100
AcDbSymbolTableRecord
100
AcDbLayerTableRecord
  2
SOLBET_Emulsje_Folie
 70
     0
 62
     6
  6
Continuous
370
    -3
390
F
1001
AcAecLayerStandard
1000

1000

  0
ENDTAB
  0
TABLE
  2
STYLE
  5
3
330
0
100
AcDbSymbolTable
 70
     5
  0
STYLE
  5
11
330
3
100
AcDbSymbolTableRecord
100
AcDbTextStyleTableRecord
  2
Standard
 70
     0
 40
0.0
 41
1.0
 50
0.0
 71
     0
 42
2.5
  3
txt.shx
  4

  0
STYLE
  5
7D7
330
3
100
AcDbSymbolTableRecord
100
AcDbTextStyleTableRecord
  2
Solbet_5
 70
     0
 40
5.0
 41
1.0
 50
0.0
 71
     0
 42
5.0
  3
isocpeur.ttf
  4

1001
ACAD
1000
ISOCPEUR
1071
       34
  0
STYLE
  5
7D9
330
3
100
AcDbSymbolTableRecord
100
AcDbTextStyleTableRecord
  2
Solbet_2_5
 70
     0
 40
2.5
 41
1.0
 50
0.0
 71
     0
 42
2.5
  3
isocpeur.ttf
  4

1001
ACAD
1000
ISOCPEUR
1071
       34
  0
STYLE
  5
7E7
330
3
100
AcDbSymbolTableRecord
100
AcDbTextStyleTableRecord
  2

 70
     1
 40
0.0
 41
1.0
 50
0.0
 71
     0
 42
2.5
  3
ltypeshp.shx
  4

  0
STYLE
  5
2A72
330
3
100
AcDbSymbolTableRecord
100
AcDbTextStyleTableRecord
  2
Solbet_1
 70
     0
 40
1.0
 41
1.0
 50
0.0
 71
     0
 42
2.5
  3
isocpeur.ttf
  4

1001
ACAD
1000
ISOCPEUR
1071
       34
  0
ENDTAB
  0
TABLE
  2
VIEW
  5
6
330
0
100
AcDbSymbolTable
 70
     0
  0
ENDTAB
  0
TABLE
  2
UCS
  5
7
330
0
100
AcDbSymbolTable
 70
     0
  0
ENDTAB
  0
TABLE
  2
APPID
  5
9
330
0
100
AcDbSymbolTable
 70
    14
  0
APPID
  5
12
330
9
100
AcDbSymbolTableRecord
100
AcDbRegAppTableRecord
  2
ACAD
 70
     0
  0
APPID
  5
9E
330
9
100
AcDbSymbolTableRecord
100
AcDbRegAppTableRecord
  2
ACAD_PSEXT
 70
     0
  0
APPID
  5
133
330
9
100
AcDbSymbolTableRecord
100
AcDbRegAppTableRecord
  2
AcadAnnoPO
 70
     0
  0
APPID
  5
134
330
9
100
AcDbSymbolTableRecord
100
AcDbRegAppTableRecord
  2
AcadAnnotative
 70
     0
  0
APPID
  5
135
330
9
100
AcDbSymbolTableRecord
100
AcDbRegAppTableRecord
  2
ACAD_DSTYLE_DIMJAG
 70
     0
  0
APPID
  5
136
330
9
100
AcDbSymbolTableRecord
100
AcDbRegAppTableRecord
  2
ACAD_DSTYLE_DIMTALN
 70
     0
  0
APPID
  5
165
330
9
100
AcDbSymbolTableRecord
100
AcDbRegAppTableRecord
  2
ACAD_MLEADERVER
 70
     0
  0
APPID
  5
2C4
330
9
100
AcDbSymbolTableRecord
100
AcDbRegAppTableRecord
  2
ASO_SCHRAFF
 70
     0
  0
APPID
  5
3DE
330
9
100
AcDbSymbolTableRecord
100
AcDbRegAppTableRecord
  2
AcAecLayerStandard
 70
     0
  0
APPID
  5
7DE
330
9
100
AcDbSymbolTableRecord
100
AcDbRegAppTableRecord
  2
ACAD_EXEMPT_FROM_CAD_STANDARDS
 70
     0
  0
APPID
  5
948
330
9
100
AcDbSymbolTableRecord
100
AcDbRegAppTableRecord
  2
ACAD_DSTYLE_DIMBREAK
 70
     0
  0
APPID
  5
1D0A
330
9
100
AcDbSymbolTableRecord
100
AcDbRegAppTableRecord
  2
AcadAnnotativeDecomposition
 70
     0
  0
APPID
  5
2A73
330
9
100
AcDbSymbolTableRecord
100
AcDbRegAppTableRecord
  2
AcDbAttr
 70
     0
  0
APPID
  5
6F16
330
9
100
AcDbSymbolTableRecord
100
AcDbRegAppTableRecord
  2
ACAUTHENVIRON
 70
     0
  0
ENDTAB
  0
TABLE
  2
DIMSTYLE
  5
A
330
0
100
AcDbSymbolTable
 70
     3
100
AcDbDimStyleTable
 71
     1
340
949
  0
DIMSTYLE
105
4DDB
330
A
100
AcDbSymbolTableRecord
100
AcDbDimStyleTableRecord
  2
Standard
 70
     0
340
11
  0
DIMSTYLE
105
949
102
{ACAD_REACTORS
330
AE9E
102
}
330
A
100
AcDbSymbolTableRecord
100
AcDbDimStyleTableRecord
  2
Solbet
 70
     0
 41
2.5
 42
0.0
 43
3.75
 44
1.25
 73
     0
 74
     0
 77
     1
 78
     8
140
2.5
141
2.5
143
0.03937007874016
147
0.625
171
     3
172
     1
271
     2
272
     2
274
     3
278
    44
283
     0
284
     8
340
7D9
1001
ACAD_DSTYLE_DIMBREAK
1070
   391
1040
3.75
1001
ACAD_DSTYLE_DIMJAG
1070
   388
1040
1.5
1001
ACAD_DSTYLE_DIMTALN
1070
   392
1070
     0
  0
DIMSTYLE
105
954
330
A
100
AcDbSymbolTableRecord
100
AcDbDimStyleTableRecord
  2
Solbet$7
 70
     0
 41
2.5
 42
0.0
 43
3.75
 44
1.25
 73
     0
 74
     0
 77
     1
 78
     8
140
2.5
141
2.5
143
0.03937007874016
147
0.625
171
     3
172
     1
271
     2
272
     2
274
     3
278
    44
283
     0
284
     8
340
7D9
341
958
1001
ACAD_DSTYLE_DIMBREAK
1070
   391
1040
3.75
1001
ACAD_DSTYLE_DIMJAG
1070
   388
1040
1.5
1001
ACAD_DSTYLE_DIMTALN
1070
   392
1070
     0
  0
ENDTAB
  0
TABLE
  2
BLOCK_RECORD
  5
1
330
0
100
AcDbSymbolTable
 70
     8
  0
BLOCK_RECORD
  5
1F
102
{ACAD_XDICTIONARY
360
4A3
102
}
330
1
100
AcDbSymbolTableRecord
100
AcDbBlockTableRecord
  2
*Model_Space
340
22
  0
BLOCK_RECORD
  5
D2
330
1
100
AcDbSymbolTableRecord
100
AcDbBlockTableRecord
  2
*Paper_Space
340
D3
  0
BLOCK_RECORD
  5
D6
330
1
100
AcDbSymbolTableRecord
100
AcDbBlockTableRecord
  2
*Paper_Space0
340
D7
  0
BLOCK_RECORD
  5
958
330
1
100
AcDbSymbolTableRecord
100
AcDbBlockTableRecord
  2
_DotSmall
340
0
102
{BLKREFS
331
AE3A
331
AE3D
331
AE2E
331
AE31
331
AE34
331
AE37
331
B640
331
B646
331
B64A
331
B64C
331
B64E
331
B651
331
B654
331
B655
331
B676
331
B679
102
}
  0
BLOCK_RECORD
  5
6F5E
102
{ACAD_XDICTIONARY
360
6F6A
102
}
330
1
100
AcDbSymbolTableRecord
100
AcDbBlockTableRecord
  2
SOLBET_Bloczek_OPTIMAL_240x240x590_P+W_PRA
340
0
1001
ACAD
1000
DesignCenter Data
1002
{
1070
     1
1070
     4
1002
}
  0
BLOCK_RECORD
  5
790F
330
1
100
AcDbSymbolTableRecord
100
AcDbBlockTableRecord
  2
_None
340
0
  0
BLOCK_RECORD
  5
8F71
330
1
100
AcDbSymbolTableRecord
100
AcDbBlockTableRecord
  2
*X4
340
0
102
{BLKREFS
331
AD7E
102
}
  0
BLOCK_RECORD
  5
AEBE
330
1
100
AcDbSymbolTableRecord
100
AcDbBlockTableRecord
  2
*D5
340
0
  0
BLOCK_RECORD
  5
B9DE
102
{ACAD_XDICTIONARY
360
BA0C
102
}
330
1
100
AcDbSymbolTableRecord
100
AcDbBlockTableRecord
  2
Konsola_nosna
340
0
102
{BLKREFS
331
BA10
331
BA11
102
}
1001
ACAD
1000
DesignCenter Data
1002
{
1070
     1
1070
     4
1002
}
  0
BLOCK_RECORD
  5
BD41
102
{ACAD_XDICTIONARY
360
BD4D
102
}
330
1
100
AcDbSymbolTableRecord
100
AcDbBlockTableRecord
  2
SOLBET_Bloczek_Optimal_240x240x590_P+W_KG500_PRA
340
0
102
{BLKREFS
331
BD51
331
BD52
331
BD53
102
}
1001
ACAD
1000
DesignCenter Data
1002
{
1070
     1
1070
     4
1002
}
  0
ENDTAB
  0
ENDSEC
  0
SECTION
  2
BLOCKS
  0
BLOCK
  5
20
330
1F
100
AcDbEntity
  8
0
100
AcDbBlockBegin
  2
*Model_Space
 70
     0
 10
0.0
 20
0.0
 30
0.0
  3
*Model_Space
  1

  0
ENDBLK
  5
21
330
1F
100
AcDbEntity
  8
0
100
AcDbBlockEnd
  0
BLOCK
  5
D4
330
D2
100
AcDbEntity
 67
     1
  8
0
100
AcDbBlockBegin
  2
*Paper_Space
 70
     0
 10
0.0
 20
0.0
 30
0.0
  3
*Paper_Space
  1

  0
ENDBLK
  5
D5
330
D2
100
AcDbEntity
 67
     1
  8
0
100
AcDbBlockEnd
  0
BLOCK
  5
D8
330
D6
100
AcDbEntity
 67
     1
  8
0
100
AcDbBlockBegin
  2
*Paper_Space0
 70
     0
 10
0.0
 20
0.0
 30
0.0
  3
*Paper_Space0
  1

  0
ENDBLK
  5
D9
330
D6
100
AcDbEntity
 67
     1
  8
0
100
AcDbBlockEnd
  0
BLOCK
  5
95A
330
958
100
AcDbEntity
  8
0
100
AcDbBlockBegin
  2
_DotSmall
 70
     0
 10
0.0
 20
0.0
 30
0.0
  3
_DotSmall
  1

  0
LWPOLYLINE
  5
959
330
958
100
AcDbEntity
  8
0
  6
ByBlock
 62
     0
100
AcDbPolyline
 90
        2
 70
     1
 43
0.5
 10
-0.0625
 20
0.0
 42
1.0
 10
0.0625
 20
0.0
 42
1.0
  0
ENDBLK
  5
95B
330
958
100
AcDbEntity
  8
0
100
AcDbBlockEnd
  0
BLOCK
  5
6F6C
330
6F5E
100
AcDbEntity
  8
0
100
AcDbBlockBegin
  2
SOLBET_Bloczek_OPTIMAL_240x240x590_P+W_PRA
 70
     2
 10
0.0
 20
0.0
 30
0.0
  3
SOLBET_Bloczek_OPTIMAL_240x240x590_P+W_PRA
  1

  0
ATTDEF
  5
9AC6
330
6F5E
100
AcDbEntity
  8
SOLBET_Wymiary_Opisy
100
AcDbText
 10
-0.0000000878742412
 20
6.303237404038322
 30
0.0
 40
0.9913121336814832
  1
240x240x590
  7
Solbet_1
100
AcDbAttributeDefinition
  3

  2
WYMIARY
 70
     3
1001
AcDbAttr
1070
     0
1070
     1
  0
ATTDEF
  5
9AC7
330
6F5E
100
AcDbEntity
  8
SOLBET_Wymiary_Opisy
100
AcDbText
 10
-0.0000000878742412
 20
4.790717996322224
 30
0.0
 40
0.9913121336814832
  1
400, 500, 600, 700
  7
Solbet_1
100
AcDbAttributeDefinition
  3

  2
KLASA_GĘSTOŚCI
 70
     9
1001
AcDbAttr
1070
     0
1070
     1
  0
ATTDEF
  5
9AC8
330
6F5E
100
AcDbEntity
  8
SOLBET_Wymiary_Opisy
100
AcDbText
 10
-0.0000000878742412
 20
3.269569161109998
 30
0.0
 40
0.9913121336814832
  1
pióra+wpusty
  7
Solbet_1
100
AcDbAttributeDefinition
  3

  2
PROFILOWANIE
 70
    11
1001
AcDbAttr
1070
     0
1070
     1
  0
ATTDEF
  5
9AC9
330
6F5E
100
AcDbEntity
  8
SOLBET_Wymiary_Opisy
100
AcDbText
 10
-0.0000000878742412
 20
0.2448647517692188
 30
0.0
 40
0.9913121336814832
  1
SOLBET
  7
Solbet_1
100
AcDbAttributeDefinition
  3

  2
FIRMA
 70
     3
1001
AcDbAttr
1070
     0
1070
     1
  0
ATTDEF
  5
9ACA
330
6F5E
100
AcDbEntity
  8
SOLBET_Wymiary_Opisy
100
AcDbText
 10
-0.0000000878742412
 20
9.333547402386153
 30
0.0
 40
0.9913121336814832
  1
Bloczek
  7
Solbet_1
100
AcDbAttributeDefinition
  3
Nazwa
  2
NAZWA
 70
     3
1001
AcDbAttr
1070
     0
1070
     1
  0
ATTDEF
  5
9ACB
330
6F5E
100
AcDbEntity
  8
SOLBET_Wymiary_Opisy
100
AcDbText
 10
-0.0000000878742412
 20
7.794499222151949
 30
0.0
 40
0.9913121336814832
  1
SOLBET OPTIMAL
  7
Solbet_1
100
AcDbAttributeDefinition
  3

  2
SYSTEM
 70
     3
1001
AcDbAttr
1070
     0
1070
     1
  0
ATTDEF
  5
9ACC
330
6F5E
100
AcDbEntity
  8
SOLBET_Wymiary_Opisy
100
AcDbText
 10
-0.0000000878742412
 20
1.744181511296331
 30
0.0
 40
0.9913121336814832
  1
Prawo
  7
Solbet_1
100
AcDbAttributeDefinition
  3

  2
WIDOK
 70
    11
1001
AcDbAttr
1070
     0
1070
     1
  0
LINE
  5
9ACD
330
6F5E
100
AcDbEntity
  8
SOLBET_Bloczki
100
AcDbLine
 10
12.00000017574848
 20
11.99999995881262
 30
0.0
 11
12.00000017574848
 21
-0.0000000411874908
 31
0.0
  0
LINE
  5
9ACE
330
6F5E
100
AcDbEntity
  8
SOLBET_Bloczki
100
AcDbLine
 10
12.00000017574848
 20
11.99999995881262
 30
0.0
 11
0.0000001757484824
 21
11.99999995881262
 31
0.0
  0
LINE
  5
9ACF
330
6F5E
100
AcDbEntity
  8
SOLBET_Bloczki
100
AcDbLine
 10
0.0000001757484824
 20
11.99999995881262
 30
0.0
 11
0.0000001757484824
 21
-0.0000000411873771
 31
0.0
  0
LINE
  5
9AD0
330
6F5E
100
AcDbEntity
  8
SOLBET_Bloczki
100
AcDbLine
 10
0.0000001757484824
 20
-0.0000000411873771
 30
0.0
 11
12.00000017574848
 21
-0.0000000411874908
 31
0.0
  0
ENDBLK
  5
6F6D
330
6F5E
100
AcDbEntity
  8
0
100
AcDbBlockEnd
  0
BLOCK
  5
7910
330
790F
100
AcDbEntity
  8
0
100
AcDbBlockBegin
  2
_None
 70
     0
 10
0.0
 20
0.0
 30
0.0
  3
_None
  1

  0
ENDBLK
  5
7911
330
790F
100
AcDbEntity
  8
0
100
AcDbBlockEnd
  0
BLOCK
  5
8F72
330
8F71
100
AcDbEntity
  8
0
100
AcDbBlockBegin
  2
*X4
 70
     1
 10
0.0
 20
0.0
 30
0.0
  3
*X4
  1
ASOWDBLK
  0
LINE
  5
8F73
330
8F71
100
AcDbEntity
  8
0
 62
     0
100
AcDbLine
 10
2.651650429449553
 20
2.430679560328757
 30
0.0
 11
2.651650429449553
 21
2.430679560328757
 31
0.0
  0
LINE
  5
8F74
330
8F71
100
AcDbEntity
  8
0
 62
     0
100
AcDbLine
 10
2.706893146729752
 20
2.485922277608956
 30
0.0
 11
2.706893146729752
 21
2.485922277608956
 31
0.0
  0
LINE
  5
8F75
330
8F71
100
AcDbEntity
  8
0
 62
     0
100
AcDbLine
 10
2.762135864009951
 20
2.541164994889155
 30
0.0
 11
2.762135864009951
 21
2.541164994889155
 31
0.0
  0
LINE
  5
8F76
330
8F71
100
AcDbEntity
  8
0
 62
     0
100
AcDbLine
 10
2.81737858129015
 20
2.596407712169354
 30
0.0
 11
2.81737858129015
 21
2.596407712169354
 31
0.0
  0
LINE
  5
8F77
330
8F71
100
AcDbEntity
  8
0
 62
     0
100
AcDbLine
 10
2.872621298570349
 20
2.651650429449553
 30
0.0
 11
2.872621298570349
 21
2.651650429449553
 31
0.0
  0
LINE
  5
8F78
330
8F71
100
AcDbEntity
  8
0
 62
     0
100
AcDbLine
 10
2.927864015850548
 20
2.706893146729752
 30
0.0
 11
2.927864015850548
 21
2.706893146729752
 31
0.0
  0
LINE
  5
8F79
330
8F71
100
AcDbEntity
  8
0
 62
     0
100
AcDbLine
 10
2.513543636249055
 20
2.403058201688657
 30
0.0
 11
2.513543636249055
 21
2.403058201688657
 31
0.0
  0
LINE
  5
8F7A
330
8F71
100
AcDbEntity
  8
0
 62
     0
100
AcDbLine
 10
2.568786353529254
 20
2.458300918968856
 30
0.0
 11
2.568786353529254
 21
2.458300918968856
 31
0.0
  0
LINE
  5
8F7B
330
8F71
100
AcDbEntity
  8
0
 62
     0
100
AcDbLine
 10
2.624029070809454
 20
2.513543636249055
 30
0.0
 11
2.624029070809454
 21
2.513543636249055
 31
0.0
  0
LINE
  5
8F7C
330
8F71
100
AcDbEntity
  8
0
 62
     0
100
AcDbLine
 10
2.679271788089653
 20
2.568786353529254
 30
0.0
 11
2.679271788089653
 21
2.568786353529254
 31
0.0
  0
LINE
  5
8F7D
330
8F71
100
AcDbEntity
  8
0
 62
     0
100
AcDbLine
 10
2.734514505369852
 20
2.624029070809454
 30
0.0
 11
2.734514505369852
 21
2.624029070809454
 31
0.0
  0
LINE
  5
8F7E
330
8F71
100
AcDbEntity
  8
0
 62
     0
100
AcDbLine
 10
2.789757222650051
 20
2.679271788089653
 30
0.0
 11
2.789757222650051
 21
2.679271788089653
 31
0.0
  0
LINE
  5
8F7F
330
8F71
100
AcDbEntity
  8
0
 62
     0
100
AcDbLine
 10
2.84499993993025
 20
2.734514505369852
 30
0.0
 11
2.84499993993025
 21
2.734514505369852
 31
0.0
  0
LINE
  5
8F80
330
8F71
100
AcDbEntity
  8
0
 62
     0
100
AcDbLine
 10
2.430679560328757
 20
2.430679560328757
 30
0.0
 11
2.430679560328757
 21
2.430679560328757
 31
0.0
  0
LINE
  5
8F81
330
8F71
100
AcDbEntity
  8
0
 62
     0
100
AcDbLine
 10
2.485922277608956
 20
2.485922277608956
 30
0.0
 11
2.485922277608956
 21
2.485922277608956
 31
0.0
  0
LINE
  5
8F82
330
8F71
100
AcDbEntity
  8
0
 62
     0
100
AcDbLine
 10
2.541164994889155
 20
2.541164994889155
 30
0.0
 11
2.541164994889155
 21
2.541164994889155
 31
0.0
  0
LINE
  5
8F83
330
8F71
100
AcDbEntity
  8
0
 62
     0
100
AcDbLine
 10
2.596407712169354
 20
2.596407712169354
 30
0.0
 11
2.596407712169354
 21
2.596407712169354
 31
0.0
  0
LINE
  5
8F84
330
8F71
100
AcDbEntity
  8
0
 62
     0
100
AcDbLine
 10
2.651650429449553
 20
2.651650429449553
 30
0.0
 11
2.651650429449553
 21
2.651650429449553
 31
0.0
  0
LINE
  5
8F85
330
8F71
100
AcDbEntity
  8
0
 62
     0
100
AcDbLine
 10
2.706893146729752
 20
2.706893146729752
 30
0.0
 11
2.706893146729752
 21
2.706893146729752
 31
0.0
  0
LINE
  5
8F86
330
8F71
100
AcDbEntity
  8
0
 62
     0
100
AcDbLine
 10
2.347815484408458
 20
2.458300918968856
 30
0.0
 11
2.347815484408458
 21
2.458300918968856
 31
0.0
  0
LINE
  5
8F87
330
8F71
100
AcDbEntity
  8
0
 62
     0
100
AcDbLine
 10
2.403058201688657
 20
2.513543636249055
 30
0.0
 11
2.403058201688657
 21
2.513543636249055
 31
0.0
  0
LINE
  5
8F88
330
8F71
100
AcDbEntity
  8
0
 62
     0
100
AcDbLine
 10
2.458300918968856
 20
2.568786353529254
 30
0.0
 11
2.458300918968856
 21
2.568786353529254
 31
0.0
  0
LINE
  5
8F89
330
8F71
100
AcDbEntity
  8
0
 62
     0
100
AcDbLine
 10
2.513543636249055
 20
2.624029070809454
 30
0.0
 11
2.513543636249055
 21
2.624029070809454
 31
0.0
  0
LINE
  5
8F8A
330
8F71
100
AcDbEntity
  8
0
 62
     0
100
AcDbLine
 10
2.568786353529254
 20
2.679271788089653
 30
0.0
 11
2.568786353529254
 21
2.679271788089653
 31
0.0
  0
LINE
  5
8F8B
330
8F71
100
AcDbEntity
  8
0
 62
     0
100
AcDbLine
 10
2.624029070809454
 20
2.734514505369852
 30
0.0
 11
2.624029070809454
 21
2.734514505369852
 31
0.0
  0
LINE
  5
8F8C
330
8F71
100
AcDbEntity
  8
0
 62
     0
100
AcDbLine
 10
2.375436843048558
 20
2.596407712169354
 30
0.0
 11
2.375436843048558
 21
2.596407712169354
 31
0.0
  0
LINE
  5
8F8D
330
8F71
100
AcDbEntity
  8
0
 62
     0
100
AcDbLine
 10
2.430679560328757
 20
2.651650429449553
 30
0.0
 11
2.430679560328757
 21
2.651650429449553
 31
0.0
  0
LINE
  5
8F8E
330
8F71
100
AcDbEntity
  8
0
 62
     0
100
AcDbLine
 10
2.485922277608956
 20
2.706893146729752
 30
0.0
 11
2.485922277608956
 21
2.706893146729752
 31
0.0
  0
LINE
  5
8F8F
330
8F71
100
AcDbEntity
  8
0
 62
     0
100
AcDbLine
 10
2.347815484408458
 20
2.679271788089653
 30
0.0
 11
2.347815484408458
 21
2.679271788089653
 31
0.0
  0
LINE
  5
8F90
330
8F71
100
AcDbEntity
  8
0
 62
     0
100
AcDbLine
 10
2.403058201688657
 20
2.734514505369852
 30
0.0
 11
2.403058201688657
 21
2.734514505369852
 31
0.0
  0
LINE
  5
8F91
330
8F71
100
AcDbEntity
  8
0
 62
     0
100
AcDbLine
 10
2.734514505369852
 20
2.403058201688657
 30
0.0
 11
2.734514505369852
 21
2.403058201688657
 31
0.0
  0
LINE
  5
8F92
330
8F71
100
AcDbEntity
  8
0
 62
     0
100
AcDbLine
 10
2.789757222650051
 20
2.458300918968856
 30
0.0
 11
2.789757222650051
 21
2.458300918968856
 31
0.0
  0
LINE
  5
8F93
330
8F71
100
AcDbEntity
  8
0
 62
     0
100
AcDbLine
 10
2.84499993993025
 20
2.513543636249055
 30
0.0
 11
2.84499993993025
 21
2.513543636249055
 31
0.0
  0
LINE
  5
8F94
330
8F71
100
AcDbEntity
  8
0
 62
     0
100
AcDbLine
 10
2.900242657210449
 20
2.568786353529254
 30
0.0
 11
2.900242657210449
 21
2.568786353529254
 31
0.0
  0
LINE
  5
8F95
330
8F71
100
AcDbEntity
  8
0
 62
     0
100
AcDbLine
 10
2.955485374490648
 20
2.624029070809454
 30
0.0
 11
2.955485374490648
 21
2.624029070809454
 31
0.0
  0
LINE
  5
8F96
330
8F71
100
AcDbEntity
  8
0
 62
     0
100
AcDbLine
 10
3.010728091770847
 20
2.679271788089653
 30
0.0
 11
3.010728091770847
 21
2.679271788089653
 31
0.0
  0
LINE
  5
8F97
330
8F71
100
AcDbEntity
  8
0
 62
     0
100
AcDbLine
 10
3.065970809051046
 20
2.734514505369852
 30
0.0
 11
3.065970809051046
 21
2.734514505369852
 31
0.0
  0
LINE
  5
8F98
330
8F71
100
AcDbEntity
  8
0
 62
     0
100
AcDbLine
 10
2.872621298570349
 20
2.430679560328757
 30
0.0
 11
2.872621298570349
 21
2.430679560328757
 31
0.0
  0
LINE
  5
8F99
330
8F71
100
AcDbEntity
  8
0
 62
     0
100
AcDbLine
 10
2.927864015850548
 20
2.485922277608956
 30
0.0
 11
2.927864015850548
 21
2.485922277608956
 31
0.0
  0
LINE
  5
8F9A
330
8F71
100
AcDbEntity
  8
0
 62
     0
100
AcDbLine
 10
2.983106733130747
 20
2.541164994889155
 30
0.0
 11
2.983106733130747
 21
2.541164994889155
 31
0.0
  0
LINE
  5
8F9B
330
8F71
100
AcDbEntity
  8
0
 62
     0
100
AcDbLine
 10
3.038349450410946
 20
2.596407712169354
 30
0.0
 11
3.038349450410946
 21
2.596407712169354
 31
0.0
  0
LINE
  5
8F9C
330
8F71
100
AcDbEntity
  8
0
 62
     0
100
AcDbLine
 10
3.093592167691145
 20
2.651650429449553
 30
0.0
 11
3.093592167691145
 21
2.651650429449553
 31
0.0
  0
LINE
  5
8F9D
330
8F71
100
AcDbEntity
  8
0
 62
     0
100
AcDbLine
 10
3.148834884971344
 20
2.706893146729752
 30
0.0
 11
3.148834884971344
 21
2.706893146729752
 31
0.0
  0
LINE
  5
8F9E
330
8F71
100
AcDbEntity
  8
0
 62
     0
100
AcDbLine
 10
2.955485374490648
 20
2.403058201688657
 30
0.0
 11
2.955485374490648
 21
2.403058201688657
 31
0.0
  0
LINE
  5
8F9F
330
8F71
100
AcDbEntity
  8
0
 62
     0
100
AcDbLine
 10
3.010728091770847
 20
2.458300918968856
 30
0.0
 11
3.010728091770847
 21
2.458300918968856
 31
0.0
  0
LINE
  5
8FA0
330
8F71
100
AcDbEntity
  8
0
 62
     0
100
AcDbLine
 10
3.065970809051046
 20
2.513543636249055
 30
0.0
 11
3.065970809051046
 21
2.513543636249055
 31
0.0
  0
LINE
  5
8FA1
330
8F71
100
AcDbEntity
  8
0
 62
     0
100
AcDbLine
 10
3.121213526331245
 20
2.568786353529254
 30
0.0
 11
3.121213526331245
 21
2.568786353529254
 31
0.0
  0
LINE
  5
8FA2
330
8F71
100
AcDbEntity
  8
0
 62
     0
100
AcDbLine
 10
3.176456243611444
 20
2.624029070809454
 30
0.0
 11
3.176456243611444
 21
2.624029070809454
 31
0.0
  0
LINE
  5
8FA3
330
8F71
100
AcDbEntity
  8
0
 62
     0
100
AcDbLine
 10
3.231698960891643
 20
2.679271788089653
 30
0.0
 11
3.231698960891643
 21
2.679271788089653
 31
0.0
  0
LINE
  5
8FA4
330
8F71
100
AcDbEntity
  8
0
 62
     0
100
AcDbLine
 10
3.286941678171842
 20
2.734514505369852
 30
0.0
 11
3.286941678171842
 21
2.734514505369852
 31
0.0
  0
LINE
  5
8FA5
330
8F71
100
AcDbEntity
  8
0
 62
     0
100
AcDbLine
 10
3.093592167691145
 20
2.430679560328757
 30
0.0
 11
3.093592167691145
 21
2.430679560328757
 31
0.0
  0
LINE
  5
8FA6
330
8F71
100
AcDbEntity
  8
0
 62
     0
100
AcDbLine
 10
3.148834884971345
 20
2.485922277608956
 30
0.0
 11
3.148834884971345
 21
2.485922277608956
 31
0.0
  0
LINE
  5
8FA7
330
8F71
100
AcDbEntity
  8
0
 62
     0
100
AcDbLine
 10
3.204077602251544
 20
2.541164994889155
 30
0.0
 11
3.204077602251544
 21
2.541164994889155
 31
0.0
  0
LINE
  5
8FA8
330
8F71
100
AcDbEntity
  8
0
 62
     0
100
AcDbLine
 10
3.259320319531743
 20
2.596407712169354
 30
0.0
 11
3.259320319531743
 21
2.596407712169354
 31
0.0
  0
LINE
  5
8FA9
330
8F71
100
AcDbEntity
  8
0
 62
     0
100
AcDbLine
 10
3.314563036811942
 20
2.651650429449553
 30
0.0
 11
3.314563036811942
 21
2.651650429449553
 31
0.0
  0
LINE
  5
8FAA
330
8F71
100
AcDbEntity
  8
0
 62
     0
100
AcDbLine
 10
3.369805754092141
 20
2.706893146729752
 30
0.0
 11
3.369805754092141
 21
2.706893146729752
 31
0.0
  0
LINE
  5
8FAB
330
8F71
100
AcDbEntity
  8
0
 62
     0
100
AcDbLine
 10
3.176456243611444
 20
2.403058201688658
 30
0.0
 11
3.176456243611444
 21
2.403058201688658
 31
0.0
  0
LINE
  5
8FAC
330
8F71
100
AcDbEntity
  8
0
 62
     0
100
AcDbLine
 10
3.231698960891643
 20
2.458300918968857
 30
0.0
 11
3.231698960891643
 21
2.458300918968857
 31
0.0
  0
LINE
  5
8FAD
330
8F71
100
AcDbEntity
  8
0
 62
     0
100
AcDbLine
 10
3.286941678171842
 20
2.513543636249056
 30
0.0
 11
3.286941678171842
 21
2.513543636249056
 31
0.0
  0
LINE
  5
8FAE
330
8F71
100
AcDbEntity
  8
0
 62
     0
100
AcDbLine
 10
3.342184395452041
 20
2.568786353529255
 30
0.0
 11
3.342184395452041
 21
2.568786353529255
 31
0.0
  0
LINE
  5
8FAF
330
8F71
100
AcDbEntity
  8
0
 62
     0
100
AcDbLine
 10
3.39742711273224
 20
2.624029070809454
 30
0.0
 11
3.39742711273224
 21
2.624029070809454
 31
0.0
  0
LINE
  5
8FB0
330
8F71
100
AcDbEntity
  8
0
 62
     0
100
AcDbLine
 10
3.314563036811942
 20
2.430679560328757
 30
0.0
 11
3.314563036811942
 21
2.430679560328757
 31
0.0
  0
LINE
  5
8FB1
330
8F71
100
AcDbEntity
  8
0
 62
     0
100
AcDbLine
 10
3.369805754092141
 20
2.485922277608956
 30
0.0
 11
3.369805754092141
 21
2.485922277608956
 31
0.0
  0
LINE
  5
8FB2
330
8F71
100
AcDbEntity
  8
0
 62
     0
100
AcDbLine
 10
3.42504847137234
 20
2.541164994889155
 30
0.0
 11
3.42504847137234
 21
2.541164994889155
 31
0.0
  0
LINE
  5
8FB3
330
8F71
100
AcDbEntity
  8
0
 62
     0
100
AcDbLine
 10
3.39742711273224
 20
2.403058201688658
 30
0.0
 11
3.39742711273224
 21
2.403058201688658
 31
0.0
  0
ENDBLK
  5
8FB4
330
8F71
100
AcDbEntity
  8
0
100
AcDbBlockEnd
  0
BLOCK
  5
AEBF
330
AEBE
100
AcDbEntity
  8
0
100
AcDbBlockBegin
  2
*D5
 70
     1
 10
0.0
 20
0.0
 30
0.0
  3
*D5
  1

  0
LINE
  5
B0CE
330
AEBE
100
AcDbEntity
  8
SOLBET_Wymiary_Opisy
 62
     0
370
    -2
100
AcDbLine
 10
98.13048150141367
 20
174.6076887771731
 30
0.0
 11
30.83619375075434
 21
174.6076887771732
 31
0.0
  0
LINE
  5
B0CF
330
AEBE
100
AcDbEntity
  8
SOLBET_Wymiary_Opisy
 62
     0
370
    -2
100
AcDbLine
 10
100.2651240557907
 20
159.4276887771702
 30
0.0
 11
30.83619375075436
 21
159.4276887771703
 31
0.0
  0
LINE
  5
B0D0
330
AEBE
100
AcDbEntity
  8
SOLBET_Wymiary_Opisy
 62
     0
370
    -2
100
AcDbLine
 10
32.08619375075435
 20
172.1076887771732
 30
0.0
 11
32.08619375075435
 21
161.9276887771703
 31
0.0
  0
SOLID
  5
B0D1
330
AEBE
100
AcDbEntity
  8
SOLBET_Wymiary_Opisy
 62
     0
100
AcDbTrace
 10
31.66952708408768
 20
172.1076887771732
 30
0.0
 11
32.50286041742101
 21
172.1076887771732
 31
0.0
 12
32.08619375075435
 22
174.6076887771732
 32
0.0
 13
32.08619375075435
 23
174.6076887771732
 33
0.0
  0
SOLID
  5
B0D2
330
AEBE
100
AcDbEntity
  8
SOLBET_Wymiary_Opisy
 62
     0
100
AcDbTrace
 10
31.66952708408768
 20
161.9276887771703
 30
0.0
 11
32.50286041742101
 21
161.9276887771703
 31
0.0
 12
32.08619375075435
 22
159.4276887771703
 32
0.0
 13
32.08619375075435
 23
159.4276887771703
 33
0.0
  0
MTEXT
  5
B0D3
330
AEBE
100
AcDbEntity
  8
SOLBET_Wymiary_Opisy
 62
     0
100
AcDbMText
 10
30.21024678105736
 20
167.0176887771721
 30
0.0
 40
2.5
 41
0.0
 71
     5
 72
     1
  1
Min. 30cm
  7
Solbet_2_5
 11
0.0000000000000001
 21
1.0
 31
0.0
 73
     1
 44
1.0
1001
ACAD
1000
MTEXTBEGIN
1070
    73
1070
     1
1070
    44
1040
1.0
1070
    74
1070
     0
1000
MTEXTEND
  0
POINT
  5
B0D4
330
AEBE
100
AcDbEntity
  8
DEFPOINTS
 62
     0
100
AcDbPoint
 10
98.13048150141367
 20
174.6076887771731
 30
0.0
  0
POINT
  5
B0D5
330
AEBE
100
AcDbEntity
  8
DEFPOINTS
 62
     0
100
AcDbPoint
 10
100.2651240557907
 20
159.4276887771702
 30
0.0
  0
POINT
  5
B0D6
330
AEBE
100
AcDbEntity
  8
DEFPOINTS
 62
     0
100
AcDbPoint
 10
32.08619375075435
 20
159.4276887771703
 30
0.0
  0
ENDBLK
  5
AEC0
330
AEBE
100
AcDbEntity
  8
0
100
AcDbBlockEnd
  0
BLOCK
  5
BA0E
330
B9DE
100
AcDbEntity
  8
0
100
AcDbBlockBegin
  2
Konsola_nosna
 70
     0
 10
0.0
 20
0.0
 30
0.0
  3
Konsola_nosna
  1

  0
LINE
  5
B9DF
330
B9DE
100
AcDbEntity
  8
SOLBET_Zbrojenie_Konstrukcja
100
AcDbLine
 10
-7.000000000000028
 20
0.0000000411873771
 30
0.0
 11
0.0000001757489088
 21
0.0
 31
0.0
  0
LINE
  5
B9E0
330
B9DE
100
AcDbEntity
  8
SOLBET_Zbrojenie_Konstrukcja
100
AcDbLine
 10
-11.55909494212471
 20
0.0027350142461557
 30
0.0
 11
-6.018279994417184
 21
8.746026707347567
 31
0.0
  0
LINE
  5
B9E1
330
B9DE
100
AcDbEntity
  8
SOLBET_Zbrojenie_Konstrukcja
100
AcDbLine
 10
0.0000000001393516
 20
12.00128659166316
 30
0.0
 11
-6.018279994417184
 21
12.00301159662862
 31
0.0
  0
LINE
  5
B9E2
330
B9DE
100
AcDbEntity
  8
SOLBET_Zbrojenie_Konstrukcja
100
AcDbLine
 10
-6.018279994417184
 20
12.00301159662862
 30
0.0
 11
-6.018279994417184
 21
11.12717631384205
 31
0.0
  0
LINE
  5
B9E3
330
B9DE
100
AcDbEntity
  8
SOLBET_Zbrojenie_Konstrukcja
100
AcDbLine
 10
-6.018279994417184
 20
9.732770494813081
 30
0.0
 11
-6.018279994417184
 21
8.746026707347567
 31
0.0
  0
LINE
  5
B9E4
330
B9DE
100
AcDbEntity
  8
SOLBET_Zbrojenie_Konstrukcja
100
AcDbLine
 10
0.0000000001802221
 20
12.00402156472196
 30
0.0
 11
-0.00000002117892
 21
11.67997340432757
 31
0.0
  0
LINE
  5
B9E5
330
B9DE
100
AcDbEntity
  8
SOLBET_Zbrojenie_Konstrukcja
100
AcDbLine
 10
-0.0000082767528511
 20
9.179973404327597
 30
0.0
 11
-0.0000000000000284
 21
0.0000000411873771
 31
0.0
  0
LINE
  5
B9E6
330
B9DE
100
AcDbEntity
  8
SOLBET_Zbrojenie_Konstrukcja
100
AcDbLine
 10
-6.018279994417184
 20
8.746026707347567
 30
0.0
 11
-0.0000000485293583
 21
8.746026332995313
 31
0.0
  0
LINE
  5
B9E7
330
B9DE
100
AcDbEntity
  8
SOLBET_Zbrojenie_Konstrukcja
100
AcDbLine
 10
-0.0000082767528511
 20
11.67997340432757
 30
0.0
 11
-0.2000082767528397
 21
11.67997340432757
 31
0.0
  0
LINE
  5
B9E8
330
B9DE
100
AcDbEntity
  8
SOLBET_Zbrojenie_Konstrukcja
100
AcDbLine
 10
-0.2000082767528397
 20
11.67997340432757
 30
0.0
 11
-0.2000082767528397
 21
11.27997340432756
 31
0.0
  0
LINE
  5
B9E9
330
B9DE
100
AcDbEntity
  8
SOLBET_Zbrojenie_Konstrukcja
100
AcDbLine
 10
-0.2000082767528397
 20
11.27997340432756
 30
0.0
 11
-0.0000082767528511
 21
11.27997340432756
 31
0.0
  0
LINE
  5
B9EA
330
B9DE
100
AcDbEntity
  8
SOLBET_Zbrojenie_Konstrukcja
100
AcDbLine
 10
-0.0000082767528511
 20
10.97997340432758
 30
0.0
 11
-0.2000082767528397
 21
10.97997340432758
 31
0.0
  0
LINE
  5
B9EB
330
B9DE
100
AcDbEntity
  8
SOLBET_Zbrojenie_Konstrukcja
100
AcDbLine
 10
-0.2000082767528397
 20
10.57997340432757
 30
0.0
 11
-0.0000082767528511
 21
10.57997340432757
 31
0.0
  0
LINE
  5
B9EC
330
B9DE
100
AcDbEntity
  8
SOLBET_Zbrojenie_Konstrukcja
100
AcDbLine
 10
-0.2000082767528397
 20
10.97997340432758
 30
0.0
 11
-0.2000082767528397
 21
10.57997340432757
 31
0.0
  0
LINE
  5
B9ED
330
B9DE
100
AcDbEntity
  8
SOLBET_Zbrojenie_Konstrukcja
100
AcDbLine
 10
-0.0000082767528511
 20
10.27997340432759
 30
0.0
 11
-0.2000082767528397
 21
10.27997340432756
 31
0.0
  0
LINE
  5
B9EE
330
B9DE
100
AcDbEntity
  8
SOLBET_Zbrojenie_Konstrukcja
100
AcDbLine
 10
-0.2000082767528397
 20
9.879973404327586
 30
0.0
 11
-0.0000082767528511
 21
9.879973404327586
 31
0.0
  0
LINE
  5
B9EF
330
B9DE
100
AcDbEntity
  8
SOLBET_Zbrojenie_Konstrukcja
100
AcDbLine
 10
-0.2000082767528397
 20
10.27997340432759
 30
0.0
 11
-0.2000082767528397
 21
9.879973404327586
 31
0.0
  0
LINE
  5
B9F0
330
B9DE
100
AcDbEntity
  8
SOLBET_Zbrojenie_Konstrukcja
100
AcDbLine
 10
-0.0000082767528511
 20
9.579973404327603
 30
0.0
 11
-0.2000082767528397
 21
9.579973404327603
 31
0.0
  0
LINE
  5
B9F1
330
B9DE
100
AcDbEntity
  8
SOLBET_Zbrojenie_Konstrukcja
100
AcDbLine
 10
-0.2000082767528397
 20
9.179973404327569
 30
0.0
 11
-0.0000082767528511
 21
9.179973404327597
 31
0.0
  0
LINE
  5
B9F2
330
B9DE
100
AcDbEntity
  8
SOLBET_Zbrojenie_Konstrukcja
100
AcDbLine
 10
-0.2000082767528397
 20
9.579973404327603
 30
0.0
 11
-0.2000082767528397
 21
9.179973404327597
 31
0.0
  0
LINE
  5
B9F3
330
B9DE
100
AcDbEntity
  8
SOLBET_Zbrojenie_Konstrukcja
100
AcDbLine
 10
-6.900003909159067
 20
2.71985628503927
 30
0.0
 11
-6.900003924574036
 21
0.1000000405989851
 31
0.0
  0
LINE
  5
B9F4
330
B9DE
100
AcDbEntity
  8
SOLBET_Zbrojenie_Konstrukcja
100
AcDbLine
 10
-7.000003924574031
 20
0.0000000411873771
 30
0.0
 11
-9.900003909159067
 21
0.0000000411873771
 31
0.0
  0
ARC
  5
B9F5
330
B9DE
100
AcDbEntity
  8
SOLBET_Zbrojenie_Konstrukcja
100
AcDbCircle
 10
-7.000003924574031
 20
0.1000000411873714
 30
0.0
 40
0.1
100
AcDbArc
 50
270.0
 51
359.9999996628779
  0
LINE
  5
B9F6
330
B9DE
100
AcDbEntity
  8
SOLBET_Zbrojenie_Konstrukcja
100
AcDbLine
 10
-10.00000000000003
 20
0.0000000411873771
 30
0.0
 11
-10.00000000000003
 21
0.0000000411873771
 31
0.0
  0
LINE
  5
B9F7
330
B9DE
100
AcDbEntity
  8
SOLBET_Zbrojenie_Konstrukcja
100
AcDbLine
 10
-9.800003909159073
 20
0.1000000411873714
 30
0.0
 11
-7.100003909159056
 21
0.100000041187343
 31
0.0
  0
ARC
  5
B9F8
330
B9DE
100
AcDbEntity
  8
SOLBET_Zbrojenie_Konstrukcja
100
AcDbCircle
 10
-9.800003909159073
 20
0.0000000411873771
 30
0.0
 40
0.1
100
AcDbArc
 50
90.0
 51
180.0
  0
ARC
  5
B9F9
330
B9DE
100
AcDbEntity
  8
SOLBET_Zbrojenie_Konstrukcja
100
AcDbCircle
 10
-7.100003909159056
 20
0.2000000411873373
 30
0.0
 40
0.1
100
AcDbArc
 50
270.0
 51
0.0
  0
LINE
  5
B9FA
330
B9DE
100
AcDbEntity
  8
SOLBET_Zbrojenie_Konstrukcja
100
AcDbLine
 10
-7.100000000000051
 20
0.1000000411873714
 30
0.0
 11
-7.100000000000051
 21
0.1000000411873714
 31
0.0
  0
LINE
  5
B9FB
330
B9DE
100
AcDbEntity
  8
SOLBET_Zbrojenie_Konstrukcja
100
AcDbLine
 10
-7.000003909159062
 20
0.2000000411873373
 30
0.0
 11
-7.000003909159062
 21
2.619856284450946
 31
0.0
  0
LINE
  5
B9FC
330
B9DE
100
AcDbEntity
  8
SOLBET_Zbrojenie_Konstrukcja
100
AcDbLine
 10
-6.999999999411642
 20
2.719856284450941
 30
0.0
 11
-7.000000000000028
 21
2.719856284450912
 31
0.0
  0
ARC
  5
B9FD
330
B9DE
100
AcDbEntity
  8
SOLBET_Zbrojenie_Konstrukcja
100
AcDbCircle
 10
-6.900003909159039
 20
2.619856284450946
 30
0.0
 40
0.1
100
AcDbArc
 50
89.99999966287951
 51
180.0
  0
LINE
  5
B9FE
330
B9DE
100
AcDbEntity
  8
SOLBET_Zbrojenie_Konstrukcja
100
AcDbLine
 10
0.000000175748454
 20
11.27723843126878
 30
0.0
 11
0.000000175748454
 21
10.9772384312688
 31
0.0
  0
LINE
  5
B9FF
330
B9DE
100
AcDbEntity
  8
SOLBET_Zbrojenie_Konstrukcja
100
AcDbLine
 10
-0.0000082767528511
 20
10.57997340432757
 30
0.0
 11
-0.0000082767528511
 21
10.27997340432759
 31
0.0
  0
LINE
  5
BA00
330
B9DE
100
AcDbEntity
  8
SOLBET_Zbrojenie_Konstrukcja
100
AcDbLine
 10
0.000000175748454
 20
9.877238431268807
 30
0.0
 11
0.000000175748454
 21
9.577238431268824
 31
0.0
  0
LINE
  5
BA01
330
B9DE
100
AcDbEntity
  8
SOLBET_Zbrojenie_Konstrukcja
100
AcDbLine
 10
-0.2000082767528681
 20
11.56632906740569
 30
0.0
 11
-0.2000082767528397
 21
11.67997340432757
 31
0.0
  0
LINE
  5
BA02
330
B9DE
100
AcDbEntity
  8
SOLBET_Zbrojenie_Konstrukcja
100
AcDbLine
 10
-0.0999915960280475
 20
8.743291359936534
 30
0.0
 11
-0.0999915960280475
 21
8.7432917551304
 31
0.0
  0
LINE
  5
BA03
330
B9DE
100
AcDbEntity
  8
SOLBET_Zbrojenie_Konstrukcja
100
AcDbLine
 10
2.939445740043424
 20
10.44908526573439
 30
0.0
 11
-6.657489685047522
 21
10.44908526573442
 31
0.0
  0
LINE
  5
BA04
330
B9DE
100
AcDbEntity
  8
SOLBET_Zbrojenie_Konstrukcja
100
AcDbLine
 10
-6.109067301461777
 20
10.95338554979068
 30
0.0
 11
-6.109067301461777
 21
9.906561258864456
 31
0.0
  0
LINE
  5
BA05
330
B9DE
100
AcDbEntity
  8
SOLBET_Zbrojenie_Konstrukcja
100
AcDbLine
 10
-6.297534733716815
 20
10.77884503084507
 30
0.0
 11
-6.297534733716815
 21
10.42997340432757
 31
0.0
  0
LWPOLYLINE
  5
BA06
330
B9DE
100
AcDbEntity
  8
SOLBET_Zbrojenie_Konstrukcja
100
AcDbPolyline
 90
        4
 70
     1
 43
0.0
 10
-6.109067301461777
 20
11.12717631384205
 10
-5.954077402512098
 20
11.12717631384205
 10
-5.954077402512098
 20
9.732770494813081
 10
-6.109067301461777
 20
9.732770494813081
  0
LINE
  5
BA07
330
B9DE
100
AcDbEntity
  8
SOLBET_Zbrojenie_Konstrukcja
100
AcDbLine
 10
-6.109067301461777
 20
10.08110177781006
 30
0.0
 11
-6.297534733716815
 21
10.08110177781006
 31
0.0
  0
LINE
  5
BA08
330
B9DE
100
AcDbEntity
  8
SOLBET_Zbrojenie_Konstrukcja
100
AcDbLine
 10
-6.297534733716815
 20
10.08110177781006
 30
0.0
 11
-6.297534733716815
 21
10.42997340432757
 31
0.0
  0
LINE
  5
BA09
330
B9DE
100
AcDbEntity
  8
SOLBET_Zbrojenie_Konstrukcja
100
AcDbLine
 10
-11.55909494212471
 20
0.0027350142461557
 30
0.0
 11
-9.900003909159067
 21
0.0000000411873771
 31
0.0
  0
LINE
  5
BA0A
330
B9DE
100
AcDbEntity
  8
SOLBET_Zbrojenie_Konstrukcja
100
AcDbLine
 10
-6.297534733716815
 20
10.77884503084507
 30
0.0
 11
-6.109067301461777
 21
10.77884503084507
 31
0.0
  0
POINT
  5
BA0B
330
B9DE
100
AcDbEntity
  8
SOLBET_Zbrojenie_Konstrukcja
100
AcDbPoint
 10
0.0
 20
0.0
 30
0.0
  0
ENDBLK
  5
BA0F
330
B9DE
100
AcDbEntity
  8
0
100
AcDbBlockEnd
  0
BLOCK
  5
BD4F
330
BD41
100
AcDbEntity
  8
0
100
AcDbBlockBegin
  2
SOLBET_Bloczek_Optimal_240x240x590_P+W_KG500_PRA
 70
     2
 10
0.0
 20
0.0
 30
0.0
  3
SOLBET_Bloczek_Optimal_240x240x590_P+W_KG500_PRA
  1

  0
ATTDEF
  5
BD42
330
BD41
100
AcDbEntity
  8
SOLBET_Wymiary_Opisy
100
AcDbText
 10
-0.0000000878742412
 20
6.303237404038322
 30
0.0
 40
0.9913121336814832
  1
240x240x590
  7
Solbet_1
100
AcDbAttributeDefinition
  3

  2
WYMIARY
 70
    11
1001
AcDbAttr
1070
     0
1070
     1
  0
ATTDEF
  5
BD43
330
BD41
100
AcDbEntity
  8
SOLBET_Wymiary_Opisy
100
AcDbText
 10
-0.0000000878742412
 20
4.790717996322224
 30
0.0
 40
0.9913121336814832
  1
500
  7
Solbet_1
100
AcDbAttributeDefinition
  3

  2
KLASA_GĘSTOŚCI
 70
    11
1001
AcDbAttr
1070
     0
1070
     1
  0
ATTDEF
  5
BD44
330
BD41
100
AcDbEntity
  8
SOLBET_Wymiary_Opisy
100
AcDbText
 10
-0.0000000878742412
 20
3.269569161109998
 30
0.0
 40
0.9913121336814832
  1
Pióra+Wpusty
  7
Solbet_1
100
AcDbAttributeDefinition
  3

  2
PROFILOWANIE
 70
    11
1001
AcDbAttr
1070
     0
1070
     1
  0
ATTDEF
  5
BD45
330
BD41
100
AcDbEntity
  8
SOLBET_Wymiary_Opisy
100
AcDbText
 10
-0.0000000878742412
 20
0.2448647517692188
 30
0.0
 40
0.9913121336814832
  1
SOLBET
  7
Solbet_1
100
AcDbAttributeDefinition
  3

  2
FIRMA
 70
    11
1001
AcDbAttr
1070
     0
1070
     1
  0
ATTDEF
  5
BD46
330
BD41
100
AcDbEntity
  8
SOLBET_Wymiary_Opisy
100
AcDbText
 10
-0.0000000878742412
 20
9.333547402386153
 30
0.0
 40
0.9913121336814832
  1
Bloczek
  7
Solbet_1
100
AcDbAttributeDefinition
  3
Nazwa
  2
NAZWA
 70
    11
1001
AcDbAttr
1070
     0
1070
     1
  0
ATTDEF
  5
BD47
330
BD41
100
AcDbEntity
  8
SOLBET_Wymiary_Opisy
100
AcDbText
 10
-0.0000000878742412
 20
7.794499222151949
 30
0.0
 40
0.9913121336814832
  1
SOLBET Optimal
  7
Solbet_1
100
AcDbAttributeDefinition
  3

  2
SYSTEM
 70
    11
1001
AcDbAttr
1070
     0
1070
     1
  0
ATTDEF
  5
BD48
330
BD41
100
AcDbEntity
  8
SOLBET_Wymiary_Opisy
100
AcDbText
 10
-0.0000000878742412
 20
1.744181511296331
 30
0.0
 40
0.9913121336814832
  1
Prawo
  7
Solbet_1
100
AcDbAttributeDefinition
  3

  2
WIDOK
 70
    11
1001
AcDbAttr
1070
     0
1070
     1
  0
LINE
  5
BD49
330
BD41
100
AcDbEntity
  8
SOLBET_Bloczki
100
AcDbLine
 10
12.00000017574848
 20
11.99999995881262
 30
0.0
 11
12.00000017574848
 21
-0.0000000411874908
 31
0.0
  0
LINE
  5
BD4A
330
BD41
100
AcDbEntity
  8
SOLBET_Bloczki
100
AcDbLine
 10
12.00000017574848
 20
11.99999995881262
 30
0.0
 11
0.0000001757484824
 21
11.99999995881262
 31
0.0
  0
LINE
  5
BD4B
330
BD41
100
AcDbEntity
  8
SOLBET_Bloczki
100
AcDbLine
 10
0.0000001757484824
 20
11.99999995881262
 30
0.0
 11
0.0000001757484824
 21
-0.0000000411873771
 31
0.0
  0
LINE
  5
BD4C
330
BD41
100
AcDbEntity
  8
SOLBET_Bloczki
100
AcDbLine
 10
0.0000001757484824
 20
-0.0000000411873771
 30
0.0
 11
12.00000017574848
 21
-0.0000000411874908
 31
0.0
  0
ENDBLK
  5
BD50
330
BD41
100
AcDbEntity
  8
0
100
AcDbBlockEnd
  0
ENDSEC
  0
SECTION
  2
ENTITIES
  0
LWPOLYLINE
  5
AD49
330
1F
100
AcDbEntity
  8
SOLBET_Beton
100
AcDbPolyline
 90
        4
 70
     1
 43
0.0
 10
102.3306518948411
 20
114.9276887771731
 10
121.3306518948411
 20
114.9276887771731
 10
121.3306518948411
 20
121.9276887771702
 10
102.3306518948411
 20
121.9276887771702
  0
LWPOLYLINE
  5
AD4A
330
1F
100
AcDbEntity
  8
SOLBET_Beton
100
AcDbPolyline
 90
        4
 70
     1
 43
0.0
 10
102.3306518948411
 20
122.4276887771702
 10
121.3306518948411
 20
122.4276887771702
 10
121.3306518948411
 20
129.4276887771731
 10
102.3306518948411
 20
129.4276887771731
  0
LWPOLYLINE
  5
AD4B
330
1F
100
AcDbEntity
  8
SOLBET_Beton
100
AcDbPolyline
 90
        4
 70
     1
 43
0.0
 10
102.3306518948411
 20
129.9276887771731
 10
121.3306518948411
 20
129.9276887771731
 10
121.3306518948411
 20
136.9276887771731
 10
102.3306518948411
 20
136.9276887771731
  0
LWPOLYLINE
  5
AD4C
330
1F
100
AcDbEntity
  8
SOLBET_Beton
100
AcDbPolyline
 90
        4
 70
     1
 43
0.0
 10
102.3306518948411
 20
137.4276887771731
 10
121.3306518948411
 20
137.4276887771731
 10
121.3306518948411
 20
144.4276887771731
 10
102.3306518948411
 20
144.4276887771731
  0
LINE
  5
AD4D
330
1F
100
AcDbEntity
  8
SOLBET_Wymiary_Opisy
100
AcDbLine
 10
76.42909766230786
 20
147.3276887771732
 30
0.0
 11
122.8306518948411
 21
147.3276887771732
 31
0.0
  0
LWPOLYLINE
  5
AD4E
330
1F
100
AcDbEntity
  8
SOLBET_Beton
100
AcDbPolyline
 90
        4
 70
     1
 43
0.0
 10
102.3306518948411
 20
152.4276887771731
 10
121.3306518948411
 20
152.4276887771731
 10
121.3306518948411
 20
159.4276887771702
 10
102.3306518948411
 20
159.4276887771702
  0
LWPOLYLINE
  5
AD4F
330
1F
100
AcDbEntity
  8
SOLBET_Beton
100
AcDbPolyline
 90
        4
 70
     1
 43
0.0
 10
102.3306518948411
 20
159.9276887771702
 10
121.3306518948411
 20
159.9276887771702
 10
121.3306518948411
 20
166.9276887771731
 10
102.3306518948411
 20
166.9276887771731
  0
LWPOLYLINE
  5
AD50
330
1F
100
AcDbEntity
  8
SOLBET_Beton
100
AcDbPolyline
 90
        4
 70
     1
 43
0.0
 10
102.3306518948411
 20
167.4276887771731
 10
121.3306518948411
 20
167.4276887771731
 10
121.3306518948411
 20
174.4276887771731
 10
102.3306518948411
 20
174.4276887771731
  0
LINE
  5
AD51
330
1F
100
AcDbEntity
  8
SOLBET_Wymiary_Opisy
100
AcDbLine
 10
76.25814710785744
 20
148.8276887771732
 30
0.0
 11
122.8306518948411
 21
148.8276887771732
 31
0.0
  0
LWPOLYLINE
  5
AD58
330
1F
100
AcDbEntity
  8
SOLBET_Beton
100
AcDbPolyline
 90
        3
 70
     0
 43
0.0
 10
102.3306518948411
 20
144.9276887771731
 10
121.3306518948411
 20
144.9276887771731
 10
121.3306518948411
 20
147.3276887771732
  0
LWPOLYLINE
  5
AD59
330
1F
100
AcDbEntity
  8
SOLBET_Beton
100
AcDbPolyline
 90
        4
 70
     0
 43
0.0
 10
121.3306518948411
 20
148.8276887771732
 10
121.3306518948411
 20
151.9276887771731
 10
102.3306518948411
 20
151.9276887771731
 10
102.3306518948411
 20
148.8276887771732
  0
LINE
  5
AD5C
330
1F
100
AcDbEntity
  8
SOLBET_Emulsje_Folie
100
AcDbLine
 10
121.3985788022637
 20
174.4922639537137
 30
0.0
 11
121.3985788022637
 21
148.8276887771732
 31
0.0
  0
LINE
  5
AD5F
330
1F
100
AcDbEntity
  8
SOLBET_Wymiary_Opisy
100
AcDbLine
 10
90.12575465303415
 20
217.3276887771731
 30
0.0
 11
123.8306518948411
 21
217.3276887771731
 31
0.0
  0
LINE
  5
AD62
330
1F
100
AcDbEntity
  8
SOLBET_Emulsje_Folie
100
AcDbLine
 10
121.4257220637064
 20
147.3276887771732
 30
0.0
 11
121.4257220637064
 21
114.9276887771731
 31
0.0
  0
LINE
  5
AD66
330
1F
100
AcDbEntity
  8
SOLBET_Izolacja
  6
Continuous
100
AcDbLine
 10
121.8306518948411
 20
174.9017357214615
 30
0.0
 11
173.8306518948411
 21
174.9017357214615
 31
0.0
  0
LINE
  5
AD68
330
1F
100
AcDbEntity
  8
SOLBET_Tynki_Posadzki
100
AcDbLine
 10
121.8306518948411
 20
180.2750425550184
 30
0.0
 11
121.8306518948411
 21
217.3276887771731
 31
0.0
  0
LINE
  5
AD69
330
1F
100
AcDbEntity
  8
SOLBET_Izolacja
  6
Continuous
100
AcDbLine
 10
122.3306518948411
 20
177.4017357214644
 30
0.0
 11
177.3306518948411
 21
177.4017357214644
 31
0.0
  0
LINE
  5
AD6A
330
1F
100
AcDbEntity
  8
SOLBET_Izolacja
  6
Continuous
100
AcDbLine
 10
122.3306518948411
 20
174.9017357214615
 30
0.0
 11
122.3306518948411
 21
180.2750425550184
 31
0.0
  0
LINE
  5
AD6D
330
1F
100
AcDbEntity
  8
SOLBET_Tynki_Posadzki
100
AcDbLine
 10
122.6287180860299
 20
180.7750425550184
 30
0.0
 11
177.3306518948411
 21
180.7750425550184
 31
0.0
  0
LINE
  5
AD6E
330
1F
100
AcDbEntity
  8
SOLBET_Izolacja
  6
Continuous
100
AcDbLine
 10
122.3306518948411
 20
174.9017357214615
 30
0.0
 11
121.3306518948411
 21
174.9017357214615
 31
0.0
  0
LINE
  5
AD6F
330
1F
100
AcDbEntity
  8
SOLBET_Izolacja
  6
Continuous
100
AcDbLine
 10
121.3306518948411
 20
175.2276887771731
 30
0.0
 11
121.3306518948411
 21
174.9017357214615
 31
0.0
  0
LINE
  5
AD70
330
1F
100
AcDbEntity
  8
SOLBET_Izolacja
  6
Continuous
100
AcDbLine
 10
122.3306518948411
 20
180.2750425550184
 30
0.0
 11
121.3306518948411
 21
180.2750425550184
 31
0.0
  0
LINE
  5
AD71
330
1F
100
AcDbEntity
  8
SOLBET_Grunt
  6
Continuous
100
AcDbLine
 10
100.2651240557907
 20
159.4276887771702
 30
0.0
 11
65.17629324507471
 21
159.4276887771702
 31
0.0
  0
LINE
  5
AD72
330
1F
100
AcDbEntity
  8
SOLBET_Wymiary_Opisy
100
AcDbLine
 10
65.17629324507471
 20
160.4696936734457
 30
0.0
 11
65.17629324507471
 21
145.9428463706397
 31
0.0
  0
LINE
  5
AD73
330
1F
100
AcDbEntity
  8
SOLBET_Grunt
  6
Continuous
100
AcDbLine
 10
74.17221522657292
 20
156.211823667062
 30
0.0
 11
71.23487992987612
 21
159.4276887771702
 31
0.0
  0
LINE
  5
AD74
330
1F
100
AcDbEntity
  8
SOLBET_Grunt
  6
Continuous
100
AcDbLine
 10
73.82963530053439
 20
158.4298051271413
 30
0.0
 11
72.91817951279336
 21
159.4276887771702
 31
0.0
  0
LINE
  5
AD75
330
1F
100
AcDbEntity
  8
SOLBET_Grunt
  6
Continuous
100
AcDbLine
 10
77.5388143924074
 20
156.211823667062
 30
0.0
 11
74.6014790957106
 21
159.4276887771702
 31
0.0
  0
ARC
  5
AD79
330
1F
100
AcDbEntity
  8
SOLBET_Tynki_Posadzki
100
AcDbCircle
 10
121.8306518948411
 20
180.7750425550184
 30
0.0
 40
1.5000521396288
100
AcDbArc
 50
0.0
 51
90.0
  0
LINE
  5
AD7A
330
1F
100
AcDbEntity
  8
SOLBET_Tynki_Posadzki
100
AcDbLine
 10
122.6287180860299
 20
180.7750425550184
 30
0.0
 11
122.6287180860299
 21
180.2750425550184
 31
0.0
  0
HATCH
  5
AD7B
330
1F
100
AcDbEntity
  8
SOLBET_Beton
100
AcDbHatch
 10
0.0
 20
0.0
 30
0.0
210
0.0
220
0.0
230
1.0
  2
ANSI33
 70
     0
 71
     0
 91
        1
 92
        1
 93
        5
 72
     1
 10
99.03065189484115
 20
114.0118434287491
 11
96.83065189484119
 21
111.8118434287492
 72
     1
 10
96.83065189484119
 20
111.8118434287492
 11
96.8306518948416
 21
94.01184342875206
 72
     1
 10
96.8306518948416
 20
94.01184342875206
 11
126.8306518948411
 21
94.01184342875211
 72
     1
 10
126.8306518948411
 20
94.01184342875211
 11
126.8306518948411
 21
114.0118434287491
 72
     1
 10
126.8306518948411
 20
114.0118434287491
 11
99.03065189484115
 21
114.0118434287491
 97
        0
 75
     0
 76
     1
 52
0.0
 41
0.75
 77
     0
 78
     2
 53
45.0
 43
-1809.082655280221
 44
369.619788895981
 45
-3.367596045400931
 46
3.367596045400932
 79
     0
 53
45.0
 43
-1805.71505778022
 44
369.619788895981
 45
-3.367596045400931
 46
3.367596045400932
 79
     2
 49
2.381249999999999
 49
-1.190624999999999
 98
        1
 10
107.1726882361836
 20
103.5949576011094
1001
ACAD
1010
0.0
1020
0.0
1030
0.0
  0
INSERT
  5
AD7E
330
1F
100
AcDbEntity
  8
SOLBET_Grunt
100
AcDbBlockReference
  2
*X4
 10
5.056784396898365
 20
28.68922692664489
 30
0.0
 41
50.0
 42
50.0
 43
50.0
1001
ASO_SCHRAFF
1005
9260
1070
     0
1005
0
1001
ACAD
1000
HATCH
1002
{
1070
    16
1000
DOTS
1040
1.25
1040
0.7853981633974483
1002
}
  0
HATCH
  5
AD7F
330
1F
100
AcDbEntity
  8
SOLBET_Beton
100
AcDbHatch
 10
0.0
 20
0.0
 30
0.0
210
0.0
220
0.0
230
1.0
  2
ANSI33
 70
     0
 71
     0
 91
        1
 92
        7
 72
     0
 73
     1
 93
        4
 10
177.3306518948411
 20
166.7276887771732
 10
177.3306518948416
 20
174.2276887771702
 10
121.4746090554172
 20
174.2276887771703
 10
121.4746090554172
 20
166.7276887771731
 97
        0
 75
     0
 76
     1
 52
0.0
 41
0.75
 77
     0
 78
     2
 53
45.0
 43
-1809.082655280221
 44
369.619788895981
 45
-3.367596045400931
 46
3.367596045400932
 79
     0
 53
45.0
 43
-1805.71505778022
 44
369.619788895981
 45
-3.367596045400931
 46
3.367596045400932
 79
     2
 49
2.381249999999999
 49
-1.190624999999999
 47
0.0654967556322452
 98
        1
 10
145.9094610174579
 20
169.0697443786899
1001
ACAD
1010
0.0
1020
0.0
1030
0.0
  0
LWPOLYLINE
  5
AD80
330
1F
100
AcDbEntity
  8
SOLBET_Beton
100
AcDbPolyline
 90
        4
 70
     1
 43
0.0
 10
121.4746090554172
 20
166.7276887771731
 10
177.3306518948411
 20
166.7276887771731
 10
177.3306518948411
 20
174.2276887771702
 10
121.4746090554172
 20
174.2276887771702
1001
ASO_SCHRAFF
1005
9261
1070
     1
1002
{
1070
     1
1005
9261
1002
}
1002
{
1070
     2
1005
9262
1002
}
1002
{
1070
     4
1000
INSUL
1040
0.2
1040
135.0
1070
     0
1000
T__SCHR
1070
   256
1000
VONLAYER
1040
50.0
1070
     1
1002
}
  0
LINE
  5
AD81
330
1F
100
AcDbEntity
  8
SOLBET_Emulsje_Folie
100
AcDbLine
 10
102.2627249874185
 20
174.4922639537137
 30
0.0
 11
121.3985788022637
 21
174.4922639537137
 31
0.0
  0
LINE
  5
AD82
330
1F
100
AcDbEntity
  8
SOLBET_Wymiary_Opisy
100
AcDbLine
 10
78.1825888834901
 20
159.4276887771702
 30
0.0
 11
79.17284632395058
 21
148.8276887771732
 31
0.0
  0
LINE
  5
AD83
330
1F
100
AcDbEntity
  8
SOLBET_Grunt
  6
Continuous
100
AcDbLine
 10
66.70837459249923
 20
156.211823667062
 30
0.0
 11
69.64570988919695
 21
159.4276887771702
 31
0.0
  0
LINE
  5
AD84
330
1F
100
AcDbEntity
  8
SOLBET_Grunt
  6
Continuous
100
AcDbLine
 10
67.05095451853776
 20
158.4298051271413
 30
0.0
 11
67.96241030627971
 21
159.4276887771702
 31
0.0
  0
LINE
  5
AD85
330
1F
100
AcDbEntity
  8
SOLBET_Wymiary_Opisy
100
AcDbLine
 10
81.49573040311315
 20
147.3276887771732
 30
0.0
 11
86.80349583625867
 21
90.51184342875206
 31
0.0
  0
LINE
  5
AD86
330
1F
100
AcDbEntity
  8
SOLBET_Wymiary_Opisy
100
AcDbLine
 10
91.88674945582262
 20
90.51184342875206
 30
0.0
 11
86.80349583625867
 21
90.51184342875206
 31
0.0
  0
LINE
  5
AD87
330
1F
100
AcDbEntity
  8
SOLBET_Emulsje_Folie
100
AcDbLine
 10
121.6523716442762
 20
174.4488792829594
 30
0.0
 11
177.3306518948411
 21
174.4488792829594
 31
0.0
  0
LINE
  5
AD88
330
1F
100
AcDbEntity
  8
SOLBET_Emulsje_Folie
100
AcDbLine
 10
122.4454679445134
 20
180.5250425550184
 30
0.0
 11
122.4454679445134
 21
177.8475750350334
 31
0.0
  0
LINE
  5
AD89
330
1F
100
AcDbEntity
  8
SOLBET_Emulsje_Folie
100
AcDbLine
 10
122.6954679445134
 20
177.5975750350334
 30
0.0
 11
177.3306518948411
 21
177.5975750350334
 31
0.0
  0
ARC
  5
AD8A
330
1F
100
AcDbEntity
  8
SOLBET_Emulsje_Folie
100
AcDbCircle
 10
122.6954679445134
 20
177.8475750350334
 30
0.0
 40
0.25
100
AcDbArc
 50
180.0
 51
270.0
  0
LWPOLYLINE
  5
AD91
330
1F
100
AcDbEntity
  8
SOLBET_Tynki_Posadzki
100
AcDbPolyline
 90
        5
 70
     1
 43
0.0
 10
122.4454679445134
 20
177.8475750350334
 42
0.0737237824442343
 10
122.4562211277207
 20
177.7750425550184
 10
177.3306518948411
 20
177.7750425550184
 10
177.3306518948411
 20
180.2750425550184
 10
122.4454679445134
 20
180.2750425550184
1001
ASO_SCHRAFF
1005
92CE
1070
     1
1002
{
1070
     1
1005
92CE
1002
}
1002
{
1070
     2
1005
92D7
1002
}
1002
{
1070
     4
1000
AR-CONC
1040
0.01
1040
0.0
1070
     0
1000
T__SCHR
1070
   256
1000
VONLAYER
1040
50.0
1070
     1
1002
}
  0
HATCH
  5
AD93
330
1F
100
AcDbEntity
  8
SOLBET_Beton
100
AcDbHatch
 10
0.0
 20
0.0
 30
0.0
210
0.0
220
0.0
230
1.0
  2
ANSI31
 70
     0
 71
     0
 91
        1
 92
        7
 72
     0
 73
     1
 93
        4
 10
95.13065189484132
 20
94.01184342875206
 10
91.88674945582262
 20
90.51184342875206
 10
131.7745543338592
 20
90.51184342875206
 10
128.5306518948409
 20
94.01184342875202
 97
        0
 75
     0
 76
     1
 52
90.0
 41
0.5
 77
     0
 78
     1
 53
135.0
 43
-1809.082655280221
 44
369.619788895981
 45
-1.122532015133644
 46
-1.122532015133643
 79
     0
 47
0.1036487772428394
 98
        1
 10
101.8428145323414
 20
92.30532425420785
1001
ACAD
1010
0.0
1020
0.0
1030
0.0
  0
LWPOLYLINE
  5
AD94
330
1F
100
AcDbEntity
  8
SOLBET_Beton
100
AcDbPolyline
 90
        4
 70
     1
 43
0.0
 10
91.88674945582262
 20
90.51184342875206
 10
131.7745543338596
 20
90.51184342875206
 10
128.5306518948409
 20
94.01184342875206
 10
95.13065189484132
 20
94.01184342875206
1001
ASO_SCHRAFF
1005
92D0
1070
     1
1002
{
1070
     1
1005
92D0
1002
}
1002
{
1070
     2
1005
92D6
1002
}
1002
{
1070
     4
1000
ANSI31
1040
0.1
1040
90.0
1070
     0
1000
T__SCHR
1070
   256
1000
VONLAYER
1040
50.0
1070
     1
1002
}
  0
LINE
  5
AD95
330
1F
100
AcDbEntity
  8
SOLBET_Izolacja
100
AcDbLine
 10
109.3306518948411
 20
175.2276887771731
 30
0.0
 11
109.3306518948411
 21
217.3276887771731
 31
0.0
  0
LINE
  5
AD97
330
1F
100
AcDbEntity
  8
SOLBET_Tynki_Posadzki
100
AcDbLine
 10
102.3306479856821
 20
175.4276887710497
 30
0.0
 11
102.3306518948411
 21
217.3276887771731
 31
0.0
  0
LINE
  5
AD98
330
1F
100
AcDbEntity
  8
SOLBET_Tynki_Posadzki
100
AcDbLine
 10
96.33065189484113
 20
175.2276887771731
 30
0.0
 11
96.33065189484113
 21
217.3276887771731
 31
0.0
  0
LINE
  5
AD99
330
1F
100
AcDbEntity
  8
SOLBET_Izolacja
  6
Continuous
100
AcDbLine
 10
101.8306518948411
 20
114.9276887771731
 30
0.0
 11
101.8306518948411
 21
147.3276887771732
 31
0.0
  0
LINE
  5
AD9B
330
1F
100
AcDbEntity
  8
SOLBET_Izolacja
  6
Continuous
100
AcDbLine
 10
101.8306518948411
 20
148.8276887771732
 30
0.0
 11
101.8306518948411
 21
174.4276887771731
 31
0.0
  0
LINE
  5
AD9C
330
1F
100
AcDbEntity
  8
SOLBET_Emulsje_Folie
100
AcDbLine
 10
102.1527714772155
 20
174.4922639537137
 30
0.0
 11
102.1527714772155
 21
148.8276887771732
 31
0.0
  0
LINE
  5
AD9D
330
1F
100
AcDbEntity
  8
SOLBET_Emulsje_Folie
100
AcDbLine
 10
102.1527714772155
 20
147.3276887771732
 30
0.0
 11
102.1527714772155
 21
114.9276887771731
 31
0.0
  0
LINE
  5
AD9E
330
1F
100
AcDbEntity
  8
SOLBET_Emulsje_Folie
100
AcDbLine
 10
101.9027714771928
 20
114.6776887771731
 30
0.0
 11
98.84796910584128
 21
114.6776887771731
 31
0.0
  0
ARC
  5
AD9F
330
1F
100
AcDbEntity
  8
SOLBET_Emulsje_Folie
100
AcDbCircle
 10
101.9027714771928
 20
114.9276887771731
 30
0.0
 40
0.25
100
AcDbArc
 50
270.0
 51
0.0
  0
LINE
  5
ADA0
330
1F
100
AcDbEntity
  8
SOLBET_Izolacja
  6
Continuous
100
AcDbLine
 10
100.8306518948411
 20
148.8276887771732
 30
0.0
 11
100.8306518948411
 21
174.4276887771731
 31
0.0
  0
LINE
  5
ADA2
330
1F
100
AcDbEntity
  8
SOLBET_Izolacja
  6
Continuous
100
AcDbLine
 10
100.8306518948411
 20
114.9276887771731
 30
0.0
 11
100.8306518948411
 21
147.3276887771732
 31
0.0
  0
LINE
  5
ADA3
330
1F
100
AcDbEntity
  8
SOLBET_Zbrojenie_Konstrukcja
100
AcDbLine
 10
100.9954279833946
 20
163.419680581984
 30
0.0
 11
109.8306518948411
 21
163.419680581984
 31
0.0
  0
LINE
  5
ADA4
330
1F
100
AcDbEntity
  8
SOLBET_Zbrojenie_Konstrukcja
100
AcDbLine
 10
101.2436446503743
 20
165.714818287309
 30
0.0
 11
101.2436446503743
 21
161.1245428766618
 31
0.0
  0
LINE
  5
ADA6
330
1F
100
AcDbEntity
  8
SOLBET_Emulsje_Folie
100
AcDbLine
 10
100.2651240557907
 20
140.1944876421709
 30
0.0
 11
100.665124055814
 21
140.3455417844699
 31
0.0
  0
LINE
  5
ADA7
330
1F
100
AcDbEntity
  8
SOLBET_Emulsje_Folie
100
AcDbLine
 10
100.2651240557907
 20
141.2175129592739
 30
0.0
 11
100.665124055814
 21
141.0664588169747
 31
0.0
  0
LINE
  5
ADA8
330
1F
100
AcDbEntity
  8
SOLBET_Emulsje_Folie
100
AcDbLine
 10
100.2651240557907
 20
114.9276887771731
 30
0.0
 11
100.665124055814
 21
114.9276887771731
 31
0.0
  0
LINE
  5
ADA9
330
1F
100
AcDbEntity
  8
SOLBET_Emulsje_Folie
100
AcDbLine
 10
100.2651240557907
 20
116.2663878154621
 30
0.0
 11
100.665124055814
 21
116.115333673163
 31
0.0
  0
LINE
  5
ADAA
330
1F
100
AcDbEntity
  8
SOLBET_Emulsje_Folie
100
AcDbLine
 10
100.2651240557907
 20
115.243362498359
 30
0.0
 11
100.665124055814
 21
115.3944166406581
 31
0.0
  0
LINE
  5
ADAB
330
1F
100
AcDbEntity
  8
SOLBET_Emulsje_Folie
100
AcDbLine
 10
100.2651240557907
 20
117.0255857229175
 30
0.0
 11
100.665124055814
 21
117.1766398652166
 31
0.0
  0
LINE
  5
ADAC
330
1F
100
AcDbEntity
  8
SOLBET_Emulsje_Folie
100
AcDbLine
 10
100.2651240557907
 20
118.0486110400175
 30
0.0
 11
100.665124055814
 21
117.8975568977184
 31
0.0
  0
LINE
  5
ADAD
330
1F
100
AcDbEntity
  8
SOLBET_Emulsje_Folie
100
AcDbLine
 10
100.2651240557907
 20
119.8308342645759
 30
0.0
 11
100.665124055814
 21
119.6797801222768
 31
0.0
  0
LINE
  5
ADAE
330
1F
100
AcDbEntity
  8
SOLBET_Emulsje_Folie
100
AcDbLine
 10
100.2651240557907
 20
118.8078089474758
 30
0.0
 11
100.665124055814
 21
118.958863089775
 31
0.0
  0
LINE
  5
ADAF
330
1F
100
AcDbEntity
  8
SOLBET_Emulsje_Folie
100
AcDbLine
 10
100.2651240557907
 20
120.5900321720313
 30
0.0
 11
100.665124055814
 21
120.7410863143304
 31
0.0
  0
LINE
  5
ADB0
330
1F
100
AcDbEntity
  8
SOLBET_Emulsje_Folie
100
AcDbLine
 10
100.2651240557907
 20
121.6130574891344
 30
0.0
 11
100.665124055814
 21
121.4620033468353
 31
0.0
  0
LINE
  5
ADB1
330
1F
100
AcDbEntity
  8
SOLBET_Emulsje_Folie
100
AcDbLine
 10
100.2651240557907
 20
122.3722553965897
 30
0.0
 11
100.665124055814
 21
122.5233095388889
 31
0.0
  0
LINE
  5
ADB2
330
1F
100
AcDbEntity
  8
SOLBET_Emulsje_Folie
100
AcDbLine
 10
100.2651240557907
 20
123.3952807136928
 30
0.0
 11
100.665124055814
 21
123.2442265713936
 31
0.0
  0
LINE
  5
ADB3
330
1F
100
AcDbEntity
  8
SOLBET_Emulsje_Folie
100
AcDbLine
 10
100.2651240557907
 20
124.1544786211481
 30
0.0
 11
100.665124055814
 21
124.3055327634472
 31
0.0
  0
LINE
  5
ADB4
330
1F
100
AcDbEntity
  8
SOLBET_Emulsje_Folie
100
AcDbLine
 10
100.2651240557907
 20
125.1775039382511
 30
0.0
 11
100.665124055814
 21
125.026449795952
 31
0.0
  0
LINE
  5
ADB5
330
1F
100
AcDbEntity
  8
SOLBET_Emulsje_Folie
100
AcDbLine
 10
100.2651240557907
 20
125.9367018457065
 30
0.0
 11
100.665124055814
 21
126.0877559880056
 31
0.0
  0
LINE
  5
ADB6
330
1F
100
AcDbEntity
  8
SOLBET_Emulsje_Folie
100
AcDbLine
 10
100.2651240557907
 20
126.9597271628067
 30
0.0
 11
100.665124055814
 21
126.8086730205104
 31
0.0
  0
LINE
  5
ADB7
330
1F
100
AcDbEntity
  8
SOLBET_Emulsje_Folie
100
AcDbLine
 10
100.2651240557907
 20
127.7189250702649
 30
0.0
 11
100.665124055814
 21
127.8699792125611
 31
0.0
  0
LINE
  5
ADB8
330
1F
100
AcDbEntity
  8
SOLBET_Emulsje_Folie
100
AcDbLine
 10
100.2651240557907
 20
128.7419503873651
 30
0.0
 11
100.665124055814
 21
128.5908962450688
 31
0.0
  0
LINE
  5
ADB9
330
1F
100
AcDbEntity
  8
SOLBET_Emulsje_Folie
100
AcDbLine
 10
100.2651240557907
 20
139.4352897347154
 30
0.0
 11
100.665124055814
 21
139.2842355924163
 31
0.0
  0
LINE
  5
ADBA
330
1F
100
AcDbEntity
  8
SOLBET_Emulsje_Folie
100
AcDbLine
 10
100.2651240557907
 20
138.4122644176124
 30
0.0
 11
100.665124055814
 21
138.5633185599115
 31
0.0
  0
LINE
  5
ADBB
330
1F
100
AcDbEntity
  8
SOLBET_Emulsje_Folie
100
AcDbLine
 10
100.2651240557907
 20
137.6530665101571
 30
0.0
 11
100.665124055814
 21
137.5020123678579
 31
0.0
  0
LINE
  5
ADBC
330
1F
100
AcDbEntity
  8
SOLBET_Emulsje_Folie
100
AcDbLine
 10
100.2651240557907
 20
136.6300411930569
 30
0.0
 11
100.665124055814
 21
136.7810953353531
 31
0.0
  0
LINE
  5
ADBD
330
1F
100
AcDbEntity
  8
SOLBET_Emulsje_Folie
100
AcDbLine
 10
100.2651240557907
 20
135.8708432855987
 30
0.0
 11
100.665124055814
 21
135.7197891432996
 31
0.0
  0
LINE
  5
ADBE
330
1F
100
AcDbEntity
  8
SOLBET_Emulsje_Folie
100
AcDbLine
 10
100.2651240557907
 20
134.8478179684985
 30
0.0
 11
100.665124055814
 21
134.9988721107976
 31
0.0
  0
LINE
  5
ADBF
330
1F
100
AcDbEntity
  8
SOLBET_Emulsje_Folie
100
AcDbLine
 10
100.2651240557907
 20
134.0886200610402
 30
0.0
 11
100.665124055814
 21
133.9375659187441
 31
0.0
  0
LINE
  5
ADC0
330
1F
100
AcDbEntity
  8
SOLBET_Emulsje_Folie
100
AcDbLine
 10
100.2651240557907
 20
133.0655947439401
 30
0.0
 11
100.665124055814
 21
133.2166488862363
 31
0.0
  0
LINE
  5
ADC1
330
1F
100
AcDbEntity
  8
SOLBET_Emulsje_Folie
100
AcDbLine
 10
100.2651240557907
 20
132.3063968364848
 30
0.0
 11
100.665124055814
 21
132.1553426941856
 31
0.0
  0
LINE
  5
ADC2
330
1F
100
AcDbEntity
  8
SOLBET_Emulsje_Folie
100
AcDbLine
 10
100.2651240557907
 20
131.2833715193788
 30
0.0
 11
100.665124055814
 21
131.4344256616779
 31
0.0
  0
LINE
  5
ADC3
330
1F
100
AcDbEntity
  8
SOLBET_Emulsje_Folie
100
AcDbLine
 10
100.2651240557907
 20
129.5011482948204
 30
0.0
 11
100.665124055814
 21
129.6522024371195
 31
0.0
  0
LINE
  5
ADC4
330
1F
100
AcDbEntity
  8
SOLBET_Emulsje_Folie
100
AcDbLine
 10
100.2651240557907
 20
130.5241736119264
 30
0.0
 11
100.665124055814
 21
130.3731194696273
 31
0.0
  0
LINE
  5
ADC5
330
1F
100
AcDbEntity
  8
SOLBET_Emulsje_Folie
100
AcDbLine
 10
100.2651240557907
 20
143.7589340912876
 30
0.0
 11
100.665124055814
 21
143.9099882335868
 31
0.0
  0
LINE
  5
ADC6
330
1F
100
AcDbEntity
  8
SOLBET_Emulsje_Folie
100
AcDbLine
 10
100.2651240557907
 20
144.7819594083877
 30
0.0
 11
100.665124055814
 21
144.6309052660887
 31
0.0
  0
LINE
  5
ADC7
330
1F
100
AcDbEntity
  8
SOLBET_Emulsje_Folie
100
AcDbLine
 10
100.2651240557907
 20
145.541157315846
 30
0.0
 11
100.665124055814
 21
145.6922114581422
 31
0.0
  0
LINE
  5
ADC8
330
1F
100
AcDbEntity
  8
SOLBET_Emulsje_Folie
100
AcDbLine
 10
100.2651240557907
 20
146.5641826329462
 30
0.0
 11
100.665124055814
 21
146.41312849065
 31
0.0
  0
LINE
  5
ADC9
330
1F
100
AcDbEntity
  8
SOLBET_Emulsje_Folie
100
AcDbLine
 10
100.2651240557907
 20
141.9767108667292
 30
0.0
 11
100.665124055814
 21
142.1277650090284
 31
0.0
  0
LINE
  5
ADCA
330
1F
100
AcDbEntity
  8
SOLBET_Emulsje_Folie
100
AcDbLine
 10
100.2651240557907
 20
142.9997361838294
 30
0.0
 11
100.665124055814
 21
142.8486820415331
 31
0.0
  0
LINE
  5
ADCB
330
1F
100
AcDbEntity
  8
SOLBET_Emulsje_Folie
100
AcDbLine
 10
100.1770761315019
 20
160.807918202813
 30
0.0
 11
100.665124055814
 21
161.4895906960825
 31
0.0
  0
LINE
  5
ADCC
330
1F
100
AcDbEntity
  8
SOLBET_Emulsje_Folie
100
AcDbLine
 10
100.1770761315019
 20
160.807918202813
 30
0.0
 11
100.1770761315019
 21
159.7284545975504
 31
0.0
  0
LINE
  5
ADCD
330
1F
100
AcDbEntity
  8
SOLBET_Emulsje_Folie
100
AcDbLine
 10
100.2651240557907
 20
157.7476956880855
 30
0.0
 11
100.665124055814
 21
157.8987498303846
 31
0.0
  0
LINE
  5
ADCE
330
1F
100
AcDbEntity
  8
SOLBET_Emulsje_Folie
100
AcDbLine
 10
100.2651240557907
 20
158.7707210051885
 30
0.0
 11
100.665124055814
 21
158.6196668628894
 31
0.0
  0
LINE
  5
ADCF
330
1F
100
AcDbEntity
  8
SOLBET_Emulsje_Folie
100
AcDbLine
 10
100.2651240557907
 20
159.5299189126468
 30
0.0
 11
100.665124055814
 21
159.6809730549401
 31
0.0
  0
LINE
  5
ADD0
330
1F
100
AcDbEntity
  8
SOLBET_Emulsje_Folie
100
AcDbLine
 10
100.2651240557907
 20
154.1832492389687
 30
0.0
 11
100.665124055814
 21
154.3343033812678
 31
0.0
  0
LINE
  5
ADD1
330
1F
100
AcDbEntity
  8
SOLBET_Emulsje_Folie
100
AcDbLine
 10
100.2651240557907
 20
155.2062745560717
 30
0.0
 11
100.665124055814
 21
155.0552204137755
 31
0.0
  0
LINE
  5
ADD2
330
1F
100
AcDbEntity
  8
SOLBET_Emulsje_Folie
100
AcDbLine
 10
100.2651240557907
 20
155.9654724635271
 30
0.0
 11
100.665124055814
 21
156.1165266058262
 31
0.0
  0
LINE
  5
ADD3
330
1F
100
AcDbEntity
  8
SOLBET_Emulsje_Folie
100
AcDbLine
 10
100.2651240557907
 20
156.9884977806301
 30
0.0
 11
100.665124055814
 21
156.8374436383339
 31
0.0
  0
LINE
  5
ADD4
330
1F
100
AcDbEntity
  8
SOLBET_Emulsje_Folie
100
AcDbLine
 10
100.2651240557907
 20
150.6188027898548
 30
0.0
 11
100.665124055814
 21
150.769856932151
 31
0.0
  0
LINE
  5
ADD5
330
1F
100
AcDbEntity
  8
SOLBET_Emulsje_Folie
100
AcDbLine
 10
100.2651240557907
 20
151.6418281069549
 30
0.0
 11
100.665124055814
 21
151.4907739646558
 31
0.0
  0
LINE
  5
ADD6
330
1F
100
AcDbEntity
  8
SOLBET_Emulsje_Folie
100
AcDbLine
 10
100.2651240557907
 20
152.4010260144103
 30
0.0
 11
100.665124055814
 21
152.5520801567094
 31
0.0
  0
LINE
  5
ADD7
330
1F
100
AcDbEntity
  8
SOLBET_Emulsje_Folie
100
AcDbLine
 10
100.2651240557907
 20
153.4240513315133
 30
0.0
 11
100.665124055814
 21
153.2729971892142
 31
0.0
  0
LINE
  5
ADD8
330
1F
100
AcDbEntity
  8
SOLBET_Emulsje_Folie
100
AcDbLine
 10
100.665124055814
 20
160.4276887771731
 30
0.0
 11
100.2651240557907
 21
160.4276887771731
 31
0.0
  0
LINE
  5
ADD9
330
1F
100
AcDbEntity
  8
SOLBET_Emulsje_Folie
100
AcDbLine
 10
100.2651240557907
 20
160.4276887771731
 30
0.0
 11
100.2651240557907
 21
148.8276887771732
 31
0.0
  0
LINE
  5
ADDA
330
1F
100
AcDbEntity
  8
SOLBET_Emulsje_Folie
100
AcDbLine
 10
100.665124055814
 20
160.4276887771731
 30
0.0
 11
100.665124055814
 21
148.8276887771732
 31
0.0
  0
LINE
  5
ADDB
330
1F
100
AcDbEntity
  8
SOLBET_Emulsje_Folie
100
AcDbLine
 10
100.2651240557907
 20
147.3276887771732
 30
0.0
 11
100.2651240557907
 21
114.9276887771731
 31
0.0
  0
LINE
  5
ADDC
330
1F
100
AcDbEntity
  8
SOLBET_Emulsje_Folie
100
AcDbLine
 10
100.665124055814
 20
147.3276887771732
 30
0.0
 11
100.665124055814
 21
114.9276887771731
 31
0.0
  0
LINE
  5
ADDD
330
1F
100
AcDbEntity
  8
SOLBET_Emulsje_Folie
100
AcDbLine
 10
100.2651240557907
 20
149.8596048823965
 30
0.0
 11
100.665124055814
 21
149.7085507400974
 31
0.0
  0
LINE
  5
ADDE
330
1F
100
AcDbEntity
  8
SOLBET_Emulsje_Folie
100
AcDbLine
 10
100.2651240557907
 20
148.8365795652964
 30
0.0
 11
100.665124055814
 21
148.9876337075955
 31
0.0
  0
LWPOLYLINE
  5
ADE1
330
1F
100
AcDbEntity
  8
SOLBET_Tynki_Posadzki
100
AcDbPolyline
 90
        4
 70
     1
 43
0.0
 10
96.33065189484113
 20
179.2276887771731
 10
102.3306518948411
 20
179.2276887771731
 10
102.3306518948411
 20
182.4776887771731
 10
96.33065189484113
 20
182.4776887771731
  0
LWPOLYLINE
  5
ADE2
330
1F
100
AcDbEntity
  8
SOLBET_Tynki_Posadzki
100
AcDbPolyline
 90
        4
 70
     1
 43
0.0
 10
96.33065189484113
 20
183.2276887771702
 10
102.3306518948411
 20
183.2276887771702
 10
102.3306518948411
 20
186.4776887771702
 10
96.33065189484113
 20
186.4776887771702
  0
LWPOLYLINE
  5
ADE3
330
1F
100
AcDbEntity
  8
SOLBET_Tynki_Posadzki
100
AcDbPolyline
 90
        4
 70
     1
 43
0.0
 10
96.33065189484113
 20
187.2276887771731
 10
102.3306518948411
 20
187.2276887771731
 10
102.3306518948411
 20
190.4776887771731
 10
96.33065189484113
 20
190.4776887771731
  0
LWPOLYLINE
  5
ADE4
330
1F
100
AcDbEntity
  8
SOLBET_Tynki_Posadzki
100
AcDbPolyline
 90
        4
 70
     1
 43
0.0
 10
96.33065189484113
 20
191.2276887771731
 10
102.3306518948411
 20
191.2276887771731
 10
102.3306518948411
 20
194.4776887771731
 10
96.33065189484113
 20
194.4776887771731
  0
LWPOLYLINE
  5
ADE5
330
1F
100
AcDbEntity
  8
SOLBET_Tynki_Posadzki
100
AcDbPolyline
 90
        4
 70
     1
 43
0.0
 10
96.33065189484113
 20
195.2276887771731
 10
102.3306518948411
 20
195.2276887771731
 10
102.3306518948411
 20
198.4776887771731
 10
96.33065189484113
 20
198.4776887771731
  0
LWPOLYLINE
  5
ADE6
330
1F
100
AcDbEntity
  8
SOLBET_Tynki_Posadzki
100
AcDbPolyline
 90
        4
 70
     1
 43
0.0
 10
96.33065189484113
 20
199.2276887771702
 10
102.3306518948411
 20
199.2276887771702
 10
102.3306518948411
 20
202.4776887771702
 10
96.33065189484113
 20
202.4776887771702
  0
LWPOLYLINE
  5
ADE7
330
1F
100
AcDbEntity
  8
SOLBET_Tynki_Posadzki
100
AcDbPolyline
 90
        4
 70
     1
 43
0.0
 10
96.33065189484113
 20
203.2276887771731
 10
102.3306518948411
 20
203.2276887771731
 10
102.3306518948411
 20
206.4776887771731
 10
96.33065189484113
 20
206.4776887771731
  0
LWPOLYLINE
  5
ADE8
330
1F
100
AcDbEntity
  8
SOLBET_Tynki_Posadzki
100
AcDbPolyline
 90
        4
 70
     1
 43
0.0
 10
96.33065189484113
 20
207.2276887771731
 10
102.3306518948411
 20
207.2276887771731
 10
102.3306518948411
 20
210.4776887771731
 10
96.33065189484113
 20
210.4776887771731
  0
LWPOLYLINE
  5
ADE9
330
1F
100
AcDbEntity
  8
SOLBET_Tynki_Posadzki
100
AcDbPolyline
 90
        4
 70
     1
 43
0.0
 10
96.33065189484113
 20
211.2276887771731
 10
102.3306518948411
 20
211.2276887771731
 10
102.3306518948411
 20
214.4776887771702
 10
96.33065189484113
 20
214.4776887771702
  0
LWPOLYLINE
  5
ADEA
330
1F
100
AcDbEntity
  8
SOLBET_Tynki_Posadzki
100
AcDbPolyline
 90
        3
 70
     0
 43
0.0
 10
96.33065189484113
 20
215.2276887771702
 10
102.3306518948411
 20
215.2276887771702
 10
102.3306518948411
 20
217.3276887771731
  0
LWPOLYLINE
  5
ADEB
330
1F
100
AcDbEntity
  8
SOLBET_Tynki_Posadzki
100
AcDbPolyline
 90
        2
 70
     0
 43
0.0
 10
96.33065189484113
 20
217.3276887771731
 10
96.33065189484113
 20
215.2276887771702
  0
LINE
  5
ADEC
330
1F
100
AcDbEntity
  8
SOLBET_Tynki_Posadzki
100
AcDbLine
 10
100.5773306465253
 20
174.4276887889398
 30
0.0
 11
100.5773306465253
 21
160.7694607410725
 31
0.0
  0
LINE
  5
ADEE
330
1F
100
AcDbEntity
  8
SOLBET_Izolacja
100
AcDbLine
 10
121.3306518948411
 20
180.2750425550184
 30
0.0
 11
121.3306518948411
 21
175.2276887771731
 31
0.0
  0
LINE
  5
ADEF
330
1F
100
AcDbEntity
  8
SOLBET_Izolacja
  6
BATTING
 48
0.048
100
AcDbLine
 10
121.8306518948411
 20
180.2567099935672
 30
0.0
 11
121.8306518948411
 21
174.9017357214615
 31
0.0
  0
LINE
  5
ADF0
330
1F
100
AcDbEntity
  8
SOLBET_Izolacja
100
AcDbLine
 10
122.3306518948411
 20
177.4017357214644
 30
0.0
 11
122.3306518948411
 21
174.9017357214615
 31
0.0
  0
LINE
  5
ADF1
330
1F
100
AcDbEntity
  8
SOLBET_Izolacja
  6
BATTING
 48
0.12
100
AcDbLine
 10
122.3306518948411
 20
176.151735721463
 30
0.0
 11
177.158424935782
 21
176.151735721463
 31
0.0
  0
HATCH
  5
ADF2
330
1F
100
AcDbEntity
  8
SOLBET_Grunt
100
AcDbHatch
 10
0.0
 20
0.0
 30
0.0
210
0.0
220
0.0
230
1.0
  2
AR-CONC
 70
     0
 71
     0
 91
        1
 92
        7
 72
     0
 73
     1
 93
       10
 10
100.2651240557902
 20
121.5560348887252
 10
83.26401346019157
 20
128.3994791626648
 10
86.80349583625911
 20
90.51184342875211
 10
91.88674945582215
 20
90.51184342875206
 10
95.13065189484132
 20
94.01184342875206
 10
96.83065189484114
 20
94.01184342875206
 10
96.83065189484114
 20
114.0118434287491
 10
96.83065189484114
 20
115.4099861638347
 10
99.3306518948416
 20
114.9276887771731
 10
100.2651240557902
 20
114.9276887771731
 97
        0
 75
     0
 76
     1
 52
0.0
 41
0.05
 77
     0
 78
    13
 53
50.0
 43
-1809.082655280221
 44
369.619788895981
 45
9.1092334498002
 46
-0.7969542769451543
 79
     2
 49
0.9525000000000002
 49
-10.4775
 53
355.0
 43
-1809.082655280221
 44
369.619788895981
 45
-1.762141298783349
 46
9.552832144108998
 79
     2
 49
0.762
 49
-8.381999999999999
 53
100.451
 43
-1808.323555280221
 44
369.553376395981
 45
7.347125083297962
 46
8.755834391014593
 79
     2
 49
0.8095
 49
-8.9045
 53
46.1842
 43
-1809.082655280221
 44
372.159788895981
 45
13.5539520446065
 46
-2.102116396636357
 79
     2
 49
1.428749999999999
 49
-15.71625
 53
96.63559999999996
 43
-1807.953160280221
 44
371.984613895981
 45
11.87021172331186
 46
12.37127779450246
 79
     2
 49
1.214249999999999
 49
-13.35674999999999
 53
351.184
 43
-1809.082655280221
 44
372.159788895981
 45
11.87023029069669
 46
12.37125589302988
 79
     2
 49
1.143
 49
-12.573
 53
21.0
 43
-1807.812655280221
 44
371.524788895981
 45
7.580743991769164
 46
-5.113275925838125
 79
     2
 49
0.9525000000000002
 49
-10.4775
 53
326.0
 43
-1807.812655280221
 44
371.524788895981
 45
3.090101417382353
 46
9.209398306115962
 79
     2
 49
0.762
 49
-8.381999999999999
 53
71.45140000000001
 43
-1807.180930280221
 44
371.098683895981
 45
10.67082453850622
 46
4.096142885802872
 79
     2
 49
0.8095
 49
-8.9045
 53
37.5
 43
-1809.082655280221
 44
369.619788895981
 45
0.1544301625295909
 46
4.227751943657655
 79
     6
 49
0.0
 49
-8.2804
 49
0.0
 49
-8.509
 49
0.0
 49
-8.41375
 53
7.499999999999999
 43
-1809.082655280221
 44
369.619788895981
 45
3.340983125515287
 46
5.009028740905975
 79
     6
 49
0.0
 49
-4.851399999999999
 49
0.0
 49
-8.0899
 49
0.0
 49
-3.20675
 53
327.5
 43
-1811.914755280221
 44
369.619788895981
 45
6.779529758343568
 46
-0.2864371996336732
 79
     6
 49
0.0
 49
-3.175
 49
0.0
 49
-9.906
 49
0.0
 49
-13.1445
 53
317.5
 43
-1813.18475528022
 44
369.619788895981
 45
7.406459069300902
 46
1.27132455166665
 79
     6
 49
0.0
 49
-4.1275
 49
0.0
 49
-6.5786
 49
0.0
 49
-9.3345
 47
0.3152440736740272
 98
        4
 10
88.60019148071661
 20
116.5249205519208
 10
92.09473358168906
 20
133.9828682006351
 10
82.30022495601224
 20
146.4808302402303
 10
59.66890955563122
 20
511.6493961114026
1001
ACAD
1010
0.0
1020
0.0
1030
0.0
  0
HATCH
  5
ADF3
330
1F
100
AcDbEntity
  8
SOLBET_Grunt
100
AcDbHatch
 10
0.0
 20
0.0
 30
0.0
210
0.0
220
0.0
230
1.0
  2
AR-CONC
 70
     0
 71
     0
 91
        1
 92
        7
 72
     0
 73
     1
 93
        5
 10
100.2651240557902
 20
147.3276887771732
 10
84.85401731373167
 20
147.3276887771732
 10
81.75077154052814
 20
144.5976552059118
 10
83.26401346019157
 20
128.3994791626648
 10
100.2651240557907
 20
121.5560348887252
 97
        0
 75
     0
 76
     1
 52
0.0
 41
0.05
 77
     0
 78
    13
 53
50.0
 43
-1809.082655280221
 44
369.619788895981
 45
9.1092334498002
 46
-0.7969542769451543
 79
     2
 49
0.9525000000000002
 49
-10.4775
 53
355.0
 43
-1809.082655280221
 44
369.619788895981
 45
-1.762141298783349
 46
9.552832144108998
 79
     2
 49
0.762
 49
-8.381999999999999
 53
100.451
 43
-1808.323555280221
 44
369.553376395981
 45
7.347125083297962
 46
8.755834391014593
 79
     2
 49
0.8095
 49
-8.9045
 53
46.1842
 43
-1809.082655280221
 44
372.159788895981
 45
13.5539520446065
 46
-2.102116396636357
 79
     2
 49
1.428749999999999
 49
-15.71625
 53
96.63559999999996
 43
-1807.953160280221
 44
371.984613895981
 45
11.87021172331186
 46
12.37127779450246
 79
     2
 49
1.214249999999999
 49
-13.35674999999999
 53
351.184
 43
-1809.082655280221
 44
372.159788895981
 45
11.87023029069669
 46
12.37125589302988
 79
     2
 49
1.143
 49
-12.573
 53
21.0
 43
-1807.812655280221
 44
371.524788895981
 45
7.580743991769164
 46
-5.113275925838125
 79
     2
 49
0.9525000000000002
 49
-10.4775
 53
326.0
 43
-1807.812655280221
 44
371.524788895981
 45
3.090101417382353
 46
9.209398306115962
 79
     2
 49
0.762
 49
-8.381999999999999
 53
71.45140000000001
 43
-1807.180930280221
 44
371.098683895981
 45
10.67082453850622
 46
4.096142885802872
 79
     2
 49
0.8095
 49
-8.9045
 53
37.5
 43
-1809.082655280221
 44
369.619788895981
 45
0.1544301625295909
 46
4.227751943657655
 79
     6
 49
0.0
 49
-8.2804
 49
0.0
 49
-8.509
 49
0.0
 49
-8.41375
 53
7.499999999999999
 43
-1809.082655280221
 44
369.619788895981
 45
3.340983125515287
 46
5.009028740905975
 79
     6
 49
0.0
 49
-4.851399999999999
 49
0.0
 49
-8.0899
 49
0.0
 49
-3.20675
 53
327.5
 43
-1811.914755280221
 44
369.619788895981
 45
6.779529758343568
 46
-0.2864371996336732
 79
     6
 49
0.0
 49
-3.175
 49
0.0
 49
-9.906
 49
0.0
 49
-13.1445
 53
317.5
 43
-1813.18475528022
 44
369.619788895981
 45
7.406459069300902
 46
1.27132455166665
 79
     6
 49
0.0
 49
-4.1275
 49
0.0
 49
-6.5786
 49
0.0
 49
-9.3345
 47
0.3152440736740272
 98
        4
 10
88.60019148071661
 20
116.5249205519208
 10
92.09473358168906
 20
133.9828682006351
 10
82.30022495601224
 20
146.4808302402303
 10
59.66890955563122
 20
511.6493961114026
1001
ACAD
1010
0.0
1020
0.0
1030
0.0
  0
HATCH
  5
ADF4
330
1F
100
AcDbEntity
  8
SOLBET_Grunt
100
AcDbHatch
 10
0.0
 20
0.0
 30
0.0
210
0.0
220
0.0
230
1.0
  2
AR-CONC
 70
     0
 71
     0
 91
        1
 92
        7
 72
     0
 73
     1
 93
        6
 10
95.83065189484115
 20
156.9842171658243
 10
95.83065189484115
 20
159.4276887771702
 10
92.19012405578997
 20
159.4276887771702
 10
78.1825888834901
 20
159.4276887771702
 10
79.17284632395058
 20
148.8276887771732
 10
86.55907644150421
 20
148.8276887771731
 97
        0
 75
     0
 76
     1
 52
0.0
 41
0.02
 77
     0
 78
    13
 53
50.0
 43
-1809.082655280221
 44
369.619788895981
 45
3.64369337992008
 46
-0.3187817107780617
 79
     2
 49
0.381
 49
-4.191
 53
355.0
 43
-1809.082655280221
 44
369.619788895981
 45
-0.7048565195133399
 46
3.821132857643599
 79
     2
 49
0.3048
 49
-3.352799999999999
 53
100.451
 43
-1808.779015280221
 44
369.593223895981
 45
2.938850033319184
 46
3.502333756405837
 79
     2
 49
0.3238
 49
-3.5618
 53
46.1842
 43
-1809.082655280221
 44
370.635788895981
 45
5.421580817842598
 46
-0.8408465586545428
 79
     2
 49
0.5715
 49
-6.2865
 53
96.63559999999996
 43
-1808.63085728022
 44
370.565718895981
 45
4.748084689324742
 46
4.948511117800984
 79
     2
 49
0.4856999999999998
 49
-5.342699999999996
 53
351.184
 43
-1809.082655280221
 44
370.635788895981
 45
4.748092116278678
 46
4.948502357211953
 79
     2
 49
0.4572
 49
-5.0292
 53
21.0
 43
-1808.57465528022
 44
370.381788895981
 45
3.032297596707665
 46
-2.04531037033525
 79
     2
 49
0.381
 49
-4.191
 53
326.0
 43
-1808.57465528022
 44
370.381788895981
 45
1.236040566952941
 46
3.683759322446385
 79
     2
 49
0.3048
 49
-3.352799999999999
 53
71.45140000000001
 43
-1808.321965280221
 44
370.211346895981
 45
4.268329815402489
 46
1.638457154321149
 79
     2
 49
0.3238
 49
-3.5618
 53
37.5
 43
-1809.082655280221
 44
369.619788895981
 45
0.0617720650118363
 46
1.691100777463062
 79
     6
 49
0.0
 49
-3.312159999999999
 49
0.0
 49
-3.4036
 49
0.0
 49
-3.3655
 53
7.499999999999999
 43
-1809.082655280221
 44
369.619788895981
 45
1.336393250206114
 46
2.00361149636239
 79
     6
 49
0.0
 49
-1.940559999999999
 49
0.0
 49
-3.235959999999999
 49
0.0
 49
-1.2827
 53
327.5
 43
-1810.21549528022
 44
369.619788895981
 45
2.711811903337427
 46
-0.1145748798534693
 79
     6
 49
0.0
 49
-1.27
 49
0.0
 49
-3.9624
 49
0.0
 49
-5.257799999999999
 53
317.5
 43
-1810.723495280221
 44
369.619788895981
 45
2.962583627720361
 46
0.5085298206666603
 79
     6
 49
0.0
 49
-1.650999999999999
 49
0.0
 49
-2.63144
 49
0.0
 49
-3.7338
 47
0.1117294479320777
 98
        1
 10
85.1043629706146
 20
154.7269863111883
1001
ACAD
1010
0.0
1020
0.0
1030
0.0
  0
HATCH
  5
ADF5
330
1F
100
AcDbEntity
  8
SOLBET_Grunt
100
AcDbHatch
 10
0.0
 20
0.0
 30
0.0
210
0.0
220
0.0
230
1.0
  2
AR-CONC
 70
     0
 71
     0
 91
        1
 92
        7
 72
     0
 73
     1
 93
        5
 10
100.2651240557907
 20
159.4276887771702
 10
98.60816094442725
 20
159.4276887771702
 10
86.55907644150374
 20
148.8276887771732
 10
100.2415807408215
 20
148.8276887771732
 10
100.2651240557907
 20
148.8365795652964
 97
        0
 75
     0
 76
     1
 52
0.0
 41
0.02
 77
     0
 78
    13
 53
50.0
 43
-1809.082655280221
 44
369.619788895981
 45
3.64369337992008
 46
-0.3187817107780617
 79
     2
 49
0.381
 49
-4.191
 53
355.0
 43
-1809.082655280221
 44
369.619788895981
 45
-0.7048565195133399
 46
3.821132857643599
 79
     2
 49
0.3048
 49
-3.352799999999999
 53
100.451
 43
-1808.779015280221
 44
369.593223895981
 45
2.938850033319184
 46
3.502333756405837
 79
     2
 49
0.3238
 49
-3.5618
 53
46.1842
 43
-1809.082655280221
 44
370.635788895981
 45
5.421580817842598
 46
-0.8408465586545428
 79
     2
 49
0.5715
 49
-6.2865
 53
96.63559999999996
 43
-1808.63085728022
 44
370.565718895981
 45
4.748084689324742
 46
4.948511117800984
 79
     2
 49
0.4856999999999998
 49
-5.342699999999996
 53
351.184
 43
-1809.082655280221
 44
370.635788895981
 45
4.748092116278678
 46
4.948502357211953
 79
     2
 49
0.4572
 49
-5.0292
 53
21.0
 43
-1808.57465528022
 44
370.381788895981
 45
3.032297596707665
 46
-2.04531037033525
 79
     2
 49
0.381
 49
-4.191
 53
326.0
 43
-1808.57465528022
 44
370.381788895981
 45
1.236040566952941
 46
3.683759322446385
 79
     2
 49
0.3048
 49
-3.352799999999999
 53
71.45140000000001
 43
-1808.321965280221
 44
370.211346895981
 45
4.268329815402489
 46
1.638457154321149
 79
     2
 49
0.3238
 49
-3.5618
 53
37.5
 43
-1809.082655280221
 44
369.619788895981
 45
0.0617720650118363
 46
1.691100777463062
 79
     6
 49
0.0
 49
-3.312159999999999
 49
0.0
 49
-3.4036
 49
0.0
 49
-3.3655
 53
7.499999999999999
 43
-1809.082655280221
 44
369.619788895981
 45
1.336393250206114
 46
2.00361149636239
 79
     6
 49
0.0
 49
-1.940559999999999
 49
0.0
 49
-3.235959999999999
 49
0.0
 49
-1.2827
 53
327.5
 43
-1810.21549528022
 44
369.619788895981
 45
2.711811903337427
 46
-0.1145748798534693
 79
     6
 49
0.0
 49
-1.27
 49
0.0
 49
-3.9624
 49
0.0
 49
-5.257799999999999
 53
317.5
 43
-1810.723495280221
 44
369.619788895981
 45
2.962583627720361
 46
0.5085298206666603
 79
     6
 49
0.0
 49
-1.650999999999999
 49
0.0
 49
-2.63144
 49
0.0
 49
-3.7338
 47
0.1117294479320777
 98
        1
 10
94.05028596523335
 20
151.3750988204079
1001
ACAD
1010
0.0
1020
0.0
1030
0.0
  0
LINE
  5
ADF9
330
1F
100
AcDbEntity
  8
SOLBET_Bloczki
100
AcDbLine
 10
121.33065207059
 20
217.3276887359828
 30
0.0
 11
121.33065207059
 21
211.2276886947953
 31
0.0
  0
LINE
  5
ADFA
330
1F
100
AcDbEntity
  8
SOLBET_Bloczki
100
AcDbLine
 10
109.3306520705896
 20
217.3276887359829
 30
0.0
 11
109.33065207059
 21
211.2276886947955
 31
0.0
  0
LINE
  5
ADFB
330
1F
100
AcDbEntity
  8
SOLBET_Bloczki
100
AcDbLine
 10
109.33065207059
 20
211.2276886947955
 30
0.0
 11
121.2547121934676
 21
211.2276887359856
 31
0.0
  0
LWPOLYLINE
  5
AE02
330
1F
100
AcDbEntity
  8
SOLBET_Emulsje_Folie
100
AcDbPolyline
 90
        4
 70
     0
 43
0.0
 10
127.1304815014127
 20
174.6076887771731
 10
95.46708604067838
 20
174.6076887771731
 10
95.46708604067839
 20
174.8476887771732
 10
127.1304815014127
 20
174.8476887771732
  0
LINE
  5
AE03
330
1F
100
AcDbEntity
  8
SOLBET_Emulsje_Folie
  6
DASHED2
370
    30
100
AcDbLine
 10
95.46708604067839
 20
174.7276887771731
 30
0.0
 11
127.1304815014127
 21
174.7276887771731
 31
0.0
  0
LINE
  5
AE04
330
1F
100
AcDbEntity
  8
SOLBET_Emulsje_Folie
100
AcDbLine
 10
127.1304815014127
 20
174.8476887771732
 30
0.0
 11
127.1304815014127
 21
174.6076887771731
 31
0.0
  0
LINE
  5
AE05
330
1F
100
AcDbEntity
  8
SOLBET_Izolacja
100
AcDbLine
 10
100.8306518948411
 20
174.4276887771731
 30
0.0
 11
101.8306518948411
 21
174.4276887771731
 31
0.0
  0
LINE
  5
AE06
330
1F
100
AcDbEntity
  8
SOLBET_Izolacja
100
AcDbLine
 10
101.8306518948411
 20
174.4276887771731
 30
0.0
 11
101.3306518948411
 21
174.4276887771731
 31
0.0
  0
LINE
  5
AE07
330
1F
100
AcDbEntity
  8
SOLBET_Izolacja
  6
BATTING
 48
0.048
100
AcDbLine
 10
101.3306518948411
 20
174.4276887771731
 30
0.0
 11
101.3306518948411
 21
148.8276887771732
 31
0.0
  0
LINE
  5
AE08
330
1F
100
AcDbEntity
  8
SOLBET_Izolacja
  6
BATTING
 48
0.048
100
AcDbLine
 10
101.3306518948411
 20
147.3276887771732
 30
0.0
 11
101.3306518948411
 21
114.9276887771731
 31
0.0
  0
LWPOLYLINE
  5
AE09
330
1F
100
AcDbEntity
  8
SOLBET_Emulsje_Folie
100
AcDbPolyline
 90
        2
 70
     0
 43
0.0
 10
126.8306518948411
 20
114.2614781946799
 10
98.98330181267359
 20
114.2614781946799
  0
LINE
  5
AE0A
330
1F
100
AcDbEntity
  8
SOLBET_Emulsje_Folie
  6
DASHED2
370
    30
100
AcDbLine
 10
98.95480938862442
 20
114.3814781946799
 30
0.0
 11
126.8306518948411
 21
114.3814781946799
 31
0.0
  0
LINE
  5
AE0B
330
1F
100
AcDbEntity
  8
SOLBET_Emulsje_Folie
100
AcDbLine
 10
126.8306518948411
 20
114.5014781946799
 30
0.0
 11
126.8306518948411
 21
114.2614781946799
 31
0.0
  0
LEADER
  5
AE0E
330
1F
100
AcDbEntity
  8
SOLBET_Wymiary_Opisy
100
AcDbLeader
  3
Solbet$7
 73
     0
 74
     0
 75
     1
 40
3.5
 41
37.25
 76
     3
 10
260.3111890702198
 20
90.09913182377795
 30
0.0
 10
285.0127726903616
 20
99.21873654445244
 30
0.0
 10
287.5127726903615
 20
99.21873654445244
 30
0.0
213
1.177601578005123
223
-0.1753245211093599
233
0.0
1001
ACAD
1000
DSTYLE
1002
{
1070
   147
1040
0.625
1070
    77
1070
     1
1002
}
  0
MTEXT
  5
AE0F
102
{ACAD_XDICTIONARY
360
BE80
102
}
102
{ACAD_REACTORS
330
AE0E
102
}
330
1F
100
AcDbEntity
  8
SOLBET_Wymiary_Opisy
100
AcDbMText
 10
286.9601711123564
 20
103.5190610655618
 30
0.0
 40
2.5
 41
0.0
 71
     1
 72
     1
  1
Warstwa wyko\U+0144czeniowa
  7
Solbet_2_5
 73
     1
 44
1.0
1001
ACAD
1000
MTEXTBEGIN
1070
    73
1070
     1
1070
    44
1040
1.0
1070
    74
1070
     0
1000
MTEXTEND
  0
LEADER
  5
AE10
330
1F
100
AcDbEntity
  8
SOLBET_Wymiary_Opisy
100
AcDbLeader
  3
Solbet$7
 73
     0
 74
     0
 75
     1
 40
3.25
 41
32.5
 76
     3
 10
260.869457579327
 20
82.33301300735911
 30
0.0
 10
283.8351711123564
 20
92.97753001386173
 30
0.0
 10
286.3351711123564
 20
92.97753001386173
 30
0.0
213
0.0
223
-0.2322806831707567
233
0.0
1001
ACAD
1000
DSTYLE
1002
{
1070
   147
1040
0.625
1070
    77
1070
     1
1002
}
  0
MTEXT
  5
AE11
102
{ACAD_REACTORS
330
AE10
102
}
330
1F
100
AcDbEntity
  8
SOLBET_Wymiary_Opisy
100
AcDbMText
 10
286.9601711123564
 20
97.08481069703248
 30
0.0
 40
2.5
 41
0.0
 71
     1
 72
     1
  1
Wylewka jastrychowa
  7
Solbet_2_5
 73
     1
 44
1.0
1001
ACAD
1000
MTEXTBEGIN
1070
    73
1070
     1
1070
    44
1040
1.0
1070
    74
1070
     0
1000
MTEXTEND
  0
LEADER
  5
AE12
330
1F
100
AcDbEntity
  8
SOLBET_Wymiary_Opisy
100
AcDbLeader
  3
Solbet$7
 73
     0
 74
     0
 75
     1
 40
3.25
 41
19.75
 76
     3
 10
262.9080064130262
 20
75.43935330766925
 30
0.0
 10
283.8351711123564
 20
86.74237293508396
 30
0.0
 10
286.3351711123564
 20
86.74237293508396
 30
0.0
213
0.0
223
-0.2322806831707567
233
0.0
1001
ACAD
1000
DSTYLE
1002
{
1070
   147
1040
0.625
1070
    77
1070
     1
1002
}
  0
MTEXT
  5
AE13
102
{ACAD_REACTORS
330
AE12
102
}
330
1F
100
AcDbEntity
  8
SOLBET_Wymiary_Opisy
100
AcDbMText
 10
286.9601711123564
 20
90.84965361825471
 30
0.0
 40
2.5
 41
0.0
 71
     1
 72
     1
  1
Hydroizolacja
  7
Solbet_2_5
 73
     1
 44
1.0
1001
ACAD
1000
MTEXTBEGIN
1070
    73
1070
     1
1070
    44
1040
1.0
1070
    74
1070
     0
1000
MTEXTEND
  0
LEADER
  5
AE14
330
1F
100
AcDbEntity
  8
SOLBET_Wymiary_Opisy
100
AcDbLeader
  3
Solbet$7
 73
     0
 74
     0
 75
     1
 40
3.25
 41
36.5
 76
     3
 10
267.3934773779347
 20
68.12461385340609
 30
0.0
 10
283.8351711123564
 20
80.27042981614703
 30
0.0
 10
286.3351711123564
 20
80.27042981614703
 30
0.0
213
0.0
223
-0.2322806831707567
233
0.0
1001
ACAD
1000
DSTYLE
1002
{
1070
   147
1040
0.625
1070
    77
1070
     1
1002
}
  0
MTEXT
  5
AE15
102
{ACAD_XDICTIONARY
360
BE82
102
}
102
{ACAD_REACTORS
330
AE14
102
}
330
1F
100
AcDbEntity
  8
SOLBET_Wymiary_Opisy
100
AcDbMText
 10
286.9601711123564
 20
84.37771049931781
 30
0.0
 40
2.5
 41
0.0
 71
     1
 72
     1
  1
P\U+0142yty izolacyjne twarde
  7
Solbet_2_5
 73
     1
 44
1.0
1001
ACAD
1000
MTEXTBEGIN
1070
    73
1070
     1
1070
    44
1040
1.0
1070
    74
1070
     0
1000
MTEXTEND
  0
LEADER
  5
AE16
330
1F
100
AcDbEntity
  8
SOLBET_Wymiary_Opisy
100
AcDbLeader
  3
Solbet$7
 73
     0
 74
     0
 75
     1
 40
3.25
 41
19.75
 76
     3
 10
270.6392171594498
 20
59.69587454729875
 30
0.0
 10
283.8351711123564
 20
73.95634785086895
 30
0.0
 10
286.3351711123564
 20
73.95634785086895
 30
0.0
213
0.0
223
-0.2322806831707567
233
0.0
1001
ACAD
1000
DSTYLE
1002
{
1070
   147
1040
0.625
1070
    77
1070
     1
1002
}
  0
MTEXT
  5
AE17
102
{ACAD_REACTORS
330
AE16
102
}
330
1F
100
AcDbEntity
  8
SOLBET_Wymiary_Opisy
100
AcDbMText
 10
286.9601711123564
 20
78.06362853403971
 30
0.0
 40
2.5
 41
0.0
 71
     1
 72
     1
  1
Hydroizolacja
  7
Solbet_2_5
 73
     1
 44
1.0
1001
ACAD
1000
MTEXTBEGIN
1070
    73
1070
     1
1070
    44
1040
1.0
1070
    74
1070
     0
1000
MTEXTEND
  0
CIRCLE
  5
AE18
330
1F
100
AcDbEntity
  8
SOLBET_Wymiary_Opisy
100
AcDbCircle
 10
175.164183058112
 20
176.1517357214632
 30
0.0
 40
6.72794034480946
  0
LINE
  5
AE19
330
1F
100
AcDbEntity
  8
SOLBET_Wymiary_Opisy
100
AcDbLine
 10
272.9297477162349
 20
91.32669090758481
 30
0.0
 11
272.9297477162349
 21
36.36223920082571
 31
0.0
  0
LINE
  5
AE1A
330
1F
100
AcDbEntity
  8
SOLBET_Izolacja
100
AcDbLine
 10
229.0434017766288
 20
61.96015673980875
 30
0.0
 11
272.9297477162349
 21
61.96015673980875
 31
0.0
  0
LINE
  5
AE1B
330
1F
100
AcDbEntity
  8
SOLBET_Izolacja
100
AcDbLine
 10
229.0434017766288
 20
74.46015673980872
 30
0.0
 11
272.9297477162349
 21
74.46015673980878
 31
0.0
  0
LINE
  5
AE1C
330
1F
100
AcDbEntity
  8
SOLBET_Tynki_Posadzki
100
AcDbLine
 10
237.6585946386799
 20
91.32669090758481
 30
0.0
 11
272.9297477162349
 21
91.32669090758481
 31
0.0
  0
LINE
  5
AE1D
330
1F
100
AcDbEntity
  8
SOLBET_Emulsje_Folie
100
AcDbLine
 10
229.5530256643715
 20
59.69587454729875
 30
0.0
 11
272.9297477162349
 21
59.69587454729875
 31
0.0
  0
LINE
  5
AE1E
330
1F
100
AcDbEntity
  8
SOLBET_Emulsje_Folie
100
AcDbLine
 10
229.2436632726699
 20
75.43935330766925
 30
0.0
 11
272.9297477162349
 21
75.43935330766925
 31
0.0
  0
HATCH
  5
AE1F
330
1F
100
AcDbEntity
  8
SOLBET_Tynki_Posadzki
100
AcDbHatch
 10
0.0
 20
0.0
 30
0.0
210
0.0
220
0.0
230
1.0
  2
AR-CONC
 70
     0
 71
     0
 91
        1
 92
        7
 72
     1
 73
     1
 93
        5
 10
169.8478382574362
 20
180.2750425550184
 42
0.0
 10
125.0769840711922
 20
180.2750425550184
 42
-0.0036814521602549
 10
125.0786997361255
 20
180.0420310141896
 42
-0.0359548367901186
 10
124.915470321143
 20
177.7750425550184
 42
0.0
 10
168.6350134166148
 20
177.7750425550184
 42
-0.1043755579104923
 97
        0
 75
     0
 76
     1
 52
0.0
 41
0.03
 77
     0
 78
    13
 53
50.0
 43
0.0
 44
0.0
 45
5.46554006988012
 46
-0.4781725661670926
 79
     2
 49
0.5715
 49
-6.2865
 53
355.0
 43
0.0
 44
0.0
 45
-1.057284779270009
 46
5.731699286465398
 79
     2
 49
0.4572
 49
-5.029199999999999
 53
100.451
 43
0.45546
 44
-0.0398475
 45
4.408275049978777
 46
5.253500634608755
 79
     2
 49
0.4857000000000001
 49
-5.342699999999999
 53
46.1842
 43
0.0
 44
1.523999999999999
 45
8.132371226763897
 46
-1.261269837981814
 79
     2
 49
0.8572499999999999
 49
-9.429749999999998
 53
96.63559999999998
 43
0.6776970000000001
 44
1.418895
 45
7.122127033987114
 46
7.422766676701476
 79
     2
 49
0.7285500000000001
 49
-8.014049999999999
 53
351.184
 43
0.0
 44
1.523999999999999
 45
7.122138174418017
 46
7.422753535817929
 79
     2
 49
0.6858
 49
-7.5438
 53
21.0
 43
0.762
 44
1.143
 45
4.548446395061498
 46
-3.067965555502874
 79
     2
 49
0.5715
 49
-6.2865
 53
326.0
 43
0.762
 44
1.143
 45
1.854060850429411
 46
5.525638983669577
 79
     2
 49
0.4572
 49
-5.029199999999999
 53
71.45140000000001
 43
1.141035
 44
0.8873369999999999
 45
6.402494723103733
 46
2.457685731481723
 79
     2
 49
0.4857000000000001
 49
-5.342699999999999
 53
37.5
 43
0.0
 44
0.0
 45
0.0926580975177545
 46
2.536651166194593
 79
     6
 49
0.0
 49
-4.968239999999999
 49
0.0
 49
-5.1054
 49
0.0
 49
-5.04825
 53
7.499999999999999
 43
0.0
 44
0.0
 45
2.004589875309172
 46
3.005417244543585
 79
     6
 49
0.0
 49
-2.910839999999999
 49
0.0
 49
-4.853939999999999
 49
0.0
 49
-1.92405
 53
327.5
 43
-1.699259999999999
 44
0.0
 45
4.06771785500614
 46
-0.1718623197802039
 79
     6
 49
0.0
 49
-1.905
 49
0.0
 49
-5.943599999999999
 49
0.0
 49
-7.886699999999999
 53
317.5
 43
-2.461259999999999
 44
0.0
 45
4.443875441580541
 46
0.7627947309999904
 79
     6
 49
0.0
 49
-2.476499999999999
 49
0.0
 49
-3.947159999999999
 49
0.0
 49
-5.600699999999999
 47
0.0484003503539707
 98
        4
 10
146.4217828935889
 20
178.7790462237336
 10
123.5754684183755
 20
178.7523302026482
 10
175.3347105834345
 20
179.0213967576101
 10
252.4001920767787
 20
82.4242292051996
1001
ACAD
1010
0.0
1020
0.0
1030
0.0
  0
LWPOLYLINE
  5
AE20
330
1F
100
AcDbEntity
  8
SOLBET_Tynki_Posadzki
100
AcDbPolyline
 90
        4
 70
     0
 43
0.0
 10
229.4515553251013
 20
76.32669090758577
 10
272.9297477162349
 20
76.32669090758577
 10
272.9297477162354
 20
88.82669090758481
 10
235.5156795292087
 20
88.82669090758481
1001
ASO_SCHRAFF
1005
0
1070
     1
1002
{
1070
     1
1005
0
1002
}
1002
{
1070
     2
1005
0
1002
}
1002
{
1070
     4
1000
AR-CONC
1040
0.01
1040
0.0
1070
     0
1000
T__SCHR
1070
   256
1000
_bylayer
1040
50.0
1070
     1
1002
}
  0
HATCH
  5
AE21
330
1F
100
AcDbEntity
  8
SOLBET_Beton
100
AcDbHatch
 10
0.0
 20
0.0
 30
0.0
210
0.0
220
0.0
230
1.0
  2
ANSI33
 70
     0
 71
     1
 91
        1
 92
        7
 72
     1
 73
     1
 93
        3
 10
229.8626301351042
 20
58.58992201835675
 42
0.4253361557004726
 10
272.9297477162349
 20
36.36223920082571
 42
0.0
 10
272.9297477162349
 20
58.58992201835675
 42
0.0
 97
        2
330
AE22
330
AE24
 75
     0
 76
     1
 52
0.0
 41
3.75
 77
     0
 78
     2
 53
45.0
 43
-535.9829211281971
 44
-578.0404769814237
 45
-16.83798022700466
 46
16.83798022700466
 79
     0
 53
45.0
 43
-519.1449336281976
 44
-578.0404769814237
 45
-16.83798022700466
 46
16.83798022700466
 79
     2
 49
11.90625
 49
-5.953124999999999
 47
0.0587362888947614
 98
        1
 10
254.7654669102317
 20
48.07343002265278
1001
ACAD
1010
0.0
1020
0.0
1030
0.0
  0
LWPOLYLINE
  5
AE22
102
{ACAD_REACTORS
330
AE21
102
}
330
1F
100
AcDbEntity
  8
SOLBET_Beton
100
AcDbPolyline
 90
        3
 70
     0
 43
0.0
 10
229.8626301351046
 20
58.58992201835675
 10
272.9297477162349
 20
58.58992201835675
 10
272.9297477162349
 20
36.36223920082571
  0
LINE
  5
AE23
330
1F
100
AcDbEntity
  8
SOLBET_Izolacja
  6
BATTING
 48
0.6
100
AcDbLine
 10
228.4577018085397
 20
68.21015673980875
 30
0.0
 11
272.9297477162349
 21
68.21015673980875
 31
0.0
  0
ARC
  5
AE24
102
{ACAD_REACTORS
330
AE21
102
}
330
1F
100
AcDbEntity
  8
SOLBET_Wymiary_Opisy
100
AcDbCircle
 10
262.0974035325867
 20
68.21015673980875
 30
0.0
 40
33.6397017240473
100
AcDbArc
 50
136.5926968744867
 51
288.7845676764076
  0
MTEXT
  5
AE25
102
{ACAD_XDICTIONARY
360
BE65
102
}
330
1F
100
AcDbEntity
  8
SOLBET_Wymiary_Opisy
100
AcDbMText
 10
237.2209106802197
 20
111.9296614548425
 30
0.0
 40
5.0
 41
30.77919768571883
 71
     1
 72
     5
  1
{\W4.46319; }B\P{\W2.21319; }(5 : 1)
  7
Solbet_5
 73
     1
 44
1.0
1001
ACAD
1000
MTEXTBEGIN
1070
    73
1070
     1
1070
    44
1040
1.0
1070
    74
1070
     0
1000
MTEXTEND
1000
ACAD_MTEXT_DEFINED_HEIGHT_BEGIN
1070
    46
1040
23.42535011036716
1000
ACAD_MTEXT_DEFINED_HEIGHT_END
  0
LEADER
  5
AE26
330
1F
100
AcDbEntity
  8
SOLBET_Wymiary_Opisy
100
AcDbLeader
  3
Solbet$7
 73
     0
 74
     0
 75
     1
 40
5.0
 41
4.0
 76
     3
 10
178.785756728229
 20
181.8217785286412
 30
0.0
 10
181.7569069290452
 20
185.8202652676851
 30
0.0
 10
184.2569069290453
 20
185.8202652676851
 30
0.0
213
0.8103787685154202
223
-0.1753245211093599
233
0.0
1001
ACAD
1000
DSTYLE
1002
{
1070
   341
1005
790F
1070
   147
1040
0.625
1070
    77
1070
     1
1002
}
  0
MTEXT
  5
AE27
102
{ACAD_REACTORS
330
AE26
102
}
330
1F
100
AcDbEntity
  8
SOLBET_Wymiary_Opisy
100
AcDbMText
 10
188.0715281605298
 20
191.6205897887944
 30
0.0
 40
5.0
 41
0.0
 71
     3
 72
     1
  1
B
  7
Solbet_5
 73
     1
 44
1.0
1001
ACAD
1000
MTEXTBEGIN
1070
    73
1070
     1
1070
    44
1040
1.0
1070
    74
1070
     0
1000
MTEXTEND
  0
LEADER
  5
AE28
330
1F
100
AcDbEntity
  8
SOLBET_Wymiary_Opisy
 62
     1
100
AcDbLeader
  3
Solbet$7
 73
     0
 74
     0
 75
     1
 40
3.25
 41
18.75
 76
     3
 10
168.2332965593055
 20
170.269952026321
 30
0.0
 10
186.7366689434134
 20
150.7771073887649
 30
0.0
 10
189.2366689434134
 20
150.7771073887649
 30
0.0
213
0.0
223
-0.2322806831707567
233
0.0
1001
ACAD
1000
DSTYLE
1002
{
1070
   147
1040
0.625
1070
    77
1070
     1
1002
}
  0
MTEXT
  5
AE29
102
{ACAD_REACTORS
330
AE28
102
}
330
1F
100
AcDbEntity
  8
SOLBET_Wymiary_Opisy
100
AcDbMText
 10
189.2366689434134
 20
154.0271073887649
 30
0.0
 40
2.5
 41
0.0
 71
     1
 72
     1
  1
Chudy beton
  7
Solbet_2_5
 73
     1
 44
1.0
1001
ACAD
1000
MTEXTBEGIN
1070
    73
1070
     1
1070
    44
1040
1.0
1070
    74
1070
     0
1000
MTEXTEND
  0
LEADER
  5
AE2A
330
1F
100
AcDbEntity
  8
SOLBET_Wymiary_Opisy
 62
     1
100
AcDbLeader
  3
Solbet$7
 73
     0
 74
     0
 75
     1
 40
3.25
 41
30.25
 76
     3
 10
163.3385016654947
 20
164.1019053996712
 30
0.0
 10
185.7693914441411
 20
141.8183746149733
 30
0.0
 10
188.2693914441411
 20
141.8183746149733
 30
0.0
213
0.0
223
-0.2322806831707567
233
0.0
1001
ACAD
1000
DSTYLE
1002
{
1070
   147
1040
0.625
1070
    77
1070
     1
1002
}
  0
MTEXT
  5
AE2B
102
{ACAD_XDICTIONARY
360
BE85
102
}
102
{ACAD_REACTORS
330
AE2A
102
}
330
1F
100
AcDbEntity
  8
SOLBET_Wymiary_Opisy
100
AcDbMText
 10
188.8943914441411
 20
145.9256552981441
 30
0.0
 40
2.5
 41
0.0
 71
     1
 72
     1
  1
Zag\U+0119szczony piasek
  7
Solbet_2_5
 73
     1
 44
1.0
1001
ACAD
1000
MTEXTBEGIN
1070
    73
1070
     1
1070
    44
1040
1.0
1070
    74
1070
     0
1000
MTEXTEND
  0
LEADER
  5
AE2C
330
1F
100
AcDbEntity
  8
SOLBET_Wymiary_Opisy
100
AcDbLeader
  3
Solbet$7
 73
     0
 74
     0
 75
     1
 40
7.416666666666666
 41
27.5
 76
     3
 10
126.0765255805309
 20
114.3814781946799
 30
0.0
 10
130.3755333987346
 20
122.1116786137332
 30
0.0
 10
132.8755333987346
 20
122.1116786137332
 30
0.0
213
0.2070319087433745
223
4.563577227191373
233
0.0
1001
ACAD
1000
DSTYLE
1002
{
1070
   147
1040
0.625
1070
    77
1070
     1
1002
}
  0
MTEXT
  5
AE2D
102
{ACAD_XDICTIONARY
360
BE67
102
}
102
{ACAD_REACTORS
330
AE2C
102
}
330
1F
100
AcDbEntity
  8
SOLBET_Wymiary_Opisy
100
AcDbMText
 10
131.5630614427209
 20
125.5897680532085
 30
0.0
 40
2.5
 41
0.0
 71
     1
 72
     1
  1
Emulsja izolazyjna\Plub izolacja z folii
  7
Solbet_2_5
 73
     1
 44
1.0
1001
ACAD
1000
MTEXTBEGIN
1070
    73
1070
     1
1070
    44
1040
1.0
1070
    74
1070
     0
1000
MTEXTEND
  0
INSERT
  5
AE2E
330
1F
100
AcDbEntity
  8
SOLBET_Wymiary_Opisy
100
AcDbBlockReference
  2
_DotSmall
 10
101.3306518948411
 20
130.9566377762385
 30
0.0
 41
2.50000000000016
 42
2.5
 43
2.5
 50
11.56533956074797
1001
ACAD
1000
DSTYLE
1002
{
1070
   147
1040
0.625
1070
    77
1070
     1
1002
}
  0
LWPOLYLINE
  5
AE2F
330
1F
100
AcDbEntity
  8
SOLBET_Wymiary_Opisy
100
AcDbPolyline
 90
        3
 70
     0
 43
0.0
 10
101.3306518948411
 20
130.9566377762385
 10
77.52297178921344
 20
125.4159703005182
 10
42.17330214799767
 20
125.4159703005182
1001
ACAD
1000
DSTYLE
1002
{
1070
   147
1040
0.625
1070
    77
1070
     1
1002
}
  0
MTEXT
  5
AE30
330
1F
100
AcDbEntity
  8
SOLBET_Wymiary_Opisy
100
AcDbMText
 10
76.9797828413366
 20
128.9770614785309
 30
0.0
 40
2.5
 41
0.0
 71
     3
 72
     1
  1
Styropian wodoodporny
  7
Solbet_2_5
 73
     1
 44
1.0
1001
ACAD
1000
MTEXTBEGIN
1070
    73
1070
     1
1070
    44
1040
1.0
1070
    74
1070
     0
1000
MTEXTEND
  0
INSERT
  5
AE31
330
1F
100
AcDbEntity
  8
SOLBET_Wymiary_Opisy
100
AcDbBlockReference
  2
_DotSmall
 10
102.1527714772155
 20
125.8914391943226
 30
0.0
 41
2.499999999999812
 42
2.5
 43
2.5
 50
13.88953710992713
1001
ACAD
1000
DSTYLE
1002
{
1070
   147
1040
0.625
1070
    77
1070
     1
1002
}
  0
LWPOLYLINE
  5
AE32
330
1F
100
AcDbEntity
  8
SOLBET_Wymiary_Opisy
100
AcDbPolyline
 90
        3
 70
     0
 43
0.0
 10
102.1527714772155
 20
125.8914391943226
 10
77.52297178921344
 20
118.9929640254078
 10
57.46254691706008
 20
118.9929640254078
1001
ACAD
1000
DSTYLE
1002
{
1070
   147
1040
0.625
1070
    77
1070
     1
1002
}
  0
MTEXT
  5
AE33
330
1F
100
AcDbEntity
  8
SOLBET_Wymiary_Opisy
100
AcDbMText
 10
76.9797828413366
 20
122.4309766476172
 30
0.0
 40
2.5
 41
0.0
 71
     3
 72
     1
  1
Hydroizolacja
  7
Solbet_2_5
 73
     1
 44
1.0
1001
ACAD
1000
MTEXTBEGIN
1070
    73
1070
     1
1070
    44
1040
1.0
1070
    74
1070
     0
1000
MTEXTEND
  0
INSERT
  5
AE34
330
1F
100
AcDbEntity
  8
SOLBET_Wymiary_Opisy
100
AcDbBlockReference
  2
_DotSmall
 10
114.2996293763485
 20
124.6881983221466
 30
0.0
 41
2.500000000000064
 42
2.5
 43
2.5
 50
17.84879682523597
1001
ACAD
1000
DSTYLE
1002
{
1070
   147
1040
0.625
1070
    77
1070
     1
1002
}
  0
INSERT
  5
AE37
330
1F
100
AcDbEntity
  8
SOLBET_Wymiary_Opisy
100
AcDbBlockReference
  2
_DotSmall
 10
121.4257220637064
 20
122.2633521360068
 30
0.0
 41
2.49999999999996
 42
2.5
 43
2.5
 50
17.64542470249763
1001
ACAD
1000
DSTYLE
1002
{
1070
   147
1040
0.625
1070
    77
1070
     1
1002
}
  0
INSERT
  5
AE3A
330
1F
100
AcDbEntity
  8
SOLBET_Wymiary_Opisy
100
AcDbBlockReference
  2
_DotSmall
 10
100.2651240557907
 20
138.4122644176124
 30
0.0
 41
2.499999999999952
 42
2.5
 43
2.5
 50
17.67730576243998
1001
ACAD
1000
DSTYLE
1002
{
1070
   147
1040
0.625
1070
    77
1070
     1
1002
}
  0
LWPOLYLINE
  5
AE3B
330
1F
100
AcDbEntity
  8
SOLBET_Wymiary_Opisy
100
AcDbPolyline
 90
        3
 70
     0
 43
0.0
 10
100.2651240557907
 20
138.4122644176124
 10
77.52297178921344
 20
130.9196394545461
 10
52.84729648712391
 20
130.9196394545461
1001
ACAD
1000
DSTYLE
1002
{
1070
   147
1040
0.625
1070
    77
1070
     1
1002
}
  0
MTEXT
  5
AE3C
102
{ACAD_XDICTIONARY
360
BE88
102
}
330
1F
100
AcDbEntity
  8
SOLBET_Wymiary_Opisy
100
AcDbMText
 10
76.9797828413366
 20
134.2218579150494
 30
0.0
 40
2.5
 41
0.0
 71
     3
 72
     1
  1
Folia kube\U+0142kowa
  7
Solbet_2_5
 73
     1
 44
1.0
1001
ACAD
1000
MTEXTBEGIN
1070
    73
1070
     1
1070
    44
1040
1.0
1070
    74
1070
     0
1000
MTEXTEND
  0
INSERT
  5
AE3D
330
1F
100
AcDbEntity
  8
SOLBET_Wymiary_Opisy
100
AcDbBlockReference
  2
_DotSmall
 10
100.1770761315019
 20
160.807918202813
 30
0.0
 41
2.499999999999952
 42
2.5
 43
2.5
 50
17.67730576243998
1001
ACAD
1000
DSTYLE
1002
{
1070
   147
1040
0.625
1070
    77
1070
     1
1002
}
  0
LWPOLYLINE
  5
AE3E
330
1F
100
AcDbEntity
  8
SOLBET_Wymiary_Opisy
100
AcDbPolyline
 90
        3
 70
     0
 43
0.0
 10
100.1770761315019
 20
160.807918202813
 10
77.52297178921344
 20
140.8783122671972
 10
46.94910374763639
 20
140.9297256831311
1001
ACAD
1000
DSTYLE
1002
{
1070
   147
1040
0.625
1070
    77
1070
     1
1002
}
  0
MTEXT
  5
AE3F
102
{ACAD_XDICTIONARY
360
BE8A
102
}
330
1F
100
AcDbEntity
  8
SOLBET_Wymiary_Opisy
100
AcDbMText
 10
73.22037021120832
 20
144.1805307277004
 30
0.0
 40
2.5
 41
0.0
 71
     3
 72
     1
  1
Profil zamykaj\U+0105cy
  7
Solbet_2_5
 73
     1
 44
1.0
1001
ACAD
1000
MTEXTBEGIN
1070
    73
1070
     1
1070
    44
1040
1.0
1070
    74
1070
     0
1000
MTEXTEND
  0
LINE
  5
AE40
330
1F
100
AcDbEntity
  8
SOLBET_Tynki_Posadzki
100
AcDbLine
 10
100.5773306465253
 20
174.427688788938
 30
0.0
 11
100.8306518948411
 21
174.4276887771731
 31
0.0
  0
CIRCLE
  5
AE41
330
1F
100
AcDbEntity
  8
SOLBET_Wymiary_Opisy
100
AcDbCircle
 10
109.2547120177196
 20
180.0420310141896
 30
0.0
 40
15.82398771840592
  0
LEADER
  5
AE9C
330
1F
100
AcDbEntity
  8
SOLBET_Wymiary_Opisy
100
AcDbLeader
  3
Solbet$7
 73
     0
 75
     1
 40
7.666666666666666
 41
52.75
 76
     3
 10
102.9850597673098
 20
163.419680581984
 30
0.0
 10
91.47274383434023
 20
168.177293331713
 30
0.0
 10
88.97274383434023
 20
168.177293331713
 30
0.0
213
1.177601578005123
223
4.34859754619417
233
0.0
1001
ACAD
1000
DSTYLE
1002
{
1070
   147
1040
0.625
1070
    77
1070
     1
1002
}
  0
MTEXT
  5
AE9D
102
{ACAD_XDICTIONARY
360
BE8C
102
}
102
{ACAD_REACTORS
330
AE9C
102
}
330
1F
100
AcDbEntity
  8
SOLBET_Wymiary_Opisy
100
AcDbMText
 10
86.99762586192537
 20
171.9715228326382
 30
0.0
 40
2.5
 41
0.0
 71
     3
 72
     1
  1
Mocowanie mechaniczne styropianu\P(w cz\U+0119\U+015Bci naziemnej)
  7
Solbet_2_5
 73
     1
 44
1.0
1001
ACAD
1000
MTEXTBEGIN
1070
    73
1070
     1
1070
    44
1040
1.0
1070
    74
1070
     0
1000
MTEXTEND
  0
DIMENSION
  5
AE9E
330
1F
100
AcDbEntity
  8
SOLBET_Wymiary_Opisy
100
AcDbDimension
  2
*D5
 10
32.08619375075435
 20
159.4276887771703
 30
0.0
 11
32.08619375075432
 21
167.0176887771721
 31
0.0
 70
   160
  1
Min. 30cm
 71
     5
 42
15.1800000000029
  3
Solbet
100
AcDbAlignedDimension
 13
98.13048150141367
 23
174.6076887771731
 33
0.0
 14
100.2651240557907
 24
159.4276887771702
 34
0.0
 50
90.0
100
AcDbRotatedDimension
  0
MTEXT
  5
AE9F
102
{ACAD_XDICTIONARY
360
BE69
102
}
330
1F
100
AcDbEntity
  8
SOLBET_Wymiary_Opisy
100
AcDbMText
 10
260.4645093744534
 20
274.3969776482846
 30
0.0
 40
5.0
 41
30.77919768571883
 71
     1
 72
     5
  1
{\W4.37986; }A\P{\W2.21319; }(3 : 1)
  7
Solbet_5
 73
     1
 44
1.0
1001
ACAD
1000
MTEXTBEGIN
1070
    73
1070
     1
1070
    44
1040
1.0
1070
    74
1070
     0
1000
MTEXTEND
1000
ACAD_MTEXT_DEFINED_HEIGHT_BEGIN
1070
    46
1040
23.42535011036716
1000
ACAD_MTEXT_DEFINED_HEIGHT_END
  0
LEADER
  5
AEA0
330
1F
100
AcDbEntity
  8
SOLBET_Wymiary_Opisy
100
AcDbLeader
  3
Solbet$7
 73
     0
 75
     1
 40
5.0
 41
4.5
 76
     3
 10
93.45059412551618
 20
113.5785569785731
 30
0.0
 10
80.86944830901234
 20
104.6499493177114
 30
0.0
 10
78.36944830901234
 20
104.6499493177114
 30
0.0
213
-0.8791749024171622
223
-0.1753245211093599
233
0.0
1001
ACAD
1000
DSTYLE
1002
{
1070
   341
1005
790F
1070
   147
1040
0.625
1070
    77
1070
     1
1002
}
  0
MTEXT
  5
AEA1
102
{ACAD_REACTORS
330
AEA0
102
}
330
1F
100
AcDbEntity
  8
SOLBET_Wymiary_Opisy
100
AcDbMText
 10
78.6236232114295
 20
110.4502738388207
 30
0.0
 40
5.0
 41
0.0
 71
     3
 72
     1
  1
C
  7
Solbet_5
 73
     1
 44
1.0
1001
ACAD
1000
MTEXTBEGIN
1070
    73
1070
     1
1070
    44
1040
1.0
1070
    74
1070
     0
1000
MTEXTEND
  0
LWPOLYLINE
  5
AEA2
330
1F
100
AcDbEntity
  8
SOLBET_Ramka_05
100
AcDbPolyline
 90
        4
 70
     1
 43
0.0
 10
0.0
 20
0.0
 10
334.3517740920897
 20
0.0
 10
334.3517740920897
 20
297.0
 10
0.0
 20
297.0
  0
MTEXT
  5
AEA3
102
{ACAD_XDICTIONARY
360
AEA4
102
}
330
1F
100
AcDbEntity
  8
SOLBET_Wymiary_Opisy
100
AcDbMText
 10
12.81244090445125
 20
289.8967110907779
 30
0.0
 40
5.0
 41
124.2624847080697
 71
     1
 72
     5
  1
{\LDETAL 8\P}Posadowienie na {\fISOCPEUR|b1|i0|c238|p34;\U+0142}awie fundamentowej wariant \U+015Bciany tr\U+00F3jwarstwowej z dociepleniem ze styropianu
  7
Solbet_5
 73
     1
 44
1.0
1001
AcadAnnotative
1000
AnnotativeData
1002
{
1070
     1
1070
     0
1002
}
1001
ACAD
1000
MTEXTBEGIN
1070
    73
1070
     1
1070
    44
1040
1.0
1070
    74
1070
     0
1000
MTEXTEND
  0
MTEXT
  5
AEA8
102
{ACAD_XDICTIONARY
360
BE90
102
}
330
1F
100
AcDbEntity
  8
SOLBET_Wymiary_Opisy
100
AcDbMText
 10
11.47205331924124
 20
19.95404576946998
 30
0.0
 40
2.5
 41
106.5971338885356
 71
     1
 72
     5
  1
{\LUWAGA:\P}Systemy hydroizolacji stosowa\U+0107 wg zalece\U+0144 producent\U+00F3w.\PStyropian wodoodporny wg zalece\U+0144 producent\U+00F3w.
  7
Solbet_2_5
 73
     1
 44
1.0
1001
ACAD
1000
MTEXTBEGIN
1070
    73
1070
     1
1070
    44
1040
1.0
1070
    74
1070
     0
1000
MTEXTEND
  0
LINE
  5
AEA9
330
1F
100
AcDbEntity
  8
SOLBET_Izolacja
100
AcDbLine
 10
102.3306518948411
 20
175.2276887771731
 30
0.0
 11
109.33065207059
 21
175.2276887359857
 31
0.0
  0
LINE
  5
AEAA
330
1F
100
AcDbEntity
  8
SOLBET_Izolacja
100
AcDbLine
 10
109.33065207059
 20
175.2276887359857
 30
0.0
 11
109.3306518948411
 21
217.3276887771731
 31
0.0
  0
LINE
  5
AEAB
330
1F
100
AcDbEntity
  8
SOLBET_Izolacja
100
AcDbLine
 10
102.3306518948411
 20
217.3276887771731
 30
0.0
 11
102.3306479856821
 21
175.427688777173
 31
0.0
  0
LINE
  5
AEAC
330
1F
100
AcDbEntity
  8
SOLBET_Izolacja
  6
BATTING
 48
0.345
100
AcDbLine
 10
105.8306519827156
 20
175.2276887565794
 30
0.0
 11
105.830651894882
 21
217.28677417467
 31
0.0
  0
LINE
  5
AEAD
330
1F
100
AcDbEntity
  8
SOLBET_Izolacja
100
AcDbLine
 10
105.830651894882
 20
217.28677417467
 30
0.0
 11
105.830651894882
 21
217.3276887771731
 31
0.0
  0
LINE
  5
AEAE
330
1F
100
AcDbEntity
  8
SOLBET_Tynki_Posadzki
100
AcDbLine
 10
96.33065189484113
 20
175.2276887771731
 30
0.0
 11
102.3306518948411
 21
175.2276887771731
 31
0.0
  0
LWPOLYLINE
  5
AEB1
330
1F
100
AcDbEntity
  8
SOLBET_Zbrojenie_Konstrukcja
100
AcDbPolyline
 90
        4
 70
     0
 43
0.0
 10
97.63507670068712
 20
198.8312892421367
 10
102.6723299003216
 20
198.8312892421367
 10
109.254712017696
 20
199.2276887771673
 10
115.4592013742314
 20
199.2276887771673
  0
LINE
  5
AEB2
330
1F
100
AcDbEntity
  8
SOLBET_Zbrojenie_Konstrukcja
100
AcDbLine
 10
102.6199117311981
 20
200.539750953942
 30
0.0
 11
102.6199117311981
 21
197.2861395338266
 31
0.0
  0
LWPOLYLINE
  5
AEB3
330
1F
100
AcDbEntity
  8
SOLBET_Zbrojenie_Konstrukcja
100
AcDbPolyline
 90
        4
 70
     1
 43
0.0
 10
102.4649218322484
 20
199.6101481533987
 10
102.6199117311981
 20
199.6101481533987
 10
102.6199117311981
 20
198.2157423343698
 10
102.4649218322484
 20
198.2157423343698
  0
LWPOLYLINE
  5
AEB4
330
1F
100
AcDbEntity
  8
SOLBET_Zbrojenie_Konstrukcja
100
AcDbPolyline
 90
        4
 70
     0
 43
0.0
 10
97.63507670068701
 20
210.8312892421396
 10
102.6723299003215
 20
210.8312892421396
 10
109.2547120176959
 20
211.2276887771702
 10
115.4592013742312
 20
211.2276887771702
  0
LWPOLYLINE
  5
AEB5
330
1F
100
AcDbEntity
  8
SOLBET_Zbrojenie_Konstrukcja
100
AcDbPolyline
 90
        4
 70
     1
 43
0.0
 10
102.4649218322483
 20
211.6101481534017
 10
102.619911731198
 20
211.6101481534017
 10
102.619911731198
 20
210.215742334372
 10
102.4649218322483
 20
210.215742334372
  0
LINE
  5
AEB6
330
1F
100
AcDbEntity
  8
SOLBET_Zbrojenie_Konstrukcja
100
AcDbLine
 10
102.619911731198
 20
212.5397509539449
 30
0.0
 11
102.619911731198
 21
209.2861395338295
 31
0.0
  0
LINE
  5
AEBB
330
1F
100
AcDbEntity
  8
SOLBET_Tynki_Posadzki
100
AcDbLine
 10
96.33065189484113
 20
178.48036342922
 30
0.0
 11
102.3306518948411
 21
178.48036342922
 31
0.0
  0
POINT
  5
B0C3
330
1F
100
AcDbEntity
  8
SOLBET_Wymiary_Opisy
100
AcDbPoint
 10
0.0
 20
0.0
 30
0.0
  0
POINT
  5
B0CD
330
1F
100
AcDbEntity
  8
SOLBET_Wymiary_Opisy
100
AcDbPoint
 10
0.0
 20
0.0
 30
0.0
  0
LINE
  5
B14C
330
1F
100
AcDbEntity
  8
SOLBET_Izolacja
100
AcDbLine
 10
100.8306518948411
 20
114.9276887771731
 30
0.0
 11
101.8306518948411
 21
114.9276887771731
 31
0.0
  0
LINE
  5
B19C
330
1F
100
AcDbEntity
  8
SOLBET_Zbrojenie_Konstrukcja
100
AcDbLine
 10
99.33065189484112
 20
175.2276887771731
 30
0.0
 11
99.33065189484112
 21
175.2276887771731
 31
0.0
  0
LINE
  5
B1A0
330
1F
100
AcDbEntity
  8
SOLBET_Zbrojenie_Konstrukcja
100
AcDbLine
 10
102.3306518954295
 20
177.9475450204366
 30
0.0
 11
102.3306518948411
 21
177.9475450204366
 31
0.0
  0
LINE
  5
B1B0
330
1F
100
AcDbEntity
  8
SOLBET_Zbrojenie_Konstrukcja
100
AcDbLine
 10
109.2306602988131
 20
183.9709800959223
 30
0.0
 11
109.2306602988131
 21
183.9709804911161
 31
0.0
  0
LINE
  5
B345
330
1F
100
AcDbEntity
  8
SOLBET_Emulsje_Folie
100
AcDbLine
 10
310.3577855129417
 20
190.1113868321149
 30
0.0
 11
310.3577855129417
 21
176.3250874529565
 31
0.0
  0
LINE
  5
B346
330
1F
100
AcDbEntity
  8
SOLBET_Izolacja
  6
Continuous
100
AcDbLine
 10
311.654004790674
 20
191.3398021353584
 30
0.0
 11
318.8236635355208
 21
191.3398021353584
 31
0.0
  0
LINE
  5
B347
330
1F
100
AcDbEntity
  8
SOLBET_Tynki_Posadzki
100
AcDbLine
 10
311.654004790674
 20
207.459722636029
 30
0.0
 11
311.6540047906738
 21
235.5738605510055
 31
0.0
  0
LINE
  5
B348
330
1F
100
AcDbEntity
  8
SOLBET_Izolacja
  6
Continuous
100
AcDbLine
 10
313.154004790674
 20
198.8398021353672
 30
0.0
 11
320.7326681794559
 21
198.8398021353672
 31
0.0
  0
LINE
  5
B349
330
1F
100
AcDbEntity
  8
SOLBET_Izolacja
  6
Continuous
100
AcDbLine
 10
313.154004790674
 20
191.3398021353584
 30
0.0
 11
313.154004790674
 21
207.459722636029
 31
0.0
  0
LINE
  5
B34A
330
1F
100
AcDbEntity
  8
SOLBET_Tynki_Posadzki
100
AcDbLine
 10
314.0482033642404
 20
208.959722636029
 30
0.0
 11
321.3471882332583
 21
208.959722636029
 31
0.0
  0
LINE
  5
B34B
330
1F
100
AcDbEntity
  8
SOLBET_Izolacja
  6
Continuous
100
AcDbLine
 10
313.154004790674
 20
191.3398021353584
 30
0.0
 11
310.154004790674
 21
191.3398021353584
 31
0.0
  0
LINE
  5
B34C
330
1F
100
AcDbEntity
  8
SOLBET_Izolacja
  6
Continuous
100
AcDbLine
 10
310.154004790674
 20
192.3176613024932
 30
0.0
 11
310.154004790674
 21
191.3398021353584
 31
0.0
  0
LINE
  5
B34D
330
1F
100
AcDbEntity
  8
SOLBET_Izolacja
  6
Continuous
100
AcDbLine
 10
313.154004790674
 20
207.459722636029
 30
0.0
 11
310.154004790674
 21
207.459722636029
 31
0.0
  0
ARC
  5
B350
330
1F
100
AcDbEntity
  8
SOLBET_Tynki_Posadzki
100
AcDbCircle
 10
311.654004790674
 20
208.959722636029
 30
0.0
 40
4.5001564188864
100
AcDbArc
 50
0.0
 51
90.0
  0
LINE
  5
B351
330
1F
100
AcDbEntity
  8
SOLBET_Tynki_Posadzki
100
AcDbLine
 10
314.0482033642404
 20
208.959722636029
 30
0.0
 11
314.0482033642404
 21
207.459722636029
 31
0.0
  0
LINE
  5
B355
330
1F
100
AcDbEntity
  8
SOLBET_Emulsje_Folie
100
AcDbLine
 10
252.9502240684062
 20
190.1113868321149
 30
0.0
 11
310.3577855129417
 21
190.1113868321149
 31
0.0
  0
LINE
  5
B357
330
1F
100
AcDbEntity
  8
SOLBET_Emulsje_Folie
100
AcDbLine
 10
311.1191640389791
 20
189.9812328198521
 30
0.0
 11
318.33381028398
 21
189.9812328198521
 31
0.0
  0
LINE
  5
B358
330
1F
100
AcDbEntity
  8
SOLBET_Emulsje_Folie
100
AcDbLine
 10
313.4984529396909
 20
208.209722636029
 30
0.0
 11
313.4984529396909
 21
200.1773200760742
 31
0.0
  0
LINE
  5
B359
330
1F
100
AcDbEntity
  8
SOLBET_Emulsje_Folie
100
AcDbLine
 10
314.2484529396909
 20
199.4273200760742
 30
0.0
 11
320.8283066518823
 21
199.4273200760743
 31
0.0
  0
ARC
  5
B35A
330
1F
100
AcDbEntity
  8
SOLBET_Emulsje_Folie
100
AcDbCircle
 10
314.2484529396909
 20
200.1773200760742
 30
0.0
 40
0.75
100
AcDbArc
 50
180.0
 51
270.0
  0
LINE
  5
B35C
330
1F
100
AcDbEntity
  8
SOLBET_Izolacja
100
AcDbLine
 10
274.154004790674
 20
192.3176613024932
 30
0.0
 11
274.154004790674
 21
228.3176613024846
 31
0.0
  0
LINE
  5
B35E
330
1F
100
AcDbEntity
  8
SOLBET_Tynki_Posadzki
100
AcDbLine
 10
253.1539930631968
 20
192.9176612841231
 30
0.0
 11
253.1539962549741
 21
227.1284626973927
 31
0.0
  0
LINE
  5
B35F
330
1F
100
AcDbEntity
  8
SOLBET_Tynki_Posadzki
100
AcDbLine
 10
235.154004790674
 20
192.3176613024932
 30
0.0
 11
235.1540047906738
 21
202.0756852586339
 31
0.0
  0
LINE
  5
B361
330
1F
100
AcDbEntity
  8
SOLBET_Emulsje_Folie
100
AcDbLine
 10
252.6203635377972
 20
190.1113868321149
 30
0.0
 11
252.6203635377969
 21
164.3384149622005
 31
0.0
  0
LINE
  5
B362
330
1F
100
AcDbEntity
  8
SOLBET_Izolacja
  6
Continuous
100
AcDbLine
 10
248.6540047906737
 20
166.5748175461075
 30
0.0
 11
248.654004790674
 21
189.9176613024933
 31
0.0
  0
LINE
  5
B373
330
1F
100
AcDbEntity
  8
SOLBET_Tynki_Posadzki
100
AcDbLine
 10
247.8940410457265
 20
189.9176613377935
 30
0.0
 11
247.8940410457265
 21
167.0628951446692
 31
0.0
  0
LINE
  5
B375
330
1F
100
AcDbEntity
  8
SOLBET_Izolacja
100
AcDbLine
 10
310.154004790674
 20
207.459722636029
 30
0.0
 11
310.154004790674
 21
192.3176613024932
 31
0.0
  0
LINE
  5
B376
330
1F
100
AcDbEntity
  8
SOLBET_Izolacja
  6
BATTING
 48
0.048
100
AcDbLine
 10
311.654004790674
 20
207.4047249516757
 30
0.0
 11
311.654004790674
 21
191.3398021353584
 31
0.0
  0
LINE
  5
B377
330
1F
100
AcDbEntity
  8
SOLBET_Izolacja
100
AcDbLine
 10
313.154004790674
 20
198.8398021353672
 30
0.0
 11
313.154004790674
 21
191.3398021353584
 31
0.0
  0
LINE
  5
B378
330
1F
100
AcDbEntity
  8
SOLBET_Izolacja
  6
BATTING
 48
0.36
100
AcDbLine
 10
313.154004790674
 20
195.089802135363
 30
0.0
 11
319.9411578163572
 21
195.089802135363
 31
0.0
  0
LINE
  5
B385
330
1F
100
AcDbEntity
  8
SOLBET_Emulsje_Folie
  6
DASHED2
370
    30
100
AcDbLine
 10
231.2534936103916
 20
190.8176613024934
 30
0.0
 11
318.6409163460348
 21
190.8176613024934
 31
0.0
  0
LINE
  5
B387
330
1F
100
AcDbEntity
  8
SOLBET_Izolacja
100
AcDbLine
 10
248.654004790674
 20
189.9176613024933
 30
0.0
 11
251.654004790674
 21
189.9176613024933
 31
0.0
  0
LINE
  5
B388
330
1F
100
AcDbEntity
  8
SOLBET_Izolacja
100
AcDbLine
 10
251.654004790674
 20
189.9176613024933
 30
0.0
 11
250.154004790674
 21
189.9176613024933
 31
0.0
  0
LINE
  5
B389
330
1F
100
AcDbEntity
  8
SOLBET_Izolacja
  6
BATTING
 48
0.144
100
AcDbLine
 10
250.154004790674
 20
189.9176613024933
 30
0.0
 11
250.1540047906742
 21
165.6696825946993
 31
0.0
  0
LINE
  5
B38C
330
1F
100
AcDbEntity
  8
SOLBET_Tynki_Posadzki
100
AcDbLine
 10
247.8940410457265
 20
189.9176613377879
 30
0.0
 11
248.654004790674
 21
189.9176613024933
 31
0.0
  0
ARC
  5
B38D
330
1F
100
AcDbEntity
  8
SOLBET_Wymiary_Opisy
100
AcDbCircle
 10
273.9261851593094
 20
206.7606880135429
 30
0.0
 40
47.47196315521776
100
AcDbArc
 50
236.7448214187896
 51
144.7596261049871
  0
LINE
  5
B393
330
1F
100
AcDbEntity
  8
SOLBET_Izolacja
100
AcDbLine
 10
253.154004790674
 20
192.3176613024932
 30
0.0
 11
274.1540053179208
 21
192.317661178931
 31
0.0
  0
LINE
  5
B394
330
1F
100
AcDbEntity
  8
SOLBET_Izolacja
100
AcDbLine
 10
274.1540053179208
 20
192.317661178931
 30
0.0
 11
274.1540051649151
 21
228.9696630054983
 31
0.0
  0
LINE
  5
B396
330
1F
100
AcDbEntity
  8
SOLBET_Izolacja
  6
BATTING
100
AcDbLine
 10
263.6540050542974
 20
192.3176612407121
 30
0.0
 11
263.6540049273469
 21
253.107959768118
 31
0.0
  0
LINE
  5
B397
330
1F
100
AcDbEntity
  8
SOLBET_Tynki_Posadzki
100
AcDbLine
 10
235.154004790674
 20
192.3176613024932
 30
0.0
 11
253.154004790674
 21
192.3176613024932
 31
0.0
  0
LINE
  5
B39B
330
1F
100
AcDbEntity
  8
SOLBET_Tynki_Posadzki
100
AcDbLine
 10
235.154004790674
 20
202.0756852586339
 30
0.0
 11
253.154004790674
 21
202.0756852586339
 31
0.0
  0
LINE
  5
B3B5
330
1F
100
AcDbEntity
  8
SOLBET_Zbrojenie_Konstrukcja
100
AcDbLine
 10
244.154004790674
 20
192.3176613024932
 30
0.0
 11
244.154004790674
 21
192.3176613024932
 31
0.0
  0
LINE
  5
B3BB
330
1F
100
AcDbEntity
  8
SOLBET_Zbrojenie_Konstrukcja
100
AcDbLine
 10
253.1540047924391
 20
200.4772300322839
 30
0.0
 11
253.154004790674
 21
200.4772300322839
 31
0.0
  0
LINE
  5
B409
330
1F
100
AcDbEntity
  8
SOLBET_Emulsje_Folie
100
AcDbLine
 10
318.5109202809758
 20
190.4576613024934
 30
0.0
 11
231.2534936103916
 21
190.4576613024934
 31
0.0
  0
LINE
  5
B40A
330
1F
100
AcDbEntity
  8
SOLBET_Emulsje_Folie
100
AcDbLine
 10
231.2534936103916
 20
190.4576613024934
 30
0.0
 11
231.2534936103916
 21
191.1776613024934
 31
0.0
  0
LINE
  5
B40B
330
1F
100
AcDbEntity
  8
SOLBET_Emulsje_Folie
100
AcDbLine
 10
231.2534936103916
 20
191.1776613024934
 30
0.0
 11
318.7676454871473
 21
191.1776613024934
 31
0.0
  0
LINE
  5
B413
330
1F
100
AcDbEntity
  8
SOLBET_Bloczki
100
AcDbLine
 10
310.1540053179194
 20
228.3176611789311
 30
0.0
 11
310.1540053179194
 21
192.3176611789308
 31
0.0
  0
LINE
  5
B414
330
1F
100
AcDbEntity
  8
SOLBET_Bloczki
100
AcDbLine
 10
310.1540053179194
 20
228.3176611789311
 30
0.0
 11
274.1540053179194
 21
228.3176611789311
 31
0.0
  0
LINE
  5
B415
330
1F
100
AcDbEntity
  8
SOLBET_Bloczki
100
AcDbLine
 10
274.1540053179194
 20
228.3176611789311
 30
0.0
 11
274.1540053179194
 21
192.317661178931
 31
0.0
  0
LINE
  5
B416
330
1F
100
AcDbEntity
  8
SOLBET_Bloczki
100
AcDbLine
 10
274.1540053179194
 20
192.317661178931
 30
0.0
 11
310.1540053179194
 21
192.3176611789308
 31
0.0
  0
LINE
  5
B41E
330
1F
100
AcDbEntity
  8
SOLBET_Bloczki
100
AcDbLine
 10
310.1540053179192
 20
237.4385681939884
 30
0.0
 11
310.1540053179194
 21
228.3176611789309
 31
0.0
  0
LINE
  5
B420
330
1F
100
AcDbEntity
  8
SOLBET_Bloczki
100
AcDbLine
 10
274.1540053179194
 20
254.2321045058458
 30
0.0
 11
274.1540053179194
 21
228.3176611789311
 31
0.0
  0
LINE
  5
B421
330
1F
100
AcDbEntity
  8
SOLBET_Bloczki
100
AcDbLine
 10
274.1540053179194
 20
228.3176611789311
 30
0.0
 11
310.1540053179194
 21
228.3176611789309
 31
0.0
  0
LINE
  5
B575
330
1F
100
AcDbEntity
  8
SOLBET_Tynki_Posadzki
100
AcDbLine
 10
240.3476677784747
 20
240.3176613024932
 30
0.0
 11
253.154004790674
 21
240.3176613024932
 31
0.0
  0
LINE
  5
B576
330
1F
100
AcDbEntity
  8
SOLBET_Tynki_Posadzki
100
AcDbLine
 10
253.154004790674
 20
240.3176613024932
 30
0.0
 11
253.154004790674
 21
249.4467959240005
 31
0.0
  0
LINE
  5
B579
330
1F
100
AcDbEntity
  8
SOLBET_Tynki_Posadzki
100
AcDbLine
 10
235.154004790674
 20
228.3176613024932
 30
0.0
 11
253.154004790674
 21
228.3176613024932
 31
0.0
  0
LINE
  5
B57A
330
1F
100
AcDbEntity
  8
SOLBET_Tynki_Posadzki
100
AcDbLine
 10
253.154004790674
 20
228.3176613024932
 30
0.0
 11
253.154004790674
 21
238.0676613024932
 31
0.0
  0
LINE
  5
B57B
330
1F
100
AcDbEntity
  8
SOLBET_Tynki_Posadzki
100
AcDbLine
 10
253.154004790674
 20
238.0676613024932
 30
0.0
 11
238.2406039072785
 21
238.0676613024932
 31
0.0
  0
LINE
  5
B57C
330
1F
100
AcDbEntity
  8
SOLBET_Tynki_Posadzki
100
AcDbLine
 10
235.154004790674
 20
234.1523895903408
 30
0.0
 11
235.154004790674
 21
228.3176613024932
 31
0.0
  0
LINE
  5
B57D
330
1F
100
AcDbEntity
  8
SOLBET_Tynki_Posadzki
100
AcDbLine
 10
235.154004790674
 20
216.3176613024845
 30
0.0
 11
253.154004790674
 21
216.3176613024845
 31
0.0
  0
LINE
  5
B57E
330
1F
100
AcDbEntity
  8
SOLBET_Tynki_Posadzki
100
AcDbLine
 10
253.154004790674
 20
216.3176613024845
 30
0.0
 11
253.154004790674
 21
226.0676613024846
 31
0.0
  0
LINE
  5
B57F
330
1F
100
AcDbEntity
  8
SOLBET_Tynki_Posadzki
100
AcDbLine
 10
253.154004790674
 20
226.0676613024846
 30
0.0
 11
235.154004790674
 21
226.0676613024846
 31
0.0
  0
LINE
  5
B580
330
1F
100
AcDbEntity
  8
SOLBET_Tynki_Posadzki
100
AcDbLine
 10
235.154004790674
 20
226.0676613024846
 30
0.0
 11
235.154004790674
 21
216.3176613024845
 31
0.0
  0
LINE
  5
B581
330
1F
100
AcDbEntity
  8
SOLBET_Tynki_Posadzki
100
AcDbLine
 10
235.154004790674
 20
204.3176613024932
 30
0.0
 11
253.154004790674
 21
204.3176613024932
 31
0.0
  0
LINE
  5
B582
330
1F
100
AcDbEntity
  8
SOLBET_Tynki_Posadzki
100
AcDbLine
 10
253.154004790674
 20
204.3176613024932
 30
0.0
 11
253.154004790674
 21
214.0676613024932
 31
0.0
  0
LINE
  5
B583
330
1F
100
AcDbEntity
  8
SOLBET_Tynki_Posadzki
100
AcDbLine
 10
253.154004790674
 20
214.0676613024932
 30
0.0
 11
235.154004790674
 21
214.0676613024932
 31
0.0
  0
LINE
  5
B584
330
1F
100
AcDbEntity
  8
SOLBET_Tynki_Posadzki
100
AcDbLine
 10
235.154004790674
 20
214.0676613024932
 30
0.0
 11
235.154004790674
 21
204.3176613024932
 31
0.0
  0
LINE
  5
B590
330
1F
100
AcDbEntity
  8
SOLBET_Tynki_Posadzki
100
AcDbLine
 10
316.7273287959276
 20
202.8398146449006
 30
0.0
 11
319.648147374598
 21
205.8839352721088
 31
0.0
  0
LINE
  5
B591
330
1F
100
AcDbEntity
  8
SOLBET_Tynki_Posadzki
100
AcDbLine
 10
320.0633777489306
 20
202.3209530570321
 30
0.0
 11
319.64907083144
 21
205.882320928084
 31
0.0
  0
LINE
  5
B592
330
1F
100
AcDbEntity
  8
SOLBET_Tynki_Posadzki
100
AcDbLine
 10
316.7273287916482
 20
202.8398152212553
 30
0.0
 11
320.0624570687855
 21
202.3225683024249
 31
0.0
  0
ARC
  5
B5A3
330
1F
100
AcDbEntity
  8
SOLBET_Tynki_Posadzki
100
AcDbCircle
 10
314.2484529396625
 20
200.1773200760165
 30
0.0
 40
0.7499999999715215
100
AcDbArc
 50
179.9999999955836
 51
196.8657343017284
1001
ASO_SCHRAFF
1005
0
1070
     1
1002
{
1070
     1
1005
0
1002
}
1002
{
1070
     2
1005
0
1002
}
1002
{
1070
     4
1000
AR-CONC
1040
0.01
1040
0.0
1070
     0
1000
T__SCHR
1070
   256
1000
VONLAYER
1040
50.0
1070
     1
1002
}
  0
LINE
  5
B5A4
330
1F
100
AcDbEntity
  8
SOLBET_Tynki_Posadzki
100
AcDbLine
 10
313.5307124893127
 20
199.959722636029
 30
0.0
 11
320.9084600695796
 21
199.959722636029
 31
0.0
1001
ASO_SCHRAFF
1005
0
1070
     1
1002
{
1070
     1
1005
0
1002
}
1002
{
1070
     2
1005
0
1002
}
1002
{
1070
     4
1000
AR-CONC
1040
0.01
1040
0.0
1070
     0
1000
T__SCHR
1070
   256
1000
VONLAYER
1040
50.0
1070
     1
1002
}
  0
LINE
  5
B5A7
330
1F
100
AcDbEntity
  8
SOLBET_Tynki_Posadzki
100
AcDbLine
 10
313.4984529396909
 20
207.459722636029
 30
0.0
 11
313.4984529396909
 21
200.1773200760742
 31
0.0
1001
ASO_SCHRAFF
1005
0
1070
     1
1002
{
1070
     1
1005
0
1002
}
1002
{
1070
     2
1005
0
1002
}
1002
{
1070
     4
1000
AR-CONC
1040
0.01
1040
0.0
1070
     0
1000
T__SCHR
1070
   256
1000
VONLAYER
1040
50.0
1070
     1
1002
}
  0
LINE
  5
B5AB
330
1F
100
AcDbEntity
  8
SOLBET_Beton
100
AcDbLine
 10
310.5858762724022
 20
189.3176613024848
 30
0.0
 11
310.5858762724022
 21
176.6002116694434
 31
0.0
1001
ASO_SCHRAFF
1005
0
1070
     1
1002
{
1070
     1
1005
0
1002
}
1002
{
1070
     2
1005
0
1002
}
1002
{
1070
     4
1000
INSUL
1040
0.2
1040
135.0
1070
     0
1000
T__SCHR
1070
   256
1000
VONLAYER
1040
50.0
1070
     1
1002
}
  0
LINE
  5
B5AD
330
1F
100
AcDbEntity
  8
SOLBET_Beton
100
AcDbLine
 10
310.5858762724022
 20
182.2036525856632
 30
0.0
 11
317.6998849892245
 21
189.3176613024852
 31
0.0
1001
ACAD
1010
0.0
1020
0.0
1030
0.0
  0
LINE
  5
B614
330
1F
100
AcDbEntity
  8
SOLBET_Beton
100
AcDbLine
 10
253.154004790674
 20
168.9176613024934
 30
0.0
 11
302.5878776277791
 21
168.9176613024934
 31
0.0
  0
LINE
  5
B615
330
1F
100
AcDbEntity
  8
SOLBET_Beton
100
AcDbLine
 10
310.154004790674
 20
176.082807210468
 30
0.0
 11
310.154004790674
 21
189.9176613024933
 31
0.0
  0
LINE
  5
B616
330
1F
100
AcDbEntity
  8
SOLBET_Beton
100
AcDbLine
 10
310.154004790674
 20
189.9176613024933
 30
0.0
 11
253.154004790674
 21
189.9176613024933
 31
0.0
  0
LINE
  5
B617
330
1F
100
AcDbEntity
  8
SOLBET_Beton
100
AcDbLine
 10
253.154004790674
 20
189.9176613024933
 30
0.0
 11
253.154004790674
 21
168.9176613024934
 31
0.0
  0
LINE
  5
B61A
330
1F
100
AcDbEntity
  8
SOLBET_Beton
100
AcDbLine
 10
300.4914544977519
 20
167.4176613024934
 30
0.0
 11
253.154004790674
 21
167.4176613024934
 31
0.0
  0
LINE
  5
B61B
330
1F
100
AcDbEntity
  8
SOLBET_Beton
100
AcDbLine
 10
253.154004790674
 20
167.4176613024934
 30
0.0
 11
253.1540047906737
 21
164.0745801030854
 31
0.0
  0
LINE
  5
B626
330
1F
100
AcDbEntity
  8
SOLBET_Izolacja
100
AcDbLine
 10
253.1539983372152
 20
249.4467927835775
 30
0.0
 11
253.1539930596665
 21
192.8798217293925
 31
0.0
  0
LINE
  5
B627
330
1F
100
AcDbEntity
  8
SOLBET_Tynki_Posadzki
100
AcDbLine
 10
321.3930013197273
 20
207.459722636029
 30
0.0
 11
313.4984529396909
 21
207.459722636029
 31
0.0
1001
ASO_SCHRAFF
1005
0
1070
     1
1002
{
1070
     1
1005
0
1002
}
1002
{
1070
     2
1005
0
1002
}
1002
{
1070
     4
1000
AR-CONC
1040
0.01
1040
0.0
1070
     0
1000
T__SCHR
1070
   256
1000
VONLAYER
1040
50.0
1070
     1
1002
}
  0
LINE
  5
B62B
330
1F
100
AcDbEntity
  8
SOLBET_Beton
100
AcDbLine
 10
318.0773811223598
 20
189.3176613024848
 30
0.0
 11
310.5858762724022
 21
189.3176613024848
 31
0.0
1001
ASO_SCHRAFF
1005
0
1070
     1
1002
{
1070
     1
1005
0
1002
}
1002
{
1070
     2
1005
0
1002
}
1002
{
1070
     4
1000
INSUL
1040
0.2
1040
135.0
1070
     0
1000
T__SCHR
1070
   256
1000
VONLAYER
1040
50.0
1070
     1
1002
}
  0
LINE
  5
B630
330
1F
100
AcDbEntity
  8
SOLBET_Izolacja
  6
Continuous
100
AcDbLine
 10
251.654004790674
 20
164.8376959037551
 30
0.0
 11
251.654004790674
 21
189.9176613024933
 31
0.0
  0
LINE
  5
B63F
330
1F
100
AcDbEntity
  8
SOLBET_Tynki_Posadzki
100
AcDbLine
 10
235.154004790674
 20
192.3176613024932
 30
0.0
 11
235.154004790674
 21
234.1523895903409
 31
0.0
  0
INSERT
  5
B640
330
1F
100
AcDbEntity
  8
SOLBET_Wymiary_Opisy
100
AcDbBlockReference
  2
_DotSmall
 10
238.3614797456451
 20
190.8176613024932
 30
0.0
 41
2.499999999999842
 42
2.5
 43
2.5
 50
21.05199243830154
1001
ACAD
1000
DSTYLE
1002
{
1070
   147
1040
0.625
1070
    77
1070
     1
1002
}
  0
LWPOLYLINE
  5
B641
330
1F
100
AcDbEntity
  8
SOLBET_Wymiary_Opisy
100
AcDbPolyline
 90
        3
 70
     0
 43
0.0
 10
238.3614797456451
 20
190.8176613024932
 10
225.9248512544721
 20
183.2578650847674
 10
204.424851254472
 20
183.2578650847674
1001
ACAD
1000
DSTYLE
1002
{
1070
   147
1040
0.625
1070
    77
1070
     1
1002
}
  0
LWPOLYLINE
  5
B642
330
1F
100
AcDbEntity
  8
SOLBET_Wymiary_Opisy
100
AcDbPolyline
 90
        3
 70
     0
 43
0.0
 10
311.654004790674
 20
226.945445941883
 10
229.9827603263714
 20
257.6342130945427
 10
189.4579795828065
 20
257.6342130945427
1001
ACAD
1000
DSTYLE
1002
{
1070
   147
1040
0.625
1070
    77
1070
     1
1002
}
  0
MTEXT
  5
B643
330
1F
100
AcDbEntity
  8
SOLBET_Wymiary_Opisy
100
AcDbMText
 10
225.9248512544721
 20
186.207309715935
 30
0.0
 40
2.5
 41
0.0
 71
     3
 72
     1
  1
Izolacja z folii
  7
Solbet_2_5
 73
     1
 44
1.0
1001
ACAD
1000
MTEXTBEGIN
1070
    73
1070
     1
1070
    44
1040
1.0
1070
    74
1070
     0
1000
MTEXTEND
  0
MTEXT
  5
B644
102
{ACAD_XDICTIONARY
360
BE92
102
}
330
1F
100
AcDbEntity
  8
SOLBET_Wymiary_Opisy
100
AcDbMText
 10
225.9248512544721
 20
167.7769887981085
 30
0.0
 40
2.5
 41
0.0
 71
     3
 72
     1
  1
Emulsja izoluj\U+0105ca
  7
Solbet_2_5
 73
     1
 44
1.0
1001
ACAD
1000
MTEXTBEGIN
1070
    73
1070
     1
1070
    44
1040
1.0
1070
    74
1070
     0
1000
MTEXTEND
  0
MTEXT
  5
B645
102
{ACAD_XDICTIONARY
360
BE94
102
}
330
1F
100
AcDbEntity
  8
SOLBET_Wymiary_Opisy
100
AcDbMText
 10
228.3966110995345
 20
261.162003831491
 30
0.0
 40
2.5
 41
53.46628558939642
 71
     3
 72
     1
  1
Tynk wewn\U+0119trzny SOLBET
  7
Solbet_2_5
 73
     1
 44
1.0
1001
ACAD
1000
MTEXTBEGIN
1070
    73
1070
     1
1070
    44
1040
1.0
1070
    74
1070
     0
1000
MTEXTEND
1000
ACAD_MTEXT_DEFINED_HEIGHT_BEGIN
1070
    46
1040
2.727466215838973
1000
ACAD_MTEXT_DEFINED_HEIGHT_END
  0
INSERT
  5
B646
330
1F
100
AcDbEntity
  8
SOLBET_Wymiary_Opisy
100
AcDbBlockReference
  2
_DotSmall
 10
247.8940410457265
 20
188.2978421892485
 30
0.0
 41
2.499999999999761
 42
2.5
 43
2.5
 50
27.48851612894725
1001
ACAD
1000
DSTYLE
1002
{
1070
   147
1040
0.625
1070
    77
1070
     1
1002
}
  0
LWPOLYLINE
  5
B647
330
1F
100
AcDbEntity
  8
SOLBET_Wymiary_Opisy
100
AcDbPolyline
 90
        3
 70
     0
 43
0.0
 10
272.4808723805598
 20
190.1113868321148
 10
225.9248512544721
 20
164.5269887981085
 10
201.020146491964
 20
164.5269887981085
1001
ACAD
1000
DSTYLE
1002
{
1070
   147
1040
0.625
1070
    77
1070
     1
1002
}
  0
LWPOLYLINE
  5
B648
330
1F
100
AcDbEntity
  8
SOLBET_Wymiary_Opisy
100
AcDbPolyline
 90
        3
 70
     0
 43
0.0
 10
247.8940410457265
 20
188.2978421892485
 10
225.9248512544721
 20
173.6795313176179
 10
203.5831787572367
 20
173.6958134742338
1001
ACAD
1000
DSTYLE
1002
{
1070
   147
1040
0.625
1070
    77
1070
     1
1002
}
  0
MTEXT
  5
B649
102
{ACAD_XDICTIONARY
360
BE96
102
}
330
1F
100
AcDbEntity
  8
SOLBET_Wymiary_Opisy
100
AcDbMText
 10
225.9248512544721
 20
176.9461110550148
 30
0.0
 40
2.5
 41
0.0
 71
     3
 72
     1
  1
Tynk coko\U+0142owy
  7
Solbet_2_5
 73
     1
 44
1.0
1001
ACAD
1000
MTEXTBEGIN
1070
    73
1070
     1
1070
    44
1040
1.0
1070
    74
1070
     0
1000
MTEXTEND
  0
INSERT
  5
B64A
330
1F
100
AcDbEntity
  8
SOLBET_Wymiary_Opisy
100
AcDbBlockReference
  2
_DotSmall
 10
102.4649218322483
 20
210.8312892421396
 30
0.0
 41
2.499999999999975
 42
2.5
 43
2.5
 50
29.02845178528401
1001
ACAD
1000
DSTYLE
1002
{
1070
   147
1040
0.625
1070
    77
1070
     1
1002
}
  0
LWPOLYLINE
  5
B64B
330
1F
100
AcDbEntity
  8
SOLBET_Wymiary_Opisy
100
AcDbPolyline
 90
        3
 70
     0
 43
0.0
 10
102.4649218322483
 20
210.8312892421396
 10
85.61546110074869
 20
198.6175913141882
 10
58.25267024419054
 20
198.6175913141882
1001
ACAD
1000
DSTYLE
1002
{
1070
   147
1040
0.625
1070
    77
1070
     1
1002
}
  0
INSERT
  5
B64C
330
1F
100
AcDbEntity
  8
SOLBET_Wymiary_Opisy
100
AcDbBlockReference
  2
_DotSmall
 10
311.654004790674
 20
226.945445941883
 30
0.0
 41
2.499999999999928
 42
2.5
 43
2.5
 50
339.405800156433
1001
ACAD
1000
DSTYLE
1002
{
1070
   147
1040
0.625
1070
    77
1070
     1
1002
}
  0
MTEXT
  5
B64D
102
{ACAD_XDICTIONARY
360
BE98
102
}
330
1F
100
AcDbEntity
  8
SOLBET_Wymiary_Opisy
100
AcDbMText
 10
84.84124307444677
 20
202.5037434626761
 30
0.0
 40
2.5
 41
0.0
 71
     3
 72
     1
  1
Kr\U+0105\U+017Cek dociskowy 
  7
Solbet_2_5
 73
     1
 44
1.0
1001
ACAD
1000
MTEXTBEGIN
1070
    73
1070
     1
1070
    44
1040
1.0
1070
    74
1070
     0
1000
MTEXTEND
  0
INSERT
  5
B64E
330
1F
100
AcDbEntity
  8
SOLBET_Wymiary_Opisy
100
AcDbBlockReference
  2
_DotSmall
 10
241.3930091753111
 20
233.9261491883362
 30
0.0
 41
2.50000000000003
 42
2.5
 43
2.5
 50
339.0145832890965
1001
ACAD
1000
DSTYLE
1002
{
1070
   147
1040
0.625
1070
    77
1070
     1
1002
}
  0
LWPOLYLINE
  5
B64F
330
1F
100
AcDbEntity
  8
SOLBET_Wymiary_Opisy
100
AcDbPolyline
 90
        3
 70
     0
 43
0.0
 10
241.3930091753111
 20
233.9261491883362
 10
229.9827603263714
 20
238.3028015280893
 10
205.0688737213134
 20
238.3028015280893
1001
ACAD
1000
DSTYLE
1002
{
1070
   147
1040
0.625
1070
    77
1070
     1
1002
}
  0
MTEXT
  5
B650
330
1F
100
AcDbEntity
  8
SOLBET_Wymiary_Opisy
100
AcDbMText
 10
228.3966110995345
 20
241.3513508013437
 30
0.0
 40
2.5
 41
0.0
 71
     3
 72
     1
  1
Warstwa licowa
  7
Solbet_2_5
 73
     1
 44
1.0
1001
ACAD
1000
MTEXTBEGIN
1070
    73
1070
     1
1070
    44
1040
1.0
1070
    74
1070
     0
1000
MTEXTEND
  0
INSERT
  5
B651
330
1F
100
AcDbEntity
  8
SOLBET_Wymiary_Opisy
100
AcDbBlockReference
  2
_DotSmall
 10
278.13947644002
 20
232.845774931727
 30
0.0
 41
2.499999999999885
 42
2.5
 43
2.5
 50
338.200872519963
1001
ACAD
1000
DSTYLE
1002
{
1070
   147
1040
0.625
1070
    77
1070
     1
1002
}
  0
LWPOLYLINE
  5
B652
330
1F
100
AcDbEntity
  8
SOLBET_Wymiary_Opisy
100
AcDbPolyline
 90
        3
 70
     0
 43
0.0
 10
278.13947644002
 20
232.845774931727
 10
229.9827603263714
 20
250.8907564760181
 10
183.6265808439555
 20
250.8907564760181
1001
ACAD
1000
DSTYLE
1002
{
1070
   147
1040
0.625
1070
    77
1070
     1
1002
}
  0
MTEXT
  5
B653
102
{ACAD_XDICTIONARY
360
BE6B
102
}
330
1F
100
AcDbEntity
  8
SOLBET_Wymiary_Opisy
100
AcDbMText
 10
228.3966110995345
 20
254.0925380084863
 30
0.0
 40
2.5
 41
45.00054679308596
 71
     3
 72
     1
  1
Bloczki SOLBET Optimal 24cm
  7
Solbet_2_5
 73
     1
 44
1.0
1001
ACAD
1000
MTEXTBEGIN
1070
    73
1070
     1
1070
    44
1040
1.0
1070
    74
1070
     0
1000
MTEXTEND
1000
ACAD_MTEXT_DEFINED_HEIGHT_BEGIN
1070
    46
1040
2.892273496682515
1000
ACAD_MTEXT_DEFINED_HEIGHT_END
  0
INSERT
  5
B654
330
1F
100
AcDbEntity
  8
SOLBET_Wymiary_Opisy
100
AcDbBlockReference
  2
_DotSmall
 10
272.4808723805598
 20
190.1113868321148
 30
0.0
 41
2.50000000000004
 42
2.5
 43
2.5
 50
25.31429017195138
1001
ACAD
1000
DSTYLE
1002
{
1070
   147
1040
0.625
1070
    77
1070
     1
1002
}
  0
INSERT
  5
B655
330
1F
100
AcDbEntity
  8
SOLBET_Wymiary_Opisy
100
AcDbBlockReference
  2
_DotSmall
 10
268.6985187471921
 20
230.112920652366
 30
0.0
 41
2.499999999999862
 42
2.5
 43
2.5
 50
339.5862423654209
1001
ACAD
1000
DSTYLE
1002
{
1070
   147
1040
0.625
1070
    77
1070
     1
1002
}
  0
LWPOLYLINE
  5
B656
330
1F
100
AcDbEntity
  8
SOLBET_Wymiary_Opisy
100
AcDbPolyline
 90
        3
 70
     0
 43
0.0
 10
268.6985187471921
 20
230.112920652366
 10
229.8304268519607
 20
244.5784590560211
 10
198.2365966486097
 20
244.5844820502903
1001
ACAD
1000
DSTYLE
1002
{
1070
   147
1040
0.625
1070
    77
1070
     1
1002
}
  0
MTEXT
  5
B657
102
{ACAD_XDICTIONARY
360
BE6D
102
}
330
1F
100
AcDbEntity
  8
SOLBET_Wymiary_Opisy
100
AcDbMText
 10
228.3966110995345
 20
247.7328974541054
 30
0.0
 40
2.5
 41
30.89975134732413
 71
     3
 72
     1
  1
Warstwa styropianu
  7
Solbet_2_5
 73
     1
 44
1.0
1001
ACAD
1000
MTEXTBEGIN
1070
    73
1070
     1
1070
    44
1040
1.0
1070
    74
1070
     0
1000
MTEXTEND
  0
INSERT
  5
B676
330
1F
100
AcDbEntity
  8
SOLBET_Wymiary_Opisy
100
AcDbBlockReference
  2
_DotSmall
 10
257.5310924003877
 20
223.5746266891809
 30
0.0
 41
2.499999999999975
 42
2.5
 43
2.5
 50
29.02845178528401
1001
ACAD
1000
DSTYLE
1002
{
1070
   147
1040
0.625
1070
    77
1070
     1
1002
}
  0
LWPOLYLINE
  5
B677
330
1F
100
AcDbEntity
  8
SOLBET_Wymiary_Opisy
100
AcDbPolyline
 90
        3
 70
     0
 43
0.0
 10
257.5310924003877
 20
223.5746266891809
 10
225.9248512544721
 20
210.7099309027753
 10
215.7882022034885
 20
210.7099309027753
1001
ACAD
1000
DSTYLE
1002
{
1070
   147
1040
0.625
1070
    77
1070
     1
1002
}
  0
MTEXT
  5
B678
330
1F
100
AcDbEntity
  8
SOLBET_Wymiary_Opisy
100
AcDbMText
 10
224.680502537834
 20
213.5853582173089
 30
0.0
 40
2.5
 41
0.0
 71
     3
 72
     1
  1
Kotwa  
  7
Solbet_2_5
 73
     1
 44
1.0
1001
ACAD
1000
MTEXTBEGIN
1070
    73
1070
     1
1070
    44
1040
1.0
1070
    74
1070
     0
1000
MTEXTEND
  0
INSERT
  5
B679
330
1F
100
AcDbEntity
  8
SOLBET_Wymiary_Opisy
100
AcDbBlockReference
  2
_DotSmall
 10
259.3614282463946
 20
218.5557412216148
 30
0.0
 41
2.499999999999975
 42
2.5
 43
2.5
 50
29.02845178528401
1001
ACAD
1000
DSTYLE
1002
{
1070
   147
1040
0.625
1070
    77
1070
     1
1002
}
  0
LWPOLYLINE
  5
B67A
330
1F
100
AcDbEntity
  8
SOLBET_Wymiary_Opisy
100
AcDbPolyline
 90
        3
 70
     0
 43
0.0
 10
259.3614282463946
 20
218.5557412216148
 10
225.9248512544721
 20
205.5424124070373
 10
213.0209337338436
 20
205.5424124070373
1001
ACAD
1000
DSTYLE
1002
{
1070
   147
1040
0.625
1070
    77
1070
     1
1002
}
  0
MTEXT
  5
B67B
330
1F
100
AcDbEntity
  8
SOLBET_Wymiary_Opisy
100
AcDbMText
 10
224.472608188968
 20
208.4178397215709
 30
0.0
 40
2.5
 41
0.0
 71
     3
 72
     1
  1
Konsola 
  7
Solbet_2_5
 73
     1
 44
1.0
1001
ACAD
1000
MTEXTBEGIN
1070
    73
1070
     1
1070
    44
1040
1.0
1070
    74
1070
     0
1000
MTEXTEND
  0
LINE
  5
B811
330
1F
100
AcDbEntity
  8
SOLBET_Beton
100
AcDbLine
 10
126.8306518948411
 20
94.01184342875206
 30
0.0
 11
126.8306518948411
 21
114.0118434287491
 31
0.0
1001
ASO_SCHRAFF
1005
925E
1070
     1
1002
{
1070
     1
1005
925E
1002
}
1002
{
1070
     2
1005
0
1002
}
1002
{
1070
     4
1000
BRASS
1040
0.2
1040
45.0
1070
     0
1000
T__SCHR
1070
   256
1000
VONLAYER
1040
50.0
1070
     1
1002
}
  0
LINE
  5
B812
330
1F
100
AcDbEntity
  8
SOLBET_Beton
100
AcDbLine
 10
126.8306518948411
 20
114.0118434287491
 30
0.0
 11
99.03065189484113
 21
114.0118434287491
 31
0.0
1001
ASO_SCHRAFF
1005
925E
1070
     1
1002
{
1070
     1
1005
925E
1002
}
1002
{
1070
     2
1005
0
1002
}
1002
{
1070
     4
1000
BRASS
1040
0.2
1040
45.0
1070
     0
1000
T__SCHR
1070
   256
1000
VONLAYER
1040
50.0
1070
     1
1002
}
  0
LINE
  5
B813
330
1F
100
AcDbEntity
  8
SOLBET_Beton
100
AcDbLine
 10
96.83065189484112
 20
111.8118434287491
 30
0.0
 11
96.83065189484114
 21
94.01184342875206
 31
0.0
1001
ASO_SCHRAFF
1005
925E
1070
     1
1002
{
1070
     1
1005
925E
1002
}
1002
{
1070
     2
1005
0
1002
}
1002
{
1070
     4
1000
BRASS
1040
0.2
1040
45.0
1070
     0
1000
T__SCHR
1070
   256
1000
VONLAYER
1040
50.0
1070
     1
1002
}
  0
LINE
  5
B814
330
1F
100
AcDbEntity
  8
SOLBET_Beton
100
AcDbLine
 10
99.03065189484113
 20
114.0118434287491
 30
0.0
 11
96.83065189484112
 21
111.8118434287491
 31
0.0
1001
ASO_SCHRAFF
1005
925E
1070
     1
1002
{
1070
     1
1005
925E
1002
}
1002
{
1070
     2
1005
0
1002
}
1002
{
1070
     4
1000
BRASS
1040
0.2
1040
45.0
1070
     0
1000
T__SCHR
1070
   256
1000
VONLAYER
1040
50.0
1070
     1
1002
}
  0
LINE
  5
B81B
330
1F
100
AcDbEntity
  8
SOLBET_Emulsje_Folie
100
AcDbLine
 10
98.92631696457524
 20
114.5014781946799
 30
0.0
 11
96.47215947079196
 21
112.0473207008966
 31
0.0
1001
ASO_SCHRAFF
1005
925E
1070
     1
1002
{
1070
     1
1005
925E
1002
}
1002
{
1070
     2
1005
0
1002
}
1002
{
1070
     4
1000
BRASS
1040
0.2
1040
45.0
1070
     0
1000
T__SCHR
1070
   256
1000
VONLAYER
1040
50.0
1070
     1
1002
}
  0
LINE
  5
B822
330
1F
100
AcDbEntity
  8
SOLBET_Emulsje_Folie
100
AcDbLine
 10
98.98330181267359
 20
114.2614781946799
 30
0.0
 11
96.68215947079195
 21
111.9603358527983
 31
0.0
1001
ASO_SCHRAFF
1005
925E
1070
     1
1002
{
1070
     1
1005
925E
1002
}
1002
{
1070
     2
1005
0
1002
}
1002
{
1070
     4
1000
BRASS
1040
0.2
1040
45.0
1070
     0
1000
T__SCHR
1070
   256
1000
VONLAYER
1040
50.0
1070
     1
1002
}
  0
LWPOLYLINE
  5
B823
330
1F
100
AcDbEntity
  8
SOLBET_Emulsje_Folie
100
AcDbPolyline
 90
        2
 70
     0
 43
0.0
 10
98.92631696457524
 20
114.5014781946799
 10
126.8306518948411
 20
114.5014781946799
  0
LINE
  5
B825
330
1F
100
AcDbEntity
  8
SOLBET_Emulsje_Folie
  6
DASHED2
370
    30
100
AcDbLine
 10
98.95480938862446
 20
114.3814781946799
 30
0.0
 11
98.00684351857306
 21
113.4335123246285
 31
0.0
1001
ASO_SCHRAFF
1005
925E
1070
     1
1002
{
1070
     1
1005
925E
1002
}
1002
{
1070
     2
1005
0
1002
}
1002
{
1070
     4
1000
BRASS
1040
0.2
1040
45.0
1070
     0
1000
T__SCHR
1070
   256
1000
VONLAYER
1040
50.0
1070
     1
1002
}
  0
LINE
  5
B831
330
1F
100
AcDbEntity
  8
SOLBET_Emulsje_Folie
100
AcDbLine
 10
96.68215947079195
 20
111.9603358527983
 30
0.0
 11
96.68215947079195
 21
109.2603358527983
 31
0.0
  0
LINE
  5
B833
330
1F
100
AcDbEntity
  8
SOLBET_Emulsje_Folie
100
AcDbLine
 10
96.68215947079195
 20
109.2603358527983
 30
0.0
 11
96.47215947079196
 21
109.2603358527983
 31
0.0
  0
LINE
  5
B834
330
1F
100
AcDbEntity
  8
SOLBET_Emulsje_Folie
100
AcDbLine
 10
96.47215947079196
 20
109.2603358527983
 30
0.0
 11
96.47215947079196
 21
112.0473207008966
 31
0.0
  0
LINE
  5
B837
330
1F
100
AcDbEntity
  8
SOLBET_Emulsje_Folie
  6
DASHED2
370
    30
100
AcDbLine
 10
96.57715947079195
 20
109.2603358527983
 30
0.0
 11
96.57715947079195
 21
110.408448005527
 31
0.0
  0
LINE
  5
B839
330
1F
100
AcDbEntity
  8
SOLBET_Emulsje_Folie
  6
DASHED2
370
    30
100
AcDbLine
 10
96.57715947079195
 20
111.0067533709781
 30
0.0
 11
96.57715947079193
 21
112.0038282768475
 31
0.0
  0
LINE
  5
B83B
330
1F
100
AcDbEntity
  8
SOLBET_Emulsje_Folie
  6
DASHED2
370
    30
100
AcDbLine
 10
96.57715947079193
 20
112.0038282768475
 30
0.0
 11
97.41101404704252
 21
112.837682853098
 31
0.0
  0
LINE
  5
B83C
330
1F
100
AcDbEntity
  8
SOLBET_Emulsje_Folie
100
AcDbLine
 10
98.8479691058413
 20
114.6776887771731
 30
0.0
 11
96.29215947079195
 21
112.1218791421238
 31
0.0
1001
ASO_SCHRAFF
1005
925E
1070
     1
1002
{
1070
     1
1005
925E
1002
}
1002
{
1070
     2
1005
0
1002
}
1002
{
1070
     4
1000
BRASS
1040
0.2
1040
45.0
1070
     0
1000
T__SCHR
1070
   256
1000
VONLAYER
1040
50.0
1070
     1
1002
}
  0
LINE
  5
B83D
330
1F
100
AcDbEntity
  8
SOLBET_Emulsje_Folie
100
AcDbLine
 10
96.29215947079195
 20
109.2603358527983
 30
0.0
 11
96.29215947079195
 21
112.1218791421238
 31
0.0
  0
CIRCLE
  5
B83E
330
1F
100
AcDbEntity
  8
SOLBET_Wymiary_Opisy
100
AcDbCircle
 10
100.1785344703256
 20
113.5785569785731
 30
0.0
 40
6.72794034480946
  0
HATCH
  5
B879
330
1F
100
AcDbEntity
  8
SOLBET_Beton
100
AcDbHatch
 10
0.0
 20
0.0
 30
0.0
210
0.0
220
0.0
230
1.0
  2
ANSI33
 70
     0
 71
     0
 91
        1
 92
        1
 93
        4
 72
     2
 10
178.982039022293
 20
61.37182897215928
 40
33.6397017240473
 50
240.1580723290472
 51
363.692464015495
 73
     1
 72
     1
 10
212.5519080030508
 20
63.53826122303894
 11
173.2426261448707
 21
63.53826122303901
 72
     1
 10
173.2426261448704
 20
63.538261223039
 11
162.2426261448707
 21
52.53826122303919
 72
     1
 10
162.2426261448708
 20
52.53826122303928
 11
162.2426261448713
 21
32.19269963967084
 97
        0
 75
     0
 76
     1
 52
0.0
 41
3.75
 77
     0
 78
     2
 53
45.0
 43
-9367.323909730437
 44
1341.577988559198
 45
-16.83798022700466
 46
16.83798022700466
 79
     0
 53
45.0
 43
-9350.485922230438
 44
1341.577988559198
 45
-16.83798022700466
 46
16.83798022700466
 79
     2
 49
11.90625
 49
-5.953124999999999
 98
        1
 10
213.9528078515832
 20
11.45383208484054
1001
ACAD
1010
0.0
1020
0.0
1030
0.0
  0
LINE
  5
B87B
330
1F
100
AcDbEntity
  8
SOLBET_Beton
100
AcDbLine
 10
162.2426261448708
 20
52.53826122303883
 30
0.0
 11
162.2426261448708
 21
32.19269963967111
 31
0.0
1001
ASO_SCHRAFF
1005
0
1070
     1
1002
{
1070
     1
1005
0
1002
}
1002
{
1070
     2
1005
0
1002
}
1002
{
1070
     4
1000
BRASS
1040
0.2
1040
45.0
1070
     0
1000
T__SCHR
1070
   256
1000
VONLAYER
1040
50.0
1070
     1
1002
}
  0
LINE
  5
B87C
330
1F
100
AcDbEntity
  8
SOLBET_Beton
100
AcDbLine
 10
173.2426261448704
 20
63.53826122303894
 30
0.0
 11
162.2426261448708
 21
52.53826122303883
 31
0.0
1001
ASO_SCHRAFF
1005
0
1070
     1
1002
{
1070
     1
1005
0
1002
}
1002
{
1070
     2
1005
0
1002
}
1002
{
1070
     4
1000
BRASS
1040
0.2
1040
45.0
1070
     0
1000
T__SCHR
1070
   256
1000
VONLAYER
1040
50.0
1070
     1
1002
}
  0
LINE
  5
B87D
330
1F
100
AcDbEntity
  8
SOLBET_Emulsje_Folie
100
AcDbLine
 10
173.0058757340329
 20
64.78643505269293
 30
0.0
 11
161.5001640246246
 21
53.28072334328476
 31
0.0
1001
ASO_SCHRAFF
1005
0
1070
     1
1002
{
1070
     1
1005
0
1002
}
1002
{
1070
     2
1005
0
1002
}
1002
{
1070
     4
1000
BRASS
1040
0.2
1040
45.0
1070
     0
1000
T__SCHR
1070
   256
1000
VONLAYER
1040
50.0
1070
     1
1002
}
  0
LINE
  5
B87E
330
1F
100
AcDbEntity
  8
SOLBET_Emulsje_Folie
  6
DASHED2
370
    30
100
AcDbLine
 10
172.863413613787
 20
65.38643505269312
 30
0.0
 11
168.1235842635301
 21
60.64660570243609
 31
0.0
1001
ASO_SCHRAFF
1005
0
1070
     1
1002
{
1070
     1
1005
0
1002
}
1002
{
1070
     2
1005
0
1002
}
1002
{
1070
     4
1000
BRASS
1040
0.2
1040
45.0
1070
     0
1000
T__SCHR
1070
   256
1000
VONLAYER
1040
50.0
1070
     1
1002
}
  0
LINE
  5
B87F
330
1F
100
AcDbEntity
  8
SOLBET_Emulsje_Folie
100
AcDbLine
 10
172.7209514935411
 20
65.98643505269297
 30
0.0
 11
160.4501640246248
 21
53.7156475837765
 31
0.0
1001
ASO_SCHRAFF
1005
0
1070
     1
1002
{
1070
     1
1005
0
1002
}
1002
{
1070
     2
1005
0
1002
}
1002
{
1070
     4
1000
BRASS
1040
0.2
1040
45.0
1070
     0
1000
T__SCHR
1070
   256
1000
VONLAYER
1040
50.0
1070
     1
1002
}
  0
LINE
  5
B880
330
1F
100
AcDbEntity
  8
SOLBET_Emulsje_Folie
100
AcDbLine
 10
172.3292121998715
 20
66.86748796515906
 30
0.0
 11
159.5501640246247
 21
54.08843978991228
 31
0.0
1001
ASO_SCHRAFF
1005
0
1070
     1
1002
{
1070
     1
1005
0
1002
}
1002
{
1070
     2
1005
0
1002
}
1002
{
1070
     4
1000
BRASS
1040
0.2
1040
45.0
1070
     0
1000
T__SCHR
1070
   256
1000
VONLAYER
1040
50.0
1070
     1
1002
}
  0
LINE
  5
B881
330
1F
100
AcDbEntity
  8
SOLBET_Izolacja
  6
Continuous
100
AcDbLine
 10
187.2426261448708
 20
68.11748796515906
 30
0.0
 11
187.2426261448708
 21
93.98152434750983
 31
0.0
  0
LINE
  5
B883
330
1F
100
AcDbEntity
  8
SOLBET_Emulsje_Folie
100
AcDbLine
 10
187.6032240566291
 20
66.86748796515906
 30
0.0
 11
172.3292121998715
 21
66.86748796515906
 31
0.0
  0
ARC
  5
B884
330
1F
100
AcDbEntity
  8
SOLBET_Emulsje_Folie
100
AcDbCircle
 10
187.6032240566291
 20
68.11748796515906
 30
0.0
 40
1.25
100
AcDbArc
 50
270.0
 51
0.0
  0
LINE
  5
B885
330
1F
100
AcDbEntity
  8
SOLBET_Izolacja
  6
Continuous
100
AcDbLine
 10
182.2426261448708
 20
68.11748796515906
 30
0.0
 11
182.2426261448708
 21
94.85313873893716
 31
0.0
  0
LINE
  5
B886
330
1F
100
AcDbEntity
  8
SOLBET_Emulsje_Folie
100
AcDbLine
 10
179.4149869496186
 20
68.11748796515906
 30
0.0
 11
181.414986949735
 21
68.11748796515906
 31
0.0
  0
LINE
  5
B887
330
1F
100
AcDbEntity
  8
SOLBET_Emulsje_Folie
100
AcDbLine
 10
179.4149869496186
 20
74.8109831566037
 30
0.0
 11
181.414986949735
 21
74.05571244510816
 31
0.0
  0
LINE
  5
B888
330
1F
100
AcDbEntity
  8
SOLBET_Emulsje_Folie
100
AcDbLine
 10
179.4149869496186
 20
69.6958565710886
 30
0.0
 11
181.414986949735
 21
70.45112728258408
 31
0.0
  0
LINE
  5
B889
330
1F
100
AcDbEntity
  8
SOLBET_Emulsje_Folie
100
AcDbLine
 10
179.4149869496186
 20
78.60697269388061
 30
0.0
 11
181.414986949735
 21
79.36224340537615
 31
0.0
  0
LINE
  5
B88A
330
1F
100
AcDbEntity
  8
SOLBET_Emulsje_Folie
100
AcDbLine
 10
179.4149869496186
 20
83.72209927938104
 30
0.0
 11
181.414986949735
 21
82.96682856788555
 31
0.0
  0
LINE
  5
B88B
330
1F
100
AcDbEntity
  8
SOLBET_Emulsje_Folie
100
AcDbLine
 10
179.4149869496186
 20
92.6332154021731
 30
0.0
 11
181.414986949735
 21
91.87794469067762
 31
0.0
  0
LINE
  5
B88C
330
1F
100
AcDbEntity
  8
SOLBET_Emulsje_Folie
100
AcDbLine
 10
179.4149869496186
 20
87.51808881667249
 30
0.0
 11
181.414986949735
 21
88.27335952816815
 31
0.0
  0
HATCH
  5
B896
330
1F
100
AcDbEntity
  8
SOLBET_Grunt
100
AcDbHatch
 10
0.0
 20
0.0
 30
0.0
210
0.0
220
0.0
230
1.0
  2
AR-CONC
 70
     0
 71
     0
 91
        1
 92
        1
 93
        5
 72
     2
 10
178.982039022293
 20
61.37182897215899
 40
33.6397017240473
 50
89.26257450035045
 51
240.1580723290458
 73
     1
 72
     1
 10
162.2426261448708
 20
32.19269963967122
 11
162.2426261448708
 21
70.5289748984668
 72
     1
 10
162.2426261448708
 20
70.5289748984668
 11
174.7426261448731
 21
68.11748796515894
 72
     1
 10
174.7426261448731
 20
68.11748796515894
 11
179.4149869496163
 21
68.11748796515908
 72
     1
 10
179.4149869496163
 20
68.11748796515906
 11
179.4149869496163
 21
95.00874452895606
 97
        0
 75
     0
 76
     1
 52
0.0
 41
0.25
 77
     0
 78
    13
 53
50.0
 43
-9367.323909730437
 44
1341.577988559198
 45
45.546167249001
 46
-3.984771384725771
 79
     2
 49
4.762500000000001
 49
-52.3875
 53
355.0
 43
-9367.323909730437
 44
1341.577988559198
 45
-8.810706493916747
 46
47.76416072054499
 79
     2
 49
3.81
 49
-41.91000000000001
 53
100.4509999999999
 43
-9363.528409730438
 44
1341.245926059198
 45
36.73562541648981
 46
43.77917195507295
 79
     2
 49
4.0475
 49
-44.52249999999999
 53
46.1842
 43
-9367.323909730437
 44
1354.277988559198
 45
67.76976022303248
 46
-10.51058198318179
 79
     2
 49
7.14375
 49
-78.58125000000001
 53
96.63559999999995
 43
-9361.676434730439
 44
1353.402113559198
 45
59.35105861655928
 46
61.8563889725123
 79
     2
 49
6.071249999999989
 49
-66.7837499999999
 53
351.184
 43
-9367.323909730437
 44
1354.277988559198
 45
59.35115145348348
 46
61.85627946514942
 79
     2
 49
5.714999999999999
 49
-62.865
 53
21.0
 43
-9360.973909730439
 44
1351.102988559198
 45
37.90371995884583
 46
-25.56637962919062
 79
     2
 49
4.762500000000001
 49
-52.3875
 53
326.0
 43
-9360.973909730439
 44
1351.102988559198
 45
15.45050708691177
 46
46.0469915305798
 79
     2
 49
3.809999999999998
 49
-41.90999999999998
 53
71.45140000000001
 43
-9357.81528473044
 44
1348.972463559198
 45
53.35412269253112
 46
20.48071442901436
 79
     2
 49
4.0475
 49
-44.5225
 53
37.49999999999999
 43
-9367.323909730437
 44
1341.577988559198
 45
0.7721508126479543
 46
21.13875971828828
 79
     6
 49
0.0
 49
-41.402
 49
0.0
 49
-42.545
 49
0.0
 49
-42.06875
 53
7.499999999999999
 43
-9367.323909730437
 44
1341.577988559198
 45
16.70491562757644
 46
25.04514370452988
 79
     6
 49
0.0
 49
-24.25699999999999
 49
0.0
 49
-40.44949999999999
 49
0.0
 49
-16.03375
 53
327.5
 43
-9381.48440973044
 44
1341.577988559198
 45
33.89764879171784
 46
-1.432185998168366
 79
     6
 49
0.0
 49
-15.875
 49
0.0
 49
-49.53
 49
0.0
 49
-65.7225
 53
317.5
 43
-9387.834409730437
 44
1341.577988559198
 45
37.03229534650451
 46
6.356622758333254
 79
     6
 49
0.0
 49
-20.6375
 49
0.0
 49
-32.893
 49
0.0
 49
-46.6725
 98
        4
 10
121.0903240742482
 20
76.10364683889748
 10
138.5630345791105
 20
163.3933850824687
 10
89.59049145072638
 20
225.8831952804448
 10
-23.56608555117876
 20
2051.726024636307
1001
ACAD
1010
0.0
1020
0.0
1030
0.0
  0
LWPOLYLINE
  5
B899
330
1F
100
AcDbEntity
  8
SOLBET_Emulsje_Folie
100
AcDbPolyline
 90
        2
 70
     0
 43
0.0
 10
212.4479918310457
 20
64.78643505269293
 10
173.0058757340329
 20
64.78643505269293
  0
LWPOLYLINE
  5
B89A
330
1F
100
AcDbEntity
  8
SOLBET_Emulsje_Folie
100
AcDbPolyline
 90
        2
 70
     0
 43
0.0
 10
172.7209514935411
 20
65.98643505269297
 10
212.3037277970893
 20
65.98643505269297
  0
LINE
  5
B89B
330
1F
100
AcDbEntity
  8
SOLBET_Emulsje_Folie
  6
DASHED2
370
    30
100
AcDbLine
 10
172.863413613787
 20
65.38643505269295
 30
0.0
 11
212.38132748928
 21
65.38643505269295
 31
0.0
  0
LINE
  5
B8A0
330
1F
100
AcDbEntity
  8
SOLBET_Izolacja
100
AcDbLine
 10
182.2426261448708
 20
68.11748796515906
 30
0.0
 11
187.2426261448708
 21
68.11748796515906
 31
0.0
  0
LINE
  5
B8A1
330
1F
100
AcDbEntity
  8
SOLBET_Emulsje_Folie
100
AcDbLine
 10
161.5001640246246
 20
53.28072334328476
 30
0.0
 11
161.5001640246246
 21
39.78072334328476
 31
0.0
  0
LINE
  5
B8A2
330
1F
100
AcDbEntity
  8
SOLBET_Emulsje_Folie
100
AcDbLine
 10
161.5001640246246
 20
39.78072334328476
 30
0.0
 11
160.4501640246248
 21
39.78072334328476
 31
0.0
  0
LINE
  5
B8A3
330
1F
100
AcDbEntity
  8
SOLBET_Emulsje_Folie
100
AcDbLine
 10
160.4501640246248
 20
39.78072334328476
 30
0.0
 11
160.4501640246248
 21
53.7156475837765
 31
0.0
  0
LINE
  5
B8A4
330
1F
100
AcDbEntity
  8
SOLBET_Emulsje_Folie
100
AcDbLine
 10
159.5501640246247
 20
39.78072334328476
 30
0.0
 11
159.5501640246247
 21
54.08843978991217
 31
0.0
  0
LINE
  5
B8A5
330
1F
100
AcDbEntity
  8
SOLBET_Emulsje_Folie
  6
DASHED2
370
    30
100
AcDbLine
 10
160.9751640246245
 20
39.78072334328476
 30
0.0
 11
160.9751640246245
 21
45.52128410692836
 31
0.0
  0
LINE
  5
B8A6
330
1F
100
AcDbEntity
  8
SOLBET_Emulsje_Folie
  6
DASHED2
370
    30
100
AcDbLine
 10
160.9751640246245
 20
48.51281093418385
 30
0.0
 11
160.9751640246245
 21
53.49818546353077
 31
0.0
  0
LINE
  5
B8A7
330
1F
100
AcDbEntity
  8
SOLBET_Emulsje_Folie
  6
DASHED2
370
    30
100
AcDbLine
 10
160.9751640246245
 20
53.49818546353077
 30
0.0
 11
165.1444369058776
 21
57.66745834478342
 31
0.0
  0
CIRCLE
  5
B8A8
330
1F
100
AcDbEntity
  8
SOLBET_Wymiary_Opisy
100
AcDbCircle
 10
178.982039022293
 20
61.37182897215899
 30
0.0
 40
33.6397017240473
  0
LINE
  5
B8B5
330
1F
100
AcDbEntity
  8
SOLBET_Beton
100
AcDbLine
 10
212.5519080030508
 20
63.53826122303894
 30
0.0
 11
173.2426261448704
 21
63.53826122303894
 31
0.0
1001
ASO_SCHRAFF
1005
0
1070
     1
1002
{
1070
     1
1005
0
1002
}
1002
{
1070
     2
1005
0
1002
}
1002
{
1070
     4
1000
BRASS
1040
0.2
1040
45.0
1070
     0
1000
T__SCHR
1070
   256
1000
VONLAYER
1040
50.0
1070
     1
1002
}
  0
LINE
  5
B8BC
330
1F
100
AcDbEntity
  8
SOLBET_Izolacja
  6
BATTING
 48
0.24
100
AcDbLine
 10
184.7426261448708
 20
94.51462861380163
 30
0.0
 11
184.7426261448708
 21
68.11748796515906
 31
0.0
  0
LINE
  5
B8BD
330
1F
100
AcDbEntity
  8
SOLBET_Emulsje_Folie
100
AcDbLine
 10
181.414986949735
 20
94.92343543839586
 30
0.0
 11
181.414986949735
 21
68.11748796515906
 31
0.0
  0
LINE
  5
B8BE
330
1F
100
AcDbEntity
  8
SOLBET_Emulsje_Folie
100
AcDbLine
 10
179.4149869496186
 20
95.00874452895606
 30
0.0
 11
179.4149869496186
 21
68.11748796515906
 31
0.0
  0
LINE
  5
B8C0
330
1F
100
AcDbEntity
  8
SOLBET_Emulsje_Folie
100
AcDbLine
 10
188.8532240567428
 20
93.53064173162715
 30
0.0
 11
188.8532240567428
 21
68.11748796515906
 31
0.0
  0
LWPOLYLINE
  5
B8C2
330
1F
100
AcDbEntity
  8
SOLBET_Beton
100
AcDbPolyline
 90
        3
 70
     0
 43
0.0
 10
189.7426261448708
 20
93.24406292053941
 10
189.7426261448708
 20
68.11748796515906
 10
211.9384589861338
 20
68.11748796515906
  0
TEXT
  5
B8ED
330
1F
100
AcDbEntity
  8
SOLBET_Wymiary_Opisy
100
AcDbText
 10
130.7255251046722
 20
137.2984266848618
 30
0.0
 40
2.5
  1
Bloczki fundamentowe
  7
Solbet_2_5
100
AcDbText
  0
TEXT
  5
B8EE
330
1F
100
AcDbEntity
  8
SOLBET_Wymiary_Opisy
100
AcDbText
 10
131.6494105338011
 20
130.3445780197304
 30
0.0
 40
2.5
  1
Hydroizolacja
  7
Solbet_2_5
100
AcDbText
  0
LINE
  5
B8EF
330
1F
100
AcDbEntity
  8
SOLBET_Wymiary_Opisy
100
AcDbLine
 10
114.2996293763485
 20
124.6881983221466
 30
0.0
 11
130.2537267619052
 21
136.3033114302765
 31
0.0
1001
ACAD
1000
DSTYLE
1002
{
1070
   147
1040
0.625
1070
    77
1070
     1
1002
}
  0
LINE
  5
B8F0
330
1F
100
AcDbEntity
  8
SOLBET_Wymiary_Opisy
100
AcDbLine
 10
163.9147548189064
 20
136.3033114302765
 30
0.0
 11
130.2537267619052
 21
136.3033114302765
 31
0.0
1001
ACAD
1000
DSTYLE
1002
{
1070
   147
1040
0.625
1070
    77
1070
     1
1002
}
  0
LINE
  5
B8F1
330
1F
100
AcDbEntity
  8
SOLBET_Wymiary_Opisy
100
AcDbLine
 10
121.4257220637064
 20
122.2633521360068
 30
0.0
 11
130.2537267619052
 21
129.1564781571769
 31
0.0
1001
ACAD
1000
DSTYLE
1002
{
1070
   147
1040
0.625
1070
    77
1070
     1
1002
}
  0
LINE
  5
B8F2
330
1F
100
AcDbEntity
  8
SOLBET_Wymiary_Opisy
100
AcDbLine
 10
150.9181667877849
 20
129.1564781571767
 30
0.0
 11
130.2537267619052
 21
129.1564781571769
 31
0.0
1001
ACAD
1000
DSTYLE
1002
{
1070
   147
1040
0.625
1070
    77
1070
     1
1002
}
  0
MTEXT
  5
B8FA
102
{ACAD_XDICTIONARY
360
BE6F
102
}
330
1F
100
AcDbEntity
  8
SOLBET_Wymiary_Opisy
100
AcDbMText
 10
164.6642483049458
 20
113.8416624101089
 30
0.0
 40
5.0
 41
30.77919768571883
 71
     1
 72
     5
  1
{\W4.54653; }C\P{\W2.21319; }(5 : 1)
  7
Solbet_5
 73
     1
 44
1.0
1001
ACAD
1000
MTEXTBEGIN
1070
    73
1070
     1
1070
    44
1040
1.0
1070
    74
1070
     0
1000
MTEXTEND
1000
ACAD_MTEXT_DEFINED_HEIGHT_BEGIN
1070
    46
1040
23.42535011036716
1000
ACAD_MTEXT_DEFINED_HEIGHT_END
  0
INSERT
  5
BA10
330
1F
100
AcDbEntity
  8
SOLBET_Zbrojenie_Konstrukcja
100
AcDbBlockReference
  2
Konsola_nosna
 10
109.33065207059
 20
175.2276887359857
 30
0.0
  0
INSERT
  5
BA11
330
1F
100
AcDbEntity
  8
SOLBET_Zbrojenie_Konstrukcja
100
AcDbBlockReference
  2
Konsola_nosna
 10
274.1540042634273
 20
192.3176613024932
 30
0.0
 41
3.0
 42
3.0
 43
3.0
  0
LINE
  5
BA12
330
1F
100
AcDbEntity
  8
SOLBET_Wymiary_Opisy
100
AcDbLine
 10
177.3306518948411
 20
166.7276887771731
 30
0.0
 11
177.3306518948411
 21
180.7750425550184
 31
0.0
  0
HATCH
  5
BA8E
330
1F
100
AcDbEntity
  8
SOLBET_Tynki_Posadzki
100
AcDbHatch
 10
0.0
 20
0.0
 30
0.0
210
0.0
220
0.0
230
1.0
  2
AR-CONC
 70
     0
 71
     0
 91
        1
 92
        5
 93
        4
 72
     2
 10
262.0974035325867
 20
68.21015673980887
 40
33.63970172404727
 50
142.2031821742316
 51
166.0379938227853
 73
     1
 72
     1
 10
229.4515553251013
 20
76.32669090758577
 11
272.9297477162345
 21
76.32669090758577
 72
     1
 10
272.9297477162349
 20
76.32669090758577
 11
272.9297477162354
 21
88.82669090758463
 72
     1
 10
272.9297477162354
 20
88.82669090758463
 11
235.5156795292082
 21
88.82669090758463
 97
        0
 75
     0
 76
     1
 52
0.0
 41
0.03
 77
     0
 78
    13
 53
50.0
 43
0.0
 44
0.0
 45
5.46554006988012
 46
-0.4781725661670926
 79
     2
 49
0.5715
 49
-6.2865
 53
355.0
 43
0.0
 44
0.0
 45
-1.057284779270009
 46
5.731699286465398
 79
     2
 49
0.4572
 49
-5.029199999999999
 53
100.451
 43
0.45546
 44
-0.0398475
 45
4.408275049978777
 46
5.253500634608755
 79
     2
 49
0.4857000000000001
 49
-5.342699999999999
 53
46.1842
 43
0.0
 44
1.523999999999999
 45
8.132371226763897
 46
-1.261269837981814
 79
     2
 49
0.8572499999999999
 49
-9.429749999999998
 53
96.63559999999998
 43
0.6776970000000001
 44
1.418895
 45
7.122127033987114
 46
7.422766676701476
 79
     2
 49
0.7285500000000001
 49
-8.014049999999999
 53
351.184
 43
0.0
 44
1.523999999999999
 45
7.122138174418017
 46
7.422753535817929
 79
     2
 49
0.6858
 49
-7.5438
 53
21.0
 43
0.762
 44
1.143
 45
4.548446395061498
 46
-3.067965555502874
 79
     2
 49
0.5715
 49
-6.2865
 53
326.0
 43
0.762
 44
1.143
 45
1.854060850429411
 46
5.525638983669577
 79
     2
 49
0.4572
 49
-5.029199999999999
 53
71.45140000000001
 43
1.141035
 44
0.8873369999999999
 45
6.402494723103733
 46
2.457685731481723
 79
     2
 49
0.4857000000000001
 49
-5.342699999999999
 53
37.5
 43
0.0
 44
0.0
 45
0.0926580975177545
 46
2.536651166194593
 79
     6
 49
0.0
 49
-4.968239999999999
 49
0.0
 49
-5.1054
 49
0.0
 49
-5.04825
 53
7.499999999999999
 43
0.0
 44
0.0
 45
2.004589875309172
 46
3.005417244543585
 79
     6
 49
0.0
 49
-2.910839999999999
 49
0.0
 49
-4.853939999999999
 49
0.0
 49
-1.92405
 53
327.5
 43
-1.699259999999999
 44
0.0
 45
4.06771785500614
 46
-0.1718623197802039
 79
     6
 49
0.0
 49
-1.905
 49
0.0
 49
-5.943599999999999
 49
0.0
 49
-7.886699999999999
 53
317.5
 43
-2.461259999999999
 44
0.0
 45
4.443875441580541
 46
0.7627947309999904
 79
     6
 49
0.0
 49
-2.476499999999999
 49
0.0
 49
-3.947159999999999
 49
0.0
 49
-5.600699999999999
 47
0.0484003503539707
 98
        4
 10
146.4217828935889
 20
178.7790462237336
 10
123.5754684183755
 20
178.7523302026482
 10
175.3347105834345
 20
179.0213967576101
 10
252.4001920767787
 20
82.4242292051996
1001
ACAD
1010
0.0
1020
0.0
1030
0.0
  0
HATCH
  5
BA8F
330
1F
100
AcDbEntity
  8
SOLBET_Tynki_Posadzki
100
AcDbHatch
 10
0.0
 20
0.0
 30
0.0
210
0.0
220
0.0
230
1.0
  2
AR-CONC
 70
     0
 71
     0
 91
        1
 92
        7
 72
     1
 73
     1
 93
        4
 10
177.3306518948411
 20
180.2750425550184
 42
0.0
 10
169.8478382574362
 20
180.2750425550184
 42
0.1043755579104923
 10
168.6350134166148
 20
177.7750425550184
 42
0.0
 10
177.3306518948411
 20
177.7750425550184
 42
0.0
 97
        0
 75
     0
 76
     1
 52
0.0
 41
0.03
 77
     0
 78
    13
 53
50.0
 43
0.0
 44
0.0
 45
5.46554006988012
 46
-0.4781725661670926
 79
     2
 49
0.5715
 49
-6.2865
 53
355.0
 43
0.0
 44
0.0
 45
-1.057284779270009
 46
5.731699286465398
 79
     2
 49
0.4572
 49
-5.029199999999999
 53
100.451
 43
0.45546
 44
-0.0398475
 45
4.408275049978777
 46
5.253500634608755
 79
     2
 49
0.4857000000000001
 49
-5.342699999999999
 53
46.1842
 43
0.0
 44
1.523999999999999
 45
8.132371226763897
 46
-1.261269837981814
 79
     2
 49
0.8572499999999999
 49
-9.429749999999998
 53
96.63559999999998
 43
0.6776970000000001
 44
1.418895
 45
7.122127033987114
 46
7.422766676701476
 79
     2
 49
0.7285500000000001
 49
-8.014049999999999
 53
351.184
 43
0.0
 44
1.523999999999999
 45
7.122138174418017
 46
7.422753535817929
 79
     2
 49
0.6858
 49
-7.5438
 53
21.0
 43
0.762
 44
1.143
 45
4.548446395061498
 46
-3.067965555502874
 79
     2
 49
0.5715
 49
-6.2865
 53
326.0
 43
0.762
 44
1.143
 45
1.854060850429411
 46
5.525638983669577
 79
     2
 49
0.4572
 49
-5.029199999999999
 53
71.45140000000001
 43
1.141035
 44
0.8873369999999999
 45
6.402494723103733
 46
2.457685731481723
 79
     2
 49
0.4857000000000001
 49
-5.342699999999999
 53
37.5
 43
0.0
 44
0.0
 45
0.0926580975177545
 46
2.536651166194593
 79
     6
 49
0.0
 49
-4.968239999999999
 49
0.0
 49
-5.1054
 49
0.0
 49
-5.04825
 53
7.499999999999999
 43
0.0
 44
0.0
 45
2.004589875309172
 46
3.005417244543585
 79
     6
 49
0.0
 49
-2.910839999999999
 49
0.0
 49
-4.853939999999999
 49
0.0
 49
-1.92405
 53
327.5
 43
-1.699259999999999
 44
0.0
 45
4.06771785500614
 46
-0.1718623197802039
 79
     6
 49
0.0
 49
-1.905
 49
0.0
 49
-5.943599999999999
 49
0.0
 49
-7.886699999999999
 53
317.5
 43
-2.461259999999999
 44
0.0
 45
4.443875441580541
 46
0.7627947309999904
 79
     6
 49
0.0
 49
-2.476499999999999
 49
0.0
 49
-3.947159999999999
 49
0.0
 49
-5.600699999999999
 47
0.0484003503539707
 98
        4
 10
146.4217828935889
 20
178.7790462237336
 10
123.5754684183755
 20
178.7523302026482
 10
175.3347105834345
 20
179.0213967576101
 10
252.4001920767787
 20
82.4242292051996
1001
ACAD
1010
0.0
1020
0.0
1030
0.0
  0
HATCH
  5
BA90
330
1F
100
AcDbEntity
  8
SOLBET_Tynki_Posadzki
100
AcDbHatch
 10
0.0
 20
0.0
 30
0.0
210
0.0
220
0.0
230
1.0
  2
AR-CONC
 70
     0
 71
     0
 91
        1
 92
        7
 72
     1
 73
     1
 93
        6
 10
125.0786997361255
 20
180.0420310141896
 42
0.0036814521602549
 10
125.0769840711922
 20
180.2750425550184
 42
0.0
 10
122.4454679445134
 20
180.2750425550184
 42
0.0
 10
122.4454679445134
 20
177.8475750350334
 42
0.0737237824442343
 10
122.4562211277207
 20
177.7750425550184
 42
0.0
 10
124.915470321143
 20
177.7750425550184
 42
0.0359548367901186
 97
        0
 75
     0
 76
     1
 52
0.0
 41
0.03
 77
     0
 78
    13
 53
50.0
 43
0.0
 44
0.0
 45
5.46554006988012
 46
-0.4781725661670926
 79
     2
 49
0.5715
 49
-6.2865
 53
355.0
 43
0.0
 44
0.0
 45
-1.057284779270009
 46
5.731699286465398
 79
     2
 49
0.4572
 49
-5.029199999999999
 53
100.451
 43
0.45546
 44
-0.0398475
 45
4.408275049978777
 46
5.253500634608755
 79
     2
 49
0.4857000000000001
 49
-5.342699999999999
 53
46.1842
 43
0.0
 44
1.523999999999999
 45
8.132371226763897
 46
-1.261269837981814
 79
     2
 49
0.8572499999999999
 49
-9.429749999999998
 53
96.63559999999998
 43
0.6776970000000001
 44
1.418895
 45
7.122127033987114
 46
7.422766676701476
 79
     2
 49
0.7285500000000001
 49
-8.014049999999999
 53
351.184
 43
0.0
 44
1.523999999999999
 45
7.122138174418017
 46
7.422753535817929
 79
     2
 49
0.6858
 49
-7.5438
 53
21.0
 43
0.762
 44
1.143
 45
4.548446395061498
 46
-3.067965555502874
 79
     2
 49
0.5715
 49
-6.2865
 53
326.0
 43
0.762
 44
1.143
 45
1.854060850429411
 46
5.525638983669577
 79
     2
 49
0.4572
 49
-5.029199999999999
 53
71.45140000000001
 43
1.141035
 44
0.8873369999999999
 45
6.402494723103733
 46
2.457685731481723
 79
     2
 49
0.4857000000000001
 49
-5.342699999999999
 53
37.5
 43
0.0
 44
0.0
 45
0.0926580975177545
 46
2.536651166194593
 79
     6
 49
0.0
 49
-4.968239999999999
 49
0.0
 49
-5.1054
 49
0.0
 49
-5.04825
 53
7.499999999999999
 43
0.0
 44
0.0
 45
2.004589875309172
 46
3.005417244543585
 79
     6
 49
0.0
 49
-2.910839999999999
 49
0.0
 49
-4.853939999999999
 49
0.0
 49
-1.92405
 53
327.5
 43
-1.699259999999999
 44
0.0
 45
4.06771785500614
 46
-0.1718623197802039
 79
     6
 49
0.0
 49
-1.905
 49
0.0
 49
-5.943599999999999
 49
0.0
 49
-7.886699999999999
 53
317.5
 43
-2.461259999999999
 44
0.0
 45
4.443875441580541
 46
0.7627947309999904
 79
     6
 49
0.0
 49
-2.476499999999999
 49
0.0
 49
-3.947159999999999
 49
0.0
 49
-5.600699999999999
 47
0.0484003503539707
 98
        4
 10
146.4217828935889
 20
178.7790462237336
 10
123.5754684183755
 20
178.7523302026482
 10
175.3347105834345
 20
179.0213967576101
 10
252.4001920767787
 20
82.4242292051996
1001
ACAD
1010
0.0
1020
0.0
1030
0.0
  0
LEADER
  5
BA99
330
1F
100
AcDbEntity
  8
SOLBET_Wymiary_Opisy
100
AcDbLeader
  3
Solbet$7
 73
     0
 75
     1
 40
5.0
 41
4.5
 76
     3
 10
93.72473477139374
 20
183.0782118455735
 30
0.0
 10
91.14308095278056
 20
186.8041574146699
 30
0.0
 10
88.64308095278056
 20
186.8041574146699
 30
0.0
213
-0.8791749024171622
223
-0.1753245211093599
233
0.0
1001
ACAD
1000
DSTYLE
1002
{
1070
   341
1005
790F
1070
   147
1040
0.625
1070
    77
1070
     1
1002
}
  0
MTEXT
  5
BA9A
102
{ACAD_REACTORS
330
BA99
102
}
330
1F
100
AcDbEntity
  8
SOLBET_Wymiary_Opisy
100
AcDbMText
 10
88.89725585519773
 20
192.6044819357793
 30
0.0
 40
5.0
 41
0.0
 71
     3
 72
     1
  1
A
  7
Solbet_5
 73
     1
 44
1.0
1001
ACAD
1000
MTEXTBEGIN
1070
    73
1070
     1
1070
    44
1040
1.0
1070
    74
1070
     0
1000
MTEXTEND
  0
INSERT
  5
BD51
330
1F
100
AcDbEntity
  8
SOLBET_Bloczki
100
AcDbBlockReference
  2
SOLBET_Bloczek_Optimal_240x240x590_P+W_KG500_PRA
 10
109.3306517190926
 20
199.2276888183576
 30
0.0
  0
INSERT
  5
BD52
330
1F
100
AcDbEntity
  8
SOLBET_Bloczki
100
AcDbBlockReference
  2
SOLBET_Bloczek_Optimal_240x240x590_P+W_KG500_PRA
 10
109.3306517190925
 20
187.227688859542
 30
0.0
  0
INSERT
  5
BD53
330
1F
100
AcDbEntity
  8
SOLBET_Bloczki
100
AcDbBlockReference
  2
SOLBET_Bloczek_Optimal_240x240x590_P+W_KG500_PRA
 10
109.406591420466
 20
175.2276889007265
 30
0.0
  0
MTEXT
  5
BDD8
102
{ACAD_XDICTIONARY
360
BDD9
102
}
330
1F
100
AcDbEntity
  8
SOLBET_Wymiary_Opisy
100
AcDbMText
 10
301.2542633255814
 20
7.273150535415538
 30
0.0
 40
5.0
 41
0.0
 71
     1
 72
     5
  1
Skala 1:20
  7
Solbet_5
 73
     1
 44
1.0
1001
ACAD
1000
MTEXTBEGIN
1070
    73
1070
     1
1070
    44
1040
1.0
1070
    74
1070
     0
1000
MTEXTEND
1000
ACAD_MTEXT_DEFINED_HEIGHT_BEGIN
1070
    46
1040
5.395147572682731
1000
ACAD_MTEXT_DEFINED_HEIGHT_END
  0
LWPOLYLINE
  5
BDDB
330
1F
100
AcDbEntity
  8
SOLBET_Ramka_05
100
AcDbPolyline
 90
        4
 70
     1
 43
0.0
 10
298.2355972046676
 20
9.804221198935465
 10
334.3517740920897
 20
9.804221198935465
 10
334.3517740920897
 20
0.0
 10
298.2355972046676
 20
0.0000000000000018
  0
ENDSEC
  0
SECTION
  2
OBJECTS
  0
DICTIONARY
  5
C
330
0
100
AcDbDictionary
281
     1
  3
ACAD_COLOR
350
6B
  3
ACAD_GROUP
350
D
  3
ACAD_LAYOUT
350
1A
  3
ACAD_MATERIAL
350
6A
  3
ACAD_MLEADERSTYLE
350
12D
  3
ACAD_MLINESTYLE
350
17
  3
ACAD_PLOTSETTINGS
350
19
  3
ACAD_PLOTSTYLENAME
350
E
  3
ACAD_SCALELIST
350
10C
  3
ACAD_TABLESTYLE
350
7E
  3
ACAD_VISUALSTYLE
350
EF
  3
ACDB_RECOMPOSE_DATA
350
15D
  3
AcDbVariableDictionary
350
5E
  3
DWGPROPS
350
BE71
  0
DICTIONARY
  5
443
330
8
100
AcDbDictionary
280
     1
281
     1
  0
DICTIONARY
  5
3E5
330
2
100
AcDbDictionary
280
     1
281
     1
  3
ACAD_LAYERFILTERS
360
1883
  3
ACLYDICTIONARY
360
1882
  0
DICTIONARY
  5
13C
330
10
100
AcDbDictionary
280
     1
281
     1
  3
ADSK_XREC_LAYER_RECONCILED
360
3F4
  0
DICTIONARY
  5
403
330
3DD
100
AcDbDictionary
280
     1
281
     1
  3
ADSK_XREC_LAYER_RECONCILED
360
404
  0
DICTIONARY
  5
405
330
3DF
100
AcDbDictionary
280
     1
281
     1
  3
ADSK_XREC_LAYER_RECONCILED
360
406
  0
DICTIONARY
  5
407
330
3E0
100
AcDbDictionary
280
     1
281
     1
  3
ADSK_XREC_LAYER_RECONCILED
360
408
  0
DICTIONARY
  5
409
330
3E1
100
AcDbDictionary
280
     1
281
     1
  3
ADSK_XREC_LAYER_RECONCILED
360
40A
  0
DICTIONARY
  5
40B
330
3E2
100
AcDbDictionary
280
     1
281
     1
  3
ADSK_XREC_LAYER_RECONCILED
360
40C
  0
DICTIONARY
  5
40D
330
3E3
100
AcDbDictionary
280
     1
281
     1
  3
ADSK_XREC_LAYER_RECONCILED
360
40E
  0
DICTIONARY
  5
40F
330
3E4
100
AcDbDictionary
280
     1
281
     1
  3
ADSK_XREC_LAYER_RECONCILED
360
410
  0
DICTIONARY
  5
411
330
3E8
100
AcDbDictionary
280
     1
281
     1
  3
ADSK_XREC_LAYER_RECONCILED
360
412
  0
DICTIONARY
  5
4A3
330
1F
100
AcDbDictionary
280
     1
281
     1
  3
ACAD_SORTENTS
360
4A4
  0
DICTIONARY
  5
6F6A
330
6F5E
100
AcDbDictionary
280
     1
281
     1
  3
ACAD_SORTENTS
360
9AD1
  0
DICTIONARY
  5
BA0C
330
B9DE
100
AcDbDictionary
280
     1
281
     1
  3
ACAD_SORTENTS
360
BA0D
  0
DICTIONARY
  5
BD4D
330
BD41
100
AcDbDictionary
280
     1
281
     1
  3
ACAD_SORTENTS
360
BD4E
  0
DICTIONARY
  5
BE80
330
AE0F
100
AcDbDictionary
280
     1
281
     1
  3
ACAD_MTEXT_RT
360
BE81
  0
DICTIONARY
  5
BE82
330
AE15
100
AcDbDictionary
280
     1
281
     1
  3
ACAD_MTEXT_RT
360
BE83
  0
DICTIONARY
  5
BE65
330
AE25
100
AcDbDictionary
280
     1
281
     1
  3
ACAD_MTEXT_2008_RT
360
BE66
  3
ACAD_MTEXT_RT
360
BE84
  0
DICTIONARY
  5
BE85
330
AE2B
100
AcDbDictionary
280
     1
281
     1
  3
ACAD_MTEXT_RT
360
BE86
  0
DICTIONARY
  5
BE67
330
AE2D
100
AcDbDictionary
280
     1
281
     1
  3
ACAD_MTEXT_2008_RT
360
BE68
  3
ACAD_MTEXT_RT
360
BE87
  0
DICTIONARY
  5
BE88
330
AE3C
100
AcDbDictionary
280
     1
281
     1
  3
ACAD_MTEXT_RT
360
BE89
  0
DICTIONARY
  5
BE8A
330
AE3F
100
AcDbDictionary
280
     1
281
     1
  3
ACAD_MTEXT_RT
360
BE8B
  0
DICTIONARY
  5
BE8C
330
AE9D
100
AcDbDictionary
280
     1
281
     1
  3
ACAD_MTEXT_RT
360
BE8D
  0
DICTIONARY
  5
BE69
330
AE9F
100
AcDbDictionary
280
     1
281
     1
  3
ACAD_MTEXT_2008_RT
360
BE6A
  3
ACAD_MTEXT_RT
360
BE8E
  0
DICTIONARY
  5
AEA4
330
AEA3
100
AcDbDictionary
280
     1
281
     1
  3
ACAD_MTEXT_RT
360
BE8F
  3
AcDbContextDataManager
360
AEA5
  0
DICTIONARY
  5
BE90
330
AEA8
100
AcDbDictionary
280
     1
281
     1
  3
ACAD_MTEXT_RT
360
BE91
  0
DICTIONARY
  5
BE92
330
B644
100
AcDbDictionary
280
     1
281
     1
  3
ACAD_MTEXT_RT
360
BE93
  0
DICTIONARY
  5
BE94
330
B645
100
AcDbDictionary
280
     1
281
     1
  3
ACAD_MTEXT_RT
360
BE95
  0
DICTIONARY
  5
BE96
330
B649
100
AcDbDictionary
280
     1
281
     1
  3
ACAD_MTEXT_RT
360
BE97
  0
DICTIONARY
  5
BE98
330
B64D
100
AcDbDictionary
280
     1
281
     1
  3
ACAD_MTEXT_RT
360
BE99
  0
DICTIONARY
  5
BE6B
330
B653
100
AcDbDictionary
280
     1
281
     1
  3
ACAD_MTEXT_2008_RT
360
BE6C
  3
ACAD_MTEXT_RT
360
BE9A
  0
DICTIONARY
  5
BE6D
330
B657
100
AcDbDictionary
280
     1
281
     1
  3
ACAD_MTEXT_2008_RT
360
BE6E
  3
ACAD_MTEXT_RT
360
BE9B
  0
DICTIONARY
  5
BE6F
330
B8FA
100
AcDbDictionary
280
     1
281
     1
  3
ACAD_MTEXT_2008_RT
360
BE70
  3
ACAD_MTEXT_RT
360
BE9C
  0
DICTIONARY
  5
BDD9
330
BDD8
100
AcDbDictionary
280
     1
281
     1
  3
ACAD_MTEXT_2008_RT
360
BDDA
  0
DICTIONARY
  5
6B
102
{ACAD_REACTORS
330
C
102
}
330
C
100
AcDbDictionary
281
     1
  0
DICTIONARY
  5
D
102
{ACAD_REACTORS
330
C
102
}
330
C
100
AcDbDictionary
281
     1
  0
DICTIONARY
  5
1A
102
{ACAD_REACTORS
330
C
102
}
330
C
100
AcDbDictionary
281
     1
  3
Arkusz1
350
D3
  3
Arkusz2
350
D7
  3
Model
350
22
  0
DICTIONARY
  5
6A
102
{ACAD_REACTORS
330
C
102
}
330
C
100
AcDbDictionary
281
     1
  3
ByBlock
350
ED
  3
ByLayer
350
EC
  3
Global
350
EE
  0
DICTIONARY
  5
12D
102
{ACAD_REACTORS
330
C
102
}
330
C
100
AcDbDictionary
281
     1
  3
Standard
350
12E
  0
DICTIONARY
  5
17
102
{ACAD_REACTORS
330
C
102
}
330
C
100
AcDbDictionary
281
     1
  3
SOLBET_IZOLACJA
350
7E9
  3
Standard
350
18
  0
DICTIONARY
  5
19
102
{ACAD_REACTORS
330
C
102
}
330
C
100
AcDbDictionary
281
     1
  3
Ustawienia1
350
4FA3
  0
ACDBDICTIONARYWDFLT
  5
E
102
{ACAD_REACTORS
330
C
102
}
330
C
100
AcDbDictionary
281
     1
  3
Normal
350
F
100
AcDbDictionaryWithDefault
340
F
  0
DICTIONARY
  5
10C
102
{ACAD_REACTORS
330
C
102
}
330
C
100
AcDbDictionary
281
     1
  3
A0
350
10D
  3
A1
350
188
  3
A2
350
189
  3
A3
350
18A
  3
A4
350
18B
  3
A5
350
18C
  3
A6
350
18D
  3
A7
350
18E
  3
A8
350
18F
  3
A9
350
190
  3
B0
350
191
  3
B1
350
192
  3
B2
350
193
  3
B3
350
194
  3
B4
350
195
  3
B5
350
196
  3
B6
350
197
  3
B7
350
198
  3
B8
350
199
  3
B9
350
19A
  3
C0
350
19B
  3
C1
350
19C
  3
C2
350
19D
  3
C3
350
19E
  3
C4
350
19F
  3
C5
350
1A0
  3
C6
350
1A1
  3
C7
350
1A2
  3
C8
350
1A3
  3
C9
350
1A4
  3
D0
350
1A5
  3
D1
350
1A6
  3
D2
350
1A7
  0
DICTIONARY
  5
7E
102
{ACAD_REACTORS
330
C
102
}
330
C
100
AcDbDictionary
281
     1
  3
Standard
350
7F
  0
DICTIONARY
  5
EF
102
{ACAD_REACTORS
330
C
102
}
330
C
100
AcDbDictionary
281
     1
  3
2dWireframe
350
F5
  3
3D Hidden
350
F7
  3
3dWireframe
350
F6
  3
Basic
350
F4
  3
Brighten
350
FB
  3
ColorChange
350
FF
  3
Conceptual
350
F8
  3
Dim
350
FA
  3
Facepattern
350
FE
  3
Flat
350
F0
  3
FlatWithEdges
350
F1
  3
Gouraud
350
F2
  3
GouraudWithEdges
350
F3
  3
Linepattern
350
FD
  3
Realistic
350
F9
  3
Thicken
350
FC
  0
XRECORD
  5
15D
102
{ACAD_REACTORS
330
C
102
}
330
C
100
AcDbXrecord
280
     1
 90
        1
330
7F
330
AE25
330
AE2D
330
AE9F
330
B653
330
B657
330
B8FA
  0
DICTIONARY
  5
5E
102
{ACAD_REACTORS
330
C
102
}
330
C
100
AcDbDictionary
281
     1
  3
CANNOSCALE
350
146
  3
CMLEADERSTYLE
350
145
  3
CTABLESTYLE
350
84
  3
DIMASSOC
350
5F
  3
HIDETEXT
350
63
  3
INDEXCTL
350
466
  3
LIGHTINGUNITS
350
464
  3
MSLTSCALE
350
463
  3
PSOLHEIGHT
350
BE63
  3
PSOLWIDTH
350
BE62
  3
SORTENTS
350
465
  0
XRECORD
  5
BE71
102
{ACAD_REACTORS
330
C
102
}
330
C
100
AcDbXrecord
280
     1
  1
DWGPROPS COOKIE
  2

  3

  4

  6

  7

  8
Filip
  9

300
=
301
=
302
=
303
=
304
=
305
=
306
=
307
=
308
=
309
=
 40
1.278596284722222
 41
2454690.075573148
 42
2454849.50239257
  1

 90
        0
  0
DICTIONARY
  5
1883
102
{ACAD_REACTORS
330
3E5
102
}
330
3E5
100
AcDbDictionary
281
     1
  0
DICTIONARY
  5
1882
102
{ACAD_REACTORS
330
3E5
102
}
330
3E5
100
AcDbDictionary
281
     1
1001
ACAD
1000
<All
  0
XRECORD
  5
3F4
102
{ACAD_REACTORS
330
13C
102
}
330
13C
100
AcDbXrecord
280
     1
290
     1
  0
XRECORD
  5
404
102
{ACAD_REACTORS
330
403
102
}
330
403
100
AcDbXrecord
280
     1
290
     1
  0
XRECORD
  5
406
102
{ACAD_REACTORS
330
405
102
}
330
405
100
AcDbXrecord
280
     1
290
     1
  0
XRECORD
  5
408
102
{ACAD_REACTORS
330
407
102
}
330
407
100
AcDbXrecord
280
     1
290
     1
  0
XRECORD
  5
40A
102
{ACAD_REACTORS
330
409
102
}
330
409
100
AcDbXrecord
280
     1
290
     1
  0
XRECORD
  5
40C
102
{ACAD_REACTORS
330
40B
102
}
330
40B
100
AcDbXrecord
280
     1
290
     1
  0
XRECORD
  5
40E
102
{ACAD_REACTORS
330
40D
102
}
330
40D
100
AcDbXrecord
280
     1
290
     1
  0
XRECORD
  5
410
102
{ACAD_REACTORS
330
40F
102
}
330
40F
100
AcDbXrecord
280
     1
290
     1
  0
XRECORD
  5
412
102
{ACAD_REACTORS
330
411
102
}
330
411
100
AcDbXrecord
280
     1
290
     1
  0
SORTENTSTABLE
  5
4A4
102
{ACAD_REACTORS
330
4A3
102
}
330
4A3
100
AcDbSortentsTable
330
1F
331
AD88
  5
AD99
331
B421
  5
B5F5
331
AE06
  5
AE12
331
ADCF
  5
ADD9
331
B34B
  5
B43C
331
AD98
  5
ADA4
331
ADD7
  5
ADE3
331
AE0E
  5
AE1A
331
AE9D
  5
B0C3
331
B579
  5
B5D0
331
AE16
  5
AE22
331
ADA0
  5
ADAC
331
B614
  5
B414
331
B653
  5
B825
331
AE1E
  5
AE2A
331
B14C
  5
B357
331
B67B
  5
B878
331
BA8F
  5
AE2D
331
AD4C
  5
AD4C
331
AD69
  5
AD69
331
ADA8
  5
ADB2
331
ADB0
  5
ADBA
331
AD71
  5
AD71
331
ADE7
  5
ADF2
331
AE26
  5
AE35
331
AEAD
  5
B171
331
B19C
  5
B40D
331
B40A
  5
B5FB
331
ADEF
  5
ADFB
331
AD79
  5
AD79
331
ADB8
  5
ADC2
331
AE2E
  5
AE3D
331
AEB5
  5
B184
331
B373
  5
B5ED
331
AD81
  5
AD91
331
ADC0
  5
ADCA
331
B88A
  5
B8A4
331
AE3E
  5
AEB3
331
B813
  5
AD81
331
B8F1
  5
AEAA
331
B644
  5
B677
331
B81B
  5
AD86
331
B89A
  5
B8C2
331
B5AD
  5
B44D
331
B64C
  5
B813
331
B823
  5
AE17
331
B8A2
  5
B8EF
331
AD5C
  5
AD5C
331
AD89
  5
AD9B
331
ADC8
  5
ADD2
331
AD91
  5
AD9D
331
ADD0
  5
ADDA
331
AE07
  5
AE13
331
B34C
  5
B43D
331
B0CD
  5
B1B3
331
ADD8
  5
ADE4
331
AD99
  5
ADA6
331
AE0F
  5
AE1B
331
AE9E
  5
B0CD
331
B393
  5
B604
331
B39B
  5
B652
331
B35C
  5
B459
331
AE17
  5
AE23
331
B57A
  5
B5D2
331
B833
  5
B87D
331
B615
  5
B415
331
B654
  5
B831
331
BA10
  5
BA45
331
AE1F
  5
AE2B
331
B83B
  5
B882
331
B87B
  5
B88A
331
BA90
  5
AE2E
331
B883
  5
B892
331
AD4D
  5
AD4D
331
AD6A
  5
AD6A
331
ADA9
  5
ADB3
331
ADB1
  5
ADBB
331
AD72
  5
AD72
331
ADE8
  5
ADF3
331
AE27
  5
AE36
331
AEAE
  5
B172
331
B3BB
  5
B654
331
ADF0
  5
ADFC
331
AD7A
  5
AD7A
331
ADB9
  5
ADC3
331
AE2F
  5
AE3E
331
AEB6
  5
B186
331
B40B
  5
B5FC
331
AD82
  5
AD93
331
ADC1
  5
ADCB
331
AE37
  5
AEA9
331
B413
  5
B5F6
331
B88B
  5
B8BB
331
B8C2
  5
B885
331
AE3F
  5
AEB4
331
B345
  5
B41B
331
B814
  5
AD82
331
B8F2
  5
AEAB
331
B645
  5
B678
331
B89B
  5
B8C3
331
B8FA
  5
BA12
331
B64D
  5
B814
331
B8A3
  5
B8F0
331
AD8A
  5
AD9C
331
ADC9
  5
ADD3
331
B38C
  5
B602
331
AE08
  5
AE15
331
ADD1
  5
ADDB
331
B34D
  5
B43F
331
B394
  5
B605
331
AE10
  5
AE1C
331
ADD9
  5
ADE5
331
AE9F
  5
B0E6
331
B355
  5
B450
331
ADA2
  5
ADAD
331
AE18
  5
AE24
331
B57B
  5
B5D3
331
B834
  5
B87E
331
B616
  5
B416
331
B655
  5
B833
331
BA11
  5
BA46
331
B83C
  5
AD87
331
B626
  5
B60E
331
B87C
  5
B88B
331
B884
  5
B89D
331
AD4E
  5
AD4E
331
ADAA
  5
ADB4
331
ADE1
  5
ADEB
331
AE20
  5
AE2F
331
ADB2
  5
ADBC
331
AD73
  5
AD73
331
ADE9
  5
ADF4
331
AE28
  5
AE37
331
B375
  5
B5EF
331
ADF1
  5
ADFF
331
AD7B
  5
AD7B
331
ADBA
  5
ADC4
331
AE30
  5
AE3F
331
ADF9
  5
AE07
331
AD83
  5
AD94
331
ADC2
  5
ADCC
331
B414
  5
B5F7
331
B385
  5
B5FD
331
B346
  5
B41C
331
B88C
  5
B8BC
331
B5A7
  5
B458
331
B646
  5
B679
331
B64E
  5
B81A
331
B825
  5
AD85
331
B8A4
  5
B8F1
331
AD66
  5
AD66
331
ADCA
  5
ADD4
331
AE40
  5
AEB5
331
AE09
  5
AE16
331
AD93
  5
AD9E
331
ADD2
  5
ADDC
331
B38D
  5
B603
331
AE11
  5
AE1D
331
AD9B
  5
ADA7
331
ADDA
  5
ADE6
331
AEA0
  5
B0E7
331
ADA3
  5
ADAE
331
AE19
  5
AE25
331
B35E
  5
B469
331
B57C
  5
B5D4
331
B3B5
  5
B653
331
B617
  5
B417
331
B656
  5
B834
331
BA12
  5
BA47
331
B676
  5
B839
331
B83D
  5
B87F
331
B627
  5
B457
331
B87D
  5
B88C
331
B8BC
  5
B8C0
331
B885
  5
B89E
331
AD4F
  5
AD4F
331
ADAB
  5
ADB5
331
ADE2
  5
ADEC
331
AE21
  5
AE30
331
AEA8
  5
B13F
331
ADB3
  5
ADBD
331
AD74
  5
AD74
331
ADEA
  5
ADF5
331
AE29
  5
AE38
331
B376
  5
B5F0
331
ADF2
  5
AE02
331
ADBB
  5
ADC5
331
AE31
  5
AE40
331
ADFA
  5
AE08
331
AD84
  5
AD95
331
ADC3
  5
ADCD
331
B415
  5
B5F8
331
B580
  5
B5CF
331
B347
  5
B41D
331
B590
  5
B45A
331
B63F
  5
B655
331
B647
  5
B67A
331
B64F
  5
B81B
331
B8A5
  5
B8F2
331
AD5F
  5
AD5F
331
AE02
  5
AE0E
331
ADCB
  5
ADD5
331
AE41
  5
AEB6
331
AD94
  5
AD9F
331
ADD3
  5
ADDD
331
AE0A
  5
AE18
331
B396
  5
B627
331
AE12
  5
AE1E
331
AD9C
  5
ADA8
331
ADDB
  5
ADE7
331
AEA1
  5
B0E9
331
B357
  5
B451
331
B575
  5
B5D9
331
ADA4
  5
ADAF
331
AE1A
  5
AE26
331
B35F
  5
B46A
331
B57D
  5
B5CC
331
B657
  5
B837
331
B677
  5
B83B
331
B83E
  5
B883
331
B8B5
  5
B889
331
B87E
  5
B88D
331
B8BD
  5
B8BE
331
B886
  5
B89F
331
ADAC
  5
ADB6
331
AD6D
  5
AD6D
331
ADE3
  5
ADEE
331
AE22
  5
AE31
331
AEA9
  5
B140
331
ADB4
  5
ADBE
331
AD75
  5
AD75
331
ADEB
  5
ADF6
331
AE2A
  5
AE39
331
AEB1
  5
B179
331
B1A0
  5
B40E
331
ADBC
  5
ADC6
331
ADF3
  5
AE03
331
AE32
  5
AE9D
331
B1B0
  5
B410
331
B377
  5
B5F1
331
B581
  5
B5C1
331
B630
  5
B46B
331
AD85
  5
AD96
331
ADC4
  5
ADCE
331
ADFB
  5
AE09
331
AE3A
  5
AEAD
331
B416
  5
B5F9
331
B591
  5
B465
331
B387
  5
B5FF
331
B41E
  5
B5F3
331
B8ED
  5
AEA8
331
B640
  5
B656
331
B896
  5
B8BF
331
B648
  5
B67B
331
B8A6
  5
B8FA
331
AD50
  5
AD50
331
AD58
  5
AD58
331
AE03
  5
AE0F
331
ADCC
  5
ADD6
331
B348
  5
B429
331
AD95
  5
ADA0
331
ADD4
  5
ADDE
331
AE0B
  5
AE19
331
B350
  5
B440
331
B397
  5
B62D
331
AE13
  5
AE1F
331
AD9D
  5
ADA9
331
ADDC
  5
ADE8
331
AEA2
  5
B0EA
331
B358
  5
B452
331
B576
  5
B5DA
331
B650
  5
B822
331
AE1B
  5
AE27
331
B57E
  5
B5CD
331
B837
  5
B880
331
B678
  5
B83C
331
B87F
  5
B88E
331
B8BE
  5
B8BD
331
B887
  5
B8A1
331
AD49
  5
AD49
331
ADAD
  5
ADB7
331
AD6E
  5
AD6E
331
ADE4
  5
ADEF
331
AE23
  5
AE32
331
AEAA
  5
B14C
331
ADB5
  5
ADBF
331
ADEC
  5
ADF9
331
AE2B
  5
AE3A
331
AEB2
  5
B17B
331
AD7E
  5
AD88
331
ADBD
  5
ADC7
331
ADF4
  5
AE04
331
AE33
  5
AE9E
331
B378
  5
B5F2
331
B582
  5
B5C9
331
AD86
  5
AD97
331
ADC5
  5
ADCF
331
AE3B
  5
AEAE
331
B592
  5
B468
331
B641
  5
B657
331
B8EE
  5
AEAC
331
B649
  5
B810
331
B8A7
  5
BA10
331
AD51
  5
AD51
331
AD59
  5
AD59
331
B388
  5
B600
331
AE04
  5
AE10
331
ADCD
  5
ADD7
331
B349
  5
B42A
331
ADD5
  5
ADE1
331
B351
  5
B442
331
AE14
  5
AE20
331
AD9E
  5
ADAA
331
ADDD
  5
ADE9
331
AEA3
  5
B0EB
331
B359
  5
B453
331
B651
  5
B823
331
ADA6
  5
ADB0
331
AE1C
  5
AE28
331
B57F
  5
B5CE
331
B61A
  5
B412
331
B679
  5
B83D
331
B880
  5
B88F
331
AD4A
  5
AD4A
331
AD6F
  5
AD6F
331
ADAE
  5
ADB8
331
ADE5
  5
ADF0
331
AE24
  5
AE33
331
AEAB
  5
B14D
331
B361
  5
B5BE
331
ADB6
  5
ADC0
331
AE2C
  5
AE3B
331
AEB3
  5
B17D
331
AEBB
  5
B19D
331
ADF5
  5
AE05
331
AD7F
  5
AD89
331
ADBE
  5
ADC8
331
AE34
  5
AE9F
331
B888
  5
B8A2
331
B583
  5
B5CA
331
AD87
  5
AD98
331
ADC6
  5
ADD0
331
AE3C
  5
AEB1
331
B811
  5
AD7F
331
B8EF
  5
AEA1
331
B5A3
  5
B455
331
B642
  5
B675
331
B5AB
  5
B44F
331
B64A
  5
B811
331
B8A0
  5
B8ED
331
AD62
  5
AD62
331
B389
  5
B601
331
AE05
  5
AE11
331
ADCE
  5
ADD8
331
B0C3
  5
B1A0
331
B34A
  5
B42B
331
B420
  5
B5F4
331
AD97
  5
ADA3
331
ADD6
  5
ADE2
331
AE9C
  5
AEBB
331
AE15
  5
AE21
331
AD9F
  5
ADAB
331
ADDE
  5
ADEA
331
B35A
  5
B454
331
B831
  5
B87A
331
B652
  5
B824
331
B8A8
  5
BA11
331
ADA7
  5
ADB1
331
AE1D
  5
AE29
331
B61B
  5
B413
331
B839
  5
B881
331
B879
  5
B887
331
B67A
  5
B83E
331
BA8E
  5
AE2C
331
B881
  5
B890
331
B62B
  5
B44E
331
AD4B
  5
AD4B
331
AD68
  5
AD68
331
ADAF
  5
ADB9
331
AD70
  5
AD70
331
ADE6
  5
ADF1
331
AE25
  5
AE34
331
AEAC
  5
B170
331
B362
  5
B5C0
331
B409
  5
B5FA
331
ADB7
  5
ADC1
331
ADEE
  5
ADFA
331
AE2D
  5
AE3C
331
AEB4
  5
B182
331
AD80
  5
AD8A
331
ADBF
  5
ADC9
331
B889
  5
B8A3
331
B584
  5
B5CB
331
B8C0
  5
B891
331
ADC7
  5
ADD1
331
AE3D
  5
AEB2
331
B812
  5
AD80
331
B8F0
  5
AEA3
331
B5A4
  5
B456
331
B643
  5
B676
331
B899
  5
B8C1
331
B822
  5
AD84
331
B64B
  5
B812
331
B8A1
  5
B8EE
  0
SORTENTSTABLE
  5
9AD1
102
{ACAD_REACTORS
330
6F6A
102
}
330
6F6A
100
AcDbSortentsTable
330
6F5E
  0
SORTENTSTABLE
  5
BA0D
102
{ACAD_REACTORS
330
BA0C
102
}
330
BA0C
100
AcDbSortentsTable
330
B9DE
  0
SORTENTSTABLE
  5
BD4E
102
{ACAD_REACTORS
330
BD4D
102
}
330
BD4D
100
AcDbSortentsTable
330
BD41
  0
XRECORD
  5
BE81
102
{ACAD_REACTORS
330
BE80
102
}
330
BE80
100
AcDbXrecord
280
     1
 40
34960.0
  1
Warstwa wykończeniowa
  0
XRECORD
  5
BE83
102
{ACAD_REACTORS
330
BE82
102
}
330
BE82
100
AcDbXrecord
280
     1
 40
42625.0
  1
Płyty izolacyjne twarde
  0
XRECORD
  5
BE66
102
{ACAD_REACTORS
330
BE65
102
}
330
BE65
100
AcDbXrecord
280
     1
 40
24757.0
  1
\pxqc;B\P(5 : 1)
  0
XRECORD
  5
BE84
102
{ACAD_REACTORS
330
BE65
102
}
330
BE65
100
AcDbXrecord
280
     1
 40
39055.0
  1
\pxqc;B\P(5 : 1)
  0
XRECORD
  5
BE86
102
{ACAD_REACTORS
330
BE85
102
}
330
BE85
100
AcDbXrecord
280
     1
 40
28851.0
  1
Zagęszczony piasek
  0
XRECORD
  5
BE68
102
{ACAD_REACTORS
330
BE67
102
}
330
BE67
100
AcDbXrecord
280
     1
 40
79699.0
  1
\pxql;Emulsja izolazyjna\Plub izolacja z folii
  0
XRECORD
  5
BE87
102
{ACAD_REACTORS
330
BE67
102
}
330
BE67
100
AcDbXrecord
280
     1
 40
79699.0
  1
\pxql;Emulsja izolazyjna\Plub izolacja z folii
  0
XRECORD
  5
BE89
102
{ACAD_REACTORS
330
BE88
102
}
330
BE88
100
AcDbXrecord
280
     1
 40
19422.0
  1
Folia kubełkowa
  0
XRECORD
  5
BE8B
102
{ACAD_REACTORS
330
BE8A
102
}
330
BE8A
100
AcDbXrecord
280
     1
 40
23045.0
  1
Profil zamykający
  0
XRECORD
  5
BE8D
102
{ACAD_REACTORS
330
BE8C
102
}
330
BE8C
100
AcDbXrecord
280
     1
 40
190037.0
  1
Mocowanie mechaniczne styropianu\P(w części naziemnej)
  0
XRECORD
  5
BE6A
102
{ACAD_REACTORS
330
BE69
102
}
330
BE69
100
AcDbXrecord
280
     1
 40
24645.0
  1
\pxqc;A\P(3 : 1)
  0
XRECORD
  5
BE8E
102
{ACAD_REACTORS
330
BE69
102
}
330
BE69
100
AcDbXrecord
280
     1
 40
39061.0
  1
\pxqc;A\P(3 : 1)
  0
XRECORD
  5
BE8F
102
{ACAD_REACTORS
330
AEA4
102
}
330
AEA4
100
AcDbXrecord
280
     1
 40
1090709.0
  1
{\LDETAL 8\P}Posadowienie na {\fISOCPEUR|b1|i0|c238|p34;ł}awie fundamentowej wariant ściany trójwarstwowej z dociepleniem ze styropianu
  0
DICTIONARY
  5
AEA5
102
{ACAD_REACTORS
330
AEA4
102
}
330
AEA4
100
AcDbDictionary
281
     1
  3
ACDB_ANNOTATIONSCALES
350
AEA6
  0
XRECORD
  5
BE91
102
{ACAD_REACTORS
330
BE90
102
}
330
BE90
100
AcDbXrecord
280
     1
 40
901167.0
  1
{\LUWAGA:\P}Systemy hydroizolacji stosować wg zaleceń producentów.\PStyropian wodoodporny wg zaleceń producentów.
  0
XRECORD
  5
BE93
102
{ACAD_REACTORS
330
BE92
102
}
330
BE92
100
AcDbXrecord
280
     1
 40
22651.0
  1
Emulsja izolująca
  0
XRECORD
  5
BE95
102
{ACAD_REACTORS
330
BE94
102
}
330
BE94
100
AcDbXrecord
280
     1
 40
33358.0
  1
Tynk wewnętrzny SOLBET
  0
XRECORD
  5
BE97
102
{ACAD_REACTORS
330
BE96
102
}
330
BE96
100
AcDbXrecord
280
     1
 40
16059.0
  1
Tynk cokołowy
  0
XRECORD
  5
BE99
102
{ACAD_REACTORS
330
BE98
102
}
330
BE98
100
AcDbXrecord
280
     1
 40
37229.0
  1
Krążek dociskowy 
  0
XRECORD
  5
BE6C
102
{ACAD_REACTORS
330
BE6B
102
}
330
BE6B
100
AcDbXrecord
280
     1
 40
31569.0
  1
\pxql;Bloczki SOLBET Optimal 24cm
  0
XRECORD
  5
BE9A
102
{ACAD_REACTORS
330
BE6B
102
}
330
BE6B
100
AcDbXrecord
280
     1
 40
31569.0
  1
\pxql;Bloczki SOLBET Optimal 24cm
  0
XRECORD
  5
BE6E
102
{ACAD_REACTORS
330
BE6D
102
}
330
BE6D
100
AcDbXrecord
280
     1
 40
18320.0
  1
\pxql;Warstwa styropianu
  0
XRECORD
  5
BE9B
102
{ACAD_REACTORS
330
BE6D
102
}
330
BE6D
100
AcDbXrecord
280
     1
 40
18320.0
  1
\pxql;Warstwa styropianu
  0
XRECORD
  5
BE70
102
{ACAD_REACTORS
330
BE6F
102
}
330
BE6F
100
AcDbXrecord
280
     1
 40
24748.0
  1
\pxqc;C\P(5 : 1)
  0
XRECORD
  5
BE9C
102
{ACAD_REACTORS
330
BE6F
102
}
330
BE6F
100
AcDbXrecord
280
     1
 40
39061.0
  1
\pxqc;C\P(5 : 1)
  0
XRECORD
  5
BDDA
102
{ACAD_REACTORS
330
BDD9
102
}
330
BDD9
100
AcDbXrecord
280
     1
 40
24748.0
  1
\pxqc;C\P(5 : 1)
  0
LAYOUT
  5
D3
102
{ACAD_XDICTIONARY
360
BE75
102
}
102
{ACAD_REACTORS
330
1A
102
}
330
1A
100
AcDbPlotSettings
  1

  2
C:\Documents and Settings\basas\Application Data\Autodesk\AutoCAD 2005\R16.1\enu\plotters\Default Windows System Printer.pc3
  4

  6

 40
0.0
 41
0.0
 42
0.0
 43
0.0
 44
0.0
 45
0.0
 46
0.0
 47
0.0
 48
0.0
 49
0.0
140
0.0
141
0.0
142
1.0
143
1.0
 70
   688
 72
     0
 73
     0
 74
     5
  7

 75
    16
147
1.0
148
0.0
149
0.0
100
AcDbLayout
  1
Arkusz1
 70
     1
 71
     1
 10
0.0
 20
0.0
 11
12.0
 21
9.0
 12
0.0
 22
0.0
 32
0.0
 14
0.0
 24
0.0
 34
0.0
 15
0.0
 25
0.0
 35
0.0
146
0.0
 13
0.0
 23
0.0
 33
0.0
 16
1.0
 26
0.0
 36
0.0
 17
0.0
 27
1.0
 37
0.0
 76
     0
330
D2
  0
LAYOUT
  5
D7
102
{ACAD_XDICTIONARY
360
BE77
102
}
102
{ACAD_REACTORS
330
1A
102
}
330
1A
100
AcDbPlotSettings
  1

  2
C:\Documents and Settings\basas\Application Data\Autodesk\AutoCAD 2005\R16.1\enu\plotters\Default Windows System Printer.pc3
  4

  6

 40
0.0
 41
0.0
 42
0.0
 43
0.0
 44
0.0
 45
0.0
 46
0.0
 47
0.0
 48
0.0
 49
0.0
140
0.0
141
0.0
142
1.0
143
1.0
 70
   688
 72
     0
 73
     0
 74
     5
  7

 75
    16
147
1.0
148
0.0
149
0.0
100
AcDbLayout
  1
Arkusz2
 70
     1
 71
     2
 10
0.0
 20
0.0
 11
12.0
 21
9.0
 12
0.0
 22
0.0
 32
0.0
 14
0.0
 24
0.0
 34
0.0
 15
0.0
 25
0.0
 35
0.0
146
0.0
 13
0.0
 23
0.0
 33
0.0
 16
1.0
 26
0.0
 36
0.0
 17
0.0
 27
1.0
 37
0.0
 76
     0
330
D6
  0
LAYOUT
  5
22
102
{ACAD_XDICTIONARY
360
BE72
102
}
102
{ACAD_REACTORS
330
1A
102
}
330
1A
100
AcDbPlotSettings
  1

  2
none_device
  4
Letter_(8.50_x_11.00_Inches)
  6

 40
6.349999904632568
 41
6.349999904632568
 42
6.350006103515625
 43
6.350006103515625
 44
215.8999938964844
 45
279.3999938964844
 46
11.54999923706054
 47
-13.65000009536743
 48
0.0
 49
0.0
140
210.0
141
297.0
142
1.0
143
1.0
 70
 11936
 72
     1
 73
     0
 74
     4
  7

 75
     0
147
0.9999999999999998
148
0.0
149
0.0
100
AcDbLayout
  1
Model
 70
     1
 71
     0
 10
0.0
 20
0.0
 11
12.0
 21
9.0
 12
0.0
 22
0.0
 32
0.0
 14
0.0
 24
0.0
 34
0.0
 15
0.0
 25
0.0
 35
0.0
146
0.0
 13
0.0
 23
0.0
 33
0.0
 16
1.0
 26
0.0
 36
0.0
 17
0.0
 27
1.0
 37
0.0
 76
     0
330
1F
331
EA
1001
ACAD_PSEXT
1000
Brak
1000
Brak
1000
Nie można zastosować.
1000
Arkusz nie zostanie wydrukowany dopóki nie wybrano konfiguracji plotera.
1070
     0
  0
MATERIAL
  5
ED
102
{ACAD_XDICTIONARY
360
BE7B
102
}
102
{ACAD_REACTORS
330
6A
102
}
330
6A
100
AcDbMaterial
  1
ByBlock
  0
MATERIAL
  5
EC
102
{ACAD_XDICTIONARY
360
BE79
102
}
102
{ACAD_REACTORS
330
6A
102
}
330
6A
100
AcDbMaterial
  1
ByLayer
  0
MATERIAL
  5
EE
102
{ACAD_XDICTIONARY
360
173
102
}
102
{ACAD_REACTORS
330
6A
102
}
330
6A
100
AcDbMaterial
  1
Global
 43
0.0007999999797903
 43
0.0
 43
0.0
 43
0.0
 43
0.0
 43
0.0007999999797903
 43
0.0
 43
0.0
 43
0.0
 43
0.0
 43
1.0
 43
0.0
 43
0.0
 43
0.0
 43
0.0
 43
1.0
 49
0.0007999999797903
 49
0.0
 49
0.0
 49
0.0
 49
0.0
 49
0.0007999999797903
 49
0.0
 49
0.0
 49
0.0
 49
0.0
 49
1.0
 49
0.0
 49
0.0
 49
0.0
 49
0.0
 49
1.0
142
0.0007999999797903
142
0.0
142
0.0
142
0.0
142
0.0
142
0.0007999999797903
142
0.0
142
0.0
142
0.0
142
0.0
142
1.0
142
0.0
142
0.0
142
0.0
142
0.0
142
1.0
144
0.0007999999797903
144
0.0
144
0.0
144
0.0
144
0.0
144
0.0007999999797903
144
0.0
144
0.0
144
0.0
144
0.0
144
1.0
144
0.0
144
0.0
144
0.0
144
0.0
144
1.0
1001
ACAD
1070
    -1
1070
     3
1070
     0
1000

1071
        0
1070
     0
  0
MLEADERSTYLE
  5
12E
102
{ACAD_REACTORS
330
12D
102
}
330
12D
100
AcDbMLeaderStyle
170
     2
171
     1
172
     0
 90
        2
 40
0.0
 41
0.0
173
     1
 91
-1056964608
340
14
 92
       -2
290
     1
 42
2.0
291
     1
 43
8.0
  3
Standard
 44
4.0
300

342
11
174
     1
178
     1
175
     1
176
     0
 93
-1056964608
 45
4.0
292
     0
297
     0
 46
4.0
 94
-1056964608
 47
1.0
 49
1.0
140
1.0
293
     1
141
0.0
294
     1
177
     0
142
1.0
295
     0
296
     0
143
3.75
1001
ACAD
1000
AcRTDxfName
1000
MLEADERSTYLE
1000
AcRTDxfName
1000
MLEADERSTYLE
1000
AcRTDxfName
1000
MLEADERSTYLE
1001
ACAD_MLEADERVER
1070
     2
  0
MLINESTYLE
  5
7E9
102
{ACAD_REACTORS
330
17
102
}
330
17
100
AcDbMlineStyle
  2
SOLBET_IZOLACJA
 70
   272
  3

 62
   256
 51
90.0
 52
90.0
 71
     2
 49
0.008
 62
   256
  6
BYLAYER
 49
-0.008
 62
   256
  6
BYLAYER
  0
MLINESTYLE
  5
18
102
{ACAD_REACTORS
330
17
102
}
330
17
100
AcDbMlineStyle
  2
STANDARD
 70
     0
  3

 62
   256
 51
90.0
 52
90.0
 71
     2
 49
0.5
 62
   256
  6
BYLAYER
 49
-0.5
 62
   256
  6
BYLAYER
  0
PLOTSETTINGS
  5
4FA3
102
{ACAD_XDICTIONARY
360
BE7E
102
}
102
{ACAD_REACTORS
330
19
102
}
330
19
100
AcDbPlotSettings
  1
Ustawienia1
  2
PDF995
  4
User66
  6

 40
3.174999952316284
 41
3.174999952316284
 42
3.17498779296875
 43
3.17498779296875
 44
420.0
 45
594.0
 46
11.54999923706054
 47
-13.65000009536743
 48
-316.0724066439061
 49
0.0
140
18.27936744818385
141
297.0
142
1.0
143
1.0
 70
 11936
 72
     1
 73
     0
 74
     4
  7

 75
     0
147
0.9999999999999998
148
316.0724066439061
149
0.0
1001
ACAD_PSEXT
1000
PDF995
1000
PDF995 Printer Driver
1000
PDF995PORT
1000

1070
     0
  0
ACDBPLACEHOLDER
  5
F
102
{ACAD_REACTORS
330
E
102
}
330
E
  0
SCALE
  5
10D
102
{ACAD_REACTORS
330
10C
102
}
330
10C
100
AcDbScale
 70
     0
300
1:1
140
1.0
141
1.0
290
     1
1001
ACAD
1000
AcRTDxfName
1000
SCALE
1000
AcRTDxfName
1000
SCALE
1000
AcRTDxfName
1000
SCALE
  0
SCALE
  5
188
102
{ACAD_REACTORS
330
10C
102
}
330
10C
100
AcDbScale
 70
     0
300
1:2
140
1.0
141
2.0
290
     0
1001
ACAD
1000
AcRTDxfName
1000
SCALE
1000
AcRTDxfName
1000
SCALE
1000
AcRTDxfName
1000
SCALE
  0
SCALE
  5
189
102
{ACAD_REACTORS
330
10C
102
}
330
10C
100
AcDbScale
 70
     0
300
1:4
140
1.0
141
4.0
290
     0
1001
ACAD
1000
AcRTDxfName
1000
SCALE
1000
AcRTDxfName
1000
SCALE
1000
AcRTDxfName
1000
SCALE
  0
SCALE
  5
18A
102
{ACAD_REACTORS
330
10C
102
}
330
10C
100
AcDbScale
 70
     0
300
1:5
140
1.0
141
5.0
290
     0
1001
ACAD
1000
AcRTDxfName
1000
SCALE
1000
AcRTDxfName
1000
SCALE
1000
AcRTDxfName
1000
SCALE
  0
SCALE
  5
18B
102
{ACAD_REACTORS
330
10C
102
}
330
10C
100
AcDbScale
 70
     0
300
1:8
140
1.0
141
8.0
290
     0
1001
ACAD
1000
AcRTDxfName
1000
SCALE
1000
AcRTDxfName
1000
SCALE
1000
AcRTDxfName
1000
SCALE
  0
SCALE
  5
18C
102
{ACAD_REACTORS
330
10C
102
}
330
10C
100
AcDbScale
 70
     0
300
1:10
140
1.0
141
10.0
290
     0
1001
ACAD
1000
AcRTDxfName
1000
SCALE
1000
AcRTDxfName
1000
SCALE
1000
AcRTDxfName
1000
SCALE
  0
SCALE
  5
18D
102
{ACAD_REACTORS
330
10C
102
}
330
10C
100
AcDbScale
 70
     0
300
1:16
140
1.0
141
16.0
290
     0
1001
ACAD
1000
AcRTDxfName
1000
SCALE
1000
AcRTDxfName
1000
SCALE
1000
AcRTDxfName
1000
SCALE
  0
SCALE
  5
18E
102
{ACAD_REACTORS
330
10C
102
}
330
10C
100
AcDbScale
 70
     0
300
1:20
140
1.0
141
20.0
290
     0
1001
ACAD
1000
AcRTDxfName
1000
SCALE
1000
AcRTDxfName
1000
SCALE
1000
AcRTDxfName
1000
SCALE
  0
SCALE
  5
18F
102
{ACAD_REACTORS
330
10C
102
}
330
10C
100
AcDbScale
 70
     0
300
1:30
140
1.0
141
30.0
290
     0
1001
ACAD
1000
AcRTDxfName
1000
SCALE
1000
AcRTDxfName
1000
SCALE
1000
AcRTDxfName
1000
SCALE
  0
SCALE
  5
190
102
{ACAD_REACTORS
330
10C
102
}
330
10C
100
AcDbScale
 70
     0
300
1:40
140
1.0
141
40.0
290
     0
1001
ACAD
1000
AcRTDxfName
1000
SCALE
1000
AcRTDxfName
1000
SCALE
1000
AcRTDxfName
1000
SCALE
  0
SCALE
  5
191
102
{ACAD_REACTORS
330
10C
102
}
330
10C
100
AcDbScale
 70
     0
300
1:50
140
1.0
141
50.0
290
     0
1001
ACAD
1000
AcRTDxfName
1000
SCALE
1000
AcRTDxfName
1000
SCALE
1000
AcRTDxfName
1000
SCALE
  0
SCALE
  5
192
102
{ACAD_REACTORS
330
10C
102
}
330
10C
100
AcDbScale
 70
     0
300
1:100
140
1.0
141
100.0
290
     0
1001
ACAD
1000
AcRTDxfName
1000
SCALE
1000
AcRTDxfName
1000
SCALE
1000
AcRTDxfName
1000
SCALE
  0
SCALE
  5
193
102
{ACAD_REACTORS
330
10C
102
}
330
10C
100
AcDbScale
 70
     0
300
2:1
140
2.0
141
1.0
290
     0
1001
ACAD
1000
AcRTDxfName
1000
SCALE
1000
AcRTDxfName
1000
SCALE
1000
AcRTDxfName
1000
SCALE
  0
SCALE
  5
194
102
{ACAD_REACTORS
330
10C
102
}
330
10C
100
AcDbScale
 70
     0
300
4:1
140
4.0
141
1.0
290
     0
1001
ACAD
1000
AcRTDxfName
1000
SCALE
1000
AcRTDxfName
1000
SCALE
1000
AcRTDxfName
1000
SCALE
  0
SCALE
  5
195
102
{ACAD_REACTORS
330
10C
102
}
330
10C
100
AcDbScale
 70
     0
300
8:1
140
8.0
141
1.0
290
     0
1001
ACAD
1000
AcRTDxfName
1000
SCALE
1000
AcRTDxfName
1000
SCALE
1000
AcRTDxfName
1000
SCALE
  0
SCALE
  5
196
102
{ACAD_REACTORS
330
10C
102
}
330
10C
100
AcDbScale
 70
     0
300
10:1
140
10.0
141
1.0
290
     0
1001
ACAD
1000
AcRTDxfName
1000
SCALE
1000
AcRTDxfName
1000
SCALE
1000
AcRTDxfName
1000
SCALE
  0
SCALE
  5
197
102
{ACAD_REACTORS
330
10C
102
}
330
10C
100
AcDbScale
 70
     0
300
100:1
140
100.0
141
1.0
290
     0
1001
ACAD
1000
AcRTDxfName
1000
SCALE
1000
AcRTDxfName
1000
SCALE
1000
AcRTDxfName
1000
SCALE
  0
SCALE
  5
198
102
{ACAD_REACTORS
330
10C
102
}
330
10C
100
AcDbScale
 70
     0
300
1/128" = 1'-0"
140
0.0078125
141
12.0
290
     0
1001
ACAD
1000
AcRTDxfName
1000
SCALE
1000
AcRTDxfName
1000
SCALE
1000
AcRTDxfName
1000
SCALE
  0
SCALE
  5
199
102
{ACAD_REACTORS
330
10C
102
}
330
10C
100
AcDbScale
 70
     0
300
1/64" = 1'-0"
140
0.015625
141
12.0
290
     0
1001
ACAD
1000
AcRTDxfName
1000
SCALE
1000
AcRTDxfName
1000
SCALE
1000
AcRTDxfName
1000
SCALE
  0
SCALE
  5
19A
102
{ACAD_REACTORS
330
10C
102
}
330
10C
100
AcDbScale
 70
     0
300
1/32" = 1'-0"
140
0.03125
141
12.0
290
     0
1001
ACAD
1000
AcRTDxfName
1000
SCALE
1000
AcRTDxfName
1000
SCALE
1000
AcRTDxfName
1000
SCALE
  0
SCALE
  5
19B
102
{ACAD_REACTORS
330
10C
102
}
330
10C
100
AcDbScale
 70
     0
300
1/16" = 1'-0"
140
0.0625
141
12.0
290
     0
1001
ACAD
1000
AcRTDxfName
1000
SCALE
1000
AcRTDxfName
1000
SCALE
1000
AcRTDxfName
1000
SCALE
  0
SCALE
  5
19C
102
{ACAD_REACTORS
330
10C
102
}
330
10C
100
AcDbScale
 70
     0
300
3/32" = 1'-0"
140
0.09375
141
12.0
290
     0
1001
ACAD
1000
AcRTDxfName
1000
SCALE
1000
AcRTDxfName
1000
SCALE
1000
AcRTDxfName
1000
SCALE
  0
SCALE
  5
19D
102
{ACAD_REACTORS
330
10C
102
}
330
10C
100
AcDbScale
 70
     0
300
1/8" = 1'-0"
140
0.125
141
12.0
290
     0
1001
ACAD
1000
AcRTDxfName
1000
SCALE
1000
AcRTDxfName
1000
SCALE
1000
AcRTDxfName
1000
SCALE
  0
SCALE
  5
19E
102
{ACAD_REACTORS
330
10C
102
}
330
10C
100
AcDbScale
 70
     0
300
3/16" = 1'-0"
140
0.1875
141
12.0
290
     0
1001
ACAD
1000
AcRTDxfName
1000
SCALE
1000
AcRTDxfName
1000
SCALE
1000
AcRTDxfName
1000
SCALE
  0
SCALE
  5
19F
102
{ACAD_REACTORS
330
10C
102
}
330
10C
100
AcDbScale
 70
     0
300
1/4" = 1'-0"
140
0.25
141
12.0
290
     0
1001
ACAD
1000
AcRTDxfName
1000
SCALE
1000
AcRTDxfName
1000
SCALE
1000
AcRTDxfName
1000
SCALE
  0
SCALE
  5
1A0
102
{ACAD_REACTORS
330
10C
102
}
330
10C
100
AcDbScale
 70
     0
300
3/8" = 1'-0"
140
0.375
141
12.0
290
     0
1001
ACAD
1000
AcRTDxfName
1000
SCALE
1000
AcRTDxfName
1000
SCALE
1000
AcRTDxfName
1000
SCALE
  0
SCALE
  5
1A1
102
{ACAD_REACTORS
330
10C
102
}
330
10C
100
AcDbScale
 70
     0
300
1/2" = 1'-0"
140
0.5
141
12.0
290
     0
1001
ACAD
1000
AcRTDxfName
1000
SCALE
1000
AcRTDxfName
1000
SCALE
1000
AcRTDxfName
1000
SCALE
  0
SCALE
  5
1A2
102
{ACAD_REACTORS
330
10C
102
}
330
10C
100
AcDbScale
 70
     0
300
3/4" = 1'-0"
140
0.75
141
12.0
290
     0
1001
ACAD
1000
AcRTDxfName
1000
SCALE
1000
AcRTDxfName
1000
SCALE
1000
AcRTDxfName
1000
SCALE
  0
SCALE
  5
1A3
102
{ACAD_REACTORS
330
10C
102
}
330
10C
100
AcDbScale
 70
     0
300
1" = 1'-0"
140
1.0
141
12.0
290
     0
1001
ACAD
1000
AcRTDxfName
1000
SCALE
1000
AcRTDxfName
1000
SCALE
1000
AcRTDxfName
1000
SCALE
  0
SCALE
  5
1A4
102
{ACAD_REACTORS
330
10C
102
}
330
10C
100
AcDbScale
 70
     0
300
1-1/2" = 1'-0"
140
1.5
141
12.0
290
     0
1001
ACAD
1000
AcRTDxfName
1000
SCALE
1000
AcRTDxfName
1000
SCALE
1000
AcRTDxfName
1000
SCALE
  0
SCALE
  5
1A5
102
{ACAD_REACTORS
330
10C
102
}
330
10C
100
AcDbScale
 70
     0
300
3" = 1'-0"
140
3.0
141
12.0
290
     0
1001
ACAD
1000
AcRTDxfName
1000
SCALE
1000
AcRTDxfName
1000
SCALE
1000
AcRTDxfName
1000
SCALE
  0
SCALE
  5
1A6
102
{ACAD_REACTORS
330
10C
102
}
330
10C
100
AcDbScale
 70
     0
300
6" = 1'-0"
140
6.0
141
12.0
290
     0
1001
ACAD
1000
AcRTDxfName
1000
SCALE
1000
AcRTDxfName
1000
SCALE
1000
AcRTDxfName
1000
SCALE
  0
SCALE
  5
1A7
102
{ACAD_REACTORS
330
10C
102
}
330
10C
100
AcDbScale
 70
     0
300
1'-0" = 1'-0"
140
12.0
141
12.0
290
     0
1001
ACAD
1000
AcRTDxfName
1000
SCALE
1000
AcRTDxfName
1000
SCALE
1000
AcRTDxfName
1000
SCALE
  0
TABLESTYLE
  5
7F
102
{ACAD_XDICTIONARY
360
162
102
}
102
{ACAD_REACTORS
330
7E
102
}
330
7E
100
AcDbTableStyle
  3
Standard
 70
     0
 71
     0
 40
1.5
 41
1.5
280
     0
281
     0
  7
Standard
140
4.5
170
     2
 62
     0
 63
     7
283
     0
274
    -2
284
     1
 64
     0
275
    -2
285
     1
 65
     0
276
    -2
286
     1
 66
     0
277
    -2
287
     1
 67
     0
278
    -2
288
     1
 68
     0
279
    -2
289
     1
 69
     0
  7
Standard
140
6.0
170
     5
 62
     0
 63
     7
283
     0
274
    -2
284
     1
 64
     0
275
    -2
285
     1
 65
     0
276
    -2
286
     1
 66
     0
277
    -2
287
     1
 67
     0
278
    -2
288
     1
 68
     0
279
    -2
289
     1
 69
     0
  7
Standard
140
4.5
170
     5
 62
     0
 63
     7
283
     0
274
    -2
284
     1
 64
     0
275
    -2
285
     1
 65
     0
276
    -2
286
     1
 66
     0
277
    -2
287
     1
 67
     0
278
    -2
288
     1
 68
     0
279
    -2
289
     1
 69
     0
  0
VISUALSTYLE
  5
F5
102
{ACAD_REACTORS
330
EF
102
}
330
EF
100
AcDbVisualStyle
  2
2dWireframe
 70
     4
 71
     0
 72
     2
 73
     1
 90
        0
 40
-0.6
 41
-30.0
 62
     5
 63
     7
 74
     1
 91
        4
 64
     7
 65
   257
 75
     1
175
     1
 42
1.0
 92
        0
 66
   257
 43
1.0
 76
     1
 77
     6
 78
     2
 67
     7
 79
     5
170
     0
171
     0
290
     0
174
     0
 93
        1
 44
0.0
173
     0
291
     0
 45
0.0
1001
ACAD
1000
AcDbSavedByObjectVersion
1070
     0
  0
VISUALSTYLE
  5
F7
102
{ACAD_REACTORS
330
EF
102
}
330
EF
100
AcDbVisualStyle
  2
3D Hidden
 70
     6
 71
     1
 72
     2
 73
     2
 90
        0
 40
-0.6
 41
-30.0
 62
     5
 63
     7
 74
     2
 91
        2
 64
     7
 65
   257
 75
     2
175
     1
 42
40.0
 92
        0
 66
   257
 43
1.0
 76
     1
 77
     6
 78
     2
 67
     7
 79
     3
170
     0
171
     0
290
     0
174
     0
 93
        1
 44
0.0
173
     0
291
     0
 45
0.0
1001
ACAD
1000
AcDbSavedByObjectVersion
1070
     0
  0
VISUALSTYLE
  5
F6
102
{ACAD_REACTORS
330
EF
102
}
330
EF
100
AcDbVisualStyle
  2
3dWireframe
 70
     5
 71
     0
 72
     2
 73
     1
 90
        0
 40
-0.6
 41
-30.0
 62
     5
 63
     7
 74
     1
 91
        4
 64
     7
 65
   257
 75
     1
175
     1
 42
1.0
 92
        0
 66
   257
 43
1.0
 76
     1
 77
     6
 78
     2
 67
     7
 79
     5
170
     0
171
     0
290
     0
174
     0
 93
        1
 44
0.0
173
     0
291
     0
 45
0.0
1001
ACAD
1000
AcDbSavedByObjectVersion
1070
     0
  0
VISUALSTYLE
  5
F4
102
{ACAD_REACTORS
330
EF
102
}
330
EF
100
AcDbVisualStyle
  2
Basic
 70
     7
 71
     1
 72
     0
 73
     1
 90
        0
 40
-0.6
 41
-30.0
 62
     5
 63
     7
 74
     0
 91
        4
 64
     7
 65
   257
 75
     1
175
     1
 42
1.0
 92
        8
 66
     7
 43
1.0
 76
     1
 77
     6
 78
     2
 67
     7
 79
     5
170
     0
171
     0
290
     0
174
     0
 93
        1
 44
0.0
173
     0
291
     1
 45
0.0
1001
ACAD
1000
AcDbSavedByObjectVersion
1070
     0
  0
VISUALSTYLE
  5
FB
102
{ACAD_REACTORS
330
EF
102
}
330
EF
100
AcDbVisualStyle
  2
Brighten
 70
    12
 71
     2
 72
     2
 73
     1
 90
        0
 40
-0.6
 41
-30.0
 62
     5
 63
     7
 74
     1
 91
        4
 64
     7
 65
   257
 75
     1
175
     1
 42
1.0
 92
        8
 66
     7
 43
1.0
 76
     1
 77
     6
 78
     2
 67
     7
 79
     5
170
     0
171
     0
290
     0
174
     0
 93
        1
 44
50.0
173
     0
291
     1
 45
0.0
1001
ACAD
1000
AcDbSavedByObjectVersion
1070
     0
  0
VISUALSTYLE
  5
FF
102
{ACAD_REACTORS
330
EF
102
}
330
EF
100
AcDbVisualStyle
  2
ColorChange
 70
    16
 71
     2
 72
     2
 73
     3
 90
        0
 40
-0.6
 41
-30.0
 62
     5
 63
     8
 74
     1
 91
        4
 64
     7
 65
   257
 75
     1
175
     1
 42
1.0
 92
        8
 66
     8
 43
1.0
 76
     1
 77
     6
 78
     2
 67
     7
 79
     5
170
     0
171
     0
290
     0
174
     0
 93
        1
 44
0.0
173
     0
291
     1
 45
0.0
1001
ACAD
1000
AcDbSavedByObjectVersion
1070
     0
  0
VISUALSTYLE
  5
F8
102
{ACAD_REACTORS
330
EF
102
}
330
EF
100
AcDbVisualStyle
  2
Conceptual
 70
     9
 71
     3
 72
     2
 73
     1
 90
        0
 40
-0.6
 41
-30.0
 62
     5
 63
     7
 74
     2
 91
        2
 64
     7
 65
   257
 75
     1
175
     1
 42
40.0
 92
        8
 66
     7
 43
1.0
 76
     1
 77
     6
 78
     2
 67
     7
 79
     3
170
     0
171
     0
290
     0
174
     0
 93
        1
 44
0.0
173
     0
291
     0
 45
0.0
1001
ACAD
1000
AcDbSavedByObjectVersion
1070
     0
  0
VISUALSTYLE
  5
FA
102
{ACAD_REACTORS
330
EF
102
}
330
EF
100
AcDbVisualStyle
  2
Dim
 70
    11
 71
     2
 72
     2
 73
     1
 90
        0
 40
-0.6
 41
-30.0
 62
     5
 63
     7
 74
     1
 91
        4
 64
     7
 65
   257
 75
     1
175
     1
 42
1.0
 92
        8
 66
     7
 43
1.0
 76
     1
 77
     6
 78
     2
 67
     7
 79
     5
170
     0
171
     0
290
     0
174
     0
 93
        1
 44
-50.0
173
     0
291
     1
 45
0.0
1001
ACAD
1000
AcDbSavedByObjectVersion
1070
     0
  0
VISUALSTYLE
  5
FE
102
{ACAD_REACTORS
330
EF
102
}
330
EF
100
AcDbVisualStyle
  2
Facepattern
 70
    15
 71
     2
 72
     2
 73
     1
 90
        0
 40
-0.6
 41
-30.0
 62
     5
 63
     7
 74
     1
 91
        4
 64
     7
 65
   257
 75
     1
175
     1
 42
1.0
 92
        8
 66
     7
 43
1.0
 76
     1
 77
     6
 78
     2
 67
     7
 79
     5
170
     0
171
     0
290
     0
174
     0
 93
        1
 44
0.0
173
     0
291
     1
 45
0.0
1001
ACAD
1000
AcDbSavedByObjectVersion
1070
     0
  0
VISUALSTYLE
  5
F0
102
{ACAD_REACTORS
330
EF
102
}
330
EF
100
AcDbVisualStyle
  2
Flat
 70
     0
 71
     2
 72
     1
 73
     1
 90
        2
 40
-0.6
 41
30.0
 62
     5
 63
     7
 74
     0
 91
        4
 64
     7
 65
   257
 75
     1
175
     1
 42
1.0
 92
        8
 66
     7
 43
1.0
 76
     1
 77
     6
 78
     2
 67
     7
 79
     5
170
     0
171
     0
290
     0
174
     0
 93
        1
 44
0.0
173
     0
291
     1
 45
0.0
1001
ACAD
1000
AcDbSavedByObjectVersion
1070
     0
  0
VISUALSTYLE
  5
F1
102
{ACAD_REACTORS
330
EF
102
}
330
EF
100
AcDbVisualStyle
  2
FlatWithEdges
 70
     1
 71
     2
 72
     1
 73
     1
 90
        2
 40
-0.6
 41
30.0
 62
     5
 63
     7
 74
     1
 91
        4
 64
     7
 65
   257
 75
     1
175
     1
 42
1.0
 92
        0
 66
   257
 43
1.0
 76
     1
 77
     6
 78
     2
 67
     7
 79
     5
170
     0
171
     0
290
     0
174
     0
 93
        1
 44
0.0
173
     0
291
     1
 45
0.0
1001
ACAD
1000
AcDbSavedByObjectVersion
1070
     0
  0
VISUALSTYLE
  5
F2
102
{ACAD_REACTORS
330
EF
102
}
330
EF
100
AcDbVisualStyle
  2
Gouraud
 70
     2
 71
     2
 72
     2
 73
     1
 90
        2
 40
-0.6
 41
30.0
 62
     5
 63
     7
 74
     0
 91
        4
 64
     7
 65
   257
 75
     1
175
     1
 42
1.0
 92
        0
 66
     7
 43
1.0
 76
     1
 77
     6
 78
     2
 67
     7
 79
     5
170
     0
171
     0
290
     0
174
     0
 93
        1
 44
0.0
173
     0
291
     1
 45
0.0
1001
ACAD
1000
AcDbSavedByObjectVersion
1070
     0
  0
VISUALSTYLE
  5
F3
102
{ACAD_REACTORS
330
EF
102
}
330
EF
100
AcDbVisualStyle
  2
GouraudWithEdges
 70
     3
 71
     2
 72
     2
 73
     1
 90
        2
 40
-0.6
 41
30.0
 62
     5
 63
     7
 74
     1
 91
        4
 64
     7
 65
   257
 75
     1
175
     1
 42
1.0
 92
        0
 66
   257
 43
1.0
 76
     1
 77
     6
 78
     2
 67
     7
 79
     5
170
     0
171
     0
290
     0
174
     0
 93
        1
 44
0.0
173
     0
291
     1
 45
0.0
1001
ACAD
1000
AcDbSavedByObjectVersion
1070
     0
  0
VISUALSTYLE
  5
FD
102
{ACAD_REACTORS
330
EF
102
}
330
EF
100
AcDbVisualStyle
  2
Linepattern
 70
    14
 71
     2
 72
     2
 73
     1
 90
        0
 40
-0.6
 41
-30.0
 62
     5
 63
     7
 74
     1
 91
        4
 64
     7
 65
   257
 75
     7
175
     7
 42
1.0
 92
        8
 66
     7
 43
1.0
 76
     1
 77
     6
 78
     2
 67
     7
 79
     5
170
     0
171
     0
290
     0
174
     0
 93
        1
 44
0.0
173
     0
291
     1
 45
0.0
1001
ACAD
1000
AcDbSavedByObjectVersion
1070
     0
  0
VISUALSTYLE
  5
F9
102
{ACAD_REACTORS
330
EF
102
}
330
EF
100
AcDbVisualStyle
  2
Realistic
 70
     8
 71
     2
 72
     2
 73
     1
 90
        0
 40
-0.6
 41
-30.0
 62
     5
 63
     7
 74
     1
 91
        0
 64
     7
 65
   257
 75
     1
175
     1
 42
1.0
 92
        8
 66
     8
 43
1.0
 76
     1
 77
     6
 78
     2
 67
     7
 79
     5
170
     0
171
     0
290
     0
174
     0
 93
       13
 44
0.0
173
     0
291
     0
 45
0.0
1001
ACAD
1000
AcDbSavedByObjectVersion
1070
     0
  0
VISUALSTYLE
  5
FC
102
{ACAD_REACTORS
330
EF
102
}
330
EF
100
AcDbVisualStyle
  2
Thicken
 70
    13
 71
     2
 72
     2
 73
     1
 90
        0
 40
-0.6
 41
-30.0
 62
     5
 63
     7
 74
     1
 91
        4
 64
     7
 65
   257
 75
     1
175
     1
 42
1.0
 92
       12
 66
     7
 43
1.0
 76
     1
 77
     6
 78
     2
 67
     7
 79
     5
170
     0
171
     0
290
     0
174
     0
 93
        1
 44
0.0
173
     0
291
     1
 45
0.0
1001
ACAD
1000
AcDbSavedByObjectVersion
1070
     0
  0
DICTIONARYVAR
  5
146
102
{ACAD_REACTORS
330
5E
102
}
330
5E
100
DictionaryVariables
280
     0
  1
1:1
  0
DICTIONARYVAR
  5
145
102
{ACAD_REACTORS
330
5E
102
}
330
5E
100
DictionaryVariables
280
     0
  1
STANDARD
  0
DICTIONARYVAR
  5
84
102
{ACAD_REACTORS
330
5E
102
}
330
5E
100
DictionaryVariables
280
     0
  1
STANDARD
  0
DICTIONARYVAR
  5
5F
102
{ACAD_REACTORS
330
5E
102
}
330
5E
100
DictionaryVariables
280
     0
  1
2
  0
DICTIONARYVAR
  5
63
102
{ACAD_REACTORS
330
5E
102
}
330
5E
100
DictionaryVariables
280
     0
  1
1
  0
DICTIONARYVAR
  5
466
102
{ACAD_REACTORS
330
5E
102
}
330
5E
100
DictionaryVariables
280
     0
  1
0
  0
DICTIONARYVAR
  5
464
102
{ACAD_REACTORS
330
5E
102
}
330
5E
100
DictionaryVariables
280
     0
  1
2
  0
DICTIONARYVAR
  5
463
102
{ACAD_REACTORS
330
5E
102
}
330
5E
100
DictionaryVariables
280
     0
  1
1
  0
DICTIONARYVAR
  5
BE63
102
{ACAD_REACTORS
330
5E
102
}
330
5E
100
DictionaryVariables
280
     0
  1
80.000000
  0
DICTIONARYVAR
  5
BE62
102
{ACAD_REACTORS
330
5E
102
}
330
5E
100
DictionaryVariables
280
     0
  1
5.000000
  0
DICTIONARYVAR
  5
465
102
{ACAD_REACTORS
330
5E
102
}
330
5E
100
DictionaryVariables
280
     0
  1
127
  0
DICTIONARY
  5
AEA6
102
{ACAD_REACTORS
330
AEA5
102
}
330
AEA5
100
AcDbDictionary
281
     1
  0
DICTIONARY
  5
BE75
330
D3
100
AcDbDictionary
280
     1
281
     1
  3
ACAD_XREC_ROUNDTRIP
360
BE76
  0
DICTIONARY
  5
BE77
330
D7
100
AcDbDictionary
280
     1
281
     1
  3
ACAD_XREC_ROUNDTRIP
360
BE78
  0
DICTIONARY
  5
BE72
330
22
100
AcDbDictionary
280
     1
281
     1
  3
ACAD_XREC_ROUNDTRIP
360
BE73
  0
DICTIONARY
  5
BE7B
330
ED
100
AcDbDictionary
280
     1
281
     1
  3
ACAD_XREC_ROUNDTRIP
360
BE7C
  0
DICTIONARY
  5
BE79
330
EC
100
AcDbDictionary
280
     1
281
     1
  3
ACAD_XREC_ROUNDTRIP
360
BE7A
  0
DICTIONARY
  5
173
330
EE
100
AcDbDictionary
280
     1
281
     1
  3
ACAD_XREC_ROUNDTRIP
360
BE7D
  3
BUMPTILE
360
175
  3
DIFFUSETILE
360
174
  3
OPACITYTILE
360
176
  3
REFLECTIONTILE
360
177
  0
DICTIONARY
  5
BE7E
330
4FA3
100
AcDbDictionary
280
     1
281
     1
  3
ACAD_XREC_ROUNDTRIP
360
BE7F
  0
DICTIONARY
  5
162
330
7F
100
AcDbDictionary
280
     1
281
     1
  3
ACAD_ROUNDTRIP_2008_TABLESTYLE_CELLSTYLEMAP
360
BE64
  3
ACAD_XREC_ROUNDTRIP
360
BE74
  0
XRECORD
  5
BE76
102
{ACAD_REACTORS
330
BE75
102
}
330
BE75
100
AcDbXrecord
280
     1
102
SHADEPLOT
 70
     0
102
SHADEPLOTRESLEVEL
 70
     2
102
SHADEPLOTCUSTOMDPI
 70
   300
  0
XRECORD
  5
BE78
102
{ACAD_REACTORS
330
BE77
102
}
330
BE77
100
AcDbXrecord
280
     1
102
SHADEPLOT
 70
     0
102
SHADEPLOTRESLEVEL
 70
     2
102
SHADEPLOTCUSTOMDPI
 70
   300
  0
XRECORD
  5
BE73
102
{ACAD_REACTORS
330
BE72
102
}
330
BE72
100
AcDbXrecord
280
     1
102
SHADEPLOT
 70
     0
102
SHADEPLOTRESLEVEL
 70
     2
102
SHADEPLOTCUSTOMDPI
 70
   300
  0
XRECORD
  5
BE7C
102
{ACAD_REACTORS
330
BE7B
102
}
330
BE7B
100
AcDbXrecord
280
     1
102
MATERIAL
148
0.0
149
0.0
149
0.0
 93
        0
 94
       63
282
     0
 72
     1
 77
     1
171
     1
175
     1
179
     1
273
     0
  0
XRECORD
  5
BE7A
102
{ACAD_REACTORS
330
BE79
102
}
330
BE79
100
AcDbXrecord
280
     1
102
MATERIAL
148
0.0
149
0.0
149
0.0
 93
        0
 94
       63
282
     0
 72
     1
 77
     1
171
     1
175
     1
179
     1
273
     0
  0
XRECORD
  5
BE7D
102
{ACAD_REACTORS
330
173
102
}
330
173
100
AcDbXrecord
280
     1
102
MATERIAL
148
0.0
149
0.0
149
0.0
 93
        0
 94
       63
282
     0
 72
     1
 77
     1
171
     1
175
     1
179
     1
273
     0
  0
XRECORD
  5
175
102
{ACAD_REACTORS
330
173
102
}
330
173
100
AcDbXrecord
280
     1
270
     1
271
     1
  0
XRECORD
  5
174
102
{ACAD_REACTORS
330
173
102
}
330
173
100
AcDbXrecord
280
     1
270
     1
271
     1
  0
XRECORD
  5
176
102
{ACAD_REACTORS
330
173
102
}
330
173
100
AcDbXrecord
280
     1
270
     1
271
     1
  0
XRECORD
  5
177
102
{ACAD_REACTORS
330
173
102
}
330
173
100
AcDbXrecord
280
     1
270
     1
271
     1
  0
XRECORD
  5
BE7F
102
{ACAD_REACTORS
330
BE7E
102
}
330
BE7E
100
AcDbXrecord
280
     1
102
SHADEPLOT
 70
     0
102
SHADEPLOTRESLEVEL
 70
     2
102
SHADEPLOTCUSTOMDPI
 70
   300
  0
CELLSTYLEMAP
  5
BE64
102
{ACAD_REACTORS
330
162
102
}
330
162
100
AcDbCellStyleMap
 90
        3
300
CELLSTYLE
  1
TABLEFORMAT_BEGIN
 90
        5
170
     1
 91
        0
 92
    32768
 62
   257
 93
        1
300
CONTENTFORMAT
  1
CONTENTFORMAT_BEGIN
 90
        0
 91
        0
 92
      512
 93
        0
300

 40
0.0
140
1.0
 94
        5
 62
     0
340
11
144
6.0
309
CONTENTFORMAT_END
171
     1
301
MARGIN
  1
CELLMARGIN_BEGIN
 40
1.5
 40
1.5
 40
1.5
 40
1.5
 40
0.18
 40
0.18
309
CELLMARGIN_END
 94
        6
 95
        1
302
GRIDFORMAT
  1
GRIDFORMAT_BEGIN
 90
        0
 91
        1
 62
     0
 92
       -2
340
14
 93
        0
 40
1.125
309
GRIDFORMAT_END
 95
        2
302
GRIDFORMAT
  1
GRIDFORMAT_BEGIN
 90
        0
 91
        1
 62
     0
 92
       -2
340
14
 93
        0
 40
1.125
309
GRIDFORMAT_END
 95
        4
302
GRIDFORMAT
  1
GRIDFORMAT_BEGIN
 90
        0
 91
        1
 62
     0
 92
       -2
340
14
 93
        0
 40
1.125
309
GRIDFORMAT_END
 95
        8
302
GRIDFORMAT
  1
GRIDFORMAT_BEGIN
 90
        0
 91
        1
 62
     0
 92
       -2
340
14
 93
        0
 40
1.125
309
GRIDFORMAT_END
 95
       16
302
GRIDFORMAT
  1
GRIDFORMAT_BEGIN
 90
        0
 91
        1
 62
     0
 92
       -2
340
14
 93
        0
 40
1.125
309
GRIDFORMAT_END
 95
       32
302
GRIDFORMAT
  1
GRIDFORMAT_BEGIN
 90
        0
 91
        1
 62
     0
 92
       -2
340
14
 93
        0
 40
1.125
309
GRIDFORMAT_END
309
TABLEFORMAT_END
  1
CELLSTYLE_BEGIN
 90
        1
 91
        1
300
_TITLE
309
CELLSTYLE_END
300
CELLSTYLE
  1
TABLEFORMAT_BEGIN
 90
        5
170
     1
 91
        0
 92
        0
 62
   257
 93
        1
300
CONTENTFORMAT
  1
CONTENTFORMAT_BEGIN
 90
        0
 91
        0
 92
      512
 93
        0
300

 40
0.0
140
1.0
 94
        5
 62
     0
340
11
144
4.5
309
CONTENTFORMAT_END
171
     1
301
MARGIN
  1
CELLMARGIN_BEGIN
 40
1.5
 40
1.5
 40
1.5
 40
1.5
 40
0.18
 40
0.18
309
CELLMARGIN_END
 94
        6
 95
        1
302
GRIDFORMAT
  1
GRIDFORMAT_BEGIN
 90
        0
 91
        1
 62
     0
 92
       -2
340
14
 93
        0
 40
1.125
309
GRIDFORMAT_END
 95
        2
302
GRIDFORMAT
  1
GRIDFORMAT_BEGIN
 90
        0
 91
        1
 62
     0
 92
       -2
340
14
 93
        0
 40
1.125
309
GRIDFORMAT_END
 95
        4
302
GRIDFORMAT
  1
GRIDFORMAT_BEGIN
 90
        0
 91
        1
 62
     0
 92
       -2
340
14
 93
        0
 40
1.125
309
GRIDFORMAT_END
 95
        8
302
GRIDFORMAT
  1
GRIDFORMAT_BEGIN
 90
        0
 91
        1
 62
     0
 92
       -2
340
14
 93
        0
 40
1.125
309
GRIDFORMAT_END
 95
       16
302
GRIDFORMAT
  1
GRIDFORMAT_BEGIN
 90
        0
 91
        1
 62
     0
 92
       -2
340
14
 93
        0
 40
1.125
309
GRIDFORMAT_END
 95
       32
302
GRIDFORMAT
  1
GRIDFORMAT_BEGIN
 90
        0
 91
        1
 62
     0
 92
       -2
340
14
 93
        0
 40
1.125
309
GRIDFORMAT_END
309
TABLEFORMAT_END
  1
CELLSTYLE_BEGIN
 90
        2
 91
        1
300
_HEADER
309
CELLSTYLE_END
300
CELLSTYLE
  1
TABLEFORMAT_BEGIN
 90
        5
170
     1
 91
        0
 92
        0
 62
   257
 93
        1
300
CONTENTFORMAT
  1
CONTENTFORMAT_BEGIN
 90
        0
 91
        0
 92
      512
 93
        0
300

 40
0.0
140
1.0
 94
        2
 62
     0
340
11
144
4.5
309
CONTENTFORMAT_END
171
     1
301
MARGIN
  1
CELLMARGIN_BEGIN
 40
1.5
 40
1.5
 40
1.5
 40
1.5
 40
0.18
 40
0.18
309
CELLMARGIN_END
 94
        6
 95
        1
302
GRIDFORMAT
  1
GRIDFORMAT_BEGIN
 90
        0
 91
        1
 62
     0
 92
       -2
340
14
 93
        0
 40
1.125
309
GRIDFORMAT_END
 95
        2
302
GRIDFORMAT
  1
GRIDFORMAT_BEGIN
 90
        0
 91
        1
 62
     0
 92
       -2
340
14
 93
        0
 40
1.125
309
GRIDFORMAT_END
 95
        4
302
GRIDFORMAT
  1
GRIDFORMAT_BEGIN
 90
        0
 91
        1
 62
     0
 92
       -2
340
14
 93
        0
 40
1.125
309
GRIDFORMAT_END
 95
        8
302
GRIDFORMAT
  1
GRIDFORMAT_BEGIN
 90
        0
 91
        1
 62
     0
 92
       -2
340
14
 93
        0
 40
1.125
309
GRIDFORMAT_END
 95
       16
302
GRIDFORMAT
  1
GRIDFORMAT_BEGIN
 90
        0
 91
        1
 62
     0
 92
       -2
340
14
 93
        0
 40
1.125
309
GRIDFORMAT_END
 95
       32
302
GRIDFORMAT
  1
GRIDFORMAT_BEGIN
 90
        0
 91
        1
 62
     0
 92
       -2
340
14
 93
        0
 40
1.125
309
GRIDFORMAT_END
309
TABLEFORMAT_END
  1
CELLSTYLE_BEGIN
 90
        3
 91
        2
300
_DATA
309
CELLSTYLE_END
  0
XRECORD
  5
BE74
102
{ACAD_REACTORS
330
162
102
}
330
162
100
AcDbXrecord
280
     1
102
ACAD_ROUNDTRIP_PRE2007_TABLESTYLE
 90
      512
 91
        0
  1

 92
      512
 93
        0
  2

 94
      512
 95
        0
  3

  0
ENDSEC
  0
EOF
